  0
SECTION
  2
HEADER
  9
$ACADVER
  1
AC1018
  9
$ACADMAINTVER
 70
     0
  9
$DWGCODEPAGE
  3
ANSI_1252
  9
$INSBASE
 10
0.0
 20
0.0
 30
0.0
  9
$EXTMIN
 10
-435.1995520566823
 20
-271.8202313650459
 30
0.0
  9
$EXTMAX
 10
405.8004479433177
 20
322.1797686349541
 30
0.0
  9
$LIMMIN
 10
0.0
 20
0.0
  9
$LIMMAX
 10
12.0
 20
9.0
  9
$ORTHOMODE
 70
     0
  9
$REGENMODE
 70
     1
  9
$FILLMODE
 70
     1
  9
$QTEXTMODE
 70
     0
  9
$MIRRTEXT
 70
     1
  9
$LTSCALE
 40
1.0
  9
$ATTMODE
 70
     1
  9
$TEXTSIZE
 40
0.2
  9
$TRACEWID
 40
0.05
  9
$TEXTSTYLE
  7
Standard
  9
$CLAYER
  8
0
  9
$CELTYPE
  6
ByLayer
  9
$CECOLOR
 62
   256
  9
$CELTSCALE
 40
1.0
  9
$DISPSILH
 70
     0
  9
$DIMSCALE
 40
1.0
  9
$DIMASZ
 40
0.18
  9
$DIMEXO
 40
0.0625
  9
$DIMDLI
 40
0.38
  9
$DIMRND
 40
0.0
  9
$DIMDLE
 40
0.0
  9
$DIMEXE
 40
0.18
  9
$DIMTP
 40
0.0
  9
$DIMTM
 40
0.0
  9
$DIMTXT
 40
0.18
  9
$DIMCEN
 40
0.09
  9
$DIMTSZ
 40
0.0
  9
$DIMTOL
 70
     0
  9
$DIMLIM
 70
     0
  9
$DIMTIH
 70
     1
  9
$DIMTOH
 70
     1
  9
$DIMSE1
 70
     0
  9
$DIMSE2
 70
     0
  9
$DIMTAD
 70
     0
  9
$DIMZIN
 70
     0
  9
$DIMBLK
  1

  9
$DIMASO
 70
     1
  9
$DIMSHO
 70
     1
  9
$DIMPOST
  1

  9
$DIMAPOST
  1

  9
$DIMALT
 70
     0
  9
$DIMALTD
 70
     2
  9
$DIMALTF
 40
25.4
  9
$DIMLFAC
 40
1.0
  9
$DIMTOFL
 70
     0
  9
$DIMTVP
 40
0.0
  9
$DIMTIX
 70
     0
  9
$DIMSOXD
 70
     0
  9
$DIMSAH
 70
     0
  9
$DIMBLK1
  1

  9
$DIMBLK2
  1

  9
$DIMSTYLE
  2
Standard
  9
$DIMCLRD
 70
     0
  9
$DIMCLRE
 70
     0
  9
$DIMCLRT
 70
     0
  9
$DIMTFAC
 40
1.0
  9
$DIMGAP
 40
0.09
  9
$DIMJUST
 70
     0
  9
$DIMSD1
 70
     0
  9
$DIMSD2
 70
     0
  9
$DIMTOLJ
 70
     1
  9
$DIMTZIN
 70
     0
  9
$DIMALTZ
 70
     0
  9
$DIMALTTZ
 70
     0
  9
$DIMUPT
 70
     0
  9
$DIMDEC
 70
     4
  9
$DIMTDEC
 70
     4
  9
$DIMALTU
 70
     2
  9
$DIMALTTD
 70
     2
  9
$DIMTXSTY
  7
Standard
  9
$DIMAUNIT
 70
     0
  9
$DIMADEC
 70
     0
  9
$DIMALTRND
 40
0.0
  9
$DIMAZIN
 70
     0
  9
$DIMDSEP
 70
    46
  9
$DIMATFIT
 70
     3
  9
$DIMFRAC
 70
     0
  9
$DIMLDRBLK
  1

  9
$DIMLUNIT
 70
     2
  9
$DIMLWD
 70
    -2
  9
$DIMLWE
 70
    -2
  9
$DIMTMOVE
 70
     0
  9
$LUNITS
 70
     2
  9
$LUPREC
 70
     4
  9
$SKETCHINC
 40
0.1
  9
$FILLETRAD
 40
0.5
  9
$AUNITS
 70
     0
  9
$AUPREC
 70
     0
  9
$MENU
  1
.
  9
$ELEVATION
 40
0.0
  9
$PELEVATION
 40
0.0
  9
$THICKNESS
 40
0.0
  9
$LIMCHECK
 70
     0
  9
$CHAMFERA
 40
0.5
  9
$CHAMFERB
 40
0.5
  9
$CHAMFERC
 40
1.0
  9
$CHAMFERD
 40
0.0
  9
$SKPOLY
 70
     0
  9
$TDCREATE
 40
2454958.411276262
  9
$TDUCREATE
 40
2454958.327942928
  9
$TDUPDATE
 40
2454958.411276273
  9
$TDUUPDATE
 40
2454958.32794294
  9
$TDINDWG
 40
0.0000000116
  9
$TDUSRTIMER
 40
0.0000000116
  9
$USRTIMER
 70
     1
  9
$ANGBASE
 50
0.0
  9
$ANGDIR
 70
     0
  9
$PDMODE
 70
     0
  9
$PDSIZE
 40
0.0
  9
$PLINEWID
 40
0.0
  9
$SPLFRAME
 70
     0
  9
$SPLINETYPE
 70
     6
  9
$SPLINESEGS
 70
     8
  9
$HANDSEED
  5
550
  9
$SURFTAB1
 70
     6
  9
$SURFTAB2
 70
     6
  9
$SURFTYPE
 70
     6
  9
$SURFU
 70
     6
  9
$SURFV
 70
     6
  9
$UCSBASE
  2

  9
$UCSNAME
  2

  9
$UCSORG
 10
0.0
 20
0.0
 30
0.0
  9
$UCSXDIR
 10
1.0
 20
0.0
 30
0.0
  9
$UCSYDIR
 10
0.0
 20
1.0
 30
0.0
  9
$UCSORTHOREF
  2

  9
$UCSORTHOVIEW
 70
     0
  9
$UCSORGTOP
 10
0.0
 20
0.0
 30
0.0
  9
$UCSORGBOTTOM
 10
0.0
 20
0.0
 30
0.0
  9
$UCSORGLEFT
 10
0.0
 20
0.0
 30
0.0
  9
$UCSORGRIGHT
 10
0.0
 20
0.0
 30
0.0
  9
$UCSORGFRONT
 10
0.0
 20
0.0
 30
0.0
  9
$UCSORGBACK
 10
0.0
 20
0.0
 30
0.0
  9
$PUCSBASE
  2

  9
$PUCSNAME
  2

  9
$PUCSORG
 10
0.0
 20
0.0
 30
0.0
  9
$PUCSXDIR
 10
1.0
 20
0.0
 30
0.0
  9
$PUCSYDIR
 10
0.0
 20
1.0
 30
0.0
  9
$PUCSORTHOREF
  2

  9
$PUCSORTHOVIEW
 70
     0
  9
$PUCSORGTOP
 10
0.0
 20
0.0
 30
0.0
  9
$PUCSORGBOTTOM
 10
0.0
 20
0.0
 30
0.0
  9
$PUCSORGLEFT
 10
0.0
 20
0.0
 30
0.0
  9
$PUCSORGRIGHT
 10
0.0
 20
0.0
 30
0.0
  9
$PUCSORGFRONT
 10
0.0
 20
0.0
 30
0.0
  9
$PUCSORGBACK
 10
0.0
 20
0.0
 30
0.0
  9
$USERI1
 70
     0
  9
$USERI2
 70
     0
  9
$USERI3
 70
     0
  9
$USERI4
 70
     0
  9
$USERI5
 70
     0
  9
$USERR1
 40
14.5
  9
$USERR2
 40
0.0
  9
$USERR3
 40
0.0
  9
$USERR4
 40
0.0
  9
$USERR5
 40
0.0
  9
$WORLDVIEW
 70
     1
  9
$SHADEDGE
 70
     3
  9
$SHADEDIF
 70
    70
  9
$TILEMODE
 70
     1
  9
$MAXACTVP
 70
    64
  9
$PINSBASE
 10
0.0
 20
0.0
 30
0.0
  9
$PLIMCHECK
 70
     0
  9
$PEXTMIN
 10
1.00000000000000E+20
 20
1.00000000000000E+20
 30
1.00000000000000E+20
  9
$PEXTMAX
 10
-1.00000000000000E+20
 20
-1.00000000000000E+20
 30
-1.00000000000000E+20
  9
$PLIMMIN
 10
0.0
 20
0.0
  9
$PLIMMAX
 10
12.0
 20
9.0
  9
$UNITMODE
 70
     0
  9
$VISRETAIN
 70
     1
  9
$PLINEGEN
 70
     0
  9
$PSLTSCALE
 70
     1
  9
$TREEDEPTH
 70
  3020
  9
$CMLSTYLE
  2
Standard
  9
$CMLJUST
 70
     0
  9
$CMLSCALE
 40
1.0
  9
$PROXYGRAPHICS
 70
     1
  9
$MEASUREMENT
 70
     1
  9
$CELWEIGHT
370
    -1
  9
$ENDCAPS
280
     0
  9
$JOINSTYLE
280
     0
  9
$LWDISPLAY
290
     0
  9
$INSUNITS
 70
     1
  9
$HYPERLINKBASE
  1

  9
$STYLESHEET
  1

  9
$XEDIT
290
     1
  9
$CEPSNTYPE
380
     0
  9
$PSTYLEMODE
290
     1
  9
$FINGERPRINTGUID
  2
{BA6BF194-D078-4A87-B9C2-387D1B1977AC}
  9
$VERSIONGUID
  2
{FAEB1C32-E019-11D5-929B-00C0DF256EC4}
  9
$EXTNAMES
290
     1
  9
$PSVPSCALE
 40
0.0
  9
$OLESTARTUP
290
     0
  9
$SORTENTS
280
   127
  9
$INDEXCTL
280
     0
  9
$HIDETEXT
280
     1
  9
$XCLIPFRAME
290
     0
  9
$HALOGAP
280
     0
  9
$OBSCOLOR
 70
   257
  9
$OBSLTYPE
280
     0
  9
$INTERSECTIONDISPLAY
280
     0
  9
$INTERSECTIONCOLOR
 70
   257
  9
$DIMASSOC
280
     2
  9
$PROJECTNAME
  1

  0
ENDSEC
  0
SECTION
  2
CLASSES
  0
CLASS
  1
ACDBDICTIONARYWDFLT
  2
AcDbDictionaryWithDefault
  3
ObjectDBX Classes
 90
        0
 91
        3
280
     0
281
     0
  0
CLASS
  1

  2
exOdDbCircle
  3

 90
        0
 91
        3
280
     0
281
     1
  0
ENDSEC
  0
SECTION
  2
TABLES
  0
TABLE
  2
VPORT
  5
8
330
0
100
AcDbSymbolTable
 70
     1
  0
VPORT
  5
29
330
8
100
AcDbSymbolTableRecord
100
AcDbViewportTableRecord
  2
*Active
 70
     0
 10
0.0
 20
0.0
 11
1.0
 21
1.0
 12
-14.69955205668231
 22
25.17976863495409
 13
0.0
 23
0.0
 14
0.5
 24
0.5
 15
0.5
 25
0.5
 16
0.0
 26
0.0
 36
1.0
 17
0.0
 27
0.0
 37
0.0
 40
653.4000000000001
 41
1.60267857142857
 42
50.0
 43
0.0
 44
0.0
 50
0.0
 51
0.0
 71
     0
 72
   100
 73
     1
 74
     3
 75
     0
 76
     0
 77
     0
 78
     0
281
     0
 65
     1
110
0.0
120
0.0
130
0.0
111
1.0
121
0.0
131
0.0
112
0.0
122
1.0
132
0.0
 79
     0
146
0.0
  0
ENDTAB
  0
TABLE
  2
LTYPE
  5
5
330
0
100
AcDbSymbolTable
 70
     8
  0
LTYPE
  5
14
330
5
100
AcDbSymbolTableRecord
100
AcDbLinetypeTableRecord
  2
ByBlock
 70
     0
  3

 72
    65
 73
     0
 40
0.0
  0
LTYPE
  5
15
330
5
100
AcDbSymbolTableRecord
100
AcDbLinetypeTableRecord
  2
ByLayer
 70
     0
  3

 72
    65
 73
     0
 40
0.0
  0
LTYPE
  5
16
330
5
100
AcDbSymbolTableRecord
100
AcDbLinetypeTableRecord
  2
Continuous
 70
     0
  3
Solid line
 72
    65
 73
     0
 40
0.0
  0
LTYPE
  5
2A
330
5
100
AcDbSymbolTableRecord
100
AcDbLinetypeTableRecord
  2
DASHED
 70
     0
  3
Dashed
 72
    65
 73
     2
 40
15.0
 49
7.0
 74
     0
 49
-8.0
 74
     0
  0
LTYPE
  5
2B
330
5
100
AcDbSymbolTableRecord
100
AcDbLinetypeTableRecord
  2
DOTTED
 70
     0
  3
Dotted
 72
    65
 73
     2
 40
1.0
 49
0.0
 74
     0
 49
-1.0
 74
     0
  0
LTYPE
  5
2C
330
5
100
AcDbSymbolTableRecord
100
AcDbLinetypeTableRecord
  2
DOT_CENTER
 70
     0
  3
Dot_Center
 72
    65
 73
     4
 40
14.0
 49
12.0
 74
     0
 49
-1.0
 74
     0
 49
0.0
 74
     0
 49
-1.0
 74
     0
  0
LTYPE
  5
2D
330
5
100
AcDbSymbolTableRecord
100
AcDbLinetypeTableRecord
  2
LONG_DASHED
 70
     0
  3
Long_Dashed
 72
    65
 73
     2
 40
15.0
 49
10.0
 74
     0
 49
-5.0
 74
     0
  0
LTYPE
  5
2E
330
5
100
AcDbSymbolTableRecord
100
AcDbLinetypeTableRecord
  2
DASH_CENTER
 70
     0
  3
Dash_Center
 72
    65
 73
     4
 40
14.0
 49
11.0
 74
     0
 49
-1.0
 74
     0
 49
1.0
 74
     0
 49
-1.0
 74
     0
  0
LTYPE
  5
2F
330
5
100
AcDbSymbolTableRecord
100
AcDbLinetypeTableRecord
  2
PHANTOM
 70
     0
  3
Phantom
 72
    65
 73
     6
 40
13.0
 49
10.0
 74
     0
 49
-1.0
 74
     0
 49
0.0
 74
     0
 49
-1.0
 74
     0
 49
0.0
 74
     0
 49
-1.0
 74
     0
  0
LTYPE
  5
30
330
5
100
AcDbSymbolTableRecord
100
AcDbLinetypeTableRecord
  2
CENTER_DASH_DASH
 70
     0
  3
Center_Dash_Dash
 72
    65
 73
     6
 40
14.0
 49
9.0
 74
     0
 49
-1.0
 74
     0
 49
1.0
 74
     0
 49
-1.0
 74
     0
 49
1.0
 74
     0
 49
-1.0
 74
     0
  0
ENDTAB
  0
TABLE
  2
LAYER
  5
2
330
0
100
AcDbSymbolTable
 70
     3
  0
LAYER
  5
10
330
2
100
AcDbSymbolTableRecord
100
AcDbLayerTableRecord
  2
0
 70
     0
 62
     7
  6
Continuous
370
    -3
390
F
  0
LAYER
  5
31
330
2
100
AcDbSymbolTableRecord
100
AcDbLayerTableRecord
  2
1
 70
     0
 62
     7
  6
Continuous
370
    -3
390
F
  0
LAYER
  5
32
330
2
100
AcDbSymbolTableRecord
100
AcDbLayerTableRecord
  2
AM_VIS
 70
     0
 62
     7
  6
Continuous
370
    -3
390
F
  0
ENDTAB
  0
TABLE
  2
STYLE
  5
3
330
0
100
AcDbSymbolTable
 70
     6
  0
STYLE
  5
11
330
3
100
AcDbSymbolTableRecord
100
AcDbTextStyleTableRecord
  2
Standard
 70
     0
 40
0.0
 41
1.0
 50
0.0
 71
     0
 42
0.2
  3
txt
  4

  0
STYLE
  5
137
330
3
100
AcDbSymbolTableRecord
100
AcDbTextStyleTableRecord
  2
CONVERTER_11
 70
     0
 40
0.0
 41
0.855
 50
0.0
 71
     0
 42
0.2
  3
complex.shx
  4

  0
STYLE
  5
139
330
3
100
AcDbSymbolTableRecord
100
AcDbTextStyleTableRecord
  2
CONVERTER_12
 70
     0
 40
0.0
 41
0.9
 50
0.0
 71
     0
 42
0.2
  3
txt.shx
  4

  0
STYLE
  5
13B
330
3
100
AcDbSymbolTableRecord
100
AcDbTextStyleTableRecord
  2
CONVERTER_13
 70
     0
 40
0.0
 41
0.765
 50
0.0
 71
     0
 42
0.2
  3
txt.shx
  4

  0
STYLE
  5
13D
330
3
100
AcDbSymbolTableRecord
100
AcDbTextStyleTableRecord
  2
CONVERTER_14
 70
     0
 40
0.0
 41
0.81
 50
0.0
 71
     0
 42
0.2
  3
txt.shx
  4

  0
STYLE
  5
141
330
3
100
AcDbSymbolTableRecord
100
AcDbTextStyleTableRecord
  2
CONVERTER_15
 70
     0
 40
0.0
 41
0.72
 50
0.0
 71
     0
 42
0.2
  3
txt.shx
  4

  0
ENDTAB
  0
TABLE
  2
VIEW
  5
6
330
0
100
AcDbSymbolTable
 70
     0
  0
ENDTAB
  0
TABLE
  2
UCS
  5
7
330
0
100
AcDbSymbolTable
 70
     0
  0
ENDTAB
  0
TABLE
  2
APPID
  5
9
330
0
100
AcDbSymbolTable
 70
     1
  0
APPID
  5
12
330
9
100
AcDbSymbolTableRecord
100
AcDbRegAppTableRecord
  2
ACAD
 70
     0
  0
ENDTAB
  0
TABLE
  2
DIMSTYLE
  5
A
330
0
100
AcDbSymbolTable
 70
    14
100
AcDbDimStyleTable
  0
DIMSTYLE
105
27
330
A
100
AcDbSymbolTableRecord
100
AcDbDimStyleTableRecord
  2
Standard
 70
     0
340
11
  0
DIMSTYLE
105
458
102
{ACAD_REACTORS
330
459
102
}
330
A
100
AcDbSymbolTableRecord
100
AcDbDimStyleTableRecord
  2
ME10_DIM_10
 70
     0
 41
6.0
 42
0.0
 44
1.0
 73
     0
 74
     0
 77
     1
 78
     8
140
6.0
147
2.0
172
     1
173
     1
176
     2
177
     2
178
     3
271
     3
340
141
  0
DIMSTYLE
105
463
102
{ACAD_REACTORS
330
464
102
}
330
A
100
AcDbSymbolTableRecord
100
AcDbDimStyleTableRecord
  2
ME10_DIM_11
 70
     0
  3
{\Fgdt;n}<>
 41
6.0
 42
0.0
 44
1.0
 48
-5.0
 71
     1
 73
     0
 74
     0
 77
     1
 78
     8
140
6.0
147
2.0
172
     1
173
     1
176
     2
177
     2
178
     3
271
     3
272
     0
340
141
  0
DIMSTYLE
105
46E
102
{ACAD_REACTORS
330
46F
102
}
330
A
100
AcDbSymbolTableRecord
100
AcDbDimStyleTableRecord
  2
ME10_DIM_12
 70
     0
 41
6.0
 42
0.0
 44
1.0
 73
     0
 74
     0
 77
     1
 78
     8
140
6.0
147
2.0
172
     1
173
     1
176
     2
177
     2
178
     3
271
     3
340
141
  0
DIMSTYLE
105
479
102
{ACAD_REACTORS
330
47A
102
}
330
A
100
AcDbSymbolTableRecord
100
AcDbDimStyleTableRecord
  2
ME10_DIM_13
 70
     0
 41
6.0
 42
0.0
 44
1.0
 73
     0
 74
     0
 77
     1
 78
     8
140
6.0
147
2.0
172
     1
173
     1
176
     2
177
     2
178
     3
271
     3
340
141
  0
DIMSTYLE
105
484
102
{ACAD_REACTORS
330
485
102
}
330
A
100
AcDbSymbolTableRecord
100
AcDbDimStyleTableRecord
  2
ME10_DIM_14
 70
     0
 41
6.0
 42
0.0
 44
1.0
 73
     0
 74
     0
 77
     1
 78
     8
140
6.0
147
2.0
172
     1
173
     1
176
     2
177
     2
178
     3
271
     3
340
141
  0
DIMSTYLE
105
48F
102
{ACAD_REACTORS
330
490
102
}
330
A
100
AcDbSymbolTableRecord
100
AcDbDimStyleTableRecord
  2
ME10_DIM_15
 70
     0
  3
{\Fgdt;n}<>
 41
6.0
 42
0.0
 44
1.0
 48
-6.0
 71
     1
 73
     0
 74
     0
 77
     1
 78
     8
140
6.0
146
0.6
147
2.0
172
     1
173
     1
176
     2
177
     2
178
     3
271
     3
272
     0
340
141
  0
DIMSTYLE
105
49A
102
{ACAD_REACTORS
330
49B
102
}
330
A
100
AcDbSymbolTableRecord
100
AcDbDimStyleTableRecord
  2
ME10_DIM_16
 70
     0
 41
6.0
 42
0.0
 44
1.0
 73
     0
 74
     0
 77
     1
 78
     8
140
6.0
147
2.0
172
     1
173
     1
176
     2
177
     2
178
     3
271
     3
340
141
  0
DIMSTYLE
105
4A5
102
{ACAD_REACTORS
330
4A6
102
}
330
A
100
AcDbSymbolTableRecord
100
AcDbDimStyleTableRecord
  2
ME10_DIM_17
 70
     0
 41
6.0
 42
0.0
 44
1.0
 73
     0
 74
     0
 77
     1
 78
     8
140
6.0
147
2.0
172
     1
173
     1
176
     2
177
     2
178
     3
271
     3
340
141
  0
DIMSTYLE
105
4B2
102
{ACAD_REACTORS
330
4B3
102
}
330
A
100
AcDbSymbolTableRecord
100
AcDbDimStyleTableRecord
  2
ME10_DIM_18
 70
     0
 41
6.0
 42
0.0
 44
1.0
 73
     0
 74
     0
 77
     1
 78
     8
140
6.0
147
2.0
172
     1
173
     1
176
     2
177
     2
178
     3
271
     3
340
141
  0
DIMSTYLE
105
4BD
102
{ACAD_REACTORS
330
4BE
102
}
330
A
100
AcDbSymbolTableRecord
100
AcDbDimStyleTableRecord
  2
ME10_DIM_19
 70
     0
 41
6.0
 42
0.0
 44
1.0
 73
     0
 74
     0
 77
     1
 78
     8
140
6.0
147
2.0
172
     1
173
     1
176
     2
177
     2
178
     3
271
     3
340
141
  0
DIMSTYLE
105
4C8
102
{ACAD_REACTORS
330
4C9
102
}
330
A
100
AcDbSymbolTableRecord
100
AcDbDimStyleTableRecord
  2
ME10_DIM_20
 70
     0
 41
6.0
 42
0.0
 44
1.0
 73
     0
 74
     0
 77
     1
 78
     8
140
6.0
147
2.0
172
     1
173
     1
176
     2
177
     2
178
     3
271
     3
340
141
  0
DIMSTYLE
105
4F8
102
{ACAD_REACTORS
330
4F9
102
}
330
A
100
AcDbSymbolTableRecord
100
AcDbDimStyleTableRecord
  2
ME10_DIM_21
 70
     0
 41
6.0
 42
0.0
 44
1.0
 73
     0
 74
     0
 77
     1
 78
     8
140
6.0
147
2.0
172
     1
173
     1
176
     2
177
     2
178
     3
271
     3
340
141
  0
DIMSTYLE
105
503
102
{ACAD_REACTORS
330
504
102
}
330
A
100
AcDbSymbolTableRecord
100
AcDbDimStyleTableRecord
  2
ME10_DIM_22
 70
     0
 41
6.0
 42
0.0
 44
1.0
 73
     0
 74
     0
 77
     1
 78
     8
140
6.0
147
2.0
172
     1
173
     1
176
     2
177
     2
178
     3
271
     3
340
141
  0
ENDTAB
  0
TABLE
  2
BLOCK_RECORD
  5
1
330
0
100
AcDbSymbolTable
 70
    26
  0
BLOCK_RECORD
  5
1F
330
1
100
AcDbSymbolTableRecord
100
AcDbBlockTableRecord
  2
*Model_Space
340
22
  0
BLOCK_RECORD
  5
1B
330
1
100
AcDbSymbolTableRecord
100
AcDbBlockTableRecord
  2
*Paper_Space
340
1E
  0
BLOCK_RECORD
  5
23
330
1
100
AcDbSymbolTableRecord
100
AcDbBlockTableRecord
  2
*Paper_Space0
340
26
  0
BLOCK_RECORD
  5
33
330
1
100
AcDbSymbolTableRecord
100
AcDbBlockTableRecord
  2
tb_frame_A1
340
0
102
{BLKREFS
331
50
102
}
  0
BLOCK_RECORD
  5
36
330
1
100
AcDbSymbolTableRecord
100
AcDbBlockTableRecord
  2
M3x10_DIN_84
340
0
102
{BLKREFS
331
44
102
}
  0
BLOCK_RECORD
  5
39
330
1
100
AcDbSymbolTableRecord
100
AcDbBlockTableRecord
  2
O-Ring
340
0
102
{BLKREFS
331
3D
102
}
  0
BLOCK_RECORD
  5
3C
330
1
100
AcDbSymbolTableRecord
100
AcDbBlockTableRecord
  2
Winkelflanschdose_8-polig_drehbar
340
0
102
{BLKREFS
331
45
102
}
  0
BLOCK_RECORD
  5
40
330
1
100
AcDbSymbolTableRecord
100
AcDbBlockTableRecord
  2
M2_5x6_DIN_7985
340
0
102
{BLKREFS
331
46
102
}
  0
BLOCK_RECORD
  5
43
330
1
100
AcDbSymbolTableRecord
100
AcDbBlockTableRecord
  2
Ma_blatt
340
0
102
{BLKREFS
331
4A
102
}
  0
BLOCK_RECORD
  5
49
330
1
100
AcDbSymbolTableRecord
100
AcDbBlockTableRecord
  2
TOP__1
340
0
102
{BLKREFS
331
51
102
}
  0
BLOCK_RECORD
  5
4D
330
1
100
AcDbSymbolTableRecord
100
AcDbBlockTableRecord
  2
TOP__2
340
0
102
{BLKREFS
331
52
102
}
  0
BLOCK_RECORD
  5
44F
330
1
100
AcDbSymbolTableRecord
100
AcDbBlockTableRecord
  2
*D9
340
0
  0
BLOCK_RECORD
  5
45A
330
1
100
AcDbSymbolTableRecord
100
AcDbBlockTableRecord
  2
*D10
340
0
  0
BLOCK_RECORD
  5
465
330
1
100
AcDbSymbolTableRecord
100
AcDbBlockTableRecord
  2
*D11
340
0
  0
BLOCK_RECORD
  5
470
330
1
100
AcDbSymbolTableRecord
100
AcDbBlockTableRecord
  2
*D12
340
0
  0
BLOCK_RECORD
  5
47B
330
1
100
AcDbSymbolTableRecord
100
AcDbBlockTableRecord
  2
*D13
340
0
  0
BLOCK_RECORD
  5
486
330
1
100
AcDbSymbolTableRecord
100
AcDbBlockTableRecord
  2
*D14
340
0
  0
BLOCK_RECORD
  5
491
330
1
100
AcDbSymbolTableRecord
100
AcDbBlockTableRecord
  2
*D15
340
0
  0
BLOCK_RECORD
  5
49C
330
1
100
AcDbSymbolTableRecord
100
AcDbBlockTableRecord
  2
*D16
340
0
  0
BLOCK_RECORD
  5
4A7
330
1
100
AcDbSymbolTableRecord
100
AcDbBlockTableRecord
  2
*D17
340
0
  0
BLOCK_RECORD
  5
4B4
330
1
100
AcDbSymbolTableRecord
100
AcDbBlockTableRecord
  2
*D18
340
0
  0
BLOCK_RECORD
  5
4BF
330
1
100
AcDbSymbolTableRecord
100
AcDbBlockTableRecord
  2
*D19
340
0
  0
BLOCK_RECORD
  5
4CA
330
1
100
AcDbSymbolTableRecord
100
AcDbBlockTableRecord
  2
*D20
340
0
102
{BLKREFS
331
4D0
102
}
  0
BLOCK_RECORD
  5
4D1
330
1
100
AcDbSymbolTableRecord
100
AcDbBlockTableRecord
  2
*D21
340
0
102
{BLKREFS
331
4D8
102
}
  0
BLOCK_RECORD
  5
4D9
330
1
100
AcDbSymbolTableRecord
100
AcDbBlockTableRecord
  2
*D22
340
0
102
{BLKREFS
331
4E2
102
}
  0
BLOCK_RECORD
  5
4E3
330
1
100
AcDbSymbolTableRecord
100
AcDbBlockTableRecord
  2
*D23
340
0
102
{BLKREFS
331
4EE
102
}
  0
BLOCK_RECORD
  5
4EF
330
1
100
AcDbSymbolTableRecord
100
AcDbBlockTableRecord
  2
*D24
340
0
  0
BLOCK_RECORD
  5
4FA
330
1
100
AcDbSymbolTableRecord
100
AcDbBlockTableRecord
  2
*D25
340
0
  0
ENDTAB
  0
ENDSEC
  0
SECTION
  2
BLOCKS
  0
BLOCK
  5
20
330
1F
100
AcDbEntity
  8
0
100
AcDbBlockBegin
  2
*Model_Space
 70
     0
 71
     0
 10
0.0
 20
0.0
 30
0.0
  3
*Model_Space
  1

  0
ENDBLK
  5
21
330
1F
100
AcDbEntity
  8
0
100
AcDbBlockEnd
  0
BLOCK
  5
1C
330
1B
100
AcDbEntity
 67
     1
  8
0
100
AcDbBlockBegin
  2
*Paper_Space
 70
     0
 71
     0
 10
0.0
 20
0.0
 30
0.0
  3
*Paper_Space
  1

  0
ENDBLK
  5
1D
330
1B
100
AcDbEntity
 67
     1
  8
0
100
AcDbBlockEnd
  0
BLOCK
  5
24
330
23
100
AcDbEntity
  8
0
100
AcDbBlockBegin
  2
*Paper_Space0
 70
     0
 71
     0
 10
0.0
 20
0.0
 30
0.0
  3
*Paper_Space0
  1

  0
ENDBLK
  5
25
330
23
100
AcDbEntity
  8
0
100
AcDbBlockEnd
  0
BLOCK
  5
34
330
33
100
AcDbEntity
  8
0
100
AcDbBlockBegin
  2
tb_frame_A1
 70
     0
 71
     0
 10
0.0
 20
0.0
 30
0.0
  3
tb_frame_A1
  1

  0
POINT
  5
53
330
33
100
AcDbEntity
  8
1
 62
   250
100
AcDbPoint
 10
400.8004479433177
 20
-266.8202313650459
 30
0.0
  0
LINE
  5
54
102
{ACAD_REACTORS
330
15E
330
15E
102
}
330
33
100
AcDbEntity
  8
1
  6
Continuous
 62
     2
100
AcDbLine
 10
341.652102194316
 20
-239.3402313650458
 30
0.0
 11
341.652102194316
 21
-242.6278188255558
 31
0.0
  0
LINE
  5
55
102
{ACAD_REACTORS
330
15E
330
15E
102
}
330
33
100
AcDbEntity
  8
1
  6
Continuous
 62
     2
100
AcDbLine
 10
341.652102194316
 20
-239.3402313650458
 30
0.0
 11
342.952102194316
 21
-239.3402313650458
 31
0.0
  0
LINE
  5
56
102
{ACAD_REACTORS
330
15E
330
15E
102
}
330
33
100
AcDbEntity
  8
1
  6
Continuous
 62
     2
100
AcDbLine
 10
342.952102194316
 20
-238.2402313650458
 30
0.0
 11
342.952102194316
 21
-239.3402313650458
 31
0.0
  0
LINE
  5
57
102
{ACAD_REACTORS
330
15E
330
15E
102
}
330
33
100
AcDbEntity
  8
1
  6
Continuous
 62
     2
100
AcDbLine
 10
341.652102194316
 20
-238.2402313650458
 30
0.0
 11
342.952102194316
 21
-238.2402313650458
 31
0.0
  0
LINE
  5
58
102
{ACAD_REACTORS
330
15E
330
15E
102
}
330
33
100
AcDbEntity
  8
1
  6
Continuous
 62
     2
100
AcDbLine
 10
341.652102194316
 20
-242.6278188255558
 30
0.0
 11
342.952102194316
 21
-242.6278188255558
 31
0.0
  0
LINE
  5
59
102
{ACAD_REACTORS
330
15E
330
15E
102
}
330
33
100
AcDbEntity
  8
1
  6
Continuous
 62
     2
100
AcDbLine
 10
341.652102194316
 20
-235.6402313650457
 30
0.0
 11
341.652102194316
 21
-238.2402313650458
 31
0.0
  0
LINE
  5
5A
102
{ACAD_REACTORS
330
168
330
168
102
}
330
33
100
AcDbEntity
  8
1
  6
Continuous
 62
     2
100
AcDbLine
 10
337.7931767283024
 20
-240.2402313650458
 30
0.0
 11
338.3521021943161
 21
-240.2402313650458
 31
0.0
  0
LINE
  5
5B
330
33
100
AcDbEntity
  8
1
  6
Continuous
 62
     2
100
AcDbLine
 10
337.7931767283024
 20
-240.2402313650458
 30
0.0
 11
338.052102194316
 21
-240.2402313650458
 31
0.0
  0
LINE
  5
5C
102
{ACAD_REACTORS
330
168
330
168
102
}
330
33
100
AcDbEntity
  8
1
  6
Continuous
 62
     2
100
AcDbLine
 10
337.7931767283024
 20
-239.0402313650458
 30
0.0
 11
339.552102194316
 21
-239.0402313650458
 31
0.0
  0
LINE
  5
5D
102
{ACAD_REACTORS
330
168
330
168
102
}
330
33
100
AcDbEntity
  8
1
  6
Continuous
 62
     2
100
AcDbLine
 10
337.7931767283024
 20
-239.0402313650458
 30
0.0
 11
337.7931767283024
 21
-240.2402313650458
 31
0.0
  0
LINE
  5
5E
102
{ACAD_REACTORS
330
168
330
168
102
}
330
33
100
AcDbEntity
  8
1
  6
Continuous
 62
     2
100
AcDbLine
 10
339.552102194316
 20
-243.7402313650458
 30
0.0
 11
339.052102194316
 21
-243.7402313650458
 31
0.0
  0
LINE
  5
5F
102
{ACAD_REACTORS
330
168
330
168
102
}
330
33
100
AcDbEntity
  8
1
  6
Continuous
 62
     2
100
AcDbLine
 10
339.552102194316
 20
-235.5402313650458
 30
0.0
 11
339.552102194316
 21
-237.6402313650457
 31
0.0
  0
LINE
  5
60
102
{ACAD_REACTORS
330
15E
330
15E
102
}
330
33
100
AcDbEntity
  8
1
  6
Continuous
 62
     2
100
AcDbLine
 10
342.952102194316
 20
-234.5402313650458
 30
0.0
 11
340.3521021943161
 21
-234.5402313650458
 31
0.0
  0
LINE
  5
61
102
{ACAD_REACTORS
330
15E
330
15E
102
}
330
33
100
AcDbEntity
  8
1
  6
Continuous
 62
     2
100
AcDbLine
 10
340.3521021943161
 20
-234.5402313650458
 30
0.0
 11
340.3521021943161
 21
-243.7402313650458
 31
0.0
  0
LINE
  5
62
102
{ACAD_REACTORS
330
15E
330
15E
102
}
330
33
100
AcDbEntity
  8
1
  6
Continuous
 62
     2
100
AcDbLine
 10
340.3521021943161
 20
-243.7402313650458
 30
0.0
 11
342.952102194316
 21
-243.7402313650458
 31
0.0
  0
LINE
  5
63
102
{ACAD_REACTORS
330
15E
330
15E
102
}
330
33
100
AcDbEntity
  8
1
  6
Continuous
 62
     2
100
AcDbLine
 10
342.952102194316
 20
-243.7402313650458
 30
0.0
 11
342.952102194316
 21
-242.6278188255558
 31
0.0
  0
LINE
  5
64
102
{ACAD_REACTORS
330
168
330
168
102
}
330
33
100
AcDbEntity
  8
1
  6
Continuous
 62
     2
100
AcDbLine
 10
339.552102194316
 20
-239.0402313650458
 30
0.0
 11
339.552102194316
 21
-243.7402313650458
 31
0.0
  0
LINE
  5
65
102
{ACAD_REACTORS
330
168
330
168
102
}
330
33
100
AcDbEntity
  8
1
  6
Continuous
 62
     2
100
AcDbLine
 10
339.052102194316
 20
-243.7402313650458
 30
0.0
 11
338.7053262741835
 21
-243.1402313650457
 31
0.0
  0
LINE
  5
66
102
{ACAD_REACTORS
330
168
330
168
102
}
330
33
100
AcDbEntity
  8
1
  6
Continuous
 62
     2
100
AcDbLine
 10
336.8521021943161
 20
-243.7402313650458
 30
0.0
 11
337.702102194316
 21
-243.7402313650458
 31
0.0
  0
LINE
  5
67
102
{ACAD_REACTORS
330
161
330
161
102
}
330
33
100
AcDbEntity
  8
1
  6
Continuous
 62
     2
100
AcDbLine
 10
344.752102194316
 20
-234.5402313650458
 30
0.0
 11
346.452102194316
 21
-234.5402313650458
 31
0.0
  0
LINE
  5
68
102
{ACAD_REACTORS
330
161
330
161
102
}
330
33
100
AcDbEntity
  8
1
  6
Continuous
 62
     2
100
AcDbLine
 10
346.452102194316
 20
-243.7402313650458
 30
0.0
 11
344.752102194316
 21
-243.7402313650458
 31
0.0
  0
LINE
  5
69
102
{ACAD_REACTORS
330
161
330
161
102
}
330
33
100
AcDbEntity
  8
1
  6
Continuous
 62
     2
100
AcDbLine
 10
343.752102194316
 20
-235.5402313650458
 30
0.0
 11
343.752102194316
 21
-242.7402313650458
 31
0.0
  0
LINE
  5
6A
102
{ACAD_REACTORS
330
161
330
161
102
}
330
33
100
AcDbEntity
  8
1
  6
Continuous
 62
     2
100
AcDbLine
 10
347.452102194316
 20
-235.5402313650458
 30
0.0
 11
347.452102194316
 21
-242.7402313650458
 31
0.0
  0
LINE
  5
6B
102
{ACAD_REACTORS
330
166
330
166
102
}
330
33
100
AcDbEntity
  8
1
  6
Continuous
 62
     2
100
AcDbLine
 10
348.252102194316
 20
-234.5402313650458
 30
0.0
 11
348.252102194316
 21
-243.7402313650458
 31
0.0
  0
LINE
  5
6C
102
{ACAD_REACTORS
330
166
330
166
102
}
330
33
100
AcDbEntity
  8
1
  6
Continuous
 62
     2
100
AcDbLine
 10
348.252102194316
 20
-234.5402313650458
 30
0.0
 11
350.952102194316
 21
-234.5402313650458
 31
0.0
  0
LINE
  5
6D
102
{ACAD_REACTORS
330
166
330
166
102
}
330
33
100
AcDbEntity
  8
1
  6
Continuous
 62
     2
100
AcDbLine
 10
351.952102194316
 20
-238.324593495313
 30
0.0
 11
351.952102194316
 21
-235.5402313650458
 31
0.0
  0
LINE
  5
6E
102
{ACAD_REACTORS
330
166
330
166
102
}
330
33
100
AcDbEntity
  8
1
  6
Continuous
 62
     2
100
AcDbLine
 10
351.952102194316
 20
-239.9805727835584
 30
0.0
 11
351.952102194316
 21
-243.7402313650458
 31
0.0
  0
LINE
  5
6F
102
{ACAD_REACTORS
330
167
330
167
102
}
330
33
100
AcDbEntity
  8
1
  6
Continuous
 62
     2
100
AcDbLine
 10
353.752102194316
 20
-234.5402313650458
 30
0.0
 11
355.452102194316
 21
-234.5402313650458
 31
0.0
  0
LINE
  5
70
102
{ACAD_REACTORS
330
167
330
167
102
}
330
33
100
AcDbEntity
  8
1
  6
Continuous
 62
     2
100
AcDbLine
 10
356.452102194316
 20
-243.7402313650458
 30
0.0
 11
356.452102194316
 21
-239.0402313650458
 31
0.0
  0
LINE
  5
71
102
{ACAD_REACTORS
330
167
330
167
102
}
330
33
100
AcDbEntity
  8
1
  6
Continuous
 62
     2
100
AcDbLine
 10
356.452102194316
 20
-237.6402313650457
 30
0.0
 11
355.252102194316
 21
-237.6402313650457
 31
0.0
  0
LINE
  5
72
102
{ACAD_REACTORS
330
167
330
167
102
}
330
33
100
AcDbEntity
  8
1
  6
Continuous
 62
     2
100
AcDbLine
 10
356.452102194316
 20
-237.6402313650457
 30
0.0
 11
356.4521021943161
 21
-235.5402313650458
 31
0.0
  0
LINE
  5
73
102
{ACAD_REACTORS
330
160
330
160
102
}
330
33
100
AcDbEntity
  8
1
  6
Continuous
 62
     2
100
AcDbLine
 10
364.452102194316
 20
-234.5402313650458
 30
0.0
 11
365.652102194316
 21
-234.5402313650458
 31
0.0
  0
LINE
  5
74
102
{ACAD_REACTORS
330
160
330
160
102
}
330
33
100
AcDbEntity
  8
1
  6
Continuous
 62
     2
100
AcDbLine
 10
364.452102194316
 20
-243.7402313650458
 30
0.0
 11
365.652102194316
 21
-243.7402313650458
 31
0.0
  0
LINE
  5
75
102
{ACAD_REACTORS
330
160
330
160
102
}
330
33
100
AcDbEntity
  8
1
  6
Continuous
 62
     2
100
AcDbLine
 10
364.452102194316
 20
-243.7402313650458
 30
0.0
 11
364.452102194316
 21
-234.5402313650458
 31
0.0
  0
LINE
  5
76
330
33
100
AcDbEntity
  8
1
  6
Continuous
 62
     2
100
AcDbLine
 10
364.452102194316
 20
-243.7402313650458
 30
0.0
 11
365.652102194316
 21
-243.7402313650458
 31
0.0
  0
LINE
  5
77
102
{ACAD_REACTORS
330
164
330
164
102
}
330
33
100
AcDbEntity
  8
1
  6
Continuous
 62
     2
100
AcDbLine
 10
369.952102194316
 20
-234.5402313650458
 30
0.0
 11
371.652102194316
 21
-234.5402313650458
 31
0.0
  0
LINE
  5
78
102
{ACAD_REACTORS
330
164
330
164
102
}
330
33
100
AcDbEntity
  8
1
  6
Continuous
 62
     2
100
AcDbLine
 10
369.952102194316
 20
-243.7402313650458
 30
0.0
 11
371.652102194316
 21
-243.7402313650458
 31
0.0
  0
LINE
  5
79
102
{ACAD_REACTORS
330
163
330
163
102
}
330
33
100
AcDbEntity
  8
1
  6
Continuous
 62
     2
100
AcDbLine
 10
373.452102194316
 20
-234.5402313650458
 30
0.0
 11
373.452102194316
 21
-243.7402313650458
 31
0.0
  0
LINE
  5
7A
102
{ACAD_REACTORS
330
163
330
163
102
}
330
33
100
AcDbEntity
  8
1
  6
Continuous
 62
     2
100
AcDbLine
 10
376.152102194316
 20
-234.5402313650458
 30
0.0
 11
373.452102194316
 21
-234.5402313650458
 31
0.0
  0
LINE
  5
7B
102
{ACAD_REACTORS
330
163
330
163
102
}
330
33
100
AcDbEntity
  8
1
  6
Continuous
 62
     2
100
AcDbLine
 10
373.452102194316
 20
-243.7402313650458
 30
0.0
 11
376.152102194316
 21
-243.7402313650458
 31
0.0
  0
LINE
  5
7C
102
{ACAD_REACTORS
330
162
330
162
102
}
330
33
100
AcDbEntity
  8
1
  6
Continuous
 62
     2
100
AcDbLine
 10
377.952102194316
 20
-235.5402313650458
 30
0.0
 11
377.952102194316
 21
-242.7402313650458
 31
0.0
  0
LINE
  5
7D
102
{ACAD_REACTORS
330
162
330
162
102
}
330
33
100
AcDbEntity
  8
1
  6
Continuous
 62
     2
100
AcDbLine
 10
378.952102194316
 20
-243.7402313650458
 30
0.0
 11
380.652102194316
 21
-243.7402313650458
 31
0.0
  0
LINE
  5
7E
102
{ACAD_REACTORS
330
162
330
162
102
}
330
33
100
AcDbEntity
  8
1
  6
Continuous
 62
     2
100
AcDbLine
 10
381.652102194316
 20
-235.5402313650458
 30
0.0
 11
381.652102194316
 21
-242.7402313650458
 31
0.0
  0
LINE
  5
7F
102
{ACAD_REACTORS
330
162
330
162
102
}
330
33
100
AcDbEntity
  8
1
  6
Continuous
 62
     2
100
AcDbLine
 10
378.952102194316
 20
-234.5402313650458
 30
0.0
 11
380.652102194316
 21
-234.5402313650458
 31
0.0
  0
LINE
  5
80
102
{ACAD_REACTORS
330
15F
330
15F
102
}
330
33
100
AcDbEntity
  8
1
  6
Continuous
 62
     2
100
AcDbLine
 10
382.452102194316
 20
-234.5402313650458
 30
0.0
 11
382.452102194316
 21
-243.7402313650458
 31
0.0
  0
LINE
  5
81
102
{ACAD_REACTORS
330
15F
330
15F
102
}
330
33
100
AcDbEntity
  8
1
  6
Continuous
 62
     2
100
AcDbLine
 10
382.452102194316
 20
-243.7402313650458
 30
0.0
 11
385.052102194316
 21
-243.7402313650458
 31
0.0
  0
LINE
  5
82
102
{ACAD_REACTORS
330
15F
330
15F
102
}
330
33
100
AcDbEntity
  8
1
  6
Continuous
 62
     2
100
AcDbLine
 10
385.052102194316
 20
-243.7402313650458
 30
0.0
 11
385.052102194316
 21
-242.6278188255558
 31
0.0
  0
LINE
  5
83
102
{ACAD_REACTORS
330
15F
330
15F
102
}
330
33
100
AcDbEntity
  8
1
  6
Continuous
 62
     2
100
AcDbLine
 10
382.452102194316
 20
-234.5402313650458
 30
0.0
 11
383.652102194316
 21
-234.5402313650458
 31
0.0
  0
LINE
  5
84
102
{ACAD_REACTORS
330
165
330
165
102
}
330
33
100
AcDbEntity
  8
1
  6
Continuous
 62
     2
100
AcDbLine
 10
385.8521021943161
 20
-243.7402313650458
 30
0.0
 11
385.8521021943161
 21
-234.5402313650458
 31
0.0
  0
LINE
  5
85
102
{ACAD_REACTORS
330
165
330
165
102
}
330
33
100
AcDbEntity
  8
1
  6
Continuous
 62
     2
100
AcDbLine
 10
385.8521021943161
 20
-234.5402313650458
 30
0.0
 11
388.552102194316
 21
-234.5402313650458
 31
0.0
  0
LINE
  5
86
102
{ACAD_REACTORS
330
164
330
164
102
}
330
33
100
AcDbEntity
  8
1
  6
Continuous
 62
     2
100
AcDbLine
 10
372.652102194316
 20
-235.5402313650458
 30
0.0
 11
372.652102194316
 21
-242.7402313650458
 31
0.0
  0
LINE
  5
87
102
{ACAD_REACTORS
330
165
330
165
102
}
330
33
100
AcDbEntity
  8
1
  6
Continuous
 62
     2
100
AcDbLine
 10
388.552102194316
 20
-243.7402313650458
 30
0.0
 11
385.8521021943161
 21
-243.7402313650458
 31
0.0
  0
LINE
  5
88
102
{ACAD_REACTORS
330
165
330
165
102
}
330
33
100
AcDbEntity
  8
1
  6
Continuous
 62
     2
100
AcDbLine
 10
389.552102194316
 20
-235.5402313650458
 30
0.0
 11
389.552102194316
 21
-242.7402313650458
 31
0.0
  0
LINE
  5
89
102
{ACAD_REACTORS
330
167
330
167
102
}
330
33
100
AcDbEntity
  8
1
  6
Continuous
 62
     2
100
AcDbLine
 10
353.752102194316
 20
-243.7402313650458
 30
0.0
 11
354.617770159531
 21
-243.7402313650458
 31
0.0
  0
LINE
  5
8A
102
{ACAD_REACTORS
330
167
330
167
102
}
330
33
100
AcDbEntity
  8
1
  6
Continuous
 62
     2
100
AcDbLine
 10
352.752102194316
 20
-242.7402313650458
 30
0.0
 11
352.752102194316
 21
-235.5402313650458
 31
0.0
  0
LINE
  5
8B
102
{ACAD_REACTORS
330
168
330
168
102
}
330
33
100
AcDbEntity
  8
1
  6
Continuous
 62
     2
100
AcDbLine
 10
335.8521021943161
 20
-235.5402313650458
 30
0.0
 11
335.8521021943159
 21
-242.7402313650458
 31
0.0
  0
LINE
  5
8C
102
{ACAD_REACTORS
330
168
330
168
102
}
330
33
100
AcDbEntity
  8
1
  6
Continuous
 62
     2
100
AcDbLine
 10
336.8521021943161
 20
-234.5402313650458
 30
0.0
 11
338.552102194316
 21
-234.5402313650458
 31
0.0
  0
LINE
  5
8D
102
{ACAD_REACTORS
330
167
330
167
102
}
330
33
100
AcDbEntity
  8
1
  6
Continuous
 62
     2
100
AcDbLine
 10
356.452102194316
 20
-243.7402313650458
 30
0.0
 11
355.952102194316
 21
-243.7402313650458
 31
0.0
  0
LINE
  5
8E
102
{ACAD_REACTORS
330
167
330
167
102
}
330
33
100
AcDbEntity
  8
1
  6
Continuous
 62
     2
100
AcDbLine
 10
355.952102194316
 20
-243.7402313650458
 30
0.0
 11
355.6050633177521
 21
-243.1402313650457
 31
0.0
  0
LINE
  5
8F
102
{ACAD_REACTORS
330
167
330
167
102
}
330
33
100
AcDbEntity
  8
1
  6
Continuous
 62
     2
100
AcDbLine
 10
355.252102194316
 20
-237.6402313650457
 30
0.0
 11
355.252102194316
 21
-236.2902313650458
 31
0.0
  0
LINE
  5
90
102
{ACAD_REACTORS
330
167
330
167
102
}
330
33
100
AcDbEntity
  8
1
  6
Continuous
 62
     2
100
AcDbLine
 10
353.952102194316
 20
-236.2902313650458
 30
0.0
 11
353.952102194316
 21
-241.9778188255559
 31
0.0
  0
LINE
  5
91
102
{ACAD_REACTORS
330
167
330
167
102
}
330
33
100
AcDbEntity
  8
1
  6
Continuous
 62
     2
100
AcDbLine
 10
355.252102194316
 20
-241.9778188255559
 30
0.0
 11
355.252102194316
 21
-240.2402313650458
 31
0.0
  0
LINE
  5
92
102
{ACAD_REACTORS
330
166
330
166
102
}
330
33
100
AcDbEntity
  8
1
  6
Continuous
 62
     2
100
AcDbLine
 10
350.752102194316
 20
-237.8902313650457
 30
0.0
 11
350.752102194316
 21
-236.2902313650458
 31
0.0
  0
LINE
  5
93
102
{ACAD_REACTORS
330
166
330
166
102
}
330
33
100
AcDbEntity
  8
1
  6
Continuous
 62
     2
100
AcDbLine
 10
350.752102194316
 20
-240.3902313650457
 30
0.0
 11
350.752102194316
 21
-243.7402313650458
 31
0.0
  0
LINE
  5
94
102
{ACAD_REACTORS
330
166
330
166
102
}
330
33
100
AcDbEntity
  8
1
  6
Continuous
 62
     2
100
AcDbLine
 10
350.752102194316
 20
-243.7402313650458
 30
0.0
 11
351.952102194316
 21
-243.7402313650458
 31
0.0
  0
LINE
  5
95
102
{ACAD_REACTORS
330
166
330
166
102
}
330
33
100
AcDbEntity
  8
1
  6
Continuous
 62
     2
100
AcDbLine
 10
349.452102194316
 20
-243.7402313650458
 30
0.0
 11
348.252102194316
 21
-243.7402313650458
 31
0.0
  0
LINE
  5
96
102
{ACAD_REACTORS
330
15C
330
15C
102
}
330
33
100
AcDbEntity
  8
1
  6
Continuous
 62
     2
100
AcDbLine
 10
357.252102194316
 20
-234.5402313650458
 30
0.0
 11
358.452102194316
 21
-234.5402313650458
 31
0.0
  0
LINE
  5
97
102
{ACAD_REACTORS
330
15D
330
15D
102
}
330
33
100
AcDbEntity
  8
1
  6
Continuous
 62
     2
100
AcDbLine
 10
359.252102194316
 20
-234.5402313650458
 30
0.0
 11
360.452102194316
 21
-234.5402313650458
 31
0.0
  0
LINE
  5
98
102
{ACAD_REACTORS
330
15C
330
15C
102
}
330
33
100
AcDbEntity
  8
1
  6
Continuous
 62
     2
100
AcDbLine
 10
357.252102194316
 20
-243.7402313650458
 30
0.0
 11
358.452102194316
 21
-243.7402313650458
 31
0.0
  0
LINE
  5
99
102
{ACAD_REACTORS
330
15D
330
15D
102
}
330
33
100
AcDbEntity
  8
1
  6
Continuous
 62
     2
100
AcDbLine
 10
360.452102194316
 20
-243.7402313650458
 30
0.0
 11
360.452102194316
 21
-234.5402313650458
 31
0.0
  0
LINE
  5
9A
102
{ACAD_REACTORS
330
15D
330
15D
102
}
330
33
100
AcDbEntity
  8
1
  6
Continuous
 62
     2
100
AcDbLine
 10
359.252102194316
 20
-234.5402313650458
 30
0.0
 11
359.252102194316
 21
-243.7402313650458
 31
0.0
  0
LINE
  5
9B
102
{ACAD_REACTORS
330
15C
330
15C
102
}
330
33
100
AcDbEntity
  8
1
  6
Continuous
 62
     2
100
AcDbLine
 10
358.452102194316
 20
-243.7402313650458
 30
0.0
 11
358.452102194316
 21
-234.5402313650458
 31
0.0
  0
LINE
  5
9C
102
{ACAD_REACTORS
330
15C
330
15C
102
}
330
33
100
AcDbEntity
  8
1
  6
Continuous
 62
     2
100
AcDbLine
 10
357.252102194316
 20
-234.5402313650458
 30
0.0
 11
357.252102194316
 21
-243.7402313650458
 31
0.0
  0
LINE
  5
9D
102
{ACAD_REACTORS
330
167
330
167
102
}
330
33
100
AcDbEntity
  8
1
  6
Continuous
 62
     2
100
AcDbLine
 10
354.702102194316
 20
-239.0402313650458
 30
0.0
 11
355.5419537907096
 21
-239.0402313650458
 31
0.0
  0
LINE
  5
9E
102
{ACAD_REACTORS
330
167
330
167
102
}
330
33
100
AcDbEntity
  8
1
  6
Continuous
 62
     2
100
AcDbLine
 10
354.702102194316
 20
-239.0402313650458
 30
0.0
 11
354.702102194316
 21
-240.2402313650458
 31
0.0
  0
LINE
  5
9F
102
{ACAD_REACTORS
330
167
330
167
102
}
330
33
100
AcDbEntity
  8
1
  6
Continuous
 62
     2
100
AcDbLine
 10
354.702102194316
 20
-240.2402313650458
 30
0.0
 11
355.252102194316
 21
-240.2402313650458
 31
0.0
  0
LINE
  5
A0
102
{ACAD_REACTORS
330
15D
330
15D
102
}
330
33
100
AcDbEntity
  8
1
  6
Continuous
 62
     2
100
AcDbLine
 10
359.252102194316
 20
-243.7402313650458
 30
0.0
 11
360.452102194316
 21
-243.7402313650458
 31
0.0
  0
LINE
  5
A1
102
{ACAD_REACTORS
330
15E
330
15E
102
}
330
33
100
AcDbEntity
  8
1
  6
Continuous
 62
     2
100
AcDbLine
 10
341.652102194316
 20
-235.6402313650457
 30
0.0
 11
342.952102194316
 21
-235.6402313650457
 31
0.0
  0
LINE
  5
A2
102
{ACAD_REACTORS
330
15E
330
15E
102
}
330
33
100
AcDbEntity
  8
1
  6
Continuous
 62
     2
100
AcDbLine
 10
342.952102194316
 20
-235.6402313650457
 30
0.0
 11
342.952102194316
 21
-234.5402313650458
 31
0.0
  0
LINE
  5
A3
102
{ACAD_REACTORS
330
161
330
161
102
}
330
33
100
AcDbEntity
  8
1
  6
Continuous
 62
     2
100
AcDbLine
 10
346.252102194316
 20
-236.2902313650458
 30
0.0
 11
346.252102194316
 21
-241.9778188255559
 31
0.0
  0
LINE
  5
A4
102
{ACAD_REACTORS
330
161
330
161
102
}
330
33
100
AcDbEntity
  8
1
  6
Continuous
 62
     2
100
AcDbLine
 10
344.952102194316
 20
-236.2902313650458
 30
0.0
 11
344.952102194316
 21
-241.9778188255559
 31
0.0
  0
LINE
  5
A5
102
{ACAD_REACTORS
330
168
330
168
102
}
330
33
100
AcDbEntity
  8
1
  6
Continuous
 62
     2
100
AcDbLine
 10
338.3521021943161
 20
-241.9778188255559
 30
0.0
 11
338.3521021943161
 21
-240.2402313650458
 31
0.0
  0
LINE
  5
A6
102
{ACAD_REACTORS
330
168
330
168
102
}
330
33
100
AcDbEntity
  8
1
  6
Continuous
 62
     2
100
AcDbLine
 10
337.052102194316
 20
-241.9778188255559
 30
0.0
 11
337.052102194316
 21
-236.2902313650458
 31
0.0
  0
LINE
  5
A7
102
{ACAD_REACTORS
330
168
330
168
102
}
330
33
100
AcDbEntity
  8
1
  6
Continuous
 62
     2
100
AcDbLine
 10
338.3521021943161
 20
-236.2902313650458
 30
0.0
 11
338.3521021943161
 21
-237.6402313650457
 31
0.0
  0
LINE
  5
A8
102
{ACAD_REACTORS
330
168
330
168
102
}
330
33
100
AcDbEntity
  8
1
  6
Continuous
 62
     2
100
AcDbLine
 10
338.3521021943161
 20
-237.6402313650457
 30
0.0
 11
339.552102194316
 21
-237.6402313650457
 31
0.0
  0
LINE
  5
A9
102
{ACAD_REACTORS
330
166
330
166
102
}
330
33
100
AcDbEntity
  8
1
  6
Continuous
 62
     2
100
AcDbLine
 10
349.452102194316
 20
-235.6402313650457
 30
0.0
 11
350.1021021943161
 21
-235.6402313650457
 31
0.0
  0
LINE
  5
AA
102
{ACAD_REACTORS
330
166
330
166
102
}
330
33
100
AcDbEntity
  8
1
  6
Continuous
 62
     2
100
AcDbLine
 10
349.452102194316
 20
-235.6402313650457
 30
0.0
 11
349.452102194316
 21
-238.5402313650458
 31
0.0
  0
LINE
  5
AB
102
{ACAD_REACTORS
330
166
330
166
102
}
330
33
100
AcDbEntity
  8
1
  6
Continuous
 62
     2
100
AcDbLine
 10
349.452102194316
 20
-238.5402313650458
 30
0.0
 11
350.1021021943161
 21
-238.5402313650458
 31
0.0
  0
LINE
  5
AC
102
{ACAD_REACTORS
330
166
330
166
102
}
330
33
100
AcDbEntity
  8
1
  6
Continuous
 62
     2
100
AcDbLine
 10
350.1021021943161
 20
-239.7402313650458
 30
0.0
 11
349.452102194316
 21
-239.7402313650458
 31
0.0
  0
LINE
  5
AD
102
{ACAD_REACTORS
330
166
330
166
102
}
330
33
100
AcDbEntity
  8
1
  6
Continuous
 62
     2
100
AcDbLine
 10
349.452102194316
 20
-239.7402313650458
 30
0.0
 11
349.452102194316
 21
-243.7402313650458
 31
0.0
  0
LINE
  5
AE
330
33
100
AcDbEntity
  8
1
  6
Continuous
 62
     2
100
AcDbLine
 10
354.702102194316
 20
-239.0402313650458
 30
0.0
 11
355.5419537907096
 21
-239.0402313650458
 31
0.0
  0
LINE
  5
AF
102
{ACAD_REACTORS
330
167
330
167
102
}
330
33
100
AcDbEntity
  8
1
  6
Continuous
 62
     2
100
AcDbLine
 10
355.5419537907096
 20
-239.0402313650458
 30
0.0
 11
356.452102194316
 21
-239.0402313650458
 31
0.0
  0
LINE
  5
B0
102
{ACAD_REACTORS
330
164
330
164
102
}
330
33
100
AcDbEntity
  8
1
  6
Continuous
 62
     2
100
AcDbLine
 10
371.452102194316
 20
-236.2902313650458
 30
0.0
 11
371.452102194316
 21
-241.9778188255559
 31
0.0
  0
LINE
  5
B1
102
{ACAD_REACTORS
330
164
330
164
102
}
330
33
100
AcDbEntity
  8
1
  6
Continuous
 62
     2
100
AcDbLine
 10
370.152102194316
 20
-241.9778188255557
 30
0.0
 11
370.152102194316
 21
-236.2902313650458
 31
0.0
  0
LINE
  5
B2
102
{ACAD_REACTORS
330
163
330
163
102
}
330
33
100
AcDbEntity
  8
1
  6
Continuous
 62
     2
100
AcDbLine
 10
374.652102194316
 20
-235.6402313650457
 30
0.0
 11
375.302102194316
 21
-235.6402313650457
 31
0.0
  0
LINE
  5
B3
102
{ACAD_REACTORS
330
163
330
163
102
}
330
33
100
AcDbEntity
  8
1
  6
Continuous
 62
     2
100
AcDbLine
 10
375.952102194316
 20
-236.2902313650458
 30
0.0
 11
375.952102194316
 21
-237.5902313650458
 31
0.0
  0
LINE
  5
B4
102
{ACAD_REACTORS
330
163
330
163
102
}
330
33
100
AcDbEntity
  8
1
  6
Continuous
 62
     2
100
AcDbLine
 10
375.302102194316
 20
-238.2402313650458
 30
0.0
 11
374.652102194316
 21
-238.2402313650458
 31
0.0
  0
LINE
  5
B5
102
{ACAD_REACTORS
330
163
330
163
102
}
330
33
100
AcDbEntity
  8
1
  6
Continuous
 62
     2
100
AcDbLine
 10
374.652102194316
 20
-239.3402313650458
 30
0.0
 11
374.652102194316
 21
-242.6278188255558
 31
0.0
  0
LINE
  5
B6
102
{ACAD_REACTORS
330
163
330
163
102
}
330
33
100
AcDbEntity
  8
1
  6
Continuous
 62
     2
100
AcDbLine
 10
374.652102194316
 20
-242.6278188255558
 30
0.0
 11
375.302102194316
 21
-242.6278188255558
 31
0.0
  0
LINE
  5
B7
102
{ACAD_REACTORS
330
163
330
163
102
}
330
33
100
AcDbEntity
  8
1
  6
Continuous
 62
     2
100
AcDbLine
 10
375.952102194316
 20
-241.9778188255559
 30
0.0
 11
375.952102194316
 21
-239.9902313650458
 31
0.0
  0
LINE
  5
B8
102
{ACAD_REACTORS
330
163
330
163
102
}
330
33
100
AcDbEntity
  8
1
  6
Continuous
 62
     2
100
AcDbLine
 10
374.652102194316
 20
-235.6402313650457
 30
0.0
 11
374.652102194316
 21
-238.2402313650458
 31
0.0
  0
LINE
  5
B9
102
{ACAD_REACTORS
330
163
330
163
102
}
330
33
100
AcDbEntity
  8
1
  6
Continuous
 62
     2
100
AcDbLine
 10
374.652102194316
 20
-239.3402313650458
 30
0.0
 11
375.302102194316
 21
-239.3402313650458
 31
0.0
  0
LINE
  5
BA
102
{ACAD_REACTORS
330
162
330
162
102
}
330
33
100
AcDbEntity
  8
1
  6
Continuous
 62
     2
100
AcDbLine
 10
380.452102194316
 20
-236.2902313650458
 30
0.0
 11
380.452102194316
 21
-241.9778188255559
 31
0.0
  0
LINE
  5
BB
102
{ACAD_REACTORS
330
162
330
162
102
}
330
33
100
AcDbEntity
  8
1
  6
Continuous
 62
     2
100
AcDbLine
 10
379.152102194316
 20
-241.9778188255559
 30
0.0
 11
379.152102194316
 21
-236.2902313650458
 31
0.0
  0
LINE
  5
BC
102
{ACAD_REACTORS
330
165
330
165
102
}
330
33
100
AcDbEntity
  8
1
  6
Continuous
 62
     2
100
AcDbLine
 10
388.3521021943161
 20
-236.2902313650458
 30
0.0
 11
388.3521021943161
 21
-241.9778188255559
 31
0.0
  0
LINE
  5
BD
102
{ACAD_REACTORS
330
165
330
165
102
}
330
33
100
AcDbEntity
  8
1
  6
Continuous
 62
     2
100
AcDbLine
 10
387.702102194316
 20
-242.6278188255558
 30
0.0
 11
387.052102194316
 21
-242.6278188255558
 31
0.0
  0
LINE
  5
BE
102
{ACAD_REACTORS
330
165
330
165
102
}
330
33
100
AcDbEntity
  8
1
  6
Continuous
 62
     2
100
AcDbLine
 10
387.052102194316
 20
-242.6278188255558
 30
0.0
 11
387.052102194316
 21
-236.2902313650458
 31
0.0
  0
LINE
  5
BF
102
{ACAD_REACTORS
330
15F
330
15F
102
}
330
33
100
AcDbEntity
  8
1
  6
Continuous
 62
     2
100
AcDbLine
 10
383.652102194316
 20
-234.5402313650458
 30
0.0
 11
383.652102194316
 21
-242.6278188255558
 31
0.0
  0
LINE
  5
C0
102
{ACAD_REACTORS
330
15F
330
15F
102
}
330
33
100
AcDbEntity
  8
1
  6
Continuous
 62
     2
100
AcDbLine
 10
383.652102194316
 20
-242.6278188255558
 30
0.0
 11
385.052102194316
 21
-242.6278188255558
 31
0.0
  0
LINE
  5
C1
102
{ACAD_REACTORS
330
165
330
165
102
}
330
33
100
AcDbEntity
  8
1
  6
Continuous
 62
     2
100
AcDbLine
 10
387.052102194316
 20
-235.6402313650457
 30
0.0
 11
387.702102194316
 21
-235.6402313650457
 31
0.0
  0
LINE
  5
C2
102
{ACAD_REACTORS
330
165
330
165
102
}
330
33
100
AcDbEntity
  8
1
  6
Continuous
 62
     2
100
AcDbLine
 10
387.052102194316
 20
-235.6402313650457
 30
0.0
 11
387.052102194316
 21
-236.2902313650458
 31
0.0
  0
LINE
  5
C3
102
{ACAD_REACTORS
330
163
330
163
102
}
330
33
100
AcDbEntity
  8
1
  6
Continuous
 62
     2
100
AcDbLine
 10
377.152102194316
 20
-238.1402313650457
 30
0.0
 11
377.152102194316
 21
-235.5402313650458
 31
0.0
  0
LINE
  5
C4
102
{ACAD_REACTORS
330
163
330
163
102
}
330
33
100
AcDbEntity
  8
1
  6
Continuous
 62
     2
100
AcDbLine
 10
377.152102194316
 20
-239.4402313650458
 30
0.0
 11
377.152102194316
 21
-242.7402313650458
 31
0.0
  0
LINE
  5
C5
102
{ACAD_REACTORS
330
160
330
160
102
}
330
33
100
AcDbEntity
  8
1
  6
Continuous
 62
     2
100
AcDbLine
 10
368.152102194316
 20
-234.5402313650458
 30
0.0
 11
366.7205108121937
 21
-238.7902313650458
 31
0.0
  0
LINE
  5
C6
102
{ACAD_REACTORS
330
160
330
160
102
}
330
33
100
AcDbEntity
  8
1
  6
Continuous
 62
     2
100
AcDbLine
 10
366.7205108121937
 20
-238.7902313650458
 30
0.0
 11
368.152102194316
 21
-243.7402313650458
 31
0.0
  0
LINE
  5
C7
102
{ACAD_REACTORS
330
160
330
160
102
}
330
33
100
AcDbEntity
  8
1
  6
Continuous
 62
     2
100
AcDbLine
 10
366.8858522237515
 20
-234.5402313650458
 30
0.0
 11
368.152102194316
 21
-234.5402313650458
 31
0.0
  0
LINE
  5
C8
102
{ACAD_REACTORS
330
160
330
160
102
}
330
33
100
AcDbEntity
  8
1
  6
Continuous
 62
     2
100
AcDbLine
 10
366.9029243016984
 20
-243.7402313650458
 30
0.0
 11
368.152102194316
 21
-243.7402313650458
 31
0.0
  0
LINE
  5
C9
102
{ACAD_REACTORS
330
160
330
160
102
}
330
33
100
AcDbEntity
  8
1
  6
Continuous
 62
     2
100
AcDbLine
 10
366.8858522237515
 20
-234.5402313650458
 30
0.0
 11
365.652102194316
 21
-238.2028949508853
 31
0.0
  0
LINE
  5
CA
102
{ACAD_REACTORS
330
160
330
160
102
}
330
33
100
AcDbEntity
  8
1
  6
Continuous
 62
     2
100
AcDbLine
 10
365.652102194316
 20
-239.4152755788743
 30
0.0
 11
366.9029243016984
 21
-243.7402313650458
 31
0.0
  0
LINE
  5
CB
102
{ACAD_REACTORS
330
160
330
160
102
}
330
33
100
AcDbEntity
  8
1
  6
Continuous
 62
     2
100
AcDbLine
 10
365.652102194316
 20
-234.5402313650458
 30
0.0
 11
365.652102194316
 21
-238.2028949508853
 31
0.0
  0
LINE
  5
CC
102
{ACAD_REACTORS
330
160
330
160
102
}
330
33
100
AcDbEntity
  8
1
  6
Continuous
 62
     2
100
AcDbLine
 10
365.652102194316
 20
-239.4152755788743
 30
0.0
 11
365.652102194316
 21
-243.7402313650458
 31
0.0
  0
LINE
  5
CD
102
{ACAD_REACTORS
330
164
330
164
102
}
330
33
100
AcDbEntity
  8
1
  6
Continuous
 62
     2
100
AcDbLine
 10
368.952102194316
 20
-242.7402313650458
 30
0.0
 11
368.952102194316
 21
-235.5402313650458
 31
0.0
  0
LINE
  5
CE
330
33
100
AcDbEntity
  8
1
  6
Continuous
 62
     2
100
AcDbLine
 10
400.8004479433177
 20
25.17976863495414
 30
0.0
 11
405.8004479433177
 21
25.17976863495414
 31
0.0
  0
LINE
  5
CF
330
33
100
AcDbEntity
  8
1
  6
Continuous
 62
     2
100
AcDbLine
 10
-225.1995520566823
 20
322.1797686349541
 30
0.0
 11
-225.1995520566823
 21
317.1797686349541
 31
0.0
  0
LINE
  5
D0
330
33
100
AcDbEntity
  8
1
  6
Continuous
 62
     2
100
AcDbLine
 10
-225.1995520566823
 20
322.1797686349541
 30
0.0
 11
-225.1995520566823
 21
317.1797686349541
 31
0.0
  0
LINE
  5
D1
330
33
100
AcDbEntity
  8
1
  6
Continuous
 62
     2
100
AcDbLine
 10
-330.1995520566823
 20
322.1797686349541
 30
0.0
 11
-331.9672288243591
 21
317.1797686349541
 31
0.0
  0
LINE
  5
D2
330
33
100
AcDbEntity
  8
1
  6
Continuous
 62
     2
100
AcDbLine
 10
-35.19955205668231
 20
322.1797686349541
 30
0.0
 11
-35.19955205668231
 21
317.1797686349541
 31
0.0
  0
LINE
  5
D3
330
33
100
AcDbEntity
  8
1
  6
Continuous
 62
     2
100
AcDbLine
 10
-225.1995520566823
 20
-266.8202313650459
 30
0.0
 11
-225.1995520566823
 21
-271.8202313650459
 31
0.0
  0
LINE
  5
D4
330
33
100
AcDbEntity
  8
1
  6
Continuous
 62
     2
100
AcDbLine
 10
-35.19955205668231
 20
322.1797686349541
 30
0.0
 11
-35.19955205668231
 21
317.1797686349541
 31
0.0
  0
LINE
  5
D5
330
33
100
AcDbEntity
  8
1
  6
Continuous
 62
     2
100
AcDbLine
 10
-35.19955205668231
 20
-266.8202313650459
 30
0.0
 11
-35.19955205668231
 21
-271.8202313650459
 31
0.0
  0
LINE
  5
D6
330
33
100
AcDbEntity
  8
1
  6
Continuous
 62
     2
100
AcDbLine
 10
215.8004479433177
 20
322.1797686349541
 30
0.0
 11
215.8004479433177
 21
317.1797686349541
 31
0.0
  0
LINE
  5
D7
330
33
100
AcDbEntity
  8
1
  6
Continuous
 62
     2
100
AcDbLine
 10
215.8004479433177
 20
-266.8202313650459
 30
0.0
 11
215.8004479433177
 21
-271.8202313650459
 31
0.0
  0
LINE
  5
D8
330
33
100
AcDbEntity
  8
1
  6
Continuous
 62
     2
100
AcDbLine
 10
-435.1995520566823
 20
-123.3202313650459
 30
0.0
 11
-425.1995520566823
 21
-123.3202313650459
 31
0.0
  0
LINE
  5
D9
330
33
100
AcDbEntity
  8
1
  6
Continuous
 62
     2
100
AcDbLine
 10
-435.1995520566823
 20
25.17976863495414
 30
0.0
 11
-425.1995520566823
 21
25.17976863495414
 31
0.0
  0
LINE
  5
DA
330
33
100
AcDbEntity
  8
1
  6
Continuous
 62
     7
100
AcDbLine
 10
-415.1995520566823
 20
317.1797686349541
 30
0.0
 11
-415.1995520566823
 21
-266.8202313650459
 31
0.0
  0
LINE
  5
DB
330
33
100
AcDbEntity
  8
1
  6
Continuous
 62
     7
100
AcDbLine
 10
400.8004479433177
 20
317.1797686349541
 30
0.0
 11
-415.1995520566823
 21
317.1797686349541
 31
0.0
  0
LINE
  5
DC
330
33
100
AcDbEntity
  8
1
  6
Continuous
 62
     7
100
AcDbLine
 10
400.8004479433177
 20
-266.8202313650459
 30
0.0
 11
400.8004479433177
 21
317.1797686349541
 31
0.0
  0
LINE
  5
DD
330
33
100
AcDbEntity
  8
1
  6
Continuous
 62
     7
100
AcDbLine
 10
-415.1995520566823
 20
-266.8202313650459
 30
0.0
 11
400.8004479433177
 21
-266.8202313650459
 31
0.0
  0
LINE
  5
DE
330
33
100
AcDbEntity
  8
1
  6
Continuous
 62
     2
100
AcDbLine
 10
-435.1995520566823
 20
322.1797686349541
 30
0.0
 11
-435.1995520566823
 21
-271.8202313650459
 31
0.0
  0
LINE
  5
DF
330
33
100
AcDbEntity
  8
1
  6
Continuous
 62
     2
100
AcDbLine
 10
405.8004479433177
 20
322.1797686349541
 30
0.0
 11
-435.1995520566823
 21
322.1797686349541
 31
0.0
  0
LINE
  5
E0
330
33
100
AcDbEntity
  8
1
  6
Continuous
 62
     2
100
AcDbLine
 10
405.8004479433177
 20
-271.8202313650459
 30
0.0
 11
405.8004479433177
 21
322.1797686349541
 31
0.0
  0
LINE
  5
E1
330
33
100
AcDbEntity
  8
1
  6
Continuous
 62
     2
100
AcDbLine
 10
-435.1995520566823
 20
-271.8202313650459
 30
0.0
 11
405.8004479433177
 21
-271.8202313650459
 31
0.0
  0
LINE
  5
E2
330
33
100
AcDbEntity
  8
1
  6
Continuous
 62
     2
100
AcDbLine
 10
250.9404479433162
 20
-232.9802313650458
 30
0.0
 11
250.9404479433162
 21
-249.9002313650458
 31
0.0
  0
LINE
  5
E3
330
33
100
AcDbEntity
  8
1
  6
Continuous
 62
     7
100
AcDbLine
 10
297.9304479433178
 20
-211.8302313650461
 30
0.0
 11
297.9304479433178
 21
-232.9802313650458
 31
0.0
  0
LINE
  5
E4
330
33
100
AcDbEntity
  8
1
  6
Continuous
 62
     2
100
AcDbLine
 10
263.6404479433168
 20
-211.8302313650461
 30
0.0
 11
263.6404479433168
 21
-232.9802313650458
 31
0.0
  0
LINE
  5
E5
330
33
100
AcDbEntity
  8
1
  6
Continuous
 62
     2
100
AcDbLine
 10
256.020447943316
 20
-211.8302313650461
 30
0.0
 11
256.020447943316
 21
-232.9802313650458
 31
0.0
  0
LINE
  5
E6
330
33
100
AcDbEntity
  8
1
  6
Continuous
 62
     7
100
AcDbLine
 10
217.9204479433167
 20
-232.9802313650458
 30
0.0
 11
400.8004479433177
 21
-232.9802313650458
 31
0.0
  0
LINE
  5
E7
330
33
100
AcDbEntity
  8
1
  6
Continuous
 62
     2
100
AcDbLine
 10
238.2404479433164
 20
-211.8302313650461
 30
0.0
 11
238.2404479433164
 21
-232.9802313650458
 31
0.0
  0
LINE
  5
E8
330
33
100
AcDbEntity
  8
1
  6
Continuous
 62
     2
100
AcDbLine
 10
271.2604479433176
 20
-241.4402313650467
 30
0.0
 11
217.9204479433167
 21
-241.4402313650467
 31
0.0
  0
LINE
  5
E9
330
33
100
AcDbEntity
  8
1
  6
Continuous
 62
     7
100
AcDbLine
 10
271.2604479433176
 20
-232.9802313650458
 30
0.0
 11
271.2604479433176
 21
-249.9002313650458
 31
0.0
  0
LINE
  5
EA
330
33
100
AcDbEntity
  8
1
  6
Continuous
 62
     7
100
AcDbLine
 10
271.2604479433176
 20
-211.8302313650461
 30
0.0
 11
271.2604479433176
 21
-232.9802313650458
 31
0.0
  0
LINE
  5
EB
330
33
100
AcDbEntity
  8
1
  6
Continuous
 62
     7
100
AcDbLine
 10
217.9204479433167
 20
-211.8302313650461
 30
0.0
 11
400.8004479433177
 21
-211.8302313650461
 31
0.0
  0
LINE
  5
EC
330
33
100
AcDbEntity
  8
1
  6
Continuous
 62
     2
100
AcDbLine
 10
217.9204479433167
 20
-245.6702313650463
 30
0.0
 11
271.2604479433176
 21
-245.6702313650463
 31
0.0
  0
LINE
  5
ED
330
33
100
AcDbEntity
  8
1
  6
Continuous
 62
     2
100
AcDbLine
 10
217.9204479433167
 20
-237.2102313650453
 30
0.0
 11
271.2604479433176
 21
-237.2102313650453
 31
0.0
  0
LINE
  5
EE
330
33
100
AcDbEntity
  8
1
  6
Continuous
 62
     2
100
AcDbLine
 10
233.1604479433166
 20
-232.9802313650458
 30
0.0
 11
233.1604479433166
 21
-249.9002313650458
 31
0.0
  0
LINE
  5
EF
330
33
100
AcDbEntity
  8
1
  6
Continuous
 62
     2
100
AcDbLine
 10
217.9204479433167
 20
-228.7502313650462
 30
0.0
 11
271.2604479433176
 21
-228.7502313650462
 31
0.0
  0
LINE
  5
F0
330
33
100
AcDbEntity
  8
1
  6
Continuous
 62
     2
100
AcDbLine
 10
217.9204479433167
 20
-220.2902313650471
 30
0.0
 11
271.2604479433176
 21
-220.2902313650471
 31
0.0
  0
LINE
  5
F1
330
33
100
AcDbEntity
  8
1
  6
Continuous
 62
     2
100
AcDbLine
 10
217.9204479433167
 20
-216.0602313650457
 30
0.0
 11
271.2604479433176
 21
-216.0602313650457
 31
0.0
  0
LINE
  5
F2
330
33
100
AcDbEntity
  8
1
  6
Continuous
 62
     7
100
AcDbLine
 10
388.1004479433179
 20
-249.9002313650458
 30
0.0
 11
388.1004479433179
 21
-262.5902313650462
 31
0.0
  0
LINE
  5
F3
330
33
100
AcDbEntity
  8
1
  6
Continuous
 62
     7
100
AcDbLine
 10
388.1004479433179
 20
-258.3602313650467
 30
0.0
 11
400.8004479433177
 21
-258.3602313650467
 31
0.0
  0
LINE
  5
F4
330
33
100
AcDbEntity
  8
1
  6
Continuous
 62
     7
100
AcDbLine
 10
324.6004479433179
 20
-262.5902313650462
 30
0.0
 11
400.8004479433177
 21
-262.5902313650462
 31
0.0
  0
LINE
  5
F5
330
33
100
AcDbEntity
  8
1
  6
Continuous
 62
     7
100
AcDbLine
 10
362.7004479433173
 20
-211.8302313650461
 30
0.0
 11
362.7004479433173
 21
-216.0602313650457
 31
0.0
  0
LINE
  5
F6
330
33
100
AcDbEntity
  8
1
  6
Continuous
 62
     7
100
AcDbLine
 10
324.6004479433179
 20
-216.0602313650457
 30
0.0
 11
400.8004479433177
 21
-216.0602313650457
 31
0.0
  0
LINE
  5
F7
330
33
100
AcDbEntity
  8
1
  6
Continuous
 62
     7
100
AcDbLine
 10
324.6004479433179
 20
-211.8302313650461
 30
0.0
 11
324.6004479433179
 21
-266.8202313650459
 31
0.0
  0
LINE
  5
F8
330
33
100
AcDbEntity
  8
1
  6
Continuous
 62
     7
100
AcDbLine
 10
233.1604479433166
 20
-249.9002313650458
 30
0.0
 11
233.1604479433166
 21
-266.8202313650459
 31
0.0
  0
LINE
  5
F9
330
33
100
AcDbEntity
  8
1
  6
Continuous
 62
     7
100
AcDbLine
 10
400.8004479433177
 20
-249.9002313650458
 30
0.0
 11
217.9204479433167
 21
-249.9002313650458
 31
0.0
  0
LINE
  5
FA
330
33
100
AcDbEntity
  8
1
  6
Continuous
 62
     2
100
AcDbLine
 10
271.2604479433176
 20
-224.5202313650466
 30
0.0
 11
217.9204479433167
 21
-224.5202313650466
 31
0.0
  0
LINE
  5
FB
330
33
100
AcDbEntity
  8
1
  6
Continuous
 62
     7
100
AcDbLine
 10
217.9204479433167
 20
-266.8202313650459
 30
0.0
 11
217.9204479433167
 21
-211.8302313650461
 31
0.0
  0
LINE
  5
FC
330
33
100
AcDbEntity
  8
1
  6
Continuous
 62
     2
100
AcDbLine
 10
223.0004479433166
 20
-211.8302313650461
 30
0.0
 11
223.0004479433166
 21
-232.9802313650458
 31
0.0
  0
ARC
  5
FD
102
{ACAD_REACTORS
330
168
330
168
102
}
330
33
100
AcDbEntity
  8
1
  6
Continuous
 62
     2
100
AcDbCircle
 10
337.7268740437077
 20
-242.6429354293784
 30
0.0
 40
1.097575516743347
100
AcDbArc
 50
-91.29325310587112
 51
-26.94184191294435
  0
ARC
  5
FE
102
{ACAD_REACTORS
330
166
330
166
102
}
330
33
100
AcDbEntity
  8
1
  6
Continuous
 62
     2
100
AcDbCircle
 10
351.1004822100411
 20
-238.2912316210754
 30
0.0
 40
0.8522732028339295
100
AcDbArc
 50
-84.97668097571412
 51
-2.24339224114379
  0
ARC
  5
FF
102
{ACAD_REACTORS
330
166
330
166
102
}
330
33
100
AcDbEntity
  8
1
  6
Continuous
 62
     2
100
AcDbCircle
 10
351.1165535054393
 20
-239.9737536818467
 30
0.0
 40
0.8355765145285912
100
AcDbArc
 50
-0.46759342609272
 51
85.98158622994593
  0
ARC
  5
100
102
{ACAD_REACTORS
330
167
330
167
102
}
330
33
100
AcDbEntity
  8
1
  6
Continuous
 62
     2
100
AcDbCircle
 10
354.6332272917566
 20
-242.653376082974
 30
0.0
 40
1.086965191302817
100
AcDbArc
 50
-90.8147991292691
 51
-26.60924039544627
  0
ARC
  5
101
102
{ACAD_REACTORS
330
163
330
163
102
}
330
33
100
AcDbEntity
  8
1
  6
Continuous
 62
     2
100
AcDbCircle
 10
376.502102194316
 20
-238.1402313650457
 30
0.0
 40
0.650000000000091
100
AcDbArc
 50
-90.0
 51
0.0
  0
ARC
  5
102
102
{ACAD_REACTORS
330
163
330
163
102
}
330
33
100
AcDbEntity
  8
1
  6
Continuous
 62
     2
100
AcDbCircle
 10
376.502102194316
 20
-239.4402313650458
 30
0.0
 40
0.6499999999999773
100
AcDbArc
 50
0.0
 51
90.0
  0
ARC
  5
103
102
{ACAD_REACTORS
330
168
330
168
102
}
330
33
100
AcDbEntity
  8
1
  6
Continuous
 62
     2
100
AcDbCircle
 10
338.552102194316
 20
-235.5402313650458
 30
0.0
 40
1.0
100
AcDbArc
 50
0.0
 51
90.0
  0
ARC
  5
104
102
{ACAD_REACTORS
330
168
330
168
102
}
330
33
100
AcDbEntity
  8
1
  6
Continuous
 62
     2
100
AcDbCircle
 10
336.8521021943161
 20
-242.7402313650458
 30
0.0
 40
1.000000000000227
100
AcDbArc
 50
180.0
 51
-90.0
  0
ARC
  5
105
102
{ACAD_REACTORS
330
161
330
161
102
}
330
33
100
AcDbEntity
  8
1
  6
Continuous
 62
     2
100
AcDbCircle
 10
344.752102194316
 20
-235.5402313650458
 30
0.0
 40
1.0
100
AcDbArc
 50
90.0
 51
180.0
  0
ARC
  5
106
102
{ACAD_REACTORS
330
161
330
161
102
}
330
33
100
AcDbEntity
  8
1
  6
Continuous
 62
     2
100
AcDbCircle
 10
346.452102194316
 20
-235.5402313650458
 30
0.0
 40
1.0
100
AcDbArc
 50
0.0
 51
90.0
  0
ARC
  5
107
102
{ACAD_REACTORS
330
161
330
161
102
}
330
33
100
AcDbEntity
  8
1
  6
Continuous
 62
     2
100
AcDbCircle
 10
344.752102194316
 20
-242.7402313650458
 30
0.0
 40
1.0
100
AcDbArc
 50
180.0
 51
-90.0
  0
ARC
  5
108
102
{ACAD_REACTORS
330
161
330
161
102
}
330
33
100
AcDbEntity
  8
1
  6
Continuous
 62
     2
100
AcDbCircle
 10
346.452102194316
 20
-242.7402313650458
 30
0.0
 40
1.0
100
AcDbArc
 50
-90.0
 51
0.0
  0
ARC
  5
109
102
{ACAD_REACTORS
330
166
330
166
102
}
330
33
100
AcDbEntity
  8
1
  6
Continuous
 62
     2
100
AcDbCircle
 10
350.952102194316
 20
-235.5402313650458
 30
0.0
 40
1.0
100
AcDbArc
 50
0.0
 51
90.0
  0
ARC
  5
10A
102
{ACAD_REACTORS
330
167
330
167
102
}
330
33
100
AcDbEntity
  8
1
  6
Continuous
 62
     2
100
AcDbCircle
 10
353.752102194316
 20
-235.5402313650458
 30
0.0
 40
1.0
100
AcDbArc
 50
90.0
 51
180.0
  0
ARC
  5
10B
102
{ACAD_REACTORS
330
167
330
167
102
}
330
33
100
AcDbEntity
  8
1
  6
Continuous
 62
     2
100
AcDbCircle
 10
355.452102194316
 20
-235.5402313650458
 30
0.0
 40
1.000000000000114
100
AcDbArc
 50
0.0
 51
90.0
  0
ARC
  5
10C
102
{ACAD_REACTORS
330
164
330
164
102
}
330
33
100
AcDbEntity
  8
1
  6
Continuous
 62
     2
100
AcDbCircle
 10
369.952102194316
 20
-235.5402313650458
 30
0.0
 40
1.0
100
AcDbArc
 50
90.0
 51
180.0
  0
ARC
  5
10D
102
{ACAD_REACTORS
330
164
330
164
102
}
330
33
100
AcDbEntity
  8
1
  6
Continuous
 62
     2
100
AcDbCircle
 10
371.652102194316
 20
-235.5402313650458
 30
0.0
 40
1.0
100
AcDbArc
 50
0.0
 51
90.0
  0
ARC
  5
10E
102
{ACAD_REACTORS
330
163
330
163
102
}
330
33
100
AcDbEntity
  8
1
  6
Continuous
 62
     2
100
AcDbCircle
 10
376.152102194316
 20
-235.5402313650458
 30
0.0
 40
1.0
100
AcDbArc
 50
0.0
 51
90.0
  0
ARC
  5
10F
102
{ACAD_REACTORS
330
162
330
162
102
}
330
33
100
AcDbEntity
  8
1
  6
Continuous
 62
     2
100
AcDbCircle
 10
380.652102194316
 20
-235.5402313650458
 30
0.0
 40
1.0
100
AcDbArc
 50
0.0
 51
90.0
  0
ARC
  5
110
102
{ACAD_REACTORS
330
162
330
162
102
}
330
33
100
AcDbEntity
  8
1
  6
Continuous
 62
     2
100
AcDbCircle
 10
378.952102194316
 20
-235.5402313650458
 30
0.0
 40
1.0
100
AcDbArc
 50
90.0
 51
180.0
  0
ARC
  5
111
102
{ACAD_REACTORS
330
165
330
165
102
}
330
33
100
AcDbEntity
  8
1
  6
Continuous
 62
     2
100
AcDbCircle
 10
388.552102194316
 20
-235.5402313650458
 30
0.0
 40
1.0
100
AcDbArc
 50
0.0
 51
90.0
  0
ARC
  5
112
102
{ACAD_REACTORS
330
162
330
162
102
}
330
33
100
AcDbEntity
  8
1
  6
Continuous
 62
     2
100
AcDbCircle
 10
380.652102194316
 20
-242.7402313650458
 30
0.0
 40
1.0
100
AcDbArc
 50
-90.0
 51
0.0
  0
ARC
  5
113
102
{ACAD_REACTORS
330
162
330
162
102
}
330
33
100
AcDbEntity
  8
1
  6
Continuous
 62
     2
100
AcDbCircle
 10
378.952102194316
 20
-242.7402313650458
 30
0.0
 40
1.0
100
AcDbArc
 50
180.0
 51
-90.0
  0
ARC
  5
114
102
{ACAD_REACTORS
330
163
330
163
102
}
330
33
100
AcDbEntity
  8
1
  6
Continuous
 62
     2
100
AcDbCircle
 10
376.152102194316
 20
-242.7402313650458
 30
0.0
 40
1.0
100
AcDbArc
 50
-90.0
 51
0.0
  0
ARC
  5
115
102
{ACAD_REACTORS
330
164
330
164
102
}
330
33
100
AcDbEntity
  8
1
  6
Continuous
 62
     2
100
AcDbCircle
 10
371.652102194316
 20
-242.7402313650458
 30
0.0
 40
1.0
100
AcDbArc
 50
-90.0
 51
0.0
  0
ARC
  5
116
102
{ACAD_REACTORS
330
164
330
164
102
}
330
33
100
AcDbEntity
  8
1
  6
Continuous
 62
     2
100
AcDbCircle
 10
369.952102194316
 20
-242.7402313650458
 30
0.0
 40
1.0
100
AcDbArc
 50
180.0
 51
-90.0
  0
ARC
  5
117
102
{ACAD_REACTORS
330
165
330
165
102
}
330
33
100
AcDbEntity
  8
1
  6
Continuous
 62
     2
100
AcDbCircle
 10
388.552102194316
 20
-242.7402313650458
 30
0.0
 40
1.0
100
AcDbArc
 50
-90.0
 51
0.0
  0
ARC
  5
118
102
{ACAD_REACTORS
330
167
330
167
102
}
330
33
100
AcDbEntity
  8
1
  6
Continuous
 62
     2
100
AcDbCircle
 10
353.752102194316
 20
-242.7402313650458
 30
0.0
 40
1.0
100
AcDbArc
 50
180.0
 51
-90.0
  0
ARC
  5
119
102
{ACAD_REACTORS
330
168
330
168
102
}
330
33
100
AcDbEntity
  8
1
  6
Continuous
 62
     2
100
AcDbCircle
 10
336.8521021943161
 20
-235.5402313650458
 30
0.0
 40
1.0
100
AcDbArc
 50
90.0
 51
180.0
  0
ARC
  5
11A
102
{ACAD_REACTORS
330
161
330
161
102
}
330
33
100
AcDbEntity
  8
1
  6
Continuous
 62
     2
100
AcDbCircle
 10
345.6021021943161
 20
-236.2902313650458
 30
0.0
 40
0.650000000000091
100
AcDbArc
 50
90.0
 51
180.0
  0
ARC
  5
11B
102
{ACAD_REACTORS
330
161
330
161
102
}
330
33
100
AcDbEntity
  8
1
  6
Continuous
 62
     2
100
AcDbCircle
 10
345.6021021943161
 20
-236.2902313650458
 30
0.0
 40
0.6499999999999204
100
AcDbArc
 50
0.0
 51
90.0
  0
ARC
  5
11C
102
{ACAD_REACTORS
330
161
330
161
102
}
330
33
100
AcDbEntity
  8
1
  6
Continuous
 62
     2
100
AcDbCircle
 10
345.6021021943161
 20
-241.9778188255559
 30
0.0
 40
0.650000000000091
100
AcDbArc
 50
180.0
 51
-90.0
  0
ARC
  5
11D
102
{ACAD_REACTORS
330
161
330
161
102
}
330
33
100
AcDbEntity
  8
1
  6
Continuous
 62
     2
100
AcDbCircle
 10
345.6021021943161
 20
-241.9778188255559
 30
0.0
 40
0.6499999999999204
100
AcDbArc
 50
-90.0
 51
0.0
  0
ARC
  5
11E
102
{ACAD_REACTORS
330
166
330
166
102
}
330
33
100
AcDbEntity
  8
1
  6
Continuous
 62
     2
100
AcDbCircle
 10
350.1021021943161
 20
-236.2902313650458
 30
0.0
 40
0.6499999999999204
100
AcDbArc
 50
0.0
 51
90.0
  0
ARC
  5
11F
102
{ACAD_REACTORS
330
166
330
166
102
}
330
33
100
AcDbEntity
  8
1
  6
Continuous
 62
     2
100
AcDbCircle
 10
350.1021021943161
 20
-240.3902313650457
 30
0.0
 40
0.6499999999999204
100
AcDbArc
 50
0.0
 51
90.0
  0
ARC
  5
120
102
{ACAD_REACTORS
330
166
330
166
102
}
330
33
100
AcDbEntity
  8
1
  6
Continuous
 62
     2
100
AcDbCircle
 10
350.1021021943161
 20
-237.8902313650457
 30
0.0
 40
0.650000000000091
100
AcDbArc
 50
-90.0
 51
0.0
  0
ARC
  5
121
102
{ACAD_REACTORS
330
167
330
167
102
}
330
33
100
AcDbEntity
  8
1
  6
Continuous
 62
     2
100
AcDbCircle
 10
354.6021021943161
 20
-236.2902313650458
 30
0.0
 40
0.650000000000091
100
AcDbArc
 50
90.0
 51
180.0
  0
ARC
  5
122
102
{ACAD_REACTORS
330
167
330
167
102
}
330
33
100
AcDbEntity
  8
1
  6
Continuous
 62
     2
100
AcDbCircle
 10
354.6021021943161
 20
-236.2902313650458
 30
0.0
 40
0.6499999999999204
100
AcDbArc
 50
0.0
 51
90.0
  0
ARC
  5
123
102
{ACAD_REACTORS
330
167
330
167
102
}
330
33
100
AcDbEntity
  8
1
  6
Continuous
 62
     2
100
AcDbCircle
 10
354.6021021943161
 20
-241.9778188255559
 30
0.0
 40
0.650000000000091
100
AcDbArc
 50
180.0
 51
-90.0
  0
ARC
  5
124
102
{ACAD_REACTORS
330
167
330
167
102
}
330
33
100
AcDbEntity
  8
1
  6
Continuous
 62
     2
100
AcDbCircle
 10
354.6021021943161
 20
-241.9778188255559
 30
0.0
 40
0.6499999999999204
100
AcDbArc
 50
-90.0
 51
0.0
  0
ARC
  5
125
102
{ACAD_REACTORS
330
168
330
168
102
}
330
33
100
AcDbEntity
  8
1
  6
Continuous
 62
     2
100
AcDbCircle
 10
337.702102194316
 20
-236.2902313650458
 30
0.0
 40
0.650000000000091
100
AcDbArc
 50
90.0
 51
180.0
  0
ARC
  5
126
102
{ACAD_REACTORS
330
168
330
168
102
}
330
33
100
AcDbEntity
  8
1
  6
Continuous
 62
     2
100
AcDbCircle
 10
337.702102194316
 20
-236.2902313650458
 30
0.0
 40
0.650000000000091
100
AcDbArc
 50
0.0
 51
90.0
  0
ARC
  5
127
102
{ACAD_REACTORS
330
168
330
168
102
}
330
33
100
AcDbEntity
  8
1
  6
Continuous
 62
     2
100
AcDbCircle
 10
337.702102194316
 20
-241.9778188255559
 30
0.0
 40
0.6500000000000341
100
AcDbArc
 50
180.0
 51
-90.0
  0
ARC
  5
128
102
{ACAD_REACTORS
330
168
330
168
102
}
330
33
100
AcDbEntity
  8
1
  6
Continuous
 62
     2
100
AcDbCircle
 10
337.702102194316
 20
-241.9778188255559
 30
0.0
 40
0.6499999999999204
100
AcDbArc
 50
-90.0
 51
0.0
  0
ARC
  5
129
102
{ACAD_REACTORS
330
165
330
165
102
}
330
33
100
AcDbEntity
  8
1
  6
Continuous
 62
     2
100
AcDbCircle
 10
387.702102194316
 20
-236.2902313650458
 30
0.0
 40
0.650000000000091
100
AcDbArc
 50
0.0
 51
90.0
  0
ARC
  5
12A
102
{ACAD_REACTORS
330
165
330
165
102
}
330
33
100
AcDbEntity
  8
1
  6
Continuous
 62
     2
100
AcDbCircle
 10
387.702102194316
 20
-241.9778188255559
 30
0.0
 40
0.6499999999999204
100
AcDbArc
 50
-90.0
 51
0.0
  0
ARC
  5
12B
102
{ACAD_REACTORS
330
162
330
162
102
}
330
33
100
AcDbEntity
  8
1
  6
Continuous
 62
     2
100
AcDbCircle
 10
379.802102194316
 20
-236.2902313650458
 30
0.0
 40
0.6500000000000341
100
AcDbArc
 50
0.0
 51
90.0
  0
ARC
  5
12C
102
{ACAD_REACTORS
330
162
330
162
102
}
330
33
100
AcDbEntity
  8
1
  6
Continuous
 62
     2
100
AcDbCircle
 10
379.802102194316
 20
-236.2902313650458
 30
0.0
 40
0.650000000000091
100
AcDbArc
 50
90.0
 51
180.0
  0
ARC
  5
12D
102
{ACAD_REACTORS
330
162
330
162
102
}
330
33
100
AcDbEntity
  8
1
  6
Continuous
 62
     2
100
AcDbCircle
 10
379.802102194316
 20
-241.9778188255559
 30
0.0
 40
0.6499999999999773
100
AcDbArc
 50
180.0
 51
-90.0
  0
ARC
  5
12E
102
{ACAD_REACTORS
330
162
330
162
102
}
330
33
100
AcDbEntity
  8
1
  6
Continuous
 62
     2
100
AcDbCircle
 10
379.802102194316
 20
-241.9778188255559
 30
0.0
 40
0.6499999999999204
100
AcDbArc
 50
-90.0
 51
0.0
  0
ARC
  5
12F
102
{ACAD_REACTORS
330
164
330
164
102
}
330
33
100
AcDbEntity
  8
1
  6
Continuous
 62
     2
100
AcDbCircle
 10
370.802102194316
 20
-236.2902313650458
 30
0.0
 40
0.650000000000091
100
AcDbArc
 50
90.0
 51
180.0
  0
ARC
  5
130
102
{ACAD_REACTORS
330
164
330
164
102
}
330
33
100
AcDbEntity
  8
1
  6
Continuous
 62
     2
100
AcDbCircle
 10
370.802102194316
 20
-236.2902313650458
 30
0.0
 40
0.6500000000000341
100
AcDbArc
 50
0.0
 51
90.0
  0
ARC
  5
131
102
{ACAD_REACTORS
330
164
330
164
102
}
330
33
100
AcDbEntity
  8
1
  6
Continuous
 62
     2
100
AcDbCircle
 10
370.802102194316
 20
-241.9778188255559
 30
0.0
 40
0.6499999999999773
100
AcDbArc
 50
179.9999999999825
 51
-90.0
  0
ARC
  5
132
102
{ACAD_REACTORS
330
164
330
164
102
}
330
33
100
AcDbEntity
  8
1
  6
Continuous
 62
     2
100
AcDbCircle
 10
370.802102194316
 20
-241.9778188255559
 30
0.0
 40
0.6499999999999204
100
AcDbArc
 50
-90.0
 51
0.0
  0
ARC
  5
133
102
{ACAD_REACTORS
330
163
330
163
102
}
330
33
100
AcDbEntity
  8
1
  6
Continuous
 62
     2
100
AcDbCircle
 10
375.302102194316
 20
-236.2902313650458
 30
0.0
 40
0.6500000000000341
100
AcDbArc
 50
0.0
 51
90.0
  0
ARC
  5
134
102
{ACAD_REACTORS
330
163
330
163
102
}
330
33
100
AcDbEntity
  8
1
  6
Continuous
 62
     2
100
AcDbCircle
 10
375.302102194316
 20
-237.5902313650458
 30
0.0
 40
0.6499999999999773
100
AcDbArc
 50
-90.0
 51
0.0
  0
ARC
  5
135
102
{ACAD_REACTORS
330
163
330
163
102
}
330
33
100
AcDbEntity
  8
1
  6
Continuous
 62
     2
100
AcDbCircle
 10
375.302102194316
 20
-239.9902313650458
 30
0.0
 40
0.6500000000000341
100
AcDbArc
 50
0.0
 51
90.0
  0
ARC
  5
136
102
{ACAD_REACTORS
330
163
330
163
102
}
330
33
100
AcDbEntity
  8
1
  6
Continuous
 62
     2
100
AcDbCircle
 10
375.302102194316
 20
-241.9778188255559
 30
0.0
 40
0.6499999999999204
100
AcDbArc
 50
-90.0
 51
0.0
  0
MTEXT
  5
138
330
33
100
AcDbEntity
  8
1
 62
     2
100
AcDbMText
 10
362.452102194316
 20
-247.3402313650458
 30
0.0
 40
2.8
 41
0.0
 71
     5
 72
     1
  1
GmbH & Co. KG
  7
CONVERTER_11
 73
     1
 44
1.32052821128451
  0
MTEXT
  5
13A
330
33
100
AcDbEntity
  8
1
 62
     2
100
AcDbMText
 10
242.0504479433177
 20
-243.5552313650472
 30
0.0
 40
1.8
 41
0.0
 71
     5
 72
     1
  1
05.02.09
  7
CONVERTER_12
 73
     1
 44
1.32052821128451
  0
MTEXT
  5
13C
330
33
100
AcDbEntity
  8
1
 62
     3
100
AcDbMText
 10
297.9304479433177
 20
-237.9452313650459
 30
0.0
 40
2.5
 41
0.0
 71
     5
 72
     1
  1
KTY 628... Q-(MF)-Rx/H
  7
CONVERTER_13
 73
     1
 44
1.32052821128451
  0
MTEXT
  5
13E
330
33
100
AcDbEntity
  8
1
 62
     7
100
AcDbMText
 10
225.5404479433177
 20
-260.8552313650459
 30
0.0
 40
5.0
 41
0.0
 71
     5
 72
     1
  1
1:1
  7
CONVERTER_14
 73
     1
 44
1.32052821128451
  0
MTEXT
  5
13F
330
33
100
AcDbEntity
  8
1
 62
     2
100
AcDbMText
 10
242.0504479433177
 20
-239.3252313650459
 30
0.0
 40
1.8
 41
0.0
 71
     5
 72
     1
  1
05.02.09
  7
CONVERTER_12
 73
     1
 44
1.32052821128451
  0
MTEXT
  5
140
330
33
100
AcDbEntity
  8
1
 62
     2
100
AcDbMText
 10
261.1004479433177
 20
-239.3252313650459
 30
0.0
 40
1.8
 41
0.0
 71
     5
 72
     1
  1
HI
  7
CONVERTER_12
 73
     1
 44
1.32052821128451
  0
MTEXT
  5
142
330
33
100
AcDbEntity
  8
1
 62
     7
100
AcDbMText
 10
279.4054479433177
 20
-260.6502313650458
 30
0.0
 40
5.0
 41
0.0
 71
     5
 72
     1
  1
Maßblatt
  7
CONVERTER_15
 73
     1
 44
1.32052821128451
  0
MTEXT
  5
143
330
33
100
AcDbEntity
  8
1
 62
     2
100
AcDbMText
 10
392.6504479433177
 20
-260.5702313650459
 30
0.0
 40
1.8
 41
0.0
 71
     5
 72
     1
  1
1
  7
CONVERTER_12
 73
     1
 44
1.32052821128451
  0
MTEXT
  5
144
330
33
100
AcDbEntity
  8
1
 62
     3
100
AcDbMText
 10
396.1754479433177
 20
-254.1302313650459
 30
0.0
 40
3.0
 41
0.0
 71
     5
 72
     1
  1
1
  7
CONVERTER_15
 73
     1
 44
1.32052821128451
  0
MTEXT
  5
145
330
33
100
AcDbEntity
  8
1
 62
     7
100
AcDbMText
 10
356.3504479433177
 20
-257.6002313650458
 30
0.0
 40
5.0
 41
0.0
 71
     5
 72
     1
  1
K3032
  7
CONVERTER_14
 73
     1
 44
1.32052821128451
  0
TEXT
  5
146
330
33
100
AcDbEntity
  8
1
 62
     2
100
AcDbText
 10
389.1004479433179
 20
-253.9002313650458
 30
0.0
 40
1.8
  1
Bl.
 41
0.9
  7
CONVERTER_12
100
AcDbText
  0
MTEXT
  5
147
330
33
100
AcDbEntity
  8
1
 62
     2
100
AcDbMText
 10
325.6686617204627
 20
-264.7052313650461
 30
0.0
 40
1.8
 41
0.0
 71
     4
 72
     1
  1
Ers.
  7
CONVERTER_12
 73
     1
 44
1.32052821128451
  0
TEXT
  5
148
330
33
100
AcDbEntity
  8
1
 62
     2
100
AcDbText
 10
325.6004479433179
 20
-219.2902313650471
 30
0.0
 40
1.8
  1
Werkstoff
 41
0.9
  7
CONVERTER_12
100
AcDbText
  0
MTEXT
  5
149
330
33
100
AcDbEntity
  8
1
 62
     2
100
AcDbMText
 10
363.7004479433173
 20
-213.9452313650459
 30
0.0
 40
1.8
 41
0.0
 71
     4
 72
     1
  1
Gewicht
  7
CONVERTER_12
 73
     1
 44
1.32052821128451
  0
MTEXT
  5
14A
330
33
100
AcDbEntity
  8
1
 62
     2
100
AcDbMText
 10
325.6004479433179
 20
-213.9452313650459
 30
0.0
 40
1.8
 41
0.0
 71
     4
 72
     1
  1
Urheberschutz  DIN 34
  7
CONVERTER_12
 73
     1
 44
1.32052821128451
  0
TEXT
  5
14B
330
33
100
AcDbEntity
  8
1
 62
     2
100
AcDbText
 10
326.696731322065
 20
-253.5348035721312
 30
0.0
 40
1.8
  1
Z.-Nr.
 41
0.9
  7
CONVERTER_12
100
AcDbText
  0
TEXT
  5
14C
330
33
100
AcDbEntity
  8
1
 62
     2
100
AcDbText
 10
234.1604479433166
 20
-253.9002313650458
 30
0.0
 40
1.8
  1
Benennung
 41
0.9
  7
CONVERTER_12
100
AcDbText
  0
TEXT
  5
14D
330
33
100
AcDbEntity
  8
1
 62
     2
100
AcDbText
 10
218.9204479433167
 20
-253.9002313650458
 30
0.0
 40
1.8
  1
Maßstab
 41
0.9
  7
CONVERTER_12
100
AcDbText
  0
TEXT
  5
14E
330
33
100
AcDbEntity
  8
1
 62
     2
100
AcDbText
 10
271.7604479433176
 20
-235.6102313650453
 30
0.0
 40
1.8
  1
Typ
 41
0.9
  7
CONVERTER_12
100
AcDbText
  0
TEXT
  5
14F
330
33
100
AcDbEntity
  8
1
 62
     2
100
AcDbText
 10
218.9204479433167
 20
-248.9002313650458
 30
0.0
 40
1.8
  1
Norm.
 41
0.9
  7
CONVERTER_12
100
AcDbText
  0
TEXT
  5
150
330
33
100
AcDbEntity
  8
1
 62
     2
100
AcDbText
 10
218.9204479433167
 20
-244.6702313650463
 30
0.0
 40
1.8
  1
Gepr.
 41
0.9
  7
CONVERTER_12
100
AcDbText
  0
TEXT
  5
151
330
33
100
AcDbEntity
  8
1
 62
     2
100
AcDbText
 10
218.9204479433167
 20
-240.4402313650467
 30
0.0
 40
1.8
  1
Bearb.
 41
0.9
  7
CONVERTER_12
100
AcDbText
  0
TEXT
  5
152
330
33
100
AcDbEntity
  8
1
 62
     2
100
AcDbText
 10
255.5324759102865
 20
-236.2102313650453
 30
0.0
 40
1.8
  1
Name
 41
0.9
  7
CONVERTER_12
100
AcDbText
  0
TEXT
  5
153
330
33
100
AcDbEntity
  8
1
 62
     2
100
AcDbText
 10
237.7524759102867
 20
-236.2102313650453
 30
0.0
 40
1.8
  1
Datum
 41
0.9
  7
CONVERTER_12
100
AcDbText
  0
TEXT
  5
154
330
33
100
AcDbEntity
  8
1
 62
     2
100
AcDbText
 10
264.6404479433168
 20
-231.9802313650458
 30
0.0
 40
1.8
  1
Gepr.
 41
0.72
  7
CONVERTER_15
100
AcDbText
  0
TEXT
  5
155
330
33
100
AcDbEntity
  8
1
 62
     2
100
AcDbText
 10
257.020447943316
 20
-231.9802313650458
 30
0.0
 40
1.8
  1
Name
 41
0.72
  7
CONVERTER_15
100
AcDbText
  0
TEXT
  5
156
330
33
100
AcDbEntity
  8
1
 62
     2
100
AcDbText
 10
239.2404479433164
 20
-231.9802313650458
 30
0.0
 40
1.8
  1
Datum
 41
0.9
  7
CONVERTER_12
100
AcDbText
  0
TEXT
  5
157
330
33
100
AcDbEntity
  8
1
 62
     2
100
AcDbText
 10
224.0004479433166
 20
-231.9802313650458
 30
0.0
 40
1.8
  1
Änderung
 41
0.9
  7
CONVERTER_12
100
AcDbText
  0
TEXT
  5
158
330
33
100
AcDbEntity
  8
1
 62
     2
100
AcDbText
 10
218.9204479433167
 20
-231.9802313650458
 30
0.0
 40
1.8
  1
Nr.
 41
0.9
  7
CONVERTER_12
100
AcDbText
  0
TEXT
  5
159
330
33
100
AcDbEntity
  8
0
 62
     2
100
AcDbText
 10
397.25207184673
 20
-261.4741435064539
 30
0.0
 40
1.8
  1
Bl.
 41
0.9
  7
CONVERTER_12
100
AcDbText
  0
MTEXT
  5
15A
330
33
100
AcDbEntity
  8
1
 62
     3
100
AcDbMText
 10
299.3854479433178
 20
-222.4052313650459
 30
0.0
 40
2.2
 41
0.0
 71
     4
 72
     1
  1
Oberflächen\PDIN ISO 1302\PReihe 2
  7
CONVERTER_12
 73
     1
 44
1.32052821128451
  0
MTEXT
  5
15B
330
33
100
AcDbEntity
  8
1
 62
     3
100
AcDbMText
 10
272.7154479433178
 20
-222.4052313650459
 30
0.0
 40
2.2
 41
0.0
 71
     4
 72
     1
  1
Allgemein-\Ptoleranzen\PDIN ISO 2768-mK
  7
CONVERTER_15
 73
     1
 44
1.32052821128451
  0
HATCH
  5
15C
330
33
100
AcDbEntity
  8
1
  6
Continuous
 62
     2
100
AcDbHatch
 10
0.0
 20
0.0
 30
0.0
210
0.0
220
0.0
230
1.0
  2
CUSTOM0
 70
     0
 71
     1
 91
        1
 92
        1
 93
        4
 72
     1
 10
358.452102194316
 20
-243.7402313650458
 11
357.252102194316
 21
-243.7402313650458
 72
     1
 10
357.252102194316
 20
-243.7402313650458
 11
357.252102194316
 21
-234.5402313650458
 72
     1
 10
357.252102194316
 20
-234.5402313650458
 11
358.452102194316
 21
-234.5402313650458
 72
     1
 10
358.452102194316
 20
-234.5402313650458
 11
358.452102194316
 21
-243.7402313650458
 97
        4
330
96
330
9C
330
98
330
9B
 75
     1
 76
     2
 52
90.00000000000003
 41
0.15
 77
     0
 78
     1
 53
90.00000000000003
 43
-102.5
 44
63.28999999999995
 45
-0.1499999999999999
 46
-0.15
 79
     0
 98
        1
 10
0.0
 20
0.0
  0
HATCH
  5
15D
330
33
100
AcDbEntity
  8
1
  6
Continuous
 62
     2
100
AcDbHatch
 10
0.0
 20
0.0
 30
0.0
210
0.0
220
0.0
230
1.0
  2
CUSTOM1
 70
     0
 71
     1
 91
        1
 92
        1
 93
        4
 72
     1
 10
360.452102194316
 20
-243.7402313650458
 11
359.252102194316
 21
-243.7402313650458
 72
     1
 10
359.252102194316
 20
-243.7402313650458
 11
359.252102194316
 21
-234.5402313650458
 72
     1
 10
359.252102194316
 20
-234.5402313650458
 11
360.452102194316
 21
-234.5402313650458
 72
     1
 10
360.452102194316
 20
-234.5402313650458
 11
360.452102194316
 21
-243.7402313650458
 97
        4
330
97
330
9A
330
A0
330
99
 75
     1
 76
     2
 52
90.00000000000003
 41
0.15
 77
     0
 78
     1
 53
90.00000000000003
 43
-102.5
 44
63.28999999999995
 45
-0.1499999999999999
 46
-0.15
 79
     0
 98
        1
 10
0.0
 20
0.0
  0
HATCH
  5
15E
330
33
100
AcDbEntity
  8
1
  6
Continuous
 62
     2
100
AcDbHatch
 10
0.0
 20
0.0
 30
0.0
210
0.0
220
0.0
230
1.0
  2
CUSTOM2
 70
     0
 71
     1
 91
        1
 92
        1
 93
       12
 72
     1
 10
342.952102194316
 20
-234.5402313650458
 11
340.3521021943161
 21
-234.5402313650458
 72
     1
 10
340.3521021943161
 20
-234.5402313650458
 11
340.3521021943161
 21
-243.7402313650458
 72
     1
 10
340.3521021943161
 20
-243.7402313650458
 11
342.952102194316
 21
-243.7402313650458
 72
     1
 10
342.952102194316
 20
-243.7402313650458
 11
342.952102194316
 21
-242.6278188255558
 72
     1
 10
342.952102194316
 20
-242.6278188255558
 11
341.652102194316
 21
-242.6278188255558
 72
     1
 10
341.652102194316
 20
-242.6278188255558
 11
341.652102194316
 21
-239.3402313650458
 72
     1
 10
341.652102194316
 20
-239.3402313650458
 11
342.952102194316
 21
-239.3402313650458
 72
     1
 10
342.952102194316
 20
-239.3402313650458
 11
342.952102194316
 21
-238.2402313650458
 72
     1
 10
342.952102194316
 20
-238.2402313650458
 11
341.652102194316
 21
-238.2402313650458
 72
     1
 10
341.652102194316
 20
-238.2402313650458
 11
341.652102194316
 21
-235.6402313650457
 72
     1
 10
341.652102194316
 20
-235.6402313650457
 11
342.952102194316
 21
-235.6402313650457
 72
     1
 10
342.952102194316
 20
-235.6402313650457
 11
342.952102194316
 21
-234.5402313650458
 97
       12
330
60
330
61
330
62
330
63
330
58
330
54
330
55
330
56
330
57
330
59
330
A1
330
A2
 75
     1
 76
     2
 52
90.00000000000003
 41
0.15
 77
     0
 78
     1
 53
90.00000000000003
 43
-102.5
 44
63.28999999999995
 45
-0.1499999999999999
 46
-0.15
 79
     0
 98
        1
 10
0.0
 20
0.0
  0
HATCH
  5
15F
330
33
100
AcDbEntity
  8
1
  6
Continuous
 62
     2
100
AcDbHatch
 10
0.0
 20
0.0
 30
0.0
210
0.0
220
0.0
230
1.0
  2
CUSTOM3
 70
     0
 71
     1
 91
        1
 92
        1
 93
        6
 72
     1
 10
385.052102194316
 20
-243.7402313650458
 11
382.452102194316
 21
-243.7402313650458
 72
     1
 10
382.452102194316
 20
-243.7402313650458
 11
382.452102194316
 21
-234.5402313650458
 72
     1
 10
382.452102194316
 20
-234.5402313650458
 11
383.652102194316
 21
-234.5402313650458
 72
     1
 10
383.652102194316
 20
-234.5402313650458
 11
383.652102194316
 21
-242.6278188255558
 72
     1
 10
383.652102194316
 20
-242.6278188255558
 11
385.052102194316
 21
-242.6278188255558
 72
     1
 10
385.052102194316
 20
-242.6278188255558
 11
385.052102194316
 21
-243.7402313650458
 97
        6
330
C0
330
BF
330
83
330
80
330
81
330
82
 75
     1
 76
     2
 52
90.00000000000003
 41
0.15
 77
     0
 78
     1
 53
90.00000000000003
 43
-102.5
 44
63.28999999999995
 45
-0.1499999999999999
 46
-0.15
 79
     0
 98
        1
 10
0.0
 20
0.0
  0
HATCH
  5
160
330
33
100
AcDbEntity
  8
1
  6
Continuous
 62
     2
100
AcDbHatch
 10
0.0
 20
0.0
 30
0.0
210
0.0
220
0.0
230
1.0
  2
CUSTOM4
 70
     0
 71
     1
 91
        1
 92
        1
 93
       11
 72
     1
 10
365.652102194316
 20
-238.2028949508853
 11
366.8858522237515
 21
-234.5402313650458
 72
     1
 10
366.8858522237515
 20
-234.5402313650458
 11
368.152102194316
 21
-234.5402313650458
 72
     1
 10
368.152102194316
 20
-234.5402313650458
 11
366.7205108121937
 21
-238.7902313650458
 72
     1
 10
366.7205108121937
 20
-238.7902313650458
 11
368.152102194316
 21
-243.7402313650458
 72
     1
 10
368.152102194316
 20
-243.7402313650458
 11
366.9029243016984
 21
-243.7402313650458
 72
     1
 10
366.9029243016984
 20
-243.7402313650458
 11
365.652102194316
 21
-239.4152755788743
 72
     1
 10
365.652102194316
 20
-239.4152755788743
 11
365.652102194316
 21
-243.7402313650458
 72
     1
 10
365.652102194316
 20
-243.7402313650458
 11
364.452102194316
 21
-243.7402313650458
 72
     1
 10
364.452102194316
 20
-243.7402313650458
 11
364.452102194316
 21
-234.5402313650458
 72
     1
 10
364.452102194316
 20
-234.5402313650458
 11
365.652102194316
 21
-234.5402313650458
 72
     1
 10
365.652102194316
 20
-234.5402313650458
 11
365.652102194316
 21
-238.2028949508853
 97
       11
330
73
330
75
330
74
330
CC
330
CA
330
C8
330
C6
330
C5
330
C7
330
C9
330
CB
 75
     1
 76
     2
 52
90.00000000000003
 41
0.15
 77
     0
 78
     1
 53
90.00000000000003
 43
-102.5
 44
63.28999999999995
 45
-0.1499999999999999
 46
-0.15
 79
     0
 98
        1
 10
0.0
 20
0.0
  0
HATCH
  5
161
330
33
100
AcDbEntity
  8
1
  6
Continuous
 62
     2
100
AcDbHatch
 10
0.0
 20
0.0
 30
0.0
210
0.0
220
0.0
230
1.0
  2
CUSTOM5
 70
     0
 71
     1
 91
        2
 92
        1
 93
        8
 72
     1
 10
347.452102194316
 20
-235.5402313650458
 11
347.452102194316
 21
-242.7402313650458
 72
     2
 10
346.452102194316
 20
-242.7402313650458
 40
1.0
 50
0.0
 51
90.0
 73
     0
 72
     1
 10
346.452102194316
 20
-243.7402313650458
 11
344.752102194316
 21
-243.7402313650458
 72
     2
 10
344.752102194316
 20
-242.7402313650458
 40
1.0
 50
90.0
 51
180.0
 73
     0
 72
     1
 10
343.752102194316
 20
-242.7402313650458
 11
343.752102194316
 21
-235.5402313650458
 72
     2
 10
344.752102194316
 20
-235.5402313650458
 40
1.0
 50
180.0
 51
270.0
 73
     0
 72
     1
 10
344.752102194316
 20
-234.5402313650458
 11
346.452102194316
 21
-234.5402313650458
 72
     2
 10
346.452102194316
 20
-235.5402313650458
 40
1.0
 50
270.0
 51
360.0
 73
     0
 97
        8
330
67
330
105
330
69
330
107
330
68
330
108
330
6A
330
106
 92
       16
 93
        6
 72
     2
 10
345.6021021943161
 20
-236.2902313650458
 40
0.650000000000091
 50
90.0
 51
180.0
 73
     1
 72
     1
 10
344.952102194316
 20
-236.2902313650458
 11
344.952102194316
 21
-241.9778188255559
 72
     2
 10
345.6021021943161
 20
-241.9778188255559
 40
0.650000000000091
 50
180.0
 51
270.0
 73
     1
 72
     2
 10
345.6021021943161
 20
-241.9778188255559
 40
0.6499999999999204
 50
270.0
 51
360.0
 73
     1
 72
     1
 10
346.252102194316
 20
-241.9778188255559
 11
346.252102194316
 21
-236.2902313650458
 72
     2
 10
345.6021021943161
 20
-236.2902313650458
 40
0.6499999999999204
 50
0.0
 51
90.0
 73
     1
 97
        6
330
11A
330
A4
330
11C
330
11D
330
A3
330
11B
 75
     1
 76
     2
 52
90.00000000000003
 41
0.15
 77
     0
 78
     1
 53
90.00000000000003
 43
-102.5
 44
63.28999999999995
 45
-0.1499999999999999
 46
-0.15
 79
     0
 98
        1
 10
0.0
 20
0.0
  0
HATCH
  5
162
330
33
100
AcDbEntity
  8
1
  6
Continuous
 62
     2
100
AcDbHatch
 10
0.0
 20
0.0
 30
0.0
210
0.0
220
0.0
230
1.0
  2
CUSTOM6
 70
     0
 71
     1
 91
        2
 92
        1
 93
        8
 72
     2
 10
378.952102194316
 20
-235.5402313650458
 40
1.0
 50
90.0
 51
180.0
 73
     1
 72
     1
 10
377.952102194316
 20
-235.5402313650458
 11
377.952102194316
 21
-242.7402313650458
 72
     2
 10
378.952102194316
 20
-242.7402313650458
 40
1.0
 50
180.0
 51
270.0
 73
     1
 72
     1
 10
378.952102194316
 20
-243.7402313650458
 11
380.652102194316
 21
-243.7402313650458
 72
     2
 10
380.652102194316
 20
-242.7402313650458
 40
1.0
 50
270.0
 51
360.0
 73
     1
 72
     1
 10
381.652102194316
 20
-242.7402313650458
 11
381.652102194316
 21
-235.5402313650458
 72
     2
 10
380.652102194316
 20
-235.5402313650458
 40
1.0
 50
0.0
 51
90.0
 73
     1
 72
     1
 10
380.652102194316
 20
-234.5402313650458
 11
378.952102194316
 21
-234.5402313650458
 97
        8
330
110
330
7C
330
113
330
7D
330
112
330
7E
330
10F
330
7F
 92
       16
 93
        6
 72
     2
 10
379.802102194316
 20
-236.2902313650458
 40
0.6500000000000341
 50
0.0
 51
90.0
 73
     1
 72
     2
 10
379.802102194316
 20
-236.2902313650458
 40
0.650000000000091
 50
90.0
 51
180.0
 73
     1
 72
     1
 10
379.152102194316
 20
-236.2902313650458
 11
379.152102194316
 21
-241.9778188255559
 72
     2
 10
379.802102194316
 20
-241.9778188255559
 40
0.6499999999999773
 50
180.0
 51
270.0
 73
     1
 72
     2
 10
379.802102194316
 20
-241.9778188255559
 40
0.6499999999999204
 50
270.0
 51
360.0
 73
     1
 72
     1
 10
380.452102194316
 20
-241.9778188255559
 11
380.452102194316
 21
-236.2902313650458
 97
        6
330
12B
330
12C
330
BB
330
12D
330
12E
330
BA
 75
     1
 76
     2
 52
90.00000000000003
 41
0.15
 77
     0
 78
     1
 53
90.00000000000003
 43
-102.5
 44
63.28999999999995
 45
-0.1499999999999999
 46
-0.15
 79
     0
 98
        1
 10
0.0
 20
0.0
  0
HATCH
  5
163
330
33
100
AcDbEntity
  8
1
  6
Continuous
 62
     2
100
AcDbHatch
 10
0.0
 20
0.0
 30
0.0
210
0.0
220
0.0
230
1.0
  2
CUSTOM7
 70
     0
 71
     1
 91
        3
 92
        1
 93
        9
 72
     1
 10
376.152102194316
 20
-234.5402313650458
 11
373.452102194316
 21
-234.5402313650458
 72
     1
 10
373.452102194316
 20
-234.5402313650458
 11
373.452102194316
 21
-243.7402313650458
 72
     1
 10
373.452102194316
 20
-243.7402313650458
 11
376.152102194316
 21
-243.7402313650458
 72
     2
 10
376.152102194316
 20
-242.7402313650458
 40
1.0
 50
270.0
 51
360.0
 73
     1
 72
     1
 10
377.152102194316
 20
-242.7402313650458
 11
377.152102194316
 21
-239.4402313650458
 72
     2
 10
376.502102194316
 20
-239.4402313650458
 40
0.6499999999999773
 50
0.0
 51
90.0
 73
     1
 72
     2
 10
376.502102194316
 20
-238.1402313650457
 40
0.650000000000091
 50
270.0
 51
360.0
 73
     1
 72
     1
 10
377.152102194316
 20
-238.1402313650457
 11
377.152102194316
 21
-235.5402313650458
 72
     2
 10
376.152102194316
 20
-235.5402313650458
 40
1.0
 50
0.0
 51
90.0
 73
     1
 97
        9
330
7A
330
79
330
7B
330
114
330
C4
330
102
330
101
330
C3
330
10E
 92
       16
 93
        6
 72
     2
 10
375.302102194316
 20
-236.2902313650458
 40
0.6500000000000341
 50
0.0
 51
90.0
 73
     1
 72
     1
 10
375.302102194316
 20
-235.6402313650457
 11
374.652102194316
 21
-235.6402313650457
 72
     1
 10
374.652102194316
 20
-235.6402313650457
 11
374.652102194316
 21
-238.2402313650458
 72
     1
 10
374.652102194316
 20
-238.2402313650458
 11
375.302102194316
 21
-238.2402313650458
 72
     2
 10
375.302102194316
 20
-237.5902313650458
 40
0.6499999999999773
 50
270.0
 51
360.0
 73
     1
 72
     1
 10
375.952102194316
 20
-237.5902313650458
 11
375.952102194316
 21
-236.2902313650458
 97
        6
330
133
330
B2
330
B8
330
B4
330
134
330
B3
 92
       16
 93
        6
 72
     2
 10
375.302102194316
 20
-239.9902313650458
 40
0.6500000000000341
 50
0.0
 51
90.0
 73
     1
 72
     1
 10
375.302102194316
 20
-239.3402313650458
 11
374.652102194316
 21
-239.3402313650458
 72
     1
 10
374.652102194316
 20
-239.3402313650458
 11
374.652102194316
 21
-242.6278188255558
 72
     1
 10
374.652102194316
 20
-242.6278188255558
 11
375.302102194316
 21
-242.6278188255558
 72
     2
 10
375.302102194316
 20
-241.9778188255559
 40
0.6499999999999204
 50
270.0
 51
360.0
 73
     1
 72
     1
 10
375.952102194316
 20
-241.9778188255559
 11
375.952102194316
 21
-239.9902313650458
 97
        6
330
135
330
B9
330
B5
330
B6
330
136
330
B7
 75
     1
 76
     2
 52
90.00000000000003
 41
0.15
 77
     0
 78
     1
 53
90.00000000000003
 43
-102.5
 44
63.28999999999995
 45
-0.1499999999999999
 46
-0.15
 79
     0
 98
        1
 10
0.0
 20
0.0
  0
HATCH
  5
164
330
33
100
AcDbEntity
  8
1
  6
Continuous
 62
     2
100
AcDbHatch
 10
0.0
 20
0.0
 30
0.0
210
0.0
220
0.0
230
1.0
  2
CUSTOM8
 70
     0
 71
     1
 91
        2
 92
        1
 93
        8
 72
     2
 10
369.952102194316
 20
-235.5402313650458
 40
1.0
 50
90.0
 51
180.0
 73
     1
 72
     1
 10
368.952102194316
 20
-235.5402313650458
 11
368.952102194316
 21
-242.7402313650458
 72
     2
 10
369.952102194316
 20
-242.7402313650458
 40
1.0
 50
180.0
 51
270.0
 73
     1
 72
     1
 10
369.952102194316
 20
-243.7402313650458
 11
371.652102194316
 21
-243.7402313650458
 72
     2
 10
371.652102194316
 20
-242.7402313650458
 40
1.0
 50
270.0
 51
360.0
 73
     1
 72
     1
 10
372.652102194316
 20
-242.7402313650458
 11
372.652102194316
 21
-235.5402313650458
 72
     2
 10
371.652102194316
 20
-235.5402313650458
 40
1.0
 50
0.0
 51
90.0
 73
     1
 72
     1
 10
371.652102194316
 20
-234.5402313650458
 11
369.952102194316
 21
-234.5402313650458
 97
        8
330
10C
330
CD
330
116
330
78
330
115
330
86
330
10D
330
77
 92
       16
 93
        6
 72
     2
 10
370.802102194316
 20
-236.2902313650458
 40
0.650000000000091
 50
90.0
 51
180.0
 73
     1
 72
     1
 10
370.152102194316
 20
-236.2902313650458
 11
370.152102194316
 21
-241.9778188255557
 72
     2
 10
370.802102194316
 20
-241.9778188255559
 40
0.6499999999999773
 50
179.9999999999825
 51
270.0
 73
     1
 72
     2
 10
370.802102194316
 20
-241.9778188255559
 40
0.6499999999999204
 50
270.0
 51
360.0
 73
     1
 72
     1
 10
371.452102194316
 20
-241.9778188255559
 11
371.452102194316
 21
-236.2902313650458
 72
     2
 10
370.802102194316
 20
-236.2902313650458
 40
0.6500000000000341
 50
0.0
 51
90.0
 73
     1
 97
        6
330
12F
330
B1
330
131
330
132
330
B0
330
130
 75
     1
 76
     2
 52
90.00000000000003
 41
0.15
 77
     0
 78
     1
 53
90.00000000000003
 43
-102.5
 44
63.28999999999995
 45
-0.1499999999999999
 46
-0.15
 79
     0
 98
        1
 10
0.0
 20
0.0
  0
HATCH
  5
165
330
33
100
AcDbEntity
  8
1
  6
Continuous
 62
     2
100
AcDbHatch
 10
0.0
 20
0.0
 30
0.0
210
0.0
220
0.0
230
1.0
  2
CUSTOM9
 70
     0
 71
     1
 91
        2
 92
        1
 93
        6
 72
     1
 10
389.552102194316
 20
-235.5402313650458
 11
389.552102194316
 21
-242.7402313650458
 72
     2
 10
388.552102194316
 20
-242.7402313650458
 40
1.0
 50
0.0
 51
90.0
 73
     0
 72
     1
 10
388.552102194316
 20
-243.7402313650458
 11
385.8521021943161
 21
-243.7402313650458
 72
     1
 10
385.8521021943161
 20
-243.7402313650458
 11
385.8521021943161
 21
-234.5402313650458
 72
     1
 10
385.8521021943161
 20
-234.5402313650458
 11
388.552102194316
 21
-234.5402313650458
 72
     2
 10
388.552102194316
 20
-235.5402313650458
 40
1.0
 50
270.0
 51
360.0
 73
     0
 97
        6
330
85
330
84
330
87
330
117
330
88
330
111
 92
       16
 93
        7
 72
     2
 10
387.702102194316
 20
-236.2902313650458
 40
0.650000000000091
 50
0.0
 51
90.0
 73
     1
 72
     1
 10
387.702102194316
 20
-235.6402313650457
 11
387.052102194316
 21
-235.6402313650457
 72
     1
 10
387.052102194316
 20
-235.6402313650457
 11
387.052102194316
 21
-236.2902313650458
 72
     1
 10
387.052102194316
 20
-236.2902313650458
 11
387.052102194316
 21
-242.6278188255558
 72
     1
 10
387.052102194316
 20
-242.6278188255558
 11
387.702102194316
 21
-242.6278188255558
 72
     2
 10
387.702102194316
 20
-241.9778188255559
 40
0.6499999999999204
 50
270.0
 51
360.0
 73
     1
 72
     1
 10
388.3521021943161
 20
-241.9778188255559
 11
388.3521021943161
 21
-236.2902313650458
 97
        7
330
129
330
C1
330
C2
330
BE
330
BD
330
12A
330
BC
 75
     1
 76
     2
 52
90.00000000000003
 41
0.15
 77
     0
 78
     1
 53
90.00000000000003
 43
-102.5
 44
63.28999999999995
 45
-0.1499999999999999
 46
-0.15
 79
     0
 98
        1
 10
0.0
 20
0.0
  0
HATCH
  5
166
330
33
100
AcDbEntity
  8
1
  6
Continuous
 62
     2
100
AcDbHatch
 10
0.0
 20
0.0
 30
0.0
210
0.0
220
0.0
230
1.0
  2
CUSTOM10
 70
     0
 71
     1
 91
        2
 92
        1
 93
       13
 72
     2
 10
351.1165535054393
 20
-239.9737536818467
 40
0.8355765145285912
 50
359.5324065739073
 51
445.9815862299459
 73
     1
 72
     2
 10
351.1004822100411
 20
-238.2912316210754
 40
0.8522732028339295
 50
275.0233190242859
 51
357.7566077588563
 73
     1
 72
     1
 10
351.952102194316
 20
-238.324593495313
 11
351.952102194316
 21
-235.5402313650458
 72
     2
 10
350.952102194316
 20
-235.5402313650458
 40
1.0
 50
0.0
 51
90.0
 73
     1
 72
     1
 10
350.952102194316
 20
-234.5402313650458
 11
348.252102194316
 21
-234.5402313650458
 72
     1
 10
348.252102194316
 20
-234.5402313650458
 11
348.252102194316
 21
-243.7402313650458
 72
     1
 10
348.252102194316
 20
-243.7402313650458
 11
349.452102194316
 21
-243.7402313650458
 72
     1
 10
349.452102194316
 20
-243.7402313650458
 11
349.452102194316
 21
-239.7402313650458
 72
     1
 10
349.452102194316
 20
-239.7402313650458
 11
350.1021021943161
 21
-239.7402313650458
 72
     2
 10
350.1021021943161
 20
-240.3902313650457
 40
0.6499999999999204
 50
270.0
 51
360.0
 73
     0
 72
     1
 10
350.752102194316
 20
-240.3902313650457
 11
350.752102194316
 21
-243.7402313650458
 72
     1
 10
350.752102194316
 20
-243.7402313650458
 11
351.952102194316
 21
-243.7402313650458
 72
     1
 10
351.952102194316
 20
-243.7402313650458
 11
351.952102194316
 21
-239.9805727835584
 97
       13
330
FF
330
FE
330
6D
330
109
330
6C
330
6B
330
95
330
AD
330
AC
330
11F
330
93
330
94
330
6E
 92
       16
 93
        6
 72
     2
 10
350.1021021943161
 20
-236.2902313650458
 40
0.6499999999999204
 50
0.0
 51
90.0
 73
     1
 72
     1
 10
350.1021021943161
 20
-235.6402313650457
 11
349.452102194316
 21
-235.6402313650457
 72
     1
 10
349.452102194316
 20
-235.6402313650457
 11
349.452102194316
 21
-238.5402313650458
 72
     1
 10
349.452102194316
 20
-238.5402313650458
 11
350.1021021943161
 21
-238.5402313650458
 72
     2
 10
350.1021021943161
 20
-237.8902313650457
 40
0.650000000000091
 50
270.0
 51
360.0
 73
     1
 72
     1
 10
350.752102194316
 20
-237.8902313650457
 11
350.752102194316
 21
-236.2902313650458
 97
        6
330
11E
330
A9
330
AA
330
AB
330
120
330
92
 75
     1
 76
     2
 52
90.00000000000003
 41
0.15
 77
     0
 78
     1
 53
90.00000000000003
 43
-102.5
 44
63.28999999999995
 45
-0.1499999999999999
 46
-0.15
 79
     0
 98
        1
 10
0.0
 20
0.0
  0
HATCH
  5
167
330
33
100
AcDbEntity
  8
1
  6
Continuous
 62
     2
100
AcDbHatch
 10
0.0
 20
0.0
 30
0.0
210
0.0
220
0.0
230
1.0
  2
CUSTOM11
 70
     0
 71
     1
 91
        1
 92
        1
 93
       23
 72
     1
 10
355.252102194316
 20
-241.9778188255559
 11
355.252102194316
 21
-240.2402313650458
 72
     1
 10
355.252102194316
 20
-240.2402313650458
 11
354.702102194316
 21
-240.2402313650458
 72
     1
 10
354.702102194316
 20
-240.2402313650458
 11
354.702102194316
 21
-239.0402313650458
 72
     1
 10
354.702102194316
 20
-239.0402313650458
 11
355.5419537907096
 21
-239.0402313650458
 72
     1
 10
355.5419537907096
 20
-239.0402313650458
 11
356.452102194316
 21
-239.0402313650458
 72
     1
 10
356.452102194316
 20
-239.0402313650458
 11
356.452102194316
 21
-243.7402313650458
 72
     1
 10
356.452102194316
 20
-243.7402313650458
 11
355.952102194316
 21
-243.7402313650458
 72
     1
 10
355.952102194316
 20
-243.7402313650458
 11
355.6050633177521
 21
-243.1402313650457
 72
     2
 10
354.6332272917566
 20
-242.653376082974
 40
1.086965191302817
 50
26.60924039544627
 51
90.8147991292691
 73
     0
 72
     1
 10
354.617770159531
 20
-243.7402313650458
 11
353.752102194316
 21
-243.7402313650458
 72
     2
 10
353.752102194316
 20
-242.7402313650458
 40
1.0
 50
90.0
 51
180.0
 73
     0
 72
     1
 10
352.752102194316
 20
-242.7402313650458
 11
352.752102194316
 21
-235.5402313650458
 72
     2
 10
353.752102194316
 20
-235.5402313650458
 40
1.0
 50
180.0
 51
270.0
 73
     0
 72
     1
 10
353.752102194316
 20
-234.5402313650458
 11
355.452102194316
 21
-234.5402313650458
 72
     2
 10
355.452102194316
 20
-235.5402313650458
 40
1.000000000000114
 50
270.0
 51
360.0
 73
     0
 72
     1
 10
356.4521021943161
 20
-235.5402313650458
 11
356.452102194316
 21
-237.6402313650457
 72
     1
 10
356.452102194316
 20
-237.6402313650457
 11
355.252102194316
 21
-237.6402313650457
 72
     1
 10
355.252102194316
 20
-237.6402313650457
 11
355.252102194316
 21
-236.2902313650458
 72
     2
 10
354.6021021943161
 20
-236.2902313650458
 40
0.6499999999999204
 50
0.0
 51
90.0
 73
     1
 72
     2
 10
354.6021021943161
 20
-236.2902313650458
 40
0.650000000000091
 50
90.0
 51
180.0
 73
     1
 72
     1
 10
353.952102194316
 20
-236.2902313650458
 11
353.952102194316
 21
-241.9778188255559
 72
     2
 10
354.6021021943161
 20
-241.9778188255559
 40
0.650000000000091
 50
180.0
 51
270.0
 73
     1
 72
     2
 10
354.6021021943161
 20
-241.9778188255559
 40
0.6499999999999204
 50
270.0
 51
360.0
 73
     1
 97
       23
330
123
330
90
330
121
330
122
330
8F
330
71
330
72
330
10B
330
6F
330
10A
330
8A
330
118
330
89
330
100
330
8E
330
8D
330
70
330
AF
330
9D
330
9E
330
9F
330
91
330
124
 75
     1
 76
     2
 52
90.00000000000003
 41
0.15
 77
     0
 78
     1
 53
90.00000000000003
 43
-102.5
 44
63.28999999999995
 45
-0.1499999999999999
 46
-0.15
 79
     0
 98
        1
 10
0.0
 20
0.0
  0
HATCH
  5
168
330
33
100
AcDbEntity
  8
1
  6
Continuous
 62
     2
100
AcDbHatch
 10
0.0
 20
0.0
 30
0.0
210
0.0
220
0.0
230
1.0
  2
CUSTOM12
 70
     0
 71
     1
 91
        1
 92
        1
 93
       22
 72
     1
 10
339.552102194316
 20
-243.7402313650458
 11
339.052102194316
 21
-243.7402313650458
 72
     1
 10
339.052102194316
 20
-243.7402313650458
 11
338.7053262741835
 21
-243.1402313650457
 72
     2
 10
337.7268740437077
 20
-242.6429354293784
 40
1.097575516743347
 50
26.94184191294435
 51
91.29325310587112
 73
     0
 72
     1
 10
337.702102194316
 20
-243.7402313650458
 11
336.8521021943161
 21
-243.7402313650458
 72
     2
 10
336.8521021943161
 20
-242.7402313650458
 40
1.000000000000227
 50
90.0
 51
180.0
 73
     0
 72
     1
 10
335.8521021943159
 20
-242.7402313650458
 11
335.8521021943161
 21
-235.5402313650458
 72
     2
 10
336.8521021943161
 20
-235.5402313650458
 40
1.0
 50
180.0
 51
270.0
 73
     0
 72
     1
 10
336.8521021943161
 20
-234.5402313650458
 11
338.552102194316
 21
-234.5402313650458
 72
     2
 10
338.552102194316
 20
-235.5402313650458
 40
1.0
 50
270.0
 51
360.0
 73
     0
 72
     1
 10
339.552102194316
 20
-235.5402313650458
 11
339.552102194316
 21
-237.6402313650457
 72
     1
 10
339.552102194316
 20
-237.6402313650457
 11
338.3521021943161
 21
-237.6402313650457
 72
     1
 10
338.3521021943161
 20
-237.6402313650457
 11
338.3521021943161
 21
-236.2902313650458
 72
     2
 10
337.702102194316
 20
-236.2902313650458
 40
0.650000000000091
 50
0.0
 51
90.0
 73
     1
 72
     2
 10
337.702102194316
 20
-236.2902313650458
 40
0.650000000000091
 50
90.0
 51
180.0
 73
     1
 72
     1
 10
337.052102194316
 20
-236.2902313650458
 11
337.052102194316
 21
-241.9778188255559
 72
     2
 10
337.702102194316
 20
-241.9778188255559
 40
0.6500000000000341
 50
180.0
 51
270.0
 73
     1
 72
     2
 10
337.702102194316
 20
-241.9778188255559
 40
0.6499999999999204
 50
270.0
 51
360.0
 73
     1
 72
     1
 10
338.3521021943161
 20
-241.9778188255559
 11
338.3521021943161
 21
-240.2402313650458
 72
     1
 10
338.3521021943161
 20
-240.2402313650458
 11
337.7931767283024
 21
-240.2402313650458
 72
     1
 10
337.7931767283024
 20
-240.2402313650458
 11
337.7931767283024
 21
-239.0402313650458
 72
     1
 10
337.7931767283024
 20
-239.0402313650458
 11
339.552102194316
 21
-239.0402313650458
 72
     1
 10
339.552102194316
 20
-239.0402313650458
 11
339.552102194316
 21
-243.7402313650458
 97
       22
330
5C
330
5D
330
5A
330
A5
330
128
330
127
330
A6
330
125
330
126
330
A7
330
A8
330
5F
330
103
330
8C
330
119
330
8B
330
104
330
66
330
FD
330
65
330
5E
330
64
 75
     1
 76
     2
 52
90.00000000000003
 41
0.15
 77
     0
 78
     1
 53
90.00000000000003
 43
-102.5
 44
63.28999999999995
 45
-0.1499999999999999
 46
-0.15
 79
     0
 98
        1
 10
0.0
 20
0.0
  0
ENDBLK
  5
35
330
33
100
AcDbEntity
  8
0
100
AcDbBlockEnd
  0
BLOCK
  5
37
330
36
100
AcDbEntity
  8
0
100
AcDbBlockBegin
  2
M3x10_DIN_84
 70
     0
 71
     0
 10
-15.41896829980101
 20
1146.869375676874
 30
0.0
  3
M3x10_DIN_84
  1

  0
LINE
  5
169
330
36
100
AcDbEntity
  8
1
  6
DOT_CENTER
 62
     2
100
AcDbLine
 10
-90.33946648143899
 20
180.2665313557833
 30
0.0
 11
-90.33943618459278
 21
175.2880447976932
 31
0.0
  0
LINE
  5
16A
330
36
100
AcDbEntity
  8
1
  6
Continuous
 62
     7
100
AcDbLine
 10
-90.7394463651159
 20
179.0880728372058
 30
0.0
 11
-90.7394463651159
 21
178.3880678372058
 31
0.0
  0
LINE
  5
16B
330
36
100
AcDbEntity
  8
1
  6
Continuous
 62
     7
100
AcDbLine
 10
-92.15727436511588
 20
179.0880728372058
 30
0.0
 11
-90.7394463651159
 21
179.0880728372058
 31
0.0
  0
LINE
  5
16C
330
36
100
AcDbEntity
  8
1
  6
Continuous
 62
     7
100
AcDbLine
 10
-89.93944736511588
 20
179.0880728372058
 30
0.0
 11
-88.52163136511604
 21
179.0880728372058
 31
0.0
  0
LINE
  5
16D
330
36
100
AcDbEntity
  8
1
  6
Continuous
 62
     7
100
AcDbLine
 10
-90.7394463651159
 20
178.3880678372058
 30
0.0
 11
-89.93944736511588
 21
178.3880678372058
 31
0.0
  0
LINE
  5
16E
330
36
100
AcDbEntity
  8
1
  6
Continuous
 62
     7
100
AcDbLine
 10
-89.93944736511588
 20
178.3880678372058
 30
0.0
 11
-89.93944736511588
 21
179.0880728372058
 31
0.0
  0
LINE
  5
16F
330
36
100
AcDbEntity
  8
1
  6
Continuous
 62
     7
100
AcDbLine
 10
-87.53944836511613
 20
177.2880618372058
 30
0.0
 11
-87.62505336511589
 21
178.2665148372057
 31
0.0
  0
LINE
  5
170
330
36
100
AcDbEntity
  8
1
  6
Continuous
 62
     7
100
AcDbLine
 10
-93.05385236511609
 20
178.2665148372057
 30
0.0
 11
-93.13944536511599
 21
177.2880618372058
 31
0.0
  0
LINE
  5
171
330
36
100
AcDbEntity
  8
1
  6
Continuous
 62
     7
100
AcDbLine
 10
-68.15727436511588
 20
179.0880728372058
 30
0.0
 11
-66.73945836511604
 21
179.0880728372058
 31
0.0
  0
LINE
  5
172
330
36
100
AcDbEntity
  8
1
  6
Continuous
 62
     7
100
AcDbLine
 10
-65.93945836511602
 20
179.0880728372058
 30
0.0
 11
-64.5216193651159
 21
179.0880728372058
 31
0.0
  0
LINE
  5
173
330
36
100
AcDbEntity
  8
1
  6
Continuous
 62
     7
100
AcDbLine
 10
-63.53946036511598
 20
177.2880618372058
 30
0.0
 11
-63.62504136511609
 21
178.2665148372057
 31
0.0
  0
LINE
  5
174
330
36
100
AcDbEntity
  8
1
  6
Continuous
 62
     7
100
AcDbLine
 10
-66.73945836511604
 20
179.0880728372058
 30
0.0
 11
-66.73945836511604
 21
178.3880678372058
 31
0.0
  0
LINE
  5
175
330
36
100
AcDbEntity
  8
1
  6
Continuous
 62
     7
100
AcDbLine
 10
-66.73945836511604
 20
178.3880678372058
 30
0.0
 11
-65.93945836511602
 21
178.3880678372058
 31
0.0
  0
LINE
  5
176
330
36
100
AcDbEntity
  8
1
  6
Continuous
 62
     7
100
AcDbLine
 10
-65.93945836511602
 20
178.3880678372058
 30
0.0
 11
-65.93945836511602
 21
179.0880728372058
 31
0.0
  0
LINE
  5
177
330
36
100
AcDbEntity
  8
1
  6
Continuous
 62
     7
100
AcDbLine
 10
-69.05385236511609
 20
178.2665148372057
 30
0.0
 11
-69.13944536511599
 21
177.2880618372058
 31
0.0
  0
ARC
  5
178
330
36
100
AcDbEntity
  8
1
  6
Continuous
 62
     7
100
AcDbCircle
 10
-88.52163136511604
 20
178.1880798372058
 30
0.0
 40
0.9000000000000719
100
AcDbArc
 50
4.99999999999976
 51
90.0
  0
ARC
  5
179
330
36
100
AcDbEntity
  8
1
  6
Continuous
 62
     7
100
AcDbCircle
 10
-92.15727436511588
 20
178.1880798372058
 30
0.0
 40
0.9000000000000057
100
AcDbArc
 50
90.0
 51
175.0000000000006
  0
ARC
  5
17A
330
36
100
AcDbEntity
  8
1
  6
Continuous
 62
     7
100
AcDbCircle
 10
-68.15727436511588
 20
178.1880798372058
 30
0.0
 40
0.9000000000000057
100
AcDbArc
 50
90.0
 51
175.0000000000006
  0
ARC
  5
17B
330
36
100
AcDbEntity
  8
1
  6
Continuous
 62
     7
100
AcDbCircle
 10
-64.5216193651159
 20
178.1880798372058
 30
0.0
 40
0.8999999999998454
100
AcDbArc
 50
5.00000000000102
 51
90.0
  0
ENDBLK
  5
38
330
36
100
AcDbEntity
  8
0
100
AcDbBlockEnd
  0
BLOCK
  5
3A
330
39
100
AcDbEntity
  8
0
100
AcDbBlockBegin
  2
O-Ring
 70
     0
 71
     0
 10
290.767496266523
 20
511.4763790798684
 30
0.0
  3
O-Ring
  1

  0
LINE
  5
17C
330
39
100
AcDbEntity
  8
1
  6
Continuous
 62
     7
100
AcDbLine
 10
-53.37971348932909
 20
213.7857008150007
 30
0.0
 11
-53.37971348932909
 21
214.3607008150009
 31
0.0
  0
LINE
  5
17D
330
39
100
AcDbEntity
  8
1
  6
Continuous
 62
     7
100
AcDbLine
 10
-53.37971348932909
 20
191.6107008150009
 30
0.0
 11
-53.37971348932909
 21
192.1857008150006
 31
0.0
  0
LINE
  5
17E
330
39
100
AcDbEntity
  8
1
  6
Continuous
 62
     7
100
AcDbLine
 10
-14.92419788500816
 20
154.1522562641621
 30
0.0
 11
-14.92419788500816
 21
154.7272562641617
 31
0.0
  0
LINE
  5
17F
330
39
100
AcDbEntity
  8
1
  6
Continuous
 62
     7
100
AcDbLine
 10
-14.92419788500816
 20
176.3272562641618
 30
0.0
 11
-14.92419788500816
 21
176.9022562641621
 31
0.0
  0
ARC
  5
180
102
{ACAD_REACTORS
330
186
330
186
102
}
330
39
100
AcDbEntity
  8
1
  6
Continuous
 62
     7
100
AcDbCircle
 10
-54.17971348932934
 20
214.3607008150009
 30
0.0
 40
0.7999999999999545
100
AcDbArc
 50
180.0
 51
0.0
  0
ARC
  5
181
102
{ACAD_REACTORS
330
186
330
186
102
}
330
39
100
AcDbEntity
  8
1
  6
Continuous
 62
     7
100
AcDbCircle
 10
-54.17971348932934
 20
214.3607008150009
 30
0.0
 40
0.8000000000002458
100
AcDbArc
 50
0.0
 51
180.0
  0
ARC
  5
182
102
{ACAD_REACTORS
330
189
330
189
102
}
330
39
100
AcDbEntity
  8
1
  6
Continuous
 62
     7
100
AcDbCircle
 10
-15.7241978850084
 20
176.9022562641621
 30
0.0
 40
0.8000000000002387
100
AcDbArc
 50
0.0
 51
180.0
  0
ARC
  5
183
102
{ACAD_REACTORS
330
189
330
189
102
}
330
39
100
AcDbEntity
  8
1
  6
Continuous
 62
     7
100
AcDbCircle
 10
-15.7241978850084
 20
176.9022562641621
 30
0.0
 40
0.7999999999999599
100
AcDbArc
 50
180.0
 51
0.0
  0
CIRCLE
  5
184
102
{ACAD_REACTORS
330
187
330
187
102
}
330
39
100
AcDbEntity
  8
1
  6
Continuous
 62
     7
100
AcDbCircle
 10
-54.17971348932934
 20
191.6107008150009
 30
0.0
 40
0.8000000000002458
  0
CIRCLE
  5
185
102
{ACAD_REACTORS
330
188
330
188
102
}
330
39
100
AcDbEntity
  8
1
  6
Continuous
 62
     7
100
AcDbCircle
 10
-15.7241978850084
 20
154.1522562641621
 30
0.0
 40
0.8000000000002387
  0
HATCH
  5
186
330
39
100
AcDbEntity
  8
1
  6
Continuous
 62
     2
100
AcDbHatch
 10
0.0
 20
0.0
 30
0.0
210
0.0
220
0.0
230
1.0
  2
CUSTOM13
 70
     0
 71
     1
 91
        1
 92
        1
 93
        2
 72
     2
 10
-54.17971348932934
 20
214.3607008150009
 40
0.7999999999999545
 50
180.0
 51
360.0
 73
     1
 72
     2
 10
-54.17971348932934
 20
214.3607008150009
 40
0.8000000000002458
 50
0.0
 51
180.0
 73
     1
 97
        2
330
180
330
181
 75
     1
 76
     2
 52
45.0
 41
0.5
 77
     0
 78
     2
 53
45.0
 43
0.0
 44
0.0
 45
-0.7071067811865475
 46
0.0000000000000001
 79
     0
 53
135.0
 43
0.0
 44
0.0
 45
0.0000000000000003
 46
-0.7071067811865475
 79
     0
 98
        1
 10
0.0
 20
0.0
  0
HATCH
  5
187
330
39
100
AcDbEntity
  8
1
  6
Continuous
 62
     2
100
AcDbHatch
 10
0.0
 20
0.0
 30
0.0
210
0.0
220
0.0
230
1.0
  2
CUSTOM14
 70
     0
 71
     1
 91
        1
 92
        1
 93
        1
 72
     2
 10
-54.17971348932934
 20
191.6107008150009
 40
0.8000000000002458
 50
0.0
 51
360.0
 73
     1
 97
        1
330
184
 75
     1
 76
     2
 52
45.0
 41
0.5
 77
     0
 78
     2
 53
45.0
 43
0.0
 44
0.0
 45
-0.7071067811865475
 46
0.0000000000000001
 79
     0
 53
135.0
 43
0.0
 44
0.0
 45
0.0000000000000003
 46
-0.7071067811865475
 79
     0
 98
        1
 10
0.0
 20
0.0
  0
HATCH
  5
188
330
39
100
AcDbEntity
  8
1
  6
Continuous
 62
     2
100
AcDbHatch
 10
0.0
 20
0.0
 30
0.0
210
0.0
220
0.0
230
1.0
  2
CUSTOM15
 70
     0
 71
     1
 91
        1
 92
        1
 93
        1
 72
     2
 10
-15.7241978850084
 20
154.1522562641621
 40
0.8000000000002387
 50
0.0
 51
360.0
 73
     1
 97
        1
330
185
 75
     1
 76
     2
 52
45.0
 41
0.5
 77
     0
 78
     2
 53
45.0
 43
0.0
 44
0.0
 45
-0.7071067811865475
 46
0.0000000000000001
 79
     0
 53
135.0
 43
0.0
 44
0.0
 45
0.0000000000000003
 46
-0.7071067811865475
 79
     0
 98
        1
 10
0.0
 20
0.0
  0
HATCH
  5
189
330
39
100
AcDbEntity
  8
1
  6
Continuous
 62
     2
100
AcDbHatch
 10
0.0
 20
0.0
 30
0.0
210
0.0
220
0.0
230
1.0
  2
CUSTOM16
 70
     0
 71
     1
 91
        1
 92
        1
 93
        2
 72
     2
 10
-15.7241978850084
 20
176.9022562641621
 40
0.7999999999999599
 50
180.0
 51
360.0
 73
     1
 72
     2
 10
-15.7241978850084
 20
176.9022562641621
 40
0.8000000000002387
 50
0.0
 51
180.0
 73
     1
 97
        2
330
183
330
182
 75
     1
 76
     2
 52
45.0
 41
0.5
 77
     0
 78
     2
 53
45.0
 43
0.0
 44
0.0
 45
-0.7071067811865475
 46
0.0000000000000001
 79
     0
 53
135.0
 43
0.0
 44
0.0
 45
0.0000000000000003
 46
-0.7071067811865475
 79
     0
 98
        1
 10
0.0
 20
0.0
  0
ENDBLK
  5
3B
330
39
100
AcDbEntity
  8
0
100
AcDbBlockEnd
  0
BLOCK
  5
3E
330
3C
100
AcDbEntity
  8
0
100
AcDbBlockBegin
  2
Winkelflanschdose_8-polig_drehbar
 70
     0
 71
     0
 10
373.234850587527
 20
1219.301352965288
 30
0.0
  3
Winkelflanschdose_8-polig_drehbar
  1

  0
INSERT
  5
3D
330
3C
100
AcDbEntity
  8
1
100
AcDbBlockReference
  2
O-Ring
 10
290.767496266523
 20
511.4763790798684
 30
0.0
  0
LINE
  5
18A
330
3C
100
AcDbEntity
  8
1
  6
Continuous
 62
     7
100
AcDbLine
 10
-52.68944686511586
 20
141.8272682641619
 30
0.0
 11
-52.68944686511586
 21
140.0272790662167
 31
0.0
  0
LINE
  5
18B
330
3C
100
AcDbEntity
  8
1
  6
Continuous
 62
     7
100
AcDbLine
 10
-26.98944686511587
 20
141.827077296069
 30
0.0
 11
-26.98944686511587
 21
140.0272608536339
 31
0.0
  0
LINE
  5
18C
330
3C
100
AcDbEntity
  8
1
  6
Continuous
 62
     7
100
AcDbLine
 10
-49.03945027258109
 20
140.0272790662167
 30
0.0
 11
-52.68944686511586
 21
140.0272790662167
 31
0.0
  0
LINE
  5
18D
330
3C
100
AcDbEntity
  8
1
  6
Continuous
 62
     7
100
AcDbLine
 10
-30.63944505111655
 20
140.0272608536339
 30
0.0
 11
-26.98944686511587
 21
140.0272608536339
 31
0.0
  0
LINE
  5
18E
330
3C
100
AcDbEntity
  8
1
  6
DOT_CENTER
 62
     2
100
AcDbLine
 10
-78.339446865116
 20
177.2880618372058
 30
0.0
 11
-78.339446865116
 21
181.9882408053003
 31
0.0
  0
LINE
  5
18F
330
3C
100
AcDbEntity
  8
1
  6
DOT_CENTER
 62
     2
100
AcDbLine
 10
-54.67614686511595
 20
202.9882408052987
 30
0.0
 11
-43.37614686511606
 21
202.9882408052987
 31
0.0
  0
LINE
  5
190
330
3C
100
AcDbEntity
  8
AM_VIS
  6
Continuous
 62
     7
100
AcDbLine
 10
-90.33944686511606
 20
179.9882408052998
 30
0.0
 11
-91.18944686511585
 21
179.9882408053003
 31
0.0
  0
LINE
  5
191
330
3C
100
AcDbEntity
  8
AM_VIS
  6
Continuous
 62
     2
100
AcDbLine
 10
-90.33944686511606
 20
190.6110058052989
 30
0.0
 11
-91.06255586511585
 21
190.6110058052989
 31
0.0
  0
LINE
  5
192
330
3C
100
AcDbEntity
  8
AM_VIS
  6
Continuous
 62
     7
100
AcDbLine
 10
-90.33944686511606
 20
190.6110058052989
 30
0.0
 11
-90.33944686511606
 21
179.9882408052998
 31
0.0
  0
LINE
  5
193
330
3C
100
AcDbEntity
  8
AM_VIS
  6
Continuous
 62
     7
100
AcDbLine
 10
-69.13944505111655
 20
177.4882453947707
 30
0.0
 11
-87.53945027258109
 21
177.4882636073535
 31
0.0
  0
LINE
  5
194
330
3C
100
AcDbEntity
  8
AM_VIS
  6
Continuous
 62
     7
100
AcDbLine
 10
-65.48944686511587
 20
179.2880618372058
 30
0.0
 11
-65.48944686511621
 21
179.9882408052987
 31
0.0
  0
LINE
  5
195
330
3C
100
AcDbEntity
  8
AM_VIS
  6
Continuous
 62
     7
100
AcDbLine
 10
-68.5299018651161
 20
192.7119617752536
 30
0.0
 11
-68.5299018651161
 21
181.4882458052988
 31
0.0
  0
LINE
  5
196
330
3C
100
AcDbEntity
  8
AM_VIS
  6
Continuous
 62
     7
100
AcDbLine
 10
-88.14899386511595
 20
181.4882458052988
 30
0.0
 11
-88.14899386511595
 21
192.5682408052987
 31
0.0
  0
LINE
  5
197
330
3C
100
AcDbEntity
  8
AM_VIS
  6
Continuous
 62
     2
100
AcDbLine
 10
-91.17583100452376
 20
190.4882408052987
 30
0.0
 11
-90.33944686511606
 21
190.4882408052987
 31
0.0
  0
LINE
  5
198
330
3C
100
AcDbEntity
  8
AM_VIS
  6
Continuous
 62
     7
100
AcDbLine
 10
-88.14899386511595
 20
179.9882408052987
 30
0.0
 11
-88.36310186511596
 21
179.9882408052987
 31
0.0
  0
LINE
  5
199
330
3C
100
AcDbEntity
  8
AM_VIS
  6
Continuous
 62
     7
100
AcDbLine
 10
-88.36310186511596
 20
179.9882408052987
 30
0.0
 11
-90.33944686511606
 21
179.9882408052998
 31
0.0
  0
LINE
  5
19A
330
3C
100
AcDbEntity
  8
AM_VIS
  6
Continuous
 62
     7
100
AcDbLine
 10
-68.3157908651161
 20
179.9882408052987
 30
0.0
 11
-68.5299018651161
 21
179.9882408052987
 31
0.0
  0
LINE
  5
19B
330
3C
100
AcDbEntity
  8
AM_VIS
  6
Continuous
 62
     7
100
AcDbLine
 10
-68.5299018651161
 20
179.9882408052987
 30
0.0
 11
-88.14899386511595
 21
179.9882408052987
 31
0.0
  0
LINE
  5
19C
330
3C
100
AcDbEntity
  8
AM_VIS
  6
Continuous
 62
     2
100
AcDbLine
 10
-55.67614686511595
 20
191.1897678052985
 30
0.0
 11
-67.0254583184857
 21
191.1897678052985
 31
0.0
  0
LINE
  5
19D
330
3C
100
AcDbEntity
  8
AM_VIS
  6
Continuous
 62
     7
100
AcDbLine
 10
-39.47614686511591
 20
213.7882408052985
 30
0.0
 11
-44.67614686511595
 21
213.7882408052985
 31
0.0
  0
LINE
  5
19E
330
3C
100
AcDbEntity
  8
1
  6
Continuous
 62
     7
100
AcDbLine
 10
-90.33944686511606
 20
186.4882654021807
 30
0.0
 11
-85.25123686511606
 21
186.4882603657992
 31
0.0
  0
LINE
  5
19F
330
3C
100
AcDbEntity
  8
AM_VIS
  6
Continuous
 62
     7
100
AcDbLine
 10
-85.25123686511606
 20
195.3321629419345
 30
0.0
 11
-85.25123686511606
 21
188.9882408052987
 31
0.0
  0
LINE
  5
1A0
330
3C
100
AcDbEntity
  8
1
  6
Continuous
 62
     7
100
AcDbLine
 10
-83.25123686511606
 20
188.9882408052987
 30
0.0
 11
-83.25123686511606
 21
179.9882408052987
 31
0.0
  0
LINE
  5
1A1
330
3C
100
AcDbEntity
  8
AM_VIS
  6
Continuous
 62
     7
100
AcDbLine
 10
-68.3157908651161
 20
179.9882408052987
 30
0.0
 11
-68.5299018651161
 21
179.9882408052987
 31
0.0
  0
LINE
  5
1A2
330
3C
100
AcDbEntity
  8
AM_VIS
  6
Continuous
 62
     2
100
AcDbLine
 10
-69.43353186511595
 20
194.6587538052987
 30
0.0
 11
-70.64946062402785
 21
194.6587538052987
 31
0.0
  0
LINE
  5
1A3
330
3C
100
AcDbEntity
  8
AM_VIS
  6
Continuous
 62
     2
100
AcDbLine
 10
-70.80990386511596
 20
195.4719428052987
 30
0.0
 11
-71.59230068629878
 21
195.4719428052987
 31
0.0
  0
LINE
  5
1A4
330
3C
100
AcDbEntity
  8
AM_VIS
  6
Continuous
 62
     7
100
AcDbLine
 10
-71.427656865116
 20
179.9882408052987
 30
0.0
 11
-71.42765686511606
 21
195.2704408052988
 31
0.0
  0
LINE
  5
1A5
330
3C
100
AcDbEntity
  8
AM_VIS
  6
Continuous
 62
     7
100
AcDbLine
 10
-66.33944686511606
 20
186.4882416466451
 30
0.0
 11
-66.33944686511606
 21
190.4882408052987
 31
0.0
  0
LINE
  5
1A6
330
3C
100
AcDbEntity
  8
AM_VIS
  6
Continuous
 62
     7
100
AcDbLine
 10
-71.96416486511586
 20
201.7728278052988
 30
0.0
 11
-75.55485986511556
 21
201.7728278052988
 31
0.0
  0
LINE
  5
1A7
330
3C
100
AcDbEntity
  8
AM_VIS
  6
Continuous
 62
     2
100
AcDbLine
 10
-71.73743186511601
 20
197.5648808052987
 30
0.0
 11
-74.19664086511605
 21
197.5648808052987
 31
0.0
  0
LINE
  5
1A8
330
3C
100
AcDbEntity
  8
AM_VIS
  6
Continuous
 62
     2
100
AcDbLine
 10
-71.89901886511606
 20
198.8595568052988
 30
0.0
 11
-76.14946286511596
 21
198.8595568052988
 31
0.0
  0
LINE
  5
1A9
330
3C
100
AcDbEntity
  8
AM_VIS
  6
Continuous
 62
     2
100
AcDbLine
 10
-80.5294298651161
 20
198.8595568052988
 30
0.0
 11
-84.23709386511595
 21
198.8595568052988
 31
0.0
  0
LINE
  5
1AA
330
3C
100
AcDbEntity
  8
AM_VIS
  6
Continuous
 62
     2
100
AcDbLine
 10
-71.9652188651161
 20
201.2406568052987
 30
0.0
 11
-83.066327865116
 21
201.2406568052987
 31
0.0
  0
LINE
  5
1AB
330
3C
100
AcDbEntity
  8
AM_VIS
  6
Continuous
 62
     2
100
AcDbLine
 10
-71.48728986511586
 20
196.6371208052988
 30
0.0
 11
-73.00875310484795
 21
196.6371208052988
 31
0.0
  0
LINE
  5
1AC
330
3C
100
AcDbEntity
  8
AM_VIS
  6
Continuous
 62
     7
100
AcDbLine
 10
-88.14899386511595
 20
192.5682408052987
 30
0.0
 11
-85.25123186511595
 21
192.5682408052987
 31
0.0
  0
LINE
  5
1AD
330
3C
100
AcDbEntity
  8
AM_VIS
  6
Continuous
 62
     2
100
AcDbLine
 10
-86.02943310620415
 20
194.6587538052987
 30
0.0
 11
-87.38435273189256
 21
194.6587538052987
 31
0.0
  0
LINE
  5
1AE
330
3C
100
AcDbEntity
  8
AM_VIS
  6
Continuous
 62
     2
100
AcDbLine
 10
-90.24234276003605
 20
190.6110058052989
 30
0.0
 11
-90.33944686511606
 21
190.6110058052989
 31
0.0
  0
LINE
  5
1AF
330
3C
100
AcDbEntity
  8
AM_VIS
  6
Continuous
 62
     2
100
AcDbLine
 10
-89.98041934076579
 20
190.8843948052987
 30
0.0
 11
-90.8154133203528
 21
190.8843948052987
 31
0.0
  0
LINE
  5
1B0
330
3C
100
AcDbEntity
  8
AM_VIS
  6
Continuous
 62
     2
100
AcDbLine
 10
-89.6842650247963
 20
191.1897678052985
 30
0.0
 11
-90.53758745094726
 21
191.1897678052985
 31
0.0
  0
LINE
  5
1B1
330
3C
100
AcDbEntity
  8
AM_VIS
  6
Continuous
 62
     2
100
AcDbLine
 10
-89.15480574502706
 20
191.7260398052987
 30
0.0
 11
-90.0496915510553
 21
191.7260398052987
 31
0.0
  0
LINE
  5
1B2
330
3C
100
AcDbEntity
  8
AM_VIS
  6
Continuous
 62
     2
100
AcDbLine
 10
-88.65426977257059
 20
192.2219378052987
 30
0.0
 11
-89.59852758768446
 21
192.2219378052987
 31
0.0
  0
LINE
  5
1B3
330
3C
100
AcDbEntity
  8
AM_VIS
  6
Continuous
 62
     2
100
AcDbLine
 10
-87.84638267095406
 20
193.0004848052987
 30
0.0
 11
-88.89021186511596
 21
193.0004848052987
 31
0.0
  0
LINE
  5
1B4
330
3C
100
AcDbEntity
  8
AM_VIS
  6
Continuous
 62
     2
100
AcDbLine
 10
-87.13144360542546
 20
193.6678518052987
 30
0.0
 11
-88.26203645179257
 21
193.6678518052987
 31
0.0
  0
LINE
  5
1B5
330
3C
100
AcDbEntity
  8
AM_VIS
  6
Continuous
 62
     2
100
AcDbLine
 10
-91.17614686511595
 20
190.4882408052987
 30
0.0
 11
-91.17583100452376
 21
190.4882408052987
 31
0.0
  0
LINE
  5
1B6
330
3C
100
AcDbEntity
  8
AM_VIS
  6
Continuous
 62
     7
100
AcDbLine
 10
-85.25123686511606
 20
188.9882408052987
 30
0.0
 11
-85.25123686511606
 21
179.9882408052987
 31
0.0
  0
LINE
  5
1B7
330
3C
100
AcDbEntity
  8
AM_VIS
  6
Continuous
 62
     7
100
AcDbLine
 10
-75.55485986511556
 20
201.7728278052988
 30
0.0
 11
-90.33944686511606
 21
186.9882408052987
 31
0.0
  0
LINE
  5
1B8
330
3C
100
AcDbEntity
  8
AM_VIS
  6
Continuous
 62
     7
100
AcDbLine
 10
-91.17614686511595
 20
215.9882408052987
 30
0.0
 11
-91.17614686511595
 21
190.4882408052987
 31
0.0
  0
LINE
  5
1B9
330
3C
100
AcDbEntity
  8
AM_VIS
  6
Continuous
 62
     2
100
AcDbLine
 10
-85.08659304393316
 20
195.4719428052987
 30
0.0
 11
-86.70948268261427
 21
195.4719428052987
 31
0.0
  0
LINE
  5
1BA
330
3C
100
AcDbEntity
  8
AM_VIS
  6
Continuous
 62
     2
100
AcDbLine
 10
-83.67014062538416
 20
196.6371208052988
 30
0.0
 11
-85.8079402893309
 21
196.6371208052988
 31
0.0
  0
LINE
  5
1BB
330
3C
100
AcDbEntity
  8
AM_VIS
  6
Continuous
 62
     2
100
AcDbLine
 10
-82.48225286511595
 20
197.5648808052987
 30
0.0
 11
-85.14115240170278
 21
197.5648808052987
 31
0.0
  0
LINE
  5
1BC
330
3C
100
AcDbEntity
  8
AM_VIS
  6
Continuous
 62
     2
100
AcDbLine
 10
-71.96416486511586
 20
202.2875668052989
 30
0.0
 11
-82.823081865116
 21
202.2875668052989
 31
0.0
  0
LINE
  5
1BD
330
3C
100
AcDbEntity
  8
AM_VIS
  6
Continuous
 62
     2
100
AcDbLine
 10
-70.80990386511596
 20
210.5045388052987
 30
0.0
 11
-86.7588078651161
 21
210.5045388052987
 31
0.0
  0
LINE
  5
1BE
330
3C
100
AcDbEntity
  8
AM_VIS
  6
Continuous
 62
     2
100
AcDbLine
 10
-71.48728986511586
 20
209.3393608052987
 30
0.0
 11
-85.82088286511586
 21
209.3393608052987
 31
0.0
  0
LINE
  5
1BF
330
3C
100
AcDbEntity
  8
AM_VIS
  6
Continuous
 62
     2
100
AcDbLine
 10
-71.73743186511601
 20
208.4116008052987
 30
0.0
 11
-85.12012686511596
 21
208.4116008052987
 31
0.0
  0
LINE
  5
1C0
330
3C
100
AcDbEntity
  8
AM_VIS
  6
Continuous
 62
     2
100
AcDbLine
 10
-71.947268865116
 20
206.1102468052986
 30
0.0
 11
-83.65501886511586
 21
206.1102468052986
 31
0.0
  0
LINE
  5
1C1
330
3C
100
AcDbEntity
  8
AM_VIS
  6
Continuous
 62
     2
100
AcDbLine
 10
-71.9652188651161
 20
204.7358248052989
 30
0.0
 11
-83.066327865116
 21
204.7358248052989
 31
0.0
  0
LINE
  5
1C2
330
3C
100
AcDbEntity
  8
AM_VIS
  6
Continuous
 62
     2
100
AcDbLine
 10
-71.96416486511586
 20
203.6889148052986
 30
0.0
 11
-82.823081865116
 21
203.6889148052986
 31
0.0
  0
LINE
  5
1C3
330
3C
100
AcDbEntity
  8
1
  6
Continuous
 62
     2
100
AcDbLine
 10
-84.23709386511595
 20
207.1169238052987
 30
0.0
 11
-71.89901886511606
 21
207.1169248052987
 31
0.0
  0
LINE
  5
1C4
330
3C
100
AcDbEntity
  8
1
  6
Continuous
 62
     2
100
AcDbLine
 10
-87.4453744638694
 20
211.3177278052988
 30
0.0
 11
-55.67614686511595
 21
211.3177278052988
 31
0.0
  0
LINE
  5
1C5
330
3C
100
AcDbEntity
  8
AM_VIS
  6
Continuous
 62
     7
100
AcDbLine
 10
-66.33944686511606
 20
179.9882408052987
 30
0.0
 11
-68.3157908651161
 21
179.9882408052987
 31
0.0
  0
LINE
  5
1C6
330
3C
100
AcDbEntity
  8
AM_VIS
  6
Continuous
 62
     7
100
AcDbLine
 10
-88.14899386511595
 20
179.9882408052987
 30
0.0
 11
-88.36310186511596
 21
179.9882408052987
 31
0.0
  0
LINE
  5
1C7
330
3C
100
AcDbEntity
  8
AM_VIS
  6
Continuous
 62
     7
100
AcDbLine
 10
-91.18944686511585
 20
179.9882408053003
 30
0.0
 11
-91.18944686511585
 21
179.2882528052987
 31
0.0
  0
LINE
  5
1C8
330
3C
100
AcDbEntity
  8
AM_VIS
  6
Continuous
 62
     7
100
AcDbLine
 10
-65.48944686511621
 20
179.9882408052987
 30
0.0
 11
-66.33944686511606
 21
179.9882408052987
 31
0.0
  0
LINE
  5
1C9
330
3C
100
AcDbEntity
  8
1
  6
DOT_CENTER
 62
     2
100
AcDbLine
 10
-68.42934286511596
 20
176.6184238662016
 30
0.0
 11
-68.42934286511596
 21
180.5615902862405
 31
0.0
  0
LINE
  5
1CA
330
3C
100
AcDbEntity
  8
1
  6
Continuous
 62
     7
100
AcDbLine
 10
-83.25123686511606
 20
186.4882583861712
 30
0.0
 11
-66.33944686511606
 21
186.4882416466451
 31
0.0
  0
LINE
  5
1CB
330
3C
100
AcDbEntity
  8
AM_VIS
  6
Continuous
 62
     7
100
AcDbLine
 10
-66.33944686511606
 20
179.9882408052987
 30
0.0
 11
-66.33944686511606
 21
186.4882416466451
 31
0.0
  0
LINE
  5
1CC
330
3C
100
AcDbEntity
  8
1
  6
Continuous
 62
     3
100
AcDbLine
 10
-65.58482386511596
 20
199.8662348052985
 30
0.0
 11
-65.58482386511596
 21
206.1102468052986
 31
0.0
  0
LINE
  5
1CD
330
3C
100
AcDbEntity
  8
1
  6
Continuous
 62
     3
100
AcDbLine
 10
-71.947268865116
 20
199.8662348052985
 30
0.0
 11
-71.947268865116
 21
206.1102468052986
 31
0.0
  0
LINE
  5
1CE
330
3C
100
AcDbEntity
  8
1
  6
Continuous
 62
     3
100
AcDbLine
 10
-87.4453744638694
 20
211.3177278052988
 30
0.0
 11
-84.23709386511595
 21
207.1169238052987
 31
0.0
  0
LINE
  5
1CF
330
3C
100
AcDbEntity
  8
1
  6
Continuous
 62
     3
100
AcDbLine
 10
-91.17583100452376
 20
190.4882408052987
 30
0.0
 11
-88.89021186511596
 21
193.0004848052987
 31
0.0
  0
LINE
  5
1D0
330
3C
100
AcDbEntity
  8
1
  6
Continuous
 62
     3
100
AcDbLine
 10
-91.17614686511595
 20
215.9882408052987
 30
0.0
 11
-90.1763128651161
 21
215.7759178052986
 31
0.0
  0
LINE
  5
1D1
330
3C
100
AcDbEntity
  8
1
  6
Continuous
 62
     3
100
AcDbLine
 10
-76.14946286511596
 20
198.8595568052988
 30
0.0
 11
-74.19664086511605
 21
197.5648808052987
 31
0.0
  0
LINE
  5
1D2
330
3C
100
AcDbEntity
  8
AM_VIS
  6
Continuous
 62
     2
100
AcDbLine
 10
-71.947268865116
 20
199.8662348052985
 30
0.0
 11
-83.65501886511586
 21
199.8662348052985
 31
0.0
  0
LINE
  5
1D3
330
3C
100
AcDbEntity
  8
1
  6
Continuous
 62
     3
100
AcDbLine
 10
-82.48225286511595
 20
197.5648808052987
 30
0.0
 11
-80.5294308651161
 21
198.8595568052988
 31
0.0
  0
LINE
  5
1D4
330
3C
100
AcDbEntity
  8
AM_VIS
  6
Continuous
 62
     2
100
AcDbLine
 10
-91.17614686511595
 20
190.4882408052987
 30
0.0
 11
-91.17583100452376
 21
190.4882408052987
 31
0.0
  0
LINE
  5
1D5
330
3C
100
AcDbEntity
  8
AM_VIS
  6
Continuous
 62
     7
100
AcDbLine
 10
-52.67614686511595
 20
191.4882408052987
 30
0.0
 11
-52.67614686511595
 21
198.8940378052987
 31
0.0
  0
LINE
  5
1D6
330
3C
100
AcDbEntity
  8
AM_VIS
  6
Continuous
 62
     7
100
AcDbLine
 10
-55.67614686511595
 20
190.4882408052987
 30
0.0
 11
-55.67614686511595
 21
191.4382408052986
 31
0.0
  0
LINE
  5
1D7
330
3C
100
AcDbEntity
  8
AM_VIS
  6
Continuous
 62
     7
100
AcDbLine
 10
-52.67614686511595
 20
214.4882408052987
 30
0.0
 11
-52.67614686511595
 21
214.5382408052985
 31
0.0
  0
LINE
  5
1D8
330
3C
100
AcDbEntity
  8
AM_VIS
  6
Continuous
 62
     7
100
AcDbLine
 10
-55.67614686511595
 20
214.5382408052985
 30
0.0
 11
-55.67614686511595
 21
191.4382408052986
 31
0.0
  0
LINE
  5
1D9
330
3C
100
AcDbEntity
  8
AM_VIS
  6
Continuous
 62
     7
100
AcDbLine
 10
-53.27614686511586
 20
213.5632408052986
 30
0.0
 11
-53.27614686511586
 21
214.5382408052985
 31
0.0
  0
LINE
  5
1DA
330
3C
100
AcDbEntity
  8
AM_VIS
  6
Continuous
 62
     7
100
AcDbLine
 10
-54.87614686511606
 20
213.5632408052986
 30
0.0
 11
-54.87614686511606
 21
214.5382408052985
 31
0.0
  0
LINE
  5
1DB
330
3C
100
AcDbEntity
  8
AM_VIS
  6
Continuous
 62
     7
100
AcDbLine
 10
-54.87614686511606
 20
192.4132408052985
 30
0.0
 11
-54.87614686511606
 21
213.5632408052986
 31
0.0
  0
LINE
  5
1DC
330
3C
100
AcDbEntity
  8
AM_VIS
  6
Continuous
 62
     7
100
AcDbLine
 10
-53.27614686511586
 20
192.4132408052985
 30
0.0
 11
-53.27614686511586
 21
198.8940378052987
 31
0.0
  0
LINE
  5
1DD
330
3C
100
AcDbEntity
  8
AM_VIS
  6
Continuous
 62
     7
100
AcDbLine
 10
-65.48944686511587
 20
190.4882408052987
 30
0.0
 11
-55.67614686511595
 21
190.4882408052987
 31
0.0
  0
LINE
  5
1DE
330
3C
100
AcDbEntity
  8
AM_VIS
  6
Continuous
 62
     2
100
AcDbLine
 10
-55.67614686511595
 20
190.5078938052989
 30
0.0
 11
-66.35991986511598
 21
190.5078938052989
 31
0.0
  0
LINE
  5
1DF
330
3C
100
AcDbEntity
  8
AM_VIS
  6
Continuous
 62
     2
100
AcDbLine
 10
-55.67614686511595
 20
190.8843948052986
 30
0.0
 11
-66.75268286511616
 21
190.8843948052986
 31
0.0
  0
LINE
  5
1E0
330
3C
100
AcDbEntity
  8
AM_VIS
  6
Continuous
 62
     2
100
AcDbLine
 10
-55.67614686511595
 20
191.7260398052987
 30
0.0
 11
-67.634906865116
 21
191.7260398052987
 31
0.0
  0
LINE
  5
1E1
330
3C
100
AcDbEntity
  8
AM_VIS
  6
Continuous
 62
     2
100
AcDbLine
 10
-55.67614686511595
 20
192.2219378052987
 30
0.0
 11
-68.15792986511619
 21
192.2219378052987
 31
0.0
  0
LINE
  5
1E2
330
3C
100
AcDbEntity
  8
AM_VIS
  6
Continuous
 62
     2
100
AcDbLine
 10
-55.67614686511595
 20
193.0004848052987
 30
0.0
 11
-68.98502186511595
 21
193.0004848052987
 31
0.0
  0
LINE
  5
1E3
330
3C
100
AcDbEntity
  8
AM_VIS
  6
Continuous
 62
     2
100
AcDbLine
 10
-55.67614686511595
 20
195.4719428052987
 30
0.0
 11
-66.72218986511601
 21
195.4719428052987
 31
0.0
  0
LINE
  5
1E4
330
3C
100
AcDbEntity
  8
AM_VIS
  6
Continuous
 62
     2
100
AcDbLine
 10
-55.67614686511595
 20
196.6371208052988
 30
0.0
 11
-66.044803865116
 21
196.6371208052988
 31
0.0
  0
LINE
  5
1E5
330
3C
100
AcDbEntity
  8
AM_VIS
  6
Continuous
 62
     2
100
AcDbLine
 10
-55.67614686511595
 20
197.5648808052987
 30
0.0
 11
-65.79466086511596
 21
197.5648808052987
 31
0.0
  0
LINE
  5
1E6
330
3C
100
AcDbEntity
  8
AM_VIS
  6
Continuous
 62
     2
100
AcDbLine
 10
-55.67614686511595
 20
198.8595568052988
 30
0.0
 11
-65.63307486511596
 21
198.8595568052988
 31
0.0
  0
LINE
  5
1E7
330
3C
100
AcDbEntity
  8
AM_VIS
  6
Continuous
 62
     2
100
AcDbLine
 10
-55.67614686511595
 20
199.8662348052985
 30
0.0
 11
-65.58482386511596
 21
199.8662348052985
 31
0.0
  0
LINE
  5
1E8
330
3C
100
AcDbEntity
  8
AM_VIS
  6
Continuous
 62
     2
100
AcDbLine
 10
-55.67614686511595
 20
201.2406568052987
 30
0.0
 11
-65.5668738651161
 21
201.2406568052987
 31
0.0
  0
LINE
  5
1E9
330
3C
100
AcDbEntity
  8
AM_VIS
  6
Continuous
 62
     7
100
AcDbLine
 10
-55.67614686511595
 20
201.7728278052988
 30
0.0
 11
-65.5679278651161
 21
201.7728278052988
 31
0.0
  0
LINE
  5
1EA
330
3C
100
AcDbEntity
  8
AM_VIS
  6
Continuous
 62
     2
100
AcDbLine
 10
-55.67614686511595
 20
194.6587538052987
 30
0.0
 11
-68.09856086511596
 21
194.6587538052987
 31
0.0
  0
LINE
  5
1EB
330
3C
100
AcDbEntity
  8
AM_VIS
  6
Continuous
 62
     2
100
AcDbLine
 10
-55.67614686511595
 20
193.6678518052987
 30
0.0
 11
-69.70117986511596
 21
193.6678518052987
 31
0.0
  0
LINE
  5
1EC
330
3C
100
AcDbEntity
  8
AM_VIS
  6
Continuous
 62
     2
100
AcDbLine
 10
-55.67614686511595
 20
212.3079028052987
 30
0.0
 11
-88.29952186511596
 21
212.3079028052987
 31
0.0
  0
LINE
  5
1ED
330
3C
100
AcDbEntity
  8
AM_VIS
  6
Continuous
 62
     2
100
AcDbLine
 10
-55.67614686511595
 20
213.2003268052987
 30
0.0
 11
-88.965326865116
 21
213.2003268052987
 31
0.0
  0
LINE
  5
1EE
330
3C
100
AcDbEntity
  8
AM_VIS
  6
Continuous
 62
     7
100
AcDbLine
 10
-55.67614686511595
 20
215.9882408052987
 30
0.0
 11
-91.17614686511595
 21
215.9882408052987
 31
0.0
  0
LINE
  5
1EF
330
3C
100
AcDbEntity
  8
AM_VIS
  6
Continuous
 62
     7
100
AcDbLine
 10
-54.87614686511606
 20
191.4382408052986
 30
0.0
 11
-54.87614686511606
 21
192.4132408052985
 31
0.0
  0
LINE
  5
1F0
330
3C
100
AcDbEntity
  8
AM_VIS
  6
Continuous
 62
     7
100
AcDbLine
 10
-44.67614686511595
 20
202.9882408052987
 30
0.0
 11
-44.67614686511595
 21
213.7882408052985
 31
0.0
  0
LINE
  5
1F1
330
3C
100
AcDbEntity
  8
AM_VIS
  6
Continuous
 62
     7
100
AcDbLine
 10
-45.37614686511606
 20
206.9391898052987
 30
0.0
 11
-45.37614686511606
 21
214.4882408052987
 31
0.0
  0
LINE
  5
1F2
330
3C
100
AcDbEntity
  8
AM_VIS
  6
Continuous
 62
     7
100
AcDbLine
 10
-52.67614686511595
 20
207.0824438052987
 30
0.0
 11
-52.67614686511595
 21
214.4882408052987
 31
0.0
  0
LINE
  5
1F3
330
3C
100
AcDbEntity
  8
AM_VIS
  6
Continuous
 62
     7
100
AcDbLine
 10
-53.27614686511586
 20
207.0824438052987
 30
0.0
 11
-53.27614686511586
 21
213.5632408052986
 31
0.0
  0
LINE
  5
1F4
330
3C
100
AcDbEntity
  8
AM_VIS
  6
Continuous
 62
     7
100
AcDbLine
 10
-45.37614686511606
 20
191.4882408052987
 30
0.0
 11
-44.67614686511595
 21
192.1882408052986
 31
0.0
  0
LINE
  5
1F5
330
3C
100
AcDbEntity
  8
AM_VIS
  6
Continuous
 62
     7
100
AcDbLine
 10
-45.37614686511606
 20
206.9391898052987
 30
0.0
 11
-44.84975086511597
 21
204.9324628052989
 31
0.0
  0
LINE
  5
1F6
330
3C
100
AcDbEntity
  8
AM_VIS
  6
Continuous
 62
     7
100
AcDbLine
 10
-44.84975086511597
 20
204.9324628052989
 30
0.0
 11
-44.67614686511595
 21
202.9882408052987
 31
0.0
  0
LINE
  5
1F7
330
3C
100
AcDbEntity
  8
AM_VIS
  6
Continuous
 62
     7
100
AcDbLine
 10
-44.67614686511595
 20
202.9882408052987
 30
0.0
 11
-44.84975086511597
 21
201.0440188052987
 31
0.0
  0
LINE
  5
1F8
330
3C
100
AcDbEntity
  8
AM_VIS
  6
Continuous
 62
     7
100
AcDbLine
 10
-44.84975086511597
 20
201.0440188052987
 30
0.0
 11
-45.37614686511606
 21
199.0372918052988
 31
0.0
  0
LINE
  5
1F9
330
3C
100
AcDbEntity
  8
AM_VIS
  6
Continuous
 62
     7
100
AcDbLine
 10
-52.67614686511595
 20
191.4882408052987
 30
0.0
 11
-45.37614686511606
 21
191.4882408052987
 31
0.0
  0
LINE
  5
1FA
330
3C
100
AcDbEntity
  8
AM_VIS
  6
Continuous
 62
     7
100
AcDbLine
 10
-45.37614686511606
 20
199.0372918052988
 30
0.0
 11
-52.67614686511595
 21
199.0372918052988
 31
0.0
  0
LINE
  5
1FB
330
3C
100
AcDbEntity
  8
AM_VIS
  6
Continuous
 62
     7
100
AcDbLine
 10
-52.67614686511595
 20
206.9391898052987
 30
0.0
 11
-45.37614686511606
 21
206.9391898052987
 31
0.0
  0
LINE
  5
1FC
330
3C
100
AcDbEntity
  8
AM_VIS
  6
Continuous
 62
     7
100
AcDbLine
 10
-55.67614686511595
 20
191.4382408052986
 30
0.0
 11
-54.87614686511606
 21
191.4382408052986
 31
0.0
  0
LINE
  5
1FD
330
3C
100
AcDbEntity
  8
AM_VIS
  6
Continuous
 62
     7
100
AcDbLine
 10
-54.87614686511606
 20
192.4132408052985
 30
0.0
 11
-53.27614686511586
 21
192.4132408052985
 31
0.0
  0
LINE
  5
1FE
330
3C
100
AcDbEntity
  8
AM_VIS
  6
Continuous
 62
     7
100
AcDbLine
 10
-53.27614686511586
 20
191.4382408052986
 30
0.0
 11
-52.67614686511595
 21
191.4382408052986
 31
0.0
  0
LINE
  5
1FF
330
3C
100
AcDbEntity
  8
AM_VIS
  6
Continuous
 62
     7
100
AcDbLine
 10
-52.67614686511595
 20
191.4382408052986
 30
0.0
 11
-52.67614686511595
 21
191.4882408052987
 31
0.0
  0
LINE
  5
200
330
3C
100
AcDbEntity
  8
AM_VIS
  6
Continuous
 62
     7
100
AcDbLine
 10
-53.27614686511586
 20
191.4382408052986
 30
0.0
 11
-53.27614686511586
 21
192.4132408052985
 31
0.0
  0
LINE
  5
201
330
3C
100
AcDbEntity
  8
AM_VIS
  6
Continuous
 62
     7
100
AcDbLine
 10
-52.67614686511595
 20
199.0372918052988
 30
0.0
 11
-52.67614686511595
 21
198.8940378052987
 31
0.0
  0
LINE
  5
202
330
3C
100
AcDbEntity
  8
AM_VIS
  6
Continuous
 62
     7
100
AcDbLine
 10
-52.67614686511595
 20
198.8940378052987
 30
0.0
 11
-53.27614686511586
 21
198.8940378052987
 31
0.0
  0
LINE
  5
203
330
3C
100
AcDbEntity
  8
AM_VIS
  6
Continuous
 62
     7
100
AcDbLine
 10
-53.27614686511586
 20
198.8940378052987
 30
0.0
 11
-53.27614686511586
 21
207.0824438052987
 31
0.0
  0
LINE
  5
204
330
3C
100
AcDbEntity
  8
AM_VIS
  6
Continuous
 62
     7
100
AcDbLine
 10
-53.27614686511586
 20
207.0824438052987
 30
0.0
 11
-52.67614686511595
 21
207.0824438052987
 31
0.0
  0
LINE
  5
205
330
3C
100
AcDbEntity
  8
AM_VIS
  6
Continuous
 62
     7
100
AcDbLine
 10
-52.67614686511595
 20
207.0824438052987
 30
0.0
 11
-52.67614686511595
 21
206.9391898052987
 31
0.0
  0
LINE
  5
206
330
3C
100
AcDbEntity
  8
AM_VIS
  6
Continuous
 62
     7
100
AcDbLine
 10
-45.37614686511606
 20
191.4882408052987
 30
0.0
 11
-45.37614686511606
 21
199.0372918052988
 31
0.0
  0
LINE
  5
207
330
3C
100
AcDbEntity
  8
AM_VIS
  6
Continuous
 62
     7
100
AcDbLine
 10
-44.67614686511595
 20
192.1882408052986
 30
0.0
 11
-39.47614686511591
 21
192.1882408052986
 31
0.0
  0
LINE
  5
208
330
3C
100
AcDbEntity
  8
AM_VIS
  6
Continuous
 62
     7
100
AcDbLine
 10
-44.67614686511595
 20
192.1882408052986
 30
0.0
 11
-44.67614686511595
 21
202.9882408052987
 31
0.0
  0
LINE
  5
209
330
3C
100
AcDbEntity
  8
AM_VIS
  6
Continuous
 62
     7
100
AcDbLine
 10
-44.67614686511595
 20
213.7882408052985
 30
0.0
 11
-45.37614686511606
 21
214.4882408052987
 31
0.0
  0
LINE
  5
20A
330
3C
100
AcDbEntity
  8
AM_VIS
  6
Continuous
 62
     7
100
AcDbLine
 10
-45.37614686511606
 20
214.4882408052987
 30
0.0
 11
-52.67614686511595
 21
214.4882408052987
 31
0.0
  0
LINE
  5
20B
330
3C
100
AcDbEntity
  8
AM_VIS
  6
Continuous
 62
     7
100
AcDbLine
 10
-54.87614686511606
 20
214.5382408052985
 30
0.0
 11
-55.67614686511595
 21
214.5382408052985
 31
0.0
  0
LINE
  5
20C
330
3C
100
AcDbEntity
  8
AM_VIS
  6
Continuous
 62
     7
100
AcDbLine
 10
-53.27614686511586
 20
213.5632408052986
 30
0.0
 11
-54.87614686511606
 21
213.5632408052986
 31
0.0
  0
LINE
  5
20D
330
3C
100
AcDbEntity
  8
AM_VIS
  6
Continuous
 62
     7
100
AcDbLine
 10
-52.67614686511595
 20
214.5382408052985
 30
0.0
 11
-53.27614686511586
 21
214.5382408052985
 31
0.0
  0
LINE
  5
20E
330
3C
100
AcDbEntity
  8
AM_VIS
  6
Continuous
 62
     2
100
AcDbLine
 10
-55.67614686511595
 20
203.6889148052986
 30
0.0
 11
-65.57029019222276
 21
203.6889148052986
 31
0.0
  0
LINE
  5
20F
330
3C
100
AcDbEntity
  8
AM_VIS
  6
Continuous
 62
     2
100
AcDbLine
 10
-55.67614686511595
 20
202.2875668052989
 30
0.0
 11
-65.57260401908329
 21
202.2875668052989
 31
0.0
  0
LINE
  5
210
330
3C
100
AcDbEntity
  8
AM_VIS
  6
Continuous
 62
     2
100
AcDbLine
 10
-55.67614686511595
 20
204.7358248052988
 30
0.0
 11
-65.5668738651161
 21
204.7358248052989
 31
0.0
  0
LINE
  5
211
330
3C
100
AcDbEntity
  8
AM_VIS
  6
Continuous
 62
     2
100
AcDbLine
 10
-55.67614686511595
 20
206.1102468052986
 30
0.0
 11
-65.58482386511596
 21
206.1102468052986
 31
0.0
  0
LINE
  5
212
330
3C
100
AcDbEntity
  8
AM_VIS
  6
Continuous
 62
     2
100
AcDbLine
 10
-55.67614686511595
 20
207.1169238052987
 30
0.0
 11
-65.63307486932015
 21
207.1169238052987
 31
0.0
  0
LINE
  5
213
330
3C
100
AcDbEntity
  8
AM_VIS
  6
Continuous
 62
     2
100
AcDbLine
 10
-55.67614686511595
 20
208.4116008052987
 30
0.0
 11
-65.79466086511596
 21
208.4116008052987
 31
0.0
  0
LINE
  5
214
330
3C
100
AcDbEntity
  8
AM_VIS
  6
Continuous
 62
     2
100
AcDbLine
 10
-55.67614686511595
 20
209.3393608052987
 30
0.0
 11
-66.044803865116
 21
209.3393608052987
 31
0.0
  0
LINE
  5
215
330
3C
100
AcDbEntity
  8
AM_VIS
  6
Continuous
 62
     2
100
AcDbLine
 10
-55.67614686511595
 20
210.5045388052987
 30
0.0
 11
-66.72218986511601
 21
210.5045388052987
 31
0.0
  0
LINE
  5
216
330
3C
100
AcDbEntity
  8
1
  6
Continuous
 62
     7
100
AcDbLine
 10
-65.48944686511587
 20
186.4882416466451
 30
0.0
 11
-65.48944686511587
 21
190.4882408052987
 31
0.0
  0
LINE
  5
217
330
3C
100
AcDbEntity
  8
AM_VIS
  6
Continuous
 62
     7
100
AcDbLine
 10
-66.33944686511606
 20
190.4882408052987
 30
0.0
 11
-65.48944686511587
 21
190.4882408052987
 31
0.0
  0
LINE
  5
218
330
3C
100
AcDbEntity
  8
1
  6
Continuous
 62
     7
100
AcDbLine
 10
-65.48944686511587
 20
186.4882416466451
 30
0.0
 11
-66.33944686511606
 21
186.4882416466451
 31
0.0
  0
LINE
  5
219
330
3C
100
AcDbEntity
  8
1
  6
Continuous
 62
     7
100
AcDbLine
 10
-65.48944686511587
 20
186.4882408052987
 30
0.0
 11
-65.48944686511587
 21
186.4882416466451
 31
0.0
  0
LINE
  5
21A
330
3C
100
AcDbEntity
  8
AM_VIS
  6
Continuous
 62
     7
100
AcDbLine
 10
-55.67614686511595
 20
215.9882408052987
 30
0.0
 11
-55.67614686511595
 21
214.5382408052985
 31
0.0
  0
LINE
  5
21B
330
3C
100
AcDbEntity
  8
1
  6
Continuous
 62
     7
100
AcDbLine
 10
-39.47614686511591
 20
213.7882408052985
 30
0.0
 11
-39.47614686511591
 21
192.1882408052986
 31
0.0
  0
LINE
  5
21C
330
3C
100
AcDbEntity
  8
1
  6
DOT_CENTER
 62
     2
100
AcDbLine
 10
128.3127111854084
 20
176.2772339949431
 30
0.0
 11
128.3126992053455
 21
217.922103362225
 31
0.0
  0
LINE
  5
21D
330
3C
100
AcDbEntity
  8
AM_VIS
  6
Continuous
 62
     7
100
AcDbLine
 10
118.5031652398543
 20
179.2772409832717
 30
0.0
 11
118.5031626121189
 21
189.8654509832718
 31
0.0
  0
LINE
  5
21E
330
3C
100
AcDbEntity
  8
AM_VIS
  6
Continuous
 62
     7
100
AcDbLine
 10
140.3127106121189
 20
184.2772359832716
 30
0.0
 11
140.3127106121189
 21
197.2772482641618
 31
0.0
  0
LINE
  5
21F
330
3C
100
AcDbEntity
  8
AM_VIS
  6
Continuous
 62
     7
100
AcDbLine
 10
116.3127106121189
 20
184.2772359832716
 30
0.0
 11
116.3127106121189
 21
178.2772359832716
 31
0.0
  0
LINE
  5
220
330
3C
100
AcDbEntity
  8
1
  6
Continuous
 62
     7
100
AcDbLine
 10
140.3127106121189
 20
184.2772359832716
 30
0.0
 11
116.3127106121189
 21
184.2772359832716
 31
0.0
  0
LINE
  5
221
330
3C
100
AcDbEntity
  8
1
  6
DOT_CENTER
 62
     2
100
AcDbLine
 10
141.7605657590914
 20
200.7772482641618
 30
0.0
 11
114.5616772597381
 21
200.7772482641618
 31
0.0
  0
LINE
  5
222
330
3C
100
AcDbEntity
  8
AM_VIS
  6
Continuous
 62
     7
100
AcDbLine
 10
118.5031626121189
 20
189.8654509832718
 30
0.0
 11
120.5239266121189
 21
188.9884519832716
 31
0.0
  0
LINE
  5
223
330
3C
100
AcDbEntity
  8
AM_VIS
  6
Continuous
 62
     7
100
AcDbLine
 10
120.5239266121189
 20
188.9884519832716
 30
0.0
 11
121.4009206121189
 21
186.9676919832715
 31
0.0
  0
LINE
  5
224
330
3C
100
AcDbEntity
  8
AM_VIS
  6
Continuous
 62
     7
100
AcDbLine
 10
118.5043796121189
 20
190.3572359832716
 30
0.0
 11
121.400866612119
 21
190.3572749832715
 31
0.0
  0
LINE
  5
225
330
3C
100
AcDbEntity
  8
AM_VIS
  6
Continuous
 62
     7
100
AcDbLine
 10
135.2244956121189
 20
186.9676889832716
 30
0.0
 11
136.1014946121189
 21
188.9884519832716
 31
0.0
  0
LINE
  5
226
330
3C
100
AcDbEntity
  8
AM_VIS
  6
Continuous
 62
     7
100
AcDbLine
 10
136.1014946121189
 20
188.9884519832716
 30
0.0
 11
138.1222576121189
 21
189.8654509832718
 31
0.0
  0
LINE
  5
227
330
3C
100
AcDbEntity
  8
AM_VIS
  6
Continuous
 62
     7
100
AcDbLine
 10
135.2244956121189
 20
186.9676889832716
 30
0.0
 11
135.2244956121189
 21
190.3572359832716
 31
0.0
  0
LINE
  5
228
330
3C
100
AcDbEntity
  8
AM_VIS
  6
Continuous
 62
     7
100
AcDbLine
 10
138.1222576121189
 20
190.3572359832716
 30
0.0
 11
138.1222576121189
 21
189.8654509832718
 31
0.0
  0
LINE
  5
229
330
3C
100
AcDbEntity
  8
AM_VIS
  6
Continuous
 62
     7
100
AcDbLine
 10
138.121040612119
 20
190.3572359832716
 30
0.0
 11
138.1222576121189
 21
190.3572359832716
 31
0.0
  0
LINE
  5
22A
330
3C
100
AcDbEntity
  8
AM_VIS
  6
Continuous
 62
     7
100
AcDbLine
 10
138.121040612119
 20
193.0578329832715
 30
0.0
 11
138.121040612119
 21
190.3572359832716
 31
0.0
  0
LINE
  5
22B
330
3C
100
AcDbEntity
  8
AM_VIS
  6
Continuous
 62
     7
100
AcDbLine
 10
135.2244956121189
 20
190.3572359832716
 30
0.0
 11
138.121040612119
 21
190.3572359832716
 31
0.0
  0
LINE
  5
22C
330
3C
100
AcDbEntity
  8
AM_VIS
  6
Continuous
 62
     7
100
AcDbLine
 10
121.400866612119
 20
190.3572749832715
 30
0.0
 11
121.4009206121189
 21
186.9676919832715
 31
0.0
  0
LINE
  5
22D
330
3C
100
AcDbEntity
  8
AM_VIS
  6
Continuous
 62
     7
100
AcDbLine
 10
118.5031626121189
 20
190.3572359832716
 30
0.0
 11
118.5043796121189
 21
190.3572359832716
 31
0.0
  0
LINE
  5
22E
330
3C
100
AcDbEntity
  8
AM_VIS
  6
Continuous
 62
     7
100
AcDbLine
 10
118.5031626121189
 20
189.8654509832718
 30
0.0
 11
118.5031626121189
 21
190.3572359832716
 31
0.0
  0
LINE
  5
22F
330
3C
100
AcDbEntity
  8
AM_VIS
  6
Continuous
 62
     7
100
AcDbLine
 10
118.5043796121189
 20
190.3572359832716
 30
0.0
 11
118.5043796121189
 21
193.0578329832715
 31
0.0
  0
LINE
  5
230
330
3C
100
AcDbEntity
  8
AM_VIS
  6
Continuous
 62
     7
100
AcDbLine
 10
121.4009206121189
 20
186.9676919832715
 30
0.0
 11
121.4009206121189
 21
178.2772359832716
 31
0.0
  0
LINE
  5
231
330
3C
100
AcDbEntity
  8
AM_VIS
  6
Continuous
 62
     7
100
AcDbLine
 10
116.3127106121189
 20
197.2772482641619
 30
0.0
 11
116.3127106121189
 21
187.7772359832716
 31
0.0
  0
LINE
  5
232
330
3C
100
AcDbEntity
  8
AM_VIS
  6
Continuous
 62
     7
100
AcDbLine
 10
140.3127106121189
 20
178.2772359832716
 30
0.0
 11
140.3127106121189
 21
184.2772359832716
 31
0.0
  0
LINE
  5
233
330
3C
100
AcDbEntity
  8
AM_VIS
  6
Continuous
 62
     7
100
AcDbLine
 10
135.2245006121189
 20
178.2772359832716
 30
0.0
 11
135.2244956121189
 21
186.9676889832716
 31
0.0
  0
LINE
  5
234
330
3C
100
AcDbEntity
  8
AM_VIS
  6
Continuous
 62
     7
100
AcDbLine
 10
138.1222576121189
 20
189.8654509832718
 30
0.0
 11
138.1222549843836
 21
179.2772409832717
 31
0.0
  0
LINE
  5
235
330
3C
100
AcDbEntity
  8
1
  6
Continuous
 62
     7
100
AcDbLine
 10
115.4627106121189
 20
178.2772359832716
 30
0.0
 11
115.4627106121189
 21
187.7772359832716
 31
0.0
  0
LINE
  5
236
330
3C
100
AcDbEntity
  8
1
  6
Continuous
 62
     7
100
AcDbLine
 10
115.4627106121189
 20
187.7772359832716
 30
0.0
 11
116.3127106121189
 21
187.7772359832716
 31
0.0
  0
LINE
  5
237
330
3C
100
AcDbEntity
  8
AM_VIS
  6
Continuous
 62
     7
100
AcDbLine
 10
116.3127106121189
 20
187.7772359832716
 30
0.0
 11
116.3127106121189
 21
184.2772359832716
 31
0.0
  0
LINE
  5
238
330
3C
100
AcDbEntity
  8
1
  6
Continuous
 62
     7
100
AcDbLine
 10
-0.9761468651159
 20
176.3272562641617
 30
0.0
 11
-0.9761468651159
 21
154.7272562641618
 31
0.0
  0
LINE
  5
239
330
3C
100
AcDbEntity
  8
AM_VIS
  6
Continuous
 62
     7
100
AcDbLine
 10
-17.17614686511595
 20
178.5272562641619
 30
0.0
 11
-17.17614686511595
 21
177.0772562641617
 31
0.0
  0
LINE
  5
23A
330
3C
100
AcDbEntity
  8
1
  6
Continuous
 62
     7
100
AcDbLine
 10
-26.98944686511587
 20
149.0272562641619
 30
0.0
 11
-26.98944686511587
 21
149.0272571055083
 31
0.0
  0
LINE
  5
23B
330
3C
100
AcDbEntity
  8
1
  6
Continuous
 62
     7
100
AcDbLine
 10
-26.98944686511587
 20
149.0272571055083
 30
0.0
 11
-27.83944686511606
 21
149.0272571055083
 31
0.0
  0
LINE
  5
23C
330
3C
100
AcDbEntity
  8
AM_VIS
  6
Continuous
 62
     7
100
AcDbLine
 10
-27.83944686511606
 20
153.0272562641619
 30
0.0
 11
-26.98944686511587
 21
153.0272562641619
 31
0.0
  0
LINE
  5
23D
330
3C
100
AcDbEntity
  8
1
  6
Continuous
 62
     7
100
AcDbLine
 10
-26.98944686511587
 20
149.0272571055083
 30
0.0
 11
-26.98944686511587
 21
153.0272562641619
 31
0.0
  0
LINE
  5
23E
330
3C
100
AcDbEntity
  8
AM_VIS
  6
Continuous
 62
     2
100
AcDbLine
 10
-17.17614686511595
 20
173.0435542641619
 30
0.0
 11
-28.22218986511601
 21
173.0435542641619
 31
0.0
  0
LINE
  5
23F
330
3C
100
AcDbEntity
  8
AM_VIS
  6
Continuous
 62
     2
100
AcDbLine
 10
-17.17614686511595
 20
171.8783762641619
 30
0.0
 11
-27.544803865116
 21
171.8783762641619
 31
0.0
  0
LINE
  5
240
330
3C
100
AcDbEntity
  8
AM_VIS
  6
Continuous
 62
     2
100
AcDbLine
 10
-17.17614686511595
 20
170.9506162641619
 30
0.0
 11
-27.29466086511596
 21
170.9506162641619
 31
0.0
  0
LINE
  5
241
330
3C
100
AcDbEntity
  8
AM_VIS
  6
Continuous
 62
     2
100
AcDbLine
 10
-17.17614686511595
 20
169.6559392641619
 30
0.0
 11
-27.13307486932015
 21
169.6559392641619
 31
0.0
  0
LINE
  5
242
330
3C
100
AcDbEntity
  8
AM_VIS
  6
Continuous
 62
     2
100
AcDbLine
 10
-17.17614686511595
 20
168.6492622641618
 30
0.0
 11
-27.08482386511597
 21
168.6492622641618
 31
0.0
  0
LINE
  5
243
330
3C
100
AcDbEntity
  8
AM_VIS
  6
Continuous
 62
     2
100
AcDbLine
 10
-17.17614686511595
 20
167.274840264162
 30
0.0
 11
-27.06687386511609
 21
167.2748402641621
 31
0.0
  0
LINE
  5
244
330
3C
100
AcDbEntity
  8
AM_VIS
  6
Continuous
 62
     2
100
AcDbLine
 10
-17.17614686511595
 20
164.8265822641621
 30
0.0
 11
-27.07260401908329
 21
164.8265822641621
 31
0.0
  0
LINE
  5
245
330
3C
100
AcDbEntity
  8
AM_VIS
  6
Continuous
 62
     2
100
AcDbLine
 10
-17.17614686511595
 20
166.2279302641618
 30
0.0
 11
-27.07029019222276
 21
166.2279302641618
 31
0.0
  0
LINE
  5
246
330
3C
100
AcDbEntity
  8
AM_VIS
  6
Continuous
 62
     7
100
AcDbLine
 10
-14.17614686511595
 20
177.0772562641617
 30
0.0
 11
-14.77614686511586
 21
177.0772562641617
 31
0.0
  0
LINE
  5
247
330
3C
100
AcDbEntity
  8
AM_VIS
  6
Continuous
 62
     7
100
AcDbLine
 10
-14.77614686511586
 20
176.1022562641618
 30
0.0
 11
-16.37614686511606
 21
176.1022562641618
 31
0.0
  0
LINE
  5
248
330
3C
100
AcDbEntity
  8
AM_VIS
  6
Continuous
 62
     7
100
AcDbLine
 10
-16.37614686511606
 20
177.0772562641617
 30
0.0
 11
-17.17614686511595
 21
177.0772562641617
 31
0.0
  0
LINE
  5
249
330
3C
100
AcDbEntity
  8
AM_VIS
  6
Continuous
 62
     7
100
AcDbLine
 10
-6.87614686511606
 20
177.0272562641619
 30
0.0
 11
-14.17614686511595
 21
177.0272562641619
 31
0.0
  0
LINE
  5
24A
330
3C
100
AcDbEntity
  8
AM_VIS
  6
Continuous
 62
     7
100
AcDbLine
 10
-6.17614686511596
 20
176.3272562641617
 30
0.0
 11
-6.87614686511606
 21
177.0272562641619
 31
0.0
  0
LINE
  5
24B
330
3C
100
AcDbEntity
  8
AM_VIS
  6
Continuous
 62
     7
100
AcDbLine
 10
-6.17614686511596
 20
154.7272562641618
 30
0.0
 11
-6.17614686511596
 21
165.5272562641619
 31
0.0
  0
LINE
  5
24C
330
3C
100
AcDbEntity
  8
AM_VIS
  6
Continuous
 62
     7
100
AcDbLine
 10
-6.17614686511596
 20
154.7272562641618
 30
0.0
 11
-0.9761468651159
 21
154.7272562641618
 31
0.0
  0
LINE
  5
24D
330
3C
100
AcDbEntity
  8
AM_VIS
  6
Continuous
 62
     7
100
AcDbLine
 10
-6.87614686511606
 20
154.0272562641619
 30
0.0
 11
-6.87614686511606
 21
161.576307264162
 31
0.0
  0
LINE
  5
24E
330
3C
100
AcDbEntity
  8
AM_VIS
  6
Continuous
 62
     7
100
AcDbLine
 10
-14.17614686511595
 20
169.6214592641619
 30
0.0
 11
-14.17614686511595
 21
169.4782052641619
 31
0.0
  0
LINE
  5
24F
330
3C
100
AcDbEntity
  8
AM_VIS
  6
Continuous
 62
     7
100
AcDbLine
 10
-14.77614686511586
 20
169.6214592641619
 30
0.0
 11
-14.17614686511595
 21
169.6214592641619
 31
0.0
  0
LINE
  5
250
330
3C
100
AcDbEntity
  8
AM_VIS
  6
Continuous
 62
     7
100
AcDbLine
 10
-14.77614686511586
 20
161.4330532641619
 30
0.0
 11
-14.77614686511586
 21
169.6214592641619
 31
0.0
  0
LINE
  5
251
330
3C
100
AcDbEntity
  8
AM_VIS
  6
Continuous
 62
     7
100
AcDbLine
 10
-14.17614686511595
 20
161.4330532641619
 30
0.0
 11
-14.77614686511586
 21
161.4330532641619
 31
0.0
  0
LINE
  5
252
330
3C
100
AcDbEntity
  8
AM_VIS
  6
Continuous
 62
     7
100
AcDbLine
 10
-14.17614686511595
 20
161.576307264162
 30
0.0
 11
-14.17614686511595
 21
161.4330532641619
 31
0.0
  0
LINE
  5
253
330
3C
100
AcDbEntity
  8
AM_VIS
  6
Continuous
 62
     7
100
AcDbLine
 10
-14.77614686511586
 20
153.9772562641618
 30
0.0
 11
-14.77614686511586
 21
154.9522562641617
 31
0.0
  0
LINE
  5
254
330
3C
100
AcDbEntity
  8
AM_VIS
  6
Continuous
 62
     7
100
AcDbLine
 10
-14.17614686511595
 20
153.9772562641618
 30
0.0
 11
-14.17614686511595
 21
154.0272562641619
 31
0.0
  0
LINE
  5
255
330
3C
100
AcDbEntity
  8
AM_VIS
  6
Continuous
 62
     7
100
AcDbLine
 10
-14.77614686511586
 20
153.9772562641618
 30
0.0
 11
-14.17614686511595
 21
153.9772562641618
 31
0.0
  0
LINE
  5
256
330
3C
100
AcDbEntity
  8
AM_VIS
  6
Continuous
 62
     7
100
AcDbLine
 10
-16.37614686511606
 20
154.9522562641617
 30
0.0
 11
-14.77614686511586
 21
154.9522562641617
 31
0.0
  0
LINE
  5
257
330
3C
100
AcDbEntity
  8
AM_VIS
  6
Continuous
 62
     7
100
AcDbLine
 10
-17.17614686511595
 20
153.9772562641618
 30
0.0
 11
-16.37614686511606
 21
153.9772562641618
 31
0.0
  0
LINE
  5
258
330
3C
100
AcDbEntity
  8
AM_VIS
  6
Continuous
 62
     7
100
AcDbLine
 10
-14.17614686511595
 20
169.4782052641619
 30
0.0
 11
-6.87614686511606
 21
169.4782052641619
 31
0.0
  0
LINE
  5
259
330
3C
100
AcDbEntity
  8
AM_VIS
  6
Continuous
 62
     7
100
AcDbLine
 10
-6.87614686511606
 20
161.576307264162
 30
0.0
 11
-14.17614686511595
 21
161.576307264162
 31
0.0
  0
LINE
  5
25A
330
3C
100
AcDbEntity
  8
AM_VIS
  6
Continuous
 62
     7
100
AcDbLine
 10
-14.17614686511595
 20
154.0272562641619
 30
0.0
 11
-6.87614686511606
 21
154.0272562641619
 31
0.0
  0
LINE
  5
25B
330
3C
100
AcDbEntity
  8
AM_VIS
  6
Continuous
 62
     7
100
AcDbLine
 10
-6.34975086511596
 20
163.5830342641619
 30
0.0
 11
-6.87614686511606
 21
161.576307264162
 31
0.0
  0
LINE
  5
25C
330
3C
100
AcDbEntity
  8
AM_VIS
  6
Continuous
 62
     7
100
AcDbLine
 10
-6.17614686511596
 20
165.5272562641619
 30
0.0
 11
-6.34975086511596
 21
163.5830342641619
 31
0.0
  0
LINE
  5
25D
330
3C
100
AcDbEntity
  8
AM_VIS
  6
Continuous
 62
     7
100
AcDbLine
 10
-6.34975086511596
 20
167.4714782641621
 30
0.0
 11
-6.17614686511596
 21
165.5272562641619
 31
0.0
  0
LINE
  5
25E
330
3C
100
AcDbEntity
  8
AM_VIS
  6
Continuous
 62
     7
100
AcDbLine
 10
-6.87614686511606
 20
169.4782052641619
 30
0.0
 11
-6.34975086511596
 21
167.4714782641621
 31
0.0
  0
LINE
  5
25F
330
3C
100
AcDbEntity
  8
AM_VIS
  6
Continuous
 62
     7
100
AcDbLine
 10
-6.87614686511606
 20
154.0272562641619
 30
0.0
 11
-6.17614686511596
 21
154.7272562641618
 31
0.0
  0
LINE
  5
260
330
3C
100
AcDbEntity
  8
AM_VIS
  6
Continuous
 62
     7
100
AcDbLine
 10
-14.77614686511586
 20
169.6214592641619
 30
0.0
 11
-14.77614686511586
 21
176.1022562641618
 31
0.0
  0
LINE
  5
261
330
3C
100
AcDbEntity
  8
AM_VIS
  6
Continuous
 62
     7
100
AcDbLine
 10
-14.17614686511595
 20
169.6214592641619
 30
0.0
 11
-14.17614686511595
 21
177.0272562641619
 31
0.0
  0
LINE
  5
262
330
3C
100
AcDbEntity
  8
AM_VIS
  6
Continuous
 62
     7
100
AcDbLine
 10
-6.87614686511606
 20
169.4782052641619
 30
0.0
 11
-6.87614686511606
 21
177.0272562641619
 31
0.0
  0
LINE
  5
263
330
3C
100
AcDbEntity
  8
AM_VIS
  6
Continuous
 62
     7
100
AcDbLine
 10
-6.17614686511596
 20
165.5272562641619
 30
0.0
 11
-6.17614686511596
 21
176.3272562641617
 31
0.0
  0
LINE
  5
264
330
3C
100
AcDbEntity
  8
AM_VIS
  6
Continuous
 62
     7
100
AcDbLine
 10
-16.37614686511606
 20
153.9772562641618
 30
0.0
 11
-16.37614686511606
 21
154.9522562641617
 31
0.0
  0
LINE
  5
265
330
3C
100
AcDbEntity
  8
AM_VIS
  6
Continuous
 62
     7
100
AcDbLine
 10
-17.17614686511595
 20
178.5272562641619
 30
0.0
 11
-52.67614686511595
 21
178.5272562641619
 31
0.0
  0
LINE
  5
266
330
3C
100
AcDbEntity
  8
AM_VIS
  6
Continuous
 62
     2
100
AcDbLine
 10
-17.17614686511595
 20
175.7393422641619
 30
0.0
 11
-50.465326865116
 21
175.7393422641619
 31
0.0
  0
LINE
  5
267
330
3C
100
AcDbEntity
  8
AM_VIS
  6
Continuous
 62
     2
100
AcDbLine
 10
-17.17614686511595
 20
174.8469182641619
 30
0.0
 11
-49.79952186511596
 21
174.8469182641619
 31
0.0
  0
LINE
  5
268
330
3C
100
AcDbEntity
  8
AM_VIS
  6
Continuous
 62
     2
100
AcDbLine
 10
-17.17614686511595
 20
156.2068672641619
 30
0.0
 11
-31.20117986511596
 21
156.2068672641619
 31
0.0
  0
LINE
  5
269
330
3C
100
AcDbEntity
  8
AM_VIS
  6
Continuous
 62
     2
100
AcDbLine
 10
-17.17614686511595
 20
157.1977692641619
 30
0.0
 11
-29.59856086511596
 21
157.1977692641619
 31
0.0
  0
LINE
  5
26A
330
3C
100
AcDbEntity
  8
AM_VIS
  6
Continuous
 62
     7
100
AcDbLine
 10
-17.17614686511595
 20
164.311843264162
 30
0.0
 11
-27.0679278651161
 21
164.311843264162
 31
0.0
  0
LINE
  5
26B
330
3C
100
AcDbEntity
  8
AM_VIS
  6
Continuous
 62
     2
100
AcDbLine
 10
-17.17614686511595
 20
163.7796722641619
 30
0.0
 11
-27.06687386511609
 21
163.7796722641619
 31
0.0
  0
LINE
  5
26C
330
3C
100
AcDbEntity
  8
AM_VIS
  6
Continuous
 62
     2
100
AcDbLine
 10
-17.17614686511595
 20
162.4052502641617
 30
0.0
 11
-27.08482386511597
 21
162.4052502641617
 31
0.0
  0
LINE
  5
26D
330
3C
100
AcDbEntity
  8
AM_VIS
  6
Continuous
 62
     2
100
AcDbLine
 10
-17.17614686511595
 20
161.398572264162
 30
0.0
 11
-27.13307486511596
 21
161.398572264162
 31
0.0
  0
LINE
  5
26E
330
3C
100
AcDbEntity
  8
AM_VIS
  6
Continuous
 62
     2
100
AcDbLine
 10
-17.17614686511595
 20
160.1038962641619
 30
0.0
 11
-27.29466086511596
 21
160.1038962641619
 31
0.0
  0
LINE
  5
26F
330
3C
100
AcDbEntity
  8
AM_VIS
  6
Continuous
 62
     2
100
AcDbLine
 10
-17.17614686511595
 20
159.176136264162
 30
0.0
 11
-27.544803865116
 21
159.176136264162
 31
0.0
  0
LINE
  5
270
330
3C
100
AcDbEntity
  8
AM_VIS
  6
Continuous
 62
     2
100
AcDbLine
 10
-17.17614686511595
 20
158.0109582641619
 30
0.0
 11
-28.22218986511601
 21
158.0109582641619
 31
0.0
  0
LINE
  5
271
330
3C
100
AcDbEntity
  8
AM_VIS
  6
Continuous
 62
     2
100
AcDbLine
 10
-17.17614686511595
 20
155.5395002641619
 30
0.0
 11
-30.48502186511595
 21
155.5395002641619
 31
0.0
  0
LINE
  5
272
330
3C
100
AcDbEntity
  8
AM_VIS
  6
Continuous
 62
     2
100
AcDbLine
 10
-17.17614686511595
 20
154.7609532641619
 30
0.0
 11
-29.65792986511619
 21
154.7609532641619
 31
0.0
  0
LINE
  5
273
330
3C
100
AcDbEntity
  8
AM_VIS
  6
Continuous
 62
     2
100
AcDbLine
 10
-17.17614686511595
 20
154.2650552641619
 30
0.0
 11
-29.13490686511599
 21
154.2650552641619
 31
0.0
  0
LINE
  5
274
330
3C
100
AcDbEntity
  8
AM_VIS
  6
Continuous
 62
     2
100
AcDbLine
 10
-17.17614686511595
 20
153.4234102641618
 30
0.0
 11
-28.25268286511616
 21
153.4234102641618
 31
0.0
  0
LINE
  5
275
330
3C
100
AcDbEntity
  8
AM_VIS
  6
Continuous
 62
     2
100
AcDbLine
 10
-17.17614686511595
 20
153.0469092641621
 30
0.0
 11
-27.85991986511598
 21
153.0469092641621
 31
0.0
  0
LINE
  5
276
330
3C
100
AcDbEntity
  8
AM_VIS
  6
Continuous
 62
     7
100
AcDbLine
 10
-26.98944686511587
 20
153.0272562641619
 30
0.0
 11
-17.17614686511595
 21
153.0272562641619
 31
0.0
  0
LINE
  5
277
330
3C
100
AcDbEntity
  8
AM_VIS
  6
Continuous
 62
     7
100
AcDbLine
 10
-14.77614686511586
 20
154.9522562641617
 30
0.0
 11
-14.77614686511586
 21
161.4330532641619
 31
0.0
  0
LINE
  5
278
330
3C
100
AcDbEntity
  8
AM_VIS
  6
Continuous
 62
     7
100
AcDbLine
 10
-16.37614686511606
 20
154.9522562641617
 30
0.0
 11
-16.37614686511606
 21
176.1022562641618
 31
0.0
  0
LINE
  5
279
330
3C
100
AcDbEntity
  8
AM_VIS
  6
Continuous
 62
     7
100
AcDbLine
 10
-16.37614686511606
 20
176.1022562641618
 30
0.0
 11
-16.37614686511606
 21
177.0772562641617
 31
0.0
  0
LINE
  5
27A
330
3C
100
AcDbEntity
  8
AM_VIS
  6
Continuous
 62
     7
100
AcDbLine
 10
-14.77614686511586
 20
176.1022562641618
 30
0.0
 11
-14.77614686511586
 21
177.0772562641617
 31
0.0
  0
LINE
  5
27B
330
3C
100
AcDbEntity
  8
AM_VIS
  6
Continuous
 62
     7
100
AcDbLine
 10
-17.17614686511595
 20
177.0772562641617
 30
0.0
 11
-17.17614686511595
 21
153.9772562641618
 31
0.0
  0
LINE
  5
27C
330
3C
100
AcDbEntity
  8
AM_VIS
  6
Continuous
 62
     7
100
AcDbLine
 10
-14.17614686511595
 20
177.0272562641619
 30
0.0
 11
-14.17614686511595
 21
177.0772562641617
 31
0.0
  0
LINE
  5
27D
330
3C
100
AcDbEntity
  8
AM_VIS
  6
Continuous
 62
     7
100
AcDbLine
 10
-17.17614686511595
 20
153.0272562641619
 30
0.0
 11
-17.17614686511595
 21
153.9772562641618
 31
0.0
  0
LINE
  5
27E
330
3C
100
AcDbEntity
  8
AM_VIS
  6
Continuous
 62
     7
100
AcDbLine
 10
-14.17614686511595
 20
154.0272562641619
 30
0.0
 11
-14.17614686511595
 21
161.4330532641619
 31
0.0
  0
LINE
  5
27F
330
3C
100
AcDbEntity
  8
AM_VIS
  6
Continuous
 62
     2
100
AcDbLine
 10
-52.67614686511595
 20
153.0272562641619
 30
0.0
 11
-52.67583100452376
 21
153.0272562641619
 31
0.0
  0
LINE
  5
280
330
3C
100
AcDbEntity
  8
1
  6
Continuous
 62
     3
100
AcDbLine
 10
-43.98225286511595
 20
160.1038962641619
 30
0.0
 11
-42.0294308651161
 21
161.398572264162
 31
0.0
  0
LINE
  5
281
330
3C
100
AcDbEntity
  8
AM_VIS
  6
Continuous
 62
     2
100
AcDbLine
 10
-33.447268865116
 20
162.4052502641617
 30
0.0
 11
-45.15501886511586
 21
162.4052502641617
 31
0.0
  0
LINE
  5
282
330
3C
100
AcDbEntity
  8
1
  6
Continuous
 62
     3
100
AcDbLine
 10
-37.64946286511596
 20
161.398572264162
 30
0.0
 11
-35.69664086511605
 21
160.1038962641619
 31
0.0
  0
LINE
  5
283
330
3C
100
AcDbEntity
  8
1
  6
Continuous
 62
     3
100
AcDbLine
 10
-52.67614686511595
 20
178.5272562641619
 30
0.0
 11
-51.6763128651161
 21
178.3149332641618
 31
0.0
  0
LINE
  5
284
330
3C
100
AcDbEntity
  8
1
  6
Continuous
 62
     3
100
AcDbLine
 10
-52.67583100452376
 20
153.0272562641619
 30
0.0
 11
-50.39021186511596
 21
155.5395002641619
 31
0.0
  0
LINE
  5
285
330
3C
100
AcDbEntity
  8
1
  6
Continuous
 62
     3
100
AcDbLine
 10
-48.9453744638694
 20
173.856743264162
 30
0.0
 11
-45.73709386511595
 21
169.6559392641619
 31
0.0
  0
LINE
  5
286
330
3C
100
AcDbEntity
  8
1
  6
Continuous
 62
     3
100
AcDbLine
 10
-33.447268865116
 20
162.4052502641617
 30
0.0
 11
-33.447268865116
 21
168.6492622641618
 31
0.0
  0
LINE
  5
287
330
3C
100
AcDbEntity
  8
1
  6
Continuous
 62
     3
100
AcDbLine
 10
-27.08482386511597
 20
162.4052502641617
 30
0.0
 11
-27.08482386511597
 21
168.6492622641618
 31
0.0
  0
LINE
  5
288
330
3C
100
AcDbEntity
  8
AM_VIS
  6
Continuous
 62
     7
100
AcDbLine
 10
-27.83944686511606
 20
142.5272562641619
 30
0.0
 11
-27.83944686511606
 21
149.0272571055083
 31
0.0
  0
LINE
  5
289
330
3C
100
AcDbEntity
  8
1
  6
Continuous
 62
     7
100
AcDbLine
 10
-44.75123686511606
 20
149.0272738450344
 30
0.0
 11
-27.83944686511606
 21
149.0272571055083
 31
0.0
  0
LINE
  5
28A
330
3C
100
AcDbEntity
  8
1
  6
DOT_CENTER
 62
     2
100
AcDbLine
 10
-29.92934286511596
 20
139.1574393250648
 30
0.0
 11
-29.92934286511596
 21
143.1006057451037
 31
0.0
  0
LINE
  5
28B
330
3C
100
AcDbEntity
  8
AM_VIS
  6
Continuous
 62
     7
100
AcDbLine
 10
-26.98944686511621
 20
142.5272562641619
 30
0.0
 11
-27.83944686511606
 21
142.5272562641619
 31
0.0
  0
LINE
  5
28C
330
3C
100
AcDbEntity
  8
AM_VIS
  6
Continuous
 62
     7
100
AcDbLine
 10
-52.68944686511586
 20
142.5272562641635
 30
0.0
 11
-52.68944686511586
 21
141.8272682641619
 31
0.0
  0
LINE
  5
28D
330
3C
100
AcDbEntity
  8
AM_VIS
  6
Continuous
 62
     7
100
AcDbLine
 10
-49.64899386511596
 20
142.5272562641619
 30
0.0
 11
-49.86310186511597
 21
142.5272562641619
 31
0.0
  0
LINE
  5
28E
330
3C
100
AcDbEntity
  8
AM_VIS
  6
Continuous
 62
     7
100
AcDbLine
 10
-27.83944686511606
 20
142.5272562641619
 30
0.0
 11
-29.8157908651161
 21
142.5272562641619
 31
0.0
  0
LINE
  5
28F
330
3C
100
AcDbEntity
  8
1
  6
Continuous
 62
     2
100
AcDbLine
 10
-48.9453744638694
 20
173.856743264162
 30
0.0
 11
-17.17614686511595
 21
173.856743264162
 31
0.0
  0
LINE
  5
290
330
3C
100
AcDbEntity
  8
1
  6
Continuous
 62
     2
100
AcDbLine
 10
-45.73709386511595
 20
169.6559392641619
 30
0.0
 11
-33.39901886511606
 21
169.6559402641619
 31
0.0
  0
LINE
  5
291
330
3C
100
AcDbEntity
  8
AM_VIS
  6
Continuous
 62
     2
100
AcDbLine
 10
-33.46416486511586
 20
166.2279302641618
 30
0.0
 11
-44.323081865116
 21
166.2279302641618
 31
0.0
  0
LINE
  5
292
330
3C
100
AcDbEntity
  8
AM_VIS
  6
Continuous
 62
     2
100
AcDbLine
 10
-33.46521886511611
 20
167.2748402641621
 30
0.0
 11
-44.56632786511599
 21
167.2748402641621
 31
0.0
  0
LINE
  5
293
330
3C
100
AcDbEntity
  8
AM_VIS
  6
Continuous
 62
     2
100
AcDbLine
 10
-33.447268865116
 20
168.6492622641618
 30
0.0
 11
-45.15501886511586
 21
168.6492622641618
 31
0.0
  0
LINE
  5
294
330
3C
100
AcDbEntity
  8
AM_VIS
  6
Continuous
 62
     2
100
AcDbLine
 10
-33.23743186511601
 20
170.9506162641619
 30
0.0
 11
-46.62012686511596
 21
170.9506162641619
 31
0.0
  0
LINE
  5
295
330
3C
100
AcDbEntity
  8
AM_VIS
  6
Continuous
 62
     2
100
AcDbLine
 10
-32.98728986511586
 20
171.8783762641619
 30
0.0
 11
-47.32088286511586
 21
171.8783762641619
 31
0.0
  0
LINE
  5
296
330
3C
100
AcDbEntity
  8
AM_VIS
  6
Continuous
 62
     2
100
AcDbLine
 10
-32.30990386511596
 20
173.0435542641619
 30
0.0
 11
-48.2588078651161
 21
173.0435542641619
 31
0.0
  0
LINE
  5
297
330
3C
100
AcDbEntity
  8
AM_VIS
  6
Continuous
 62
     2
100
AcDbLine
 10
-33.46416486511586
 20
164.8265822641621
 30
0.0
 11
-44.323081865116
 21
164.8265822641621
 31
0.0
  0
LINE
  5
298
330
3C
100
AcDbEntity
  8
AM_VIS
  6
Continuous
 62
     2
100
AcDbLine
 10
-43.98225286511595
 20
160.1038962641619
 30
0.0
 11
-46.64115240170278
 21
160.1038962641619
 31
0.0
  0
LINE
  5
299
330
3C
100
AcDbEntity
  8
AM_VIS
  6
Continuous
 62
     2
100
AcDbLine
 10
-45.17014062538416
 20
159.176136264162
 30
0.0
 11
-47.3079402893309
 21
159.176136264162
 31
0.0
  0
LINE
  5
29A
330
3C
100
AcDbEntity
  8
AM_VIS
  6
Continuous
 62
     2
100
AcDbLine
 10
-46.58659304393316
 20
158.0109582641619
 30
0.0
 11
-48.20948268261427
 21
158.0109582641619
 31
0.0
  0
LINE
  5
29B
330
3C
100
AcDbEntity
  8
AM_VIS
  6
Continuous
 62
     7
100
AcDbLine
 10
-52.67614686511595
 20
178.5272562641619
 30
0.0
 11
-52.67614686511595
 21
153.0272562641619
 31
0.0
  0
LINE
  5
29C
330
3C
100
AcDbEntity
  8
AM_VIS
  6
Continuous
 62
     7
100
AcDbLine
 10
-37.05485986511556
 20
164.311843264162
 30
0.0
 11
-51.83944686511605
 21
149.5272562641619
 31
0.0
  0
LINE
  5
29D
330
3C
100
AcDbEntity
  8
AM_VIS
  6
Continuous
 62
     7
100
AcDbLine
 10
-46.75123686511606
 20
151.5272562641619
 30
0.0
 11
-46.75123686511606
 21
142.5272562641619
 31
0.0
  0
LINE
  5
29E
330
3C
100
AcDbEntity
  8
AM_VIS
  6
Continuous
 62
     2
100
AcDbLine
 10
-52.67614686511595
 20
153.0272562641619
 30
0.0
 11
-52.67583100452376
 21
153.0272562641619
 31
0.0
  0
LINE
  5
29F
330
3C
100
AcDbEntity
  8
AM_VIS
  6
Continuous
 62
     2
100
AcDbLine
 10
-48.63144360542546
 20
156.2068672641619
 30
0.0
 11
-49.76203645179257
 21
156.2068672641619
 31
0.0
  0
LINE
  5
2A0
330
3C
100
AcDbEntity
  8
AM_VIS
  6
Continuous
 62
     2
100
AcDbLine
 10
-49.34638267095406
 20
155.5395002641619
 30
0.0
 11
-50.39021186511596
 21
155.5395002641619
 31
0.0
  0
LINE
  5
2A1
330
3C
100
AcDbEntity
  8
AM_VIS
  6
Continuous
 62
     2
100
AcDbLine
 10
-50.15426977257059
 20
154.7609532641619
 30
0.0
 11
-51.09852758768446
 21
154.7609532641619
 31
0.0
  0
LINE
  5
2A2
330
3C
100
AcDbEntity
  8
AM_VIS
  6
Continuous
 62
     2
100
AcDbLine
 10
-50.65480574502706
 20
154.2650552641619
 30
0.0
 11
-51.5496915510553
 21
154.2650552641619
 31
0.0
  0
LINE
  5
2A3
330
3C
100
AcDbEntity
  8
AM_VIS
  6
Continuous
 62
     2
100
AcDbLine
 10
-51.1842650247963
 20
153.7287832641617
 30
0.0
 11
-52.03758745094726
 21
153.7287832641617
 31
0.0
  0
LINE
  5
2A4
330
3C
100
AcDbEntity
  8
AM_VIS
  6
Continuous
 62
     2
100
AcDbLine
 10
-51.48041934076579
 20
153.4234102641619
 30
0.0
 11
-52.3154133203528
 21
153.4234102641619
 31
0.0
  0
LINE
  5
2A5
330
3C
100
AcDbEntity
  8
AM_VIS
  6
Continuous
 62
     2
100
AcDbLine
 10
-51.74234276003605
 20
153.1500212641621
 30
0.0
 11
-51.83944686511605
 21
153.1500212641621
 31
0.0
  0
LINE
  5
2A6
330
3C
100
AcDbEntity
  8
AM_VIS
  6
Continuous
 62
     2
100
AcDbLine
 10
-47.52943310620415
 20
157.1977692641619
 30
0.0
 11
-48.88435273189256
 21
157.1977692641619
 31
0.0
  0
LINE
  5
2A7
330
3C
100
AcDbEntity
  8
AM_VIS
  6
Continuous
 62
     7
100
AcDbLine
 10
-49.64899386511596
 20
155.1072562641619
 30
0.0
 11
-46.75123186511596
 21
155.1072562641619
 31
0.0
  0
LINE
  5
2A8
330
3C
100
AcDbEntity
  8
AM_VIS
  6
Continuous
 62
     2
100
AcDbLine
 10
-32.98728986511586
 20
159.176136264162
 30
0.0
 11
-34.50875310484796
 21
159.176136264162
 31
0.0
  0
LINE
  5
2A9
330
3C
100
AcDbEntity
  8
AM_VIS
  6
Continuous
 62
     2
100
AcDbLine
 10
-33.46521886511611
 20
163.7796722641619
 30
0.0
 11
-44.56632786511599
 21
163.7796722641619
 31
0.0
  0
LINE
  5
2AA
330
3C
100
AcDbEntity
  8
AM_VIS
  6
Continuous
 62
     2
100
AcDbLine
 10
-42.0294298651161
 20
161.398572264162
 30
0.0
 11
-45.73709386511595
 21
161.398572264162
 31
0.0
  0
LINE
  5
2AB
330
3C
100
AcDbEntity
  8
AM_VIS
  6
Continuous
 62
     2
100
AcDbLine
 10
-33.39901886511606
 20
161.398572264162
 30
0.0
 11
-37.64946286511596
 21
161.398572264162
 31
0.0
  0
LINE
  5
2AC
330
3C
100
AcDbEntity
  8
AM_VIS
  6
Continuous
 62
     2
100
AcDbLine
 10
-33.23743186511601
 20
160.1038962641619
 30
0.0
 11
-35.69664086511605
 21
160.1038962641619
 31
0.0
  0
LINE
  5
2AD
330
3C
100
AcDbEntity
  8
AM_VIS
  6
Continuous
 62
     7
100
AcDbLine
 10
-33.46416486511586
 20
164.311843264162
 30
0.0
 11
-37.05485986511556
 21
164.311843264162
 31
0.0
  0
LINE
  5
2AE
330
3C
100
AcDbEntity
  8
AM_VIS
  6
Continuous
 62
     7
100
AcDbLine
 10
-27.83944686511606
 20
149.0272571055083
 30
0.0
 11
-27.83944686511606
 21
153.0272562641619
 31
0.0
  0
LINE
  5
2AF
330
3C
100
AcDbEntity
  8
AM_VIS
  6
Continuous
 62
     7
100
AcDbLine
 10
-32.92765686511601
 20
142.5272562641619
 30
0.0
 11
-32.92765686511606
 21
157.809456264162
 31
0.0
  0
LINE
  5
2B0
330
3C
100
AcDbEntity
  8
AM_VIS
  6
Continuous
 62
     2
100
AcDbLine
 10
-32.30990386511596
 20
158.0109582641619
 30
0.0
 11
-33.09230068629879
 21
158.0109582641619
 31
0.0
  0
LINE
  5
2B1
330
3C
100
AcDbEntity
  8
AM_VIS
  6
Continuous
 62
     2
100
AcDbLine
 10
-30.93353186511595
 20
157.1977692641619
 30
0.0
 11
-32.14946062402785
 21
157.1977692641619
 31
0.0
  0
LINE
  5
2B2
330
3C
100
AcDbEntity
  8
AM_VIS
  6
Continuous
 62
     7
100
AcDbLine
 10
-29.8157908651161
 20
142.5272562641619
 30
0.0
 11
-30.02990186511611
 21
142.5272562641619
 31
0.0
  0
LINE
  5
2B3
330
3C
100
AcDbEntity
  8
1
  6
Continuous
 62
     7
100
AcDbLine
 10
-44.75123686511606
 20
151.5272562641619
 30
0.0
 11
-44.75123686511606
 21
142.5272562641619
 31
0.0
  0
LINE
  5
2B4
330
3C
100
AcDbEntity
  8
AM_VIS
  6
Continuous
 62
     7
100
AcDbLine
 10
-46.75123686511606
 20
157.8711784007977
 30
0.0
 11
-46.75123686511606
 21
151.5272562641619
 31
0.0
  0
LINE
  5
2B5
330
3C
100
AcDbEntity
  8
1
  6
Continuous
 62
     7
100
AcDbLine
 10
-51.83944686511605
 20
149.0272808610439
 30
0.0
 11
-46.75123686511606
 21
149.0272758246624
 31
0.0
  0
LINE
  5
2B6
330
3C
100
AcDbEntity
  8
AM_VIS
  6
Continuous
 62
     7
100
AcDbLine
 10
-0.9761468651159
 20
176.3272562641617
 30
0.0
 11
-6.17614686511596
 21
176.3272562641617
 31
0.0
  0
LINE
  5
2B7
330
3C
100
AcDbEntity
  8
AM_VIS
  6
Continuous
 62
     2
100
AcDbLine
 10
-17.17614686511595
 20
153.7287832641617
 30
0.0
 11
-28.5254583184857
 21
153.7287832641617
 31
0.0
  0
LINE
  5
2B8
330
3C
100
AcDbEntity
  8
AM_VIS
  6
Continuous
 62
     7
100
AcDbLine
 10
-30.02990186511611
 20
142.5272562641619
 30
0.0
 11
-49.64899386511596
 21
142.5272562641619
 31
0.0
  0
LINE
  5
2B9
330
3C
100
AcDbEntity
  8
AM_VIS
  6
Continuous
 62
     7
100
AcDbLine
 10
-29.8157908651161
 20
142.5272562641619
 30
0.0
 11
-30.02990186511611
 21
142.5272562641619
 31
0.0
  0
LINE
  5
2BA
330
3C
100
AcDbEntity
  8
AM_VIS
  6
Continuous
 62
     7
100
AcDbLine
 10
-49.86310186511597
 20
142.5272562641619
 30
0.0
 11
-51.83944686511605
 21
142.527256264163
 31
0.0
  0
LINE
  5
2BB
330
3C
100
AcDbEntity
  8
AM_VIS
  6
Continuous
 62
     7
100
AcDbLine
 10
-49.64899386511596
 20
142.5272562641619
 30
0.0
 11
-49.86310186511597
 21
142.5272562641619
 31
0.0
  0
LINE
  5
2BC
330
3C
100
AcDbEntity
  8
AM_VIS
  6
Continuous
 62
     2
100
AcDbLine
 10
-52.67583100452376
 20
153.0272562641619
 30
0.0
 11
-51.83944686511605
 21
153.0272562641619
 31
0.0
  0
LINE
  5
2BD
330
3C
100
AcDbEntity
  8
AM_VIS
  6
Continuous
 62
     7
100
AcDbLine
 10
-49.64899386511596
 20
144.027261264162
 30
0.0
 11
-49.64899386511596
 21
155.1072562641619
 31
0.0
  0
LINE
  5
2BE
330
3C
100
AcDbEntity
  8
AM_VIS
  6
Continuous
 62
     7
100
AcDbLine
 10
-30.02990186511611
 20
155.2509772341168
 30
0.0
 11
-30.02990186511611
 21
144.027261264162
 31
0.0
  0
LINE
  5
2BF
330
3C
100
AcDbEntity
  8
AM_VIS
  6
Continuous
 62
     7
100
AcDbLine
 10
-26.98944686511587
 20
141.827077296069
 30
0.0
 11
-26.98944686511621
 21
142.5272562641619
 31
0.0
  0
LINE
  5
2C0
330
3C
100
AcDbEntity
  8
AM_VIS
  6
Continuous
 62
     7
100
AcDbLine
 10
-30.63944505111655
 20
140.0272608536339
 30
0.0
 11
-49.03945027258109
 21
140.0272790662167
 31
0.0
  0
LINE
  5
2C1
330
3C
100
AcDbEntity
  8
AM_VIS
  6
Continuous
 62
     7
100
AcDbLine
 10
-51.83944686511605
 20
153.1500212641621
 30
0.0
 11
-51.83944686511605
 21
142.527256264163
 31
0.0
  0
LINE
  5
2C2
330
3C
100
AcDbEntity
  8
AM_VIS
  6
Continuous
 62
     2
100
AcDbLine
 10
-51.83944686511605
 20
153.1500212641621
 30
0.0
 11
-52.56255586511585
 21
153.1500212641621
 31
0.0
  0
LINE
  5
2C3
330
3C
100
AcDbEntity
  8
AM_VIS
  6
Continuous
 62
     7
100
AcDbLine
 10
-51.83944686511605
 20
142.527256264163
 30
0.0
 11
-52.68944686511586
 21
142.5272562641635
 31
0.0
  0
LINE
  5
2C4
330
3C
100
AcDbEntity
  8
1
  6
DOT_CENTER
 62
     2
100
AcDbLine
 10
-16.17614686511595
 20
165.5272562641619
 30
0.0
 11
-4.87614686511606
 21
165.5272562641619
 31
0.0
  0
LINE
  5
2C5
330
3C
100
AcDbEntity
  8
1
  6
DOT_CENTER
 62
     2
100
AcDbLine
 10
-39.839446865116
 20
139.827077296069
 30
0.0
 11
-39.839446865116
 21
144.5272562641635
 31
0.0
  0
ARC
  5
2C6
330
3C
100
AcDbEntity
  8
1
  6
Continuous
 62
     3
100
AcDbCircle
 10
-68.76604686511595
 20
208.5671352844554
 30
0.0
 40
2.828691520843249
100
AcDbArc
 50
15.84270966064408
 51
164.1572903393556
  0
ARC
  5
2C7
330
3C
100
AcDbEntity
  8
1
  6
Continuous
 62
     3
100
AcDbCircle
 10
-68.76604686511595
 20
197.4069271910814
 30
0.0
 40
2.828032060751811
100
AcDbArc
 50
-164.2044401773445
 51
-15.79555982265516
  0
ARC
  5
2C8
330
3C
100
AcDbEntity
  8
1
  6
Continuous
 62
     3
100
AcDbCircle
 10
-62.44663565016705
 20
206.4042244063186
 30
0.0
 40
9.505180393600606
100
AcDbArc
 50
162.0134734104105
 51
-178.2276651707504
  0
ARC
  5
2C9
330
3C
100
AcDbEntity
  8
1
  6
Continuous
 62
     3
100
AcDbCircle
 10
-62.446635650167
 20
199.5722572042789
 30
0.0
 40
9.505180393600815
100
AcDbArc
 50
178.227665170753
 51
-162.0134734104104
  0
ARC
  5
2CA
330
3C
100
AcDbEntity
  8
1
  6
Continuous
 62
     3
100
AcDbCircle
 10
-75.08540247026846
 20
206.4042293856288
 30
0.0
 40
9.505125963932251
100
AcDbArc
 50
-1.77237501055695
 51
17.98660155213727
  0
ARC
  5
2CB
330
3C
100
AcDbEntity
  8
1
  6
Continuous
 62
     3
100
AcDbCircle
 10
-75.08540247026846
 20
199.5722522249687
 30
0.0
 40
9.505125963932214
100
AcDbArc
 50
-17.98660155213743
 51
1.77237501055439
  0
ARC
  5
2CC
330
3C
100
AcDbEntity
  8
1
  6
Continuous
 62
     3
100
AcDbCircle
 10
-89.91453973410668
 20
203.0222188825136
 30
0.0
 40
6.999999999999894
100
AcDbArc
 50
-35.83290971214058
 51
35.80001208873739
  0
ARC
  5
2CD
330
3C
100
AcDbEntity
  8
1
  6
Continuous
 62
     3
100
AcDbCircle
 10
-115.5161418034164
 20
218.692114861033
 30
0.0
 40
36.99999999999991
100
AcDbArc
 50
-43.9769065975071
 51
-32.29418010190264
  0
ARC
  5
2CE
330
3C
100
AcDbEntity
  8
1
  6
Continuous
 62
     3
100
AcDbCircle
 10
-85.25729964145776
 20
216.672192821952
 30
0.0
 40
5.000000000000265
100
AcDbArc
 50
-169.6736311270692
 51
-147.2760245827842
  0
ARC
  5
2CF
330
3C
100
AcDbEntity
  8
1
  6
Continuous
 62
     3
100
AcDbCircle
 10
-74.1996844120446
 20
223.5091013549003
 30
0.0
 40
17.99999999999997
100
AcDbArc
 50
-147.9950310843459
 51
-137.3670960076019
  0
ARC
  5
2D0
330
3C
100
AcDbEntity
  8
1
  6
Continuous
 62
     3
100
AcDbCircle
 10
-114.3748311412084
 20
145.0785885444641
 30
0.0
 40
66.10169938058914
100
AcDbArc
 50
43.39045719333732
 51
51.25947665728771
  0
ARC
  5
2D1
330
3C
100
AcDbEntity
  8
1
  6
Continuous
 62
     3
100
AcDbCircle
 10
-78.339446365116
 20
196.8091977465658
 30
0.0
 40
3.000000000000165
100
AcDbArc
 50
43.11406702827624
 51
136.8859329717245
  0
ARC
  5
2D2
330
3C
100
AcDbEntity
  8
1
  6
Continuous
 62
     3
100
AcDbCircle
 10
-42.45387952650665
 20
145.0888926977375
 30
0.0
 40
65.99999999999996
100
AcDbArc
 50
127.3361739419133
 51
130.4244494423625
  0
ARC
  5
2D3
330
3C
100
AcDbEntity
  8
1
  6
Continuous
 62
     3
100
AcDbCircle
 10
-42.45387952650665
 20
145.0888926977375
 30
0.0
 40
65.99999999999991
100
AcDbArc
 50
133.4534643289624
 51
136.538349467506
  0
ARC
  5
2D4
330
3C
100
AcDbEntity
  8
1
  6
Continuous
 62
     3
100
AcDbCircle
 10
-114.2250142037254
 20
145.0888926977375
 30
0.0
 40
66.00000000000009
100
AcDbArc
 50
51.35532310571573
 51
52.66382605808664
  0
ARC
  5
2D5
330
3C
100
AcDbEntity
  8
1
  6
Continuous
 62
     3
100
AcDbCircle
 10
-42.45387952650665
 20
145.0888926977375
 30
0.0
 40
66.00000000000028
100
AcDbArc
 50
130.4244494423625
 51
133.4534643289624
  0
ARC
  5
2D6
330
3C
100
AcDbEntity
  8
1
  6
Continuous
 62
     7
100
AcDbCircle
 10
128.3127106121189
 20
200.7772482641618
 30
0.0
 40
12.49999999999985
100
AcDbArc
 50
131.7916668414017
 51
180.0
  0
ARC
  5
2D7
330
3C
100
AcDbEntity
  8
1
  6
Continuous
 62
     7
100
AcDbCircle
 10
128.3127106121189
 20
200.7772482641618
 30
0.0
 40
12.5
100
AcDbArc
 50
180.0
 51
-163.7397952916884
  0
ARC
  5
2D8
330
3C
100
AcDbEntity
  8
1
  6
Continuous
 62
     7
100
AcDbCircle
 10
133.2840882400964
 20
198.2633219980112
 30
0.0
 40
17.00000000000007
100
AcDbArc
 50
-176.6747298525205
 51
-150.3966691892989
  0
ARC
  5
2D9
330
3C
100
AcDbEntity
  8
1
  6
Continuous
 62
     7
100
AcDbCircle
 10
124.3277923404168
 20
197.9717897294506
 30
0.0
 40
15.99999999999982
100
AcDbArc
 50
-30.44068999899192
 51
-2.48792517799254
  0
ARC
  5
2DA
330
3C
100
AcDbEntity
  8
1
  6
Continuous
 62
     7
100
AcDbCircle
 10
128.312710573457
 20
198.3091877685945
 30
0.0
 40
13.28165528532321
100
AcDbArc
 50
-121.3591701441282
 51
-58.64085472459605
  0
ARC
  5
2DB
330
3C
100
AcDbEntity
  8
1
  6
Continuous
 62
     7
100
AcDbCircle
 10
128.3127106121189
 20
200.7772482641618
 30
0.0
 40
12.49999999999998
100
AcDbArc
 50
-163.7397952916884
 51
-16.26020470831196
  0
ARC
  5
2DC
330
3C
100
AcDbEntity
  8
1
  6
Continuous
 62
     7
100
AcDbCircle
 10
140.127305986095
 20
216.168128030318
 30
0.0
 40
6.999999999999982
100
AcDbArc
 50
-153.0067442793659
 51
-119.8516759502463
  0
ARC
  5
2DD
330
3C
100
AcDbEntity
  8
1
  6
Continuous
 62
     7
100
AcDbCircle
 10
128.3127101121189
 20
143.7772770685141
 30
0.0
 40
69.9999711956475
100
AcDbArc
 50
86.36555075479048
 51
93.63444836870282
  0
ARC
  5
2DE
330
3C
100
AcDbEntity
  8
1
  6
Continuous
 62
     7
100
AcDbCircle
 10
128.3127106121189
 20
200.7772482641618
 30
0.0
 40
12.5
100
AcDbArc
 50
-16.26020470831196
 51
48.20833315859804
  0
ARC
  5
2DF
330
3C
100
AcDbEntity
  8
1
  6
Continuous
 62
     7
100
AcDbCircle
 10
116.4981152381428
 20
216.168128030318
 30
0.0
 40
7.000000000000038
100
AcDbArc
 50
-60.14832404975312
 51
-29.66860429911036
  0
ARC
  5
2E0
330
3C
100
AcDbEntity
  8
1
  6
Continuous
 62
     3
100
AcDbCircle
 10
-3.95387952650666
 20
107.6279081566007
 30
0.0
 40
66.00000000000027
100
AcDbArc
 50
130.4244494423625
 51
133.4534643289624
  0
ARC
  5
2E1
330
3C
100
AcDbEntity
  8
1
  6
Continuous
 62
     3
100
AcDbCircle
 10
-75.72501420372541
 20
107.6279081566007
 30
0.0
 40
66.0000000000001
100
AcDbArc
 50
51.35532310571573
 51
52.66382605808663
  0
ARC
  5
2E2
330
3C
100
AcDbEntity
  8
1
  6
Continuous
 62
     3
100
AcDbCircle
 10
-3.95387952650666
 20
107.6279081566007
 30
0.0
 40
65.9999999999999
100
AcDbArc
 50
133.4534643289624
 51
136.538349467506
  0
ARC
  5
2E3
330
3C
100
AcDbEntity
  8
1
  6
Continuous
 62
     3
100
AcDbCircle
 10
-3.95387952650666
 20
107.6279081566007
 30
0.0
 40
65.99999999999994
100
AcDbArc
 50
127.3361739419133
 51
130.4244494423625
  0
ARC
  5
2E4
330
3C
100
AcDbEntity
  8
1
  6
Continuous
 62
     3
100
AcDbCircle
 10
-39.839446365116
 20
159.348213205429
 30
0.0
 40
3.000000000000145
100
AcDbArc
 50
43.11406702827585
 51
136.885932971725
  0
ARC
  5
2E5
330
3C
100
AcDbEntity
  8
1
  6
Continuous
 62
     3
100
AcDbCircle
 10
-75.87483114120838
 20
107.6176040033273
 30
0.0
 40
66.10169938058914
100
AcDbArc
 50
43.39045719333735
 51
51.25947665728774
  0
ARC
  5
2E6
330
3C
100
AcDbEntity
  8
1
  6
Continuous
 62
     3
100
AcDbCircle
 10
-35.6996844120446
 20
186.0481168137635
 30
0.0
 40
17.99999999999997
100
AcDbArc
 50
-147.995031084346
 51
-137.3670960076019
  0
ARC
  5
2E7
330
3C
100
AcDbEntity
  8
1
  6
Continuous
 62
     3
100
AcDbCircle
 10
-46.75729964145776
 20
179.2112082808152
 30
0.0
 40
5.00000000000027
100
AcDbArc
 50
-169.6736311270689
 51
-147.2760245827843
  0
ARC
  5
2E8
330
3C
100
AcDbEntity
  8
1
  6
Continuous
 62
     3
100
AcDbCircle
 10
-77.01614180341639
 20
181.2311303198962
 30
0.0
 40
36.99999999999992
100
AcDbArc
 50
-43.97690659750715
 51
-32.29418010190266
  0
ARC
  5
2E9
330
3C
100
AcDbEntity
  8
1
  6
Continuous
 62
     3
100
AcDbCircle
 10
-51.41453973410668
 20
165.5612343413768
 30
0.0
 40
6.999999999999871
100
AcDbArc
 50
-35.83290971214041
 51
35.80001208873739
  0
ARC
  5
2EA
330
3C
100
AcDbEntity
  8
1
  6
Continuous
 62
     3
100
AcDbCircle
 10
-36.58540247026846
 20
162.1112676838319
 30
0.0
 40
9.5051259639322
100
AcDbArc
 50
-17.98660155213727
 51
1.77237501055456
  0
ARC
  5
2EB
330
3C
100
AcDbEntity
  8
1
  6
Continuous
 62
     3
100
AcDbCircle
 10
-36.58540247026846
 20
168.943244844492
 30
0.0
 40
9.505125963932247
100
AcDbArc
 50
-1.77237501055695
 51
17.98660155213727
  0
ARC
  5
2EC
330
3C
100
AcDbEntity
  8
1
  6
Continuous
 62
     3
100
AcDbCircle
 10
-23.946635650167
 20
162.1112726631421
 30
0.0
 40
9.505180393600819
100
AcDbArc
 50
178.2276651707529
 51
-162.0134734104106
  0
ARC
  5
2ED
330
3C
100
AcDbEntity
  8
1
  6
Continuous
 62
     3
100
AcDbCircle
 10
-23.94663565016705
 20
168.9432398651818
 30
0.0
 40
9.505180393600616
100
AcDbArc
 50
162.0134734104105
 51
-178.2276651707504
  0
ARC
  5
2EE
330
3C
100
AcDbEntity
  8
1
  6
Continuous
 62
     3
100
AcDbCircle
 10
-30.26604686511595
 20
159.9459426499446
 30
0.0
 40
2.828032060751822
100
AcDbArc
 50
-164.2044401773446
 51
-15.79555982265519
  0
ARC
  5
2EF
330
3C
100
AcDbEntity
  8
1
  6
Continuous
 62
     3
100
AcDbCircle
 10
-30.26604686511595
 20
171.1061507433186
 30
0.0
 40
2.828691520843234
100
AcDbArc
 50
15.84270966064356
 51
164.1572903393563
  0
ARC
  5
2F0
330
3C
100
AcDbEntity
  8
1
  6
Continuous
 62
     7
100
AcDbCircle
 10
-84.25123686511606
 20
188.9882408052987
 30
0.0
 40
1.0
100
AcDbArc
 50
90.0
 51
180.0
  0
ARC
  5
2F1
330
3C
100
AcDbEntity
  8
1
  6
Continuous
 62
     7
100
AcDbCircle
 10
-84.25123686511606
 20
188.9882408052987
 30
0.0
 40
1.0
100
AcDbArc
 50
0.0
 51
90.0
  0
ARC
  5
2F2
330
3C
100
AcDbEntity
  8
1
  6
Continuous
 62
     7
100
AcDbCircle
 10
132.6549626368681
 20
212.1394807838411
 30
0.0
 40
1.499999999999771
100
AcDbArc
 50
34.58525929493923
 51
86.36555075479681
  0
ARC
  5
2F3
330
3C
100
AcDbEntity
  8
1
  6
Continuous
 62
     7
100
AcDbCircle
 10
123.9704586331699
 20
212.1394808502687
 30
0.0
 40
1.499999999999963
100
AcDbArc
 50
93.63444836870134
 51
157.9233961932156
  0
ARC
  5
2F4
330
3C
100
AcDbEntity
  8
1
  6
Continuous
 62
     7
100
AcDbCircle
 10
-45.75123686511606
 20
151.5272562641619
 30
0.0
 40
1.0
100
AcDbArc
 50
0.0
 51
90.0
  0
ARC
  5
2F5
330
3C
100
AcDbEntity
  8
1
  6
Continuous
 62
     7
100
AcDbCircle
 10
-45.75123686511606
 20
151.5272562641619
 30
0.0
 40
1.0
100
AcDbArc
 50
90.0
 51
180.0
  0
ENDBLK
  5
3F
330
3C
100
AcDbEntity
  8
0
100
AcDbBlockEnd
  0
BLOCK
  5
41
330
40
100
AcDbEntity
  8
0
100
AcDbBlockBegin
  2
M2_5x6_DIN_7985
 70
     0
 71
     0
 10
-12.26844629980099
 20
1149.369379435497
 30
0.0
  3
M2_5x6_DIN_7985
  1

  0
LINE
  5
2F6
330
40
100
AcDbEntity
  8
1
  6
DOT_CENTER
 62
     2
100
AcDbLine
 10
-88.11476386511609
 20
183.0882458052987
 30
0.0
 11
-88.11476386511609
 21
177.9882408052987
 31
0.0
  0
LINE
  5
2F7
330
40
100
AcDbEntity
  8
1
  6
DOT_CENTER
 62
     2
100
AcDbLine
 10
-68.3157908651161
 20
177.9882408052987
 30
0.0
 11
-68.3157908651161
 21
183.0882458052987
 31
0.0
  0
LINE
  5
2F8
330
40
100
AcDbEntity
  8
1
  6
Continuous
 62
     7
100
AcDbLine
 10
-88.31477586511633
 20
181.4882458052987
 30
0.0
 11
-88.31477586511633
 21
180.5382308052987
 31
0.0
  0
LINE
  5
2F9
330
40
100
AcDbEntity
  8
1
  6
Continuous
 62
     7
100
AcDbLine
 10
-89.4647538651162
 20
181.4882458052987
 30
0.0
 11
-88.31477586511633
 21
181.4882458052987
 31
0.0
  0
LINE
  5
2FA
330
40
100
AcDbEntity
  8
1
  6
Continuous
 62
     7
100
AcDbLine
 10
-88.31477586511633
 20
180.5382308052987
 30
0.0
 11
-87.91475186511619
 21
180.5382308052987
 31
0.0
  0
LINE
  5
2FB
330
40
100
AcDbEntity
  8
1
  6
Continuous
 62
     7
100
AcDbLine
 10
-86.36477386511629
 20
181.0882458052987
 30
0.0
 11
-87.91475186511619
 21
181.0882458052987
 31
0.0
  0
LINE
  5
2FC
330
40
100
AcDbEntity
  8
1
  6
Continuous
 62
     7
100
AcDbLine
 10
-88.31477586511633
 20
181.0882458052987
 30
0.0
 11
-89.86475386511634
 21
181.0882458052987
 31
0.0
  0
LINE
  5
2FD
330
40
100
AcDbEntity
  8
1
  6
Continuous
 62
     7
100
AcDbLine
 10
-87.91475186511619
 20
181.4882458052987
 30
0.0
 11
-86.7647738651161
 21
181.4882458052987
 31
0.0
  0
LINE
  5
2FE
330
40
100
AcDbEntity
  8
1
  6
Continuous
 62
     7
100
AcDbLine
 10
-89.4647538651162
 20
181.4882458052987
 30
0.0
 11
-89.86475386511634
 21
181.0882458052987
 31
0.0
  0
LINE
  5
2FF
330
40
100
AcDbEntity
  8
1
  6
Continuous
 62
     7
100
AcDbLine
 10
-89.86475386511634
 20
181.0882458052987
 30
0.0
 11
-89.86475386511634
 21
179.9882408052987
 31
0.0
  0
LINE
  5
300
330
40
100
AcDbEntity
  8
1
  6
Continuous
 62
     7
100
AcDbLine
 10
-86.36477386511629
 20
179.9882408052987
 30
0.0
 11
-86.36477386511629
 21
181.0882458052987
 31
0.0
  0
LINE
  5
301
330
40
100
AcDbEntity
  8
1
  6
Continuous
 62
     7
100
AcDbLine
 10
-89.83064786511622
 20
179.9882408052987
 30
0.0
 11
-86.36477386511629
 21
179.9882408052987
 31
0.0
  0
LINE
  5
302
330
40
100
AcDbEntity
  8
1
  6
Continuous
 62
     7
100
AcDbLine
 10
-87.91475186511619
 20
180.5382308052987
 30
0.0
 11
-87.91475186511619
 21
181.4882458052987
 31
0.0
  0
LINE
  5
303
330
40
100
AcDbEntity
  8
1
  6
Continuous
 62
     7
100
AcDbLine
 10
-86.36477386511629
 20
181.0882458052987
 30
0.0
 11
-86.7647738651161
 21
181.4882458052987
 31
0.0
  0
LINE
  5
304
330
40
100
AcDbEntity
  8
1
  6
Continuous
 62
     7
100
AcDbLine
 10
-68.1157788651162
 20
180.5382308052987
 30
0.0
 11
-68.1157788651162
 21
181.4882458052987
 31
0.0
  0
LINE
  5
305
330
40
100
AcDbEntity
  8
1
  6
Continuous
 62
     7
100
AcDbLine
 10
-68.1157788651162
 20
181.4882458052987
 30
0.0
 11
-66.96580086511622
 21
181.4882458052987
 31
0.0
  0
LINE
  5
306
330
40
100
AcDbEntity
  8
1
  6
Continuous
 62
     7
100
AcDbLine
 10
-68.51580286511623
 20
180.5382308052987
 30
0.0
 11
-68.1157788651162
 21
180.5382308052987
 31
0.0
  0
LINE
  5
307
330
40
100
AcDbEntity
  8
1
  6
Continuous
 62
     7
100
AcDbLine
 10
-68.51580286511623
 20
181.0882458052987
 30
0.0
 11
-70.06578086511624
 21
181.0882458052987
 31
0.0
  0
LINE
  5
308
330
40
100
AcDbEntity
  8
1
  6
Continuous
 62
     7
100
AcDbLine
 10
-66.56580086511619
 20
181.0882458052987
 30
0.0
 11
-68.1157788651162
 21
181.0882458052987
 31
0.0
  0
LINE
  5
309
330
40
100
AcDbEntity
  8
1
  6
Continuous
 62
     7
100
AcDbLine
 10
-69.6657808651161
 20
181.4882458052987
 30
0.0
 11
-68.51580286511623
 21
181.4882458052987
 31
0.0
  0
LINE
  5
30A
330
40
100
AcDbEntity
  8
1
  6
Continuous
 62
     7
100
AcDbLine
 10
-66.56580086511619
 20
181.0882458052987
 30
0.0
 11
-66.96580086511622
 21
181.4882458052987
 31
0.0
  0
LINE
  5
30B
330
40
100
AcDbEntity
  8
1
  6
Continuous
 62
     7
100
AcDbLine
 10
-66.56580086511619
 20
179.9882408052987
 30
0.0
 11
-66.56580086511619
 21
181.0882458052987
 31
0.0
  0
LINE
  5
30C
330
40
100
AcDbEntity
  8
1
  6
Continuous
 62
     7
100
AcDbLine
 10
-70.06578086511624
 20
181.0882458052987
 30
0.0
 11
-70.06578086511624
 21
179.9882408052987
 31
0.0
  0
LINE
  5
30D
330
40
100
AcDbEntity
  8
1
  6
Continuous
 62
     7
100
AcDbLine
 10
-70.06578086511624
 20
179.9882408052987
 30
0.0
 11
-66.5999068651162
 21
179.9882408052987
 31
0.0
  0
LINE
  5
30E
330
40
100
AcDbEntity
  8
1
  6
Continuous
 62
     7
100
AcDbLine
 10
-68.51580286511623
 20
181.4882458052987
 30
0.0
 11
-68.51580286511623
 21
180.5382308052987
 31
0.0
  0
LINE
  5
30F
330
40
100
AcDbEntity
  8
1
  6
Continuous
 62
     7
100
AcDbLine
 10
-69.6657808651161
 20
181.4882458052987
 30
0.0
 11
-70.06578086511624
 21
181.0882458052987
 31
0.0
  0
LINE
  5
310
330
40
100
AcDbEntity
  8
1
  6
DOT_CENTER
 62
     2
100
AcDbLine
 10
138.3365547906108
 20
176.3272259832714
 30
0.0
 11
138.3365547906108
 21
180.8772409832715
 31
0.0
  0
LINE
  5
311
330
40
100
AcDbEntity
  8
1
  6
Continuous
 62
     7
100
AcDbLine
 10
120.2761017906108
 20
178.5272359832715
 30
0.0
 11
120.2875597906108
 21
178.5272359832715
 31
0.0
  0
LINE
  5
312
330
40
100
AcDbEntity
  8
1
  6
Continuous
 62
     7
100
AcDbLine
 10
136.5980227906108
 20
178.5272359832715
 30
0.0
 11
140.0524387906108
 21
178.5272359832715
 31
0.0
  0
LINE
  5
313
330
40
100
AcDbEntity
  8
1
  6
Continuous
 62
     7
100
AcDbLine
 10
140.0750867906108
 20
178.8772409832715
 30
0.0
 11
140.0750867906108
 21
178.5272359832715
 31
0.0
  0
LINE
  5
314
330
40
100
AcDbEntity
  8
1
  6
Continuous
 62
     7
100
AcDbLine
 10
119.6849317906108
 20
179.2772409832716
 30
0.0
 11
119.8726627906108
 21
179.2772409832716
 31
0.0
  0
LINE
  5
315
330
40
100
AcDbEntity
  8
1
  6
Continuous
 62
     7
100
AcDbLine
 10
118.2651787906108
 20
179.2772409832716
 30
0.0
 11
118.8099607906108
 21
179.2772409832716
 31
0.0
  0
LINE
  5
316
330
40
100
AcDbEntity
  8
1
  6
Continuous
 62
     7
100
AcDbLine
 10
117.2024767906108
 20
179.2772409832716
 30
0.0
 11
117.3902077906108
 21
179.2772409832716
 31
0.0
  0
LINE
  5
317
330
40
100
AcDbEntity
  8
1
  6
Continuous
 62
     7
100
AcDbLine
 10
116.9842007906108
 20
178.8772409832715
 30
0.0
 11
116.7990377906108
 21
178.8772409832715
 31
0.0
  0
LINE
  5
318
330
40
100
AcDbEntity
  8
1
  6
Continuous
 62
     7
100
AcDbLine
 10
118.5375697906108
 20
178.8772409832715
 30
0.0
 11
117.9144487906108
 21
178.8772409832715
 31
0.0
  0
LINE
  5
319
330
40
100
AcDbEntity
  8
1
  6
Continuous
 62
     7
100
AcDbLine
 10
120.0909387906108
 20
178.8772409832715
 30
0.0
 11
119.7021547906108
 21
178.8772409832715
 31
0.0
  0
LINE
  5
31A
330
40
100
AcDbEntity
  8
1
  6
Continuous
 62
     7
100
AcDbLine
 10
116.7990377906108
 20
178.8772409832715
 30
0.0
 11
117.2024767906108
 21
179.2772409832716
 31
0.0
  0
LINE
  5
31B
330
40
100
AcDbEntity
  8
1
  6
Continuous
 62
     7
100
AcDbLine
 10
118.8099607906108
 20
179.2772409832716
 30
0.0
 11
119.3103667906108
 21
179.2772409832716
 31
0.0
  0
LINE
  5
31C
330
40
100
AcDbEntity
  8
1
  6
Continuous
 62
     7
100
AcDbLine
 10
117.3902077906108
 20
179.2772409832716
 30
0.0
 11
117.7647727906108
 21
179.2772409832716
 31
0.0
  0
LINE
  5
31D
330
40
100
AcDbEntity
  8
1
  6
Continuous
 62
     7
100
AcDbLine
 10
116.7990377906108
 20
178.5272359832715
 30
0.0
 11
116.7990377906108
 21
178.8772409832715
 31
0.0
  0
LINE
  5
31E
330
40
100
AcDbEntity
  8
1
  6
Continuous
 62
     7
100
AcDbLine
 10
117.9144487906108
 20
178.8772409832715
 30
0.0
 11
117.3729847906108
 21
178.8772409832715
 31
0.0
  0
LINE
  5
31F
330
40
100
AcDbEntity
  8
1
  6
Continuous
 62
     7
100
AcDbLine
 10
119.7021547906108
 20
178.8772409832715
 30
0.0
 11
119.1606907906108
 21
178.8772409832715
 31
0.0
  0
LINE
  5
320
330
40
100
AcDbEntity
  8
1
  6
Continuous
 62
     7
100
AcDbLine
 10
120.2761017906108
 20
178.8772409832715
 30
0.0
 11
120.2761017906108
 21
178.5272359832715
 31
0.0
  0
LINE
  5
321
330
40
100
AcDbEntity
  8
1
  6
Continuous
 62
     7
100
AcDbLine
 10
119.8726627906108
 20
179.2772409832716
 30
0.0
 11
120.2761017906108
 21
178.8772409832715
 31
0.0
  0
LINE
  5
322
330
40
100
AcDbEntity
  8
1
  6
Continuous
 62
     7
100
AcDbLine
 10
116.8216857906108
 20
178.5272359832715
 30
0.0
 11
120.2761017906108
 21
178.5272359832715
 31
0.0
  0
LINE
  5
323
330
40
100
AcDbEntity
  8
1
  6
Continuous
 62
     7
100
AcDbLine
 10
119.3103667906108
 20
179.2772409832716
 30
0.0
 11
119.6849317906108
 21
179.2772409832716
 31
0.0
  0
LINE
  5
324
330
40
100
AcDbEntity
  8
1
  6
Continuous
 62
     7
100
AcDbLine
 10
117.7647727906108
 20
179.2772409832716
 30
0.0
 11
118.2651787906108
 21
179.2772409832716
 31
0.0
  0
LINE
  5
325
330
40
100
AcDbEntity
  8
1
  6
Continuous
 62
     7
100
AcDbLine
 10
117.3729847906108
 20
178.8772409832715
 30
0.0
 11
116.9842007906108
 21
178.8772409832715
 31
0.0
  0
LINE
  5
326
330
40
100
AcDbEntity
  8
1
  6
Continuous
 62
     7
100
AcDbLine
 10
119.1606907906108
 20
178.8772409832715
 30
0.0
 11
118.5375697906108
 21
178.8772409832715
 31
0.0
  0
LINE
  5
327
330
40
100
AcDbEntity
  8
1
  6
Continuous
 62
     7
100
AcDbLine
 10
120.2761017906108
 20
178.8772409832715
 30
0.0
 11
120.0909387906108
 21
178.8772409832715
 31
0.0
  0
LINE
  5
328
330
40
100
AcDbEntity
  8
1
  6
Continuous
 62
     7
100
AcDbLine
 10
139.6716717906108
 20
179.2772409832716
 30
0.0
 11
140.0750867906108
 21
178.8772409832715
 31
0.0
  0
LINE
  5
329
330
40
100
AcDbEntity
  8
1
  6
Continuous
 62
     7
100
AcDbLine
 10
139.1093517906108
 20
179.2772409832716
 30
0.0
 11
139.4839167906108
 21
179.2772409832716
 31
0.0
  0
LINE
  5
32A
330
40
100
AcDbEntity
  8
1
  6
Continuous
 62
     7
100
AcDbLine
 10
137.5637817906108
 20
179.2772409832716
 30
0.0
 11
138.0641877906108
 21
179.2772409832716
 31
0.0
  0
LINE
  5
32B
330
40
100
AcDbEntity
  8
1
  6
Continuous
 62
     7
100
AcDbLine
 10
137.1719697906108
 20
178.8772409832715
 30
0.0
 11
136.7831857906108
 21
178.8772409832715
 31
0.0
  0
LINE
  5
32C
330
40
100
AcDbEntity
  8
1
  6
Continuous
 62
     7
100
AcDbLine
 10
138.9596997906108
 20
178.8772409832715
 30
0.0
 11
138.3365547906108
 21
178.8772409832715
 31
0.0
  0
LINE
  5
32D
330
40
100
AcDbEntity
  8
1
  6
Continuous
 62
     7
100
AcDbLine
 10
140.0750867906108
 20
178.8772409832715
 30
0.0
 11
139.8899237906108
 21
178.8772409832715
 31
0.0
  0
LINE
  5
32E
330
40
100
AcDbEntity
  8
1
  6
Continuous
 62
     7
100
AcDbLine
 10
136.5865647906108
 20
178.5272359832715
 30
0.0
 11
136.5980227906108
 21
178.5272359832715
 31
0.0
  0
LINE
  5
32F
330
40
100
AcDbEntity
  8
1
  6
Continuous
 62
     7
100
AcDbLine
 10
139.4839167906108
 20
179.2772409832716
 30
0.0
 11
139.6716717906108
 21
179.2772409832716
 31
0.0
  0
LINE
  5
330
330
40
100
AcDbEntity
  8
1
  6
Continuous
 62
     7
100
AcDbLine
 10
138.0641877906108
 20
179.2772409832716
 30
0.0
 11
138.6089457906108
 21
179.2772409832716
 31
0.0
  0
LINE
  5
331
330
40
100
AcDbEntity
  8
1
  6
Continuous
 62
     7
100
AcDbLine
 10
137.0014617906108
 20
179.2772409832716
 30
0.0
 11
137.1891927906108
 21
179.2772409832716
 31
0.0
  0
LINE
  5
332
330
40
100
AcDbEntity
  8
1
  6
Continuous
 62
     7
100
AcDbLine
 10
136.7831857906108
 20
178.8772409832715
 30
0.0
 11
136.5980227906108
 21
178.8772409832715
 31
0.0
  0
LINE
  5
333
330
40
100
AcDbEntity
  8
1
  6
Continuous
 62
     7
100
AcDbLine
 10
138.3365547906108
 20
178.8772409832715
 30
0.0
 11
137.7134337906108
 21
178.8772409832715
 31
0.0
  0
LINE
  5
334
330
40
100
AcDbEntity
  8
1
  6
Continuous
 62
     7
100
AcDbLine
 10
139.8899237906108
 20
178.8772409832715
 30
0.0
 11
139.5011397906108
 21
178.8772409832715
 31
0.0
  0
LINE
  5
335
330
40
100
AcDbEntity
  8
1
  6
Continuous
 62
     7
100
AcDbLine
 10
136.5980227906108
 20
178.8772409832715
 30
0.0
 11
137.0014617906108
 21
179.2772409832716
 31
0.0
  0
LINE
  5
336
330
40
100
AcDbEntity
  8
1
  6
Continuous
 62
     7
100
AcDbLine
 10
138.6089457906108
 20
179.2772409832716
 30
0.0
 11
139.1093517906108
 21
179.2772409832716
 31
0.0
  0
LINE
  5
337
330
40
100
AcDbEntity
  8
1
  6
Continuous
 62
     7
100
AcDbLine
 10
137.1891927906108
 20
179.2772409832716
 30
0.0
 11
137.5637817906108
 21
179.2772409832716
 31
0.0
  0
LINE
  5
338
330
40
100
AcDbEntity
  8
1
  6
Continuous
 62
     7
100
AcDbLine
 10
136.5980227906108
 20
178.5272359832715
 30
0.0
 11
136.5980227906108
 21
178.8772409832715
 31
0.0
  0
LINE
  5
339
330
40
100
AcDbEntity
  8
1
  6
Continuous
 62
     7
100
AcDbLine
 10
137.7134337906108
 20
178.8772409832715
 30
0.0
 11
137.1719697906108
 21
178.8772409832715
 31
0.0
  0
LINE
  5
33A
330
40
100
AcDbEntity
  8
1
  6
Continuous
 62
     7
100
AcDbLine
 10
139.5011397906108
 20
178.8772409832715
 30
0.0
 11
138.9596997906108
 21
178.8772409832715
 31
0.0
  0
LINE
  5
33B
330
40
100
AcDbEntity
  8
1
  6
Continuous
 62
     7
100
AcDbLine
 10
-31.1657808651161
 20
144.0272612641619
 30
0.0
 11
-31.56578086511624
 21
143.6272612641619
 31
0.0
  0
LINE
  5
33C
330
40
100
AcDbEntity
  8
1
  6
Continuous
 62
     7
100
AcDbLine
 10
-30.01580286511623
 20
144.0272612641619
 30
0.0
 11
-30.01580286511623
 21
143.0772462641619
 31
0.0
  0
LINE
  5
33D
330
40
100
AcDbEntity
  8
1
  6
Continuous
 62
     7
100
AcDbLine
 10
-31.56578086511624
 20
142.5272562641619
 30
0.0
 11
-28.0999068651162
 21
142.5272562641619
 31
0.0
  0
LINE
  5
33E
330
40
100
AcDbEntity
  8
1
  6
Continuous
 62
     7
100
AcDbLine
 10
-31.56578086511624
 20
143.6272612641619
 30
0.0
 11
-31.56578086511624
 21
142.5272562641619
 31
0.0
  0
LINE
  5
33F
330
40
100
AcDbEntity
  8
1
  6
Continuous
 62
     7
100
AcDbLine
 10
-28.06580086511619
 20
142.5272562641619
 30
0.0
 11
-28.06580086511619
 21
143.6272612641619
 31
0.0
  0
LINE
  5
340
330
40
100
AcDbEntity
  8
1
  6
Continuous
 62
     7
100
AcDbLine
 10
-28.06580086511619
 20
143.6272612641619
 30
0.0
 11
-28.46580086511622
 21
144.0272612641619
 31
0.0
  0
LINE
  5
341
330
40
100
AcDbEntity
  8
1
  6
Continuous
 62
     7
100
AcDbLine
 10
-31.1657808651161
 20
144.0272612641619
 30
0.0
 11
-30.01580286511623
 21
144.0272612641619
 31
0.0
  0
LINE
  5
342
330
40
100
AcDbEntity
  8
1
  6
Continuous
 62
     7
100
AcDbLine
 10
-28.06580086511619
 20
143.6272612641619
 30
0.0
 11
-29.61577886511619
 21
143.6272612641619
 31
0.0
  0
LINE
  5
343
330
40
100
AcDbEntity
  8
1
  6
Continuous
 62
     7
100
AcDbLine
 10
-30.01580286511623
 20
143.6272612641619
 30
0.0
 11
-31.56578086511624
 21
143.6272612641619
 31
0.0
  0
LINE
  5
344
330
40
100
AcDbEntity
  8
1
  6
Continuous
 62
     7
100
AcDbLine
 10
-30.01580286511623
 20
143.0772462641619
 30
0.0
 11
-29.61577886511619
 21
143.0772462641619
 31
0.0
  0
LINE
  5
345
330
40
100
AcDbEntity
  8
1
  6
Continuous
 62
     7
100
AcDbLine
 10
-29.61577886511619
 20
144.0272612641619
 30
0.0
 11
-28.46580086511622
 21
144.0272612641619
 31
0.0
  0
LINE
  5
346
330
40
100
AcDbEntity
  8
1
  6
Continuous
 62
     7
100
AcDbLine
 10
-29.61577886511619
 20
143.0772462641619
 30
0.0
 11
-29.61577886511619
 21
144.0272612641619
 31
0.0
  0
LINE
  5
347
330
40
100
AcDbEntity
  8
1
  6
Continuous
 62
     7
100
AcDbLine
 10
-47.8647738651163
 20
143.6272612641619
 30
0.0
 11
-48.26477386511609
 21
144.0272612641619
 31
0.0
  0
LINE
  5
348
330
40
100
AcDbEntity
  8
1
  6
Continuous
 62
     7
100
AcDbLine
 10
-49.41475186511618
 20
143.0772462641619
 30
0.0
 11
-49.41475186511618
 21
144.0272612641619
 31
0.0
  0
LINE
  5
349
330
40
100
AcDbEntity
  8
1
  6
Continuous
 62
     7
100
AcDbLine
 10
-51.33064786511621
 20
142.5272562641619
 30
0.0
 11
-47.8647738651163
 21
142.5272562641619
 31
0.0
  0
LINE
  5
34A
330
40
100
AcDbEntity
  8
1
  6
Continuous
 62
     7
100
AcDbLine
 10
-47.8647738651163
 20
142.5272562641619
 30
0.0
 11
-47.8647738651163
 21
143.6272612641619
 31
0.0
  0
LINE
  5
34B
330
40
100
AcDbEntity
  8
1
  6
Continuous
 62
     7
100
AcDbLine
 10
-51.36475386511635
 20
143.6272612641619
 30
0.0
 11
-51.36475386511635
 21
142.5272562641619
 31
0.0
  0
LINE
  5
34C
330
40
100
AcDbEntity
  8
1
  6
Continuous
 62
     7
100
AcDbLine
 10
-50.96475386511619
 20
144.0272612641619
 30
0.0
 11
-51.36475386511635
 21
143.6272612641619
 31
0.0
  0
LINE
  5
34D
330
40
100
AcDbEntity
  8
1
  6
Continuous
 62
     7
100
AcDbLine
 10
-49.41475186511618
 20
144.0272612641619
 30
0.0
 11
-48.26477386511609
 21
144.0272612641619
 31
0.0
  0
LINE
  5
34E
330
40
100
AcDbEntity
  8
1
  6
Continuous
 62
     7
100
AcDbLine
 10
-49.81477586511634
 20
143.6272612641619
 30
0.0
 11
-51.36475386511635
 21
143.6272612641619
 31
0.0
  0
LINE
  5
34F
330
40
100
AcDbEntity
  8
1
  6
Continuous
 62
     7
100
AcDbLine
 10
-47.8647738651163
 20
143.6272612641619
 30
0.0
 11
-49.41475186511618
 21
143.6272612641619
 31
0.0
  0
LINE
  5
350
330
40
100
AcDbEntity
  8
1
  6
Continuous
 62
     7
100
AcDbLine
 10
-49.81477586511634
 20
143.0772462641619
 30
0.0
 11
-49.41475186511618
 21
143.0772462641619
 31
0.0
  0
LINE
  5
351
330
40
100
AcDbEntity
  8
1
  6
Continuous
 62
     7
100
AcDbLine
 10
-50.96475386511619
 20
144.0272612641619
 30
0.0
 11
-49.81477586511634
 21
144.0272612641619
 31
0.0
  0
LINE
  5
352
330
40
100
AcDbEntity
  8
1
  6
Continuous
 62
     7
100
AcDbLine
 10
-49.81477586511634
 20
144.0272612641619
 30
0.0
 11
-49.81477586511634
 21
143.0772462641619
 31
0.0
  0
LINE
  5
353
330
40
100
AcDbEntity
  8
1
  6
DOT_CENTER
 62
     2
100
AcDbLine
 10
-29.8157908651161
 20
140.5272562641619
 30
0.0
 11
-29.8157908651161
 21
145.6272612641619
 31
0.0
  0
LINE
  5
354
330
40
100
AcDbEntity
  8
1
  6
DOT_CENTER
 62
     2
100
AcDbLine
 10
-49.61476386511608
 20
145.6272612641619
 30
0.0
 11
-49.61476386511608
 21
140.5272562641619
 31
0.0
  0
ENDBLK
  5
42
330
40
100
AcDbEntity
  8
0
100
AcDbBlockEnd
  0
BLOCK
  5
47
330
43
100
AcDbEntity
  8
0
100
AcDbBlockBegin
  2
Ma_blatt
 70
     0
 71
     0
 10
19.48816170019904
 20
991.875457716387
 30
0.0
  3
Ma_blatt
  1

  0
INSERT
  5
44
330
43
100
AcDbEntity
  8
1
100
AcDbBlockReference
  2
M3x10_DIN_84
 10
-15.41896829980101
 20
1146.869375676874
 30
0.0
  0
INSERT
  5
45
330
43
100
AcDbEntity
  8
0
100
AcDbBlockReference
  2
Winkelflanschdose_8-polig_drehbar
 10
373.234850587527
 20
1219.301352965288
 30
0.0
  0
INSERT
  5
46
330
43
100
AcDbEntity
  8
1
100
AcDbBlockReference
  2
M2_5x6_DIN_7985
 10
-12.26844629980099
 20
1149.369379435497
 30
0.0
  0
ENDBLK
  5
48
330
43
100
AcDbEntity
  8
0
100
AcDbBlockEnd
  0
BLOCK
  5
4B
330
49
100
AcDbEntity
  8
0
100
AcDbBlockBegin
  2
TOP__1
 70
     0
 71
     0
 10
394.678262332534
 20
336.880190442832
 30
0.0
  3
TOP__1
  1

  0
INSERT
  5
4A
330
49
100
AcDbEntity
  8
0
100
AcDbBlockReference
  2
Ma_blatt
 10
19.48816170019904
 20
991.875457716387
 30
0.0
  0
POINT
  5
355
330
49
100
AcDbEntity
  8
1
 62
     3
 60
     1
100
AcDbPoint
 10
-275.339446865116
 20
39.82707729606898
 30
0.0
  0
POINT
  5
356
330
49
100
AcDbEntity
  8
1
 62
     3
 60
     1
100
AcDbPoint
 10
-219.339446865116
 20
39.82707729606898
 30
0.0
  0
POINT
  5
357
330
49
100
AcDbEntity
  8
1
 62
     3
 60
     1
100
AcDbPoint
 10
-275.339446865116
 20
109.827077296069
 30
0.0
  0
POINT
  5
358
330
49
100
AcDbEntity
  8
1
 62
     3
 60
     1
100
AcDbPoint
 10
-219.339446865116
 20
109.827077296069
 30
0.0
  0
POINT
  5
359
330
49
100
AcDbEntity
  8
1
 62
     3
 60
     1
100
AcDbPoint
 10
-53.339446865116
 20
-0.17292270393102
 30
0.0
  0
POINT
  5
35A
330
49
100
AcDbEntity
  8
1
 62
     3
 60
     1
100
AcDbPoint
 10
-53.339446865116
 20
174.827077296069
 30
0.0
  0
POINT
  5
35B
330
49
100
AcDbEntity
  8
1
 62
     3
 60
     1
100
AcDbPoint
 10
-53.339446865116
 20
9.82707729606898
 30
0.0
  0
POINT
  5
35C
330
49
100
AcDbEntity
  8
1
 62
     3
 60
     1
100
AcDbPoint
 10
-26.339446865116
 20
139.827077296069
 30
0.0
  0
POINT
  5
35D
330
49
100
AcDbEntity
  8
1
 62
     3
 60
     1
100
AcDbPoint
 10
-53.339446865116
 20
149.827077296069
 30
0.0
  0
POINT
  5
35E
330
49
100
AcDbEntity
  8
1
 62
     3
 60
     1
100
AcDbPoint
 10
164.312892290611
 20
178.327077296069
 30
0.0
  0
POINT
  5
35F
330
49
100
AcDbEntity
  8
1
 62
     3
 60
     1
100
AcDbPoint
 10
148.312892290611
 20
178.327077296069
 30
0.0
  0
POINT
  5
360
330
49
100
AcDbEntity
  8
1
 62
     3
 60
     1
100
AcDbPoint
 10
-63.53946036511599
 20
177.2880618372058
 30
0.0
  0
POINT
  5
361
330
49
100
AcDbEntity
  8
1
 62
     3
 60
     1
100
AcDbPoint
 10
-93.13944536511599
 20
177.2880618372058
 30
0.0
  0
POINT
  5
362
330
49
100
AcDbEntity
  8
1
 62
     3
 60
     1
100
AcDbPoint
 10
142.312892290611
 20
74.82707729606898
 30
0.0
  0
POINT
  5
363
330
49
100
AcDbEntity
  8
1
 62
     3
 60
     1
100
AcDbPoint
 10
67.31289229061099
 20
174.827077296069
 30
0.0
  0
POINT
  5
364
330
49
100
AcDbEntity
  8
1
 62
     3
 60
     1
100
AcDbPoint
 10
217.312892290611
 20
174.827077296069
 30
0.0
  0
POINT
  5
365
330
49
100
AcDbEntity
  8
1
 62
     3
 60
     1
100
AcDbPoint
 10
42.31289229061099
 20
149.827077296069
 30
0.0
  0
POINT
  5
366
330
49
100
AcDbEntity
  8
1
 62
     3
 60
     1
100
AcDbPoint
 10
42.31289229061099
 20
-0.17292270393102
 30
0.0
  0
POINT
  5
367
330
49
100
AcDbEntity
  8
1
 62
     3
 60
     1
100
AcDbPoint
 10
67.31289229061099
 20
-25.17292270393102
 30
0.0
  0
POINT
  5
368
330
49
100
AcDbEntity
  8
1
 62
     3
 60
     1
100
AcDbPoint
 10
217.312892290611
 20
-25.17292270393102
 30
0.0
  0
POINT
  5
369
330
49
100
AcDbEntity
  8
1
 62
     3
 60
     1
100
AcDbPoint
 10
242.312892290611
 20
-0.17292270393102
 30
0.0
  0
POINT
  5
36A
330
49
100
AcDbEntity
  8
1
 62
     3
 60
     1
100
AcDbPoint
 10
242.312892290611
 20
149.827077296069
 30
0.0
  0
POINT
  5
36B
330
49
100
AcDbEntity
  8
1
 62
     3
 60
     1
100
AcDbPoint
 10
218.3268712681649
 20
150.8410562736228
 30
0.0
  0
POINT
  5
36C
330
49
100
AcDbEntity
  8
1
 62
     3
 60
     1
100
AcDbPoint
 10
218.3268712681648
 20
-1.18690168148487
 30
0.0
  0
POINT
  5
36D
330
49
100
AcDbEntity
  8
1
 62
     3
 60
     1
100
AcDbPoint
 10
66.29891331305708
 20
-1.18690168148487
 30
0.0
  0
POINT
  5
36E
330
49
100
AcDbEntity
  8
1
 62
     3
 60
     1
100
AcDbPoint
 10
66.29891331305708
 20
150.8410562736228
 30
0.0
  0
POINT
  5
36F
330
49
100
AcDbEntity
  8
1
 62
     3
 60
     1
100
AcDbPoint
 10
210.689301028589
 20
6.45066855809091
 30
0.0
  0
POINT
  5
370
330
49
100
AcDbEntity
  8
1
 62
     3
 60
     1
100
AcDbPoint
 10
226.7512306248059
 20
-9.61126103812603
 30
0.0
  0
POINT
  5
371
330
49
100
AcDbEntity
  8
1
 62
     3
 60
     1
100
AcDbPoint
 10
210.385117797046
 20
142.8993028025041
 30
0.0
  0
POINT
  5
372
330
49
100
AcDbEntity
  8
1
 62
     3
 60
     1
100
AcDbPoint
 10
226.4470473932625
 20
158.9612323987205
 30
0.0
  0
POINT
  5
373
330
49
100
AcDbEntity
  8
1
 62
     3
 60
     1
100
AcDbPoint
 10
57.25963069520202
 20
159.880338891478
 30
0.0
  0
POINT
  5
374
330
49
100
AcDbEntity
  8
1
 62
     3
 60
     1
100
AcDbPoint
 10
74.23938483977452
 20
142.9005847469055
 30
0.0
  0
POINT
  5
375
330
49
100
AcDbEntity
  8
1
 62
     3
 60
     1
100
AcDbPoint
 10
58.02624277007351
 20
-9.4595722244685
 30
0.0
  0
POINT
  5
376
330
49
100
AcDbEntity
  8
1
 62
     3
 60
     1
100
AcDbPoint
 10
74.70005539852701
 20
7.21424040398506
 30
0.0
  0
POINT
  5
377
330
49
100
AcDbEntity
  8
1
 62
     3
 60
     1
100
AcDbPoint
 10
-215.339446865116
 20
174.827077296069
 30
0.0
  0
POINT
  5
378
330
49
100
AcDbEntity
  8
1
 62
     3
 60
     1
100
AcDbPoint
 10
-215.339446865116
 20
-25.17292270393102
 30
0.0
  0
POINT
  5
379
330
49
100
AcDbEntity
  8
1
 62
     3
 60
     1
100
AcDbPoint
 10
-215.339446865116
 20
164.827077296069
 30
0.0
  0
POINT
  5
37A
330
49
100
AcDbEntity
  8
1
 62
     3
 60
     1
100
AcDbPoint
 10
-219.339446865116
 20
164.827077296069
 30
0.0
  0
POINT
  5
37B
330
49
100
AcDbEntity
  8
1
 62
     3
 60
     1
100
AcDbPoint
 10
-219.339446865116
 20
-15.17292270393102
 30
0.0
  0
POINT
  5
37C
330
49
100
AcDbEntity
  8
1
 62
     3
 60
     1
100
AcDbPoint
 10
-219.339446865116
 20
114.827077296069
 30
0.0
  0
POINT
  5
37D
330
49
100
AcDbEntity
  8
1
 62
     3
 60
     1
100
AcDbPoint
 10
-48.33944686511603
 20
139.827077296069
 30
0.0
  0
POINT
  5
37E
330
49
100
AcDbEntity
  8
1
 62
     3
 60
     1
100
AcDbPoint
 10
-114.839446865116
 20
174.827077296069
 30
0.0
  0
POINT
  5
37F
330
49
100
AcDbEntity
  8
1
 62
     3
 60
     1
100
AcDbPoint
 10
-108.839446865116
 20
-25.17292270393102
 30
0.0
  0
POINT
  5
380
330
49
100
AcDbEntity
  8
1
 62
     3
 60
     1
100
AcDbPoint
 10
-195.339446865116
 20
174.827077296069
 30
0.0
  0
POINT
  5
381
330
49
100
AcDbEntity
  8
1
 62
     3
 60
     1
100
AcDbPoint
 10
-195.339446865116
 20
-25.17292270393102
 30
0.0
  0
POINT
  5
382
330
49
100
AcDbEntity
  8
1
 62
     3
 60
     1
100
AcDbPoint
 10
-114.839446865116
 20
-25.17292270393102
 30
0.0
  0
POINT
  5
383
330
49
100
AcDbEntity
  8
1
 62
     3
 60
     1
100
AcDbPoint
 10
123.159608522048
 20
257.207058661447
 30
0.0
  0
POINT
  5
384
330
49
100
AcDbEntity
  8
1
 62
     3
 60
     1
100
AcDbPoint
 10
5.48322462367702
 20
66.440320374507
 30
0.0
  0
POINT
  5
385
330
49
100
AcDbEntity
  8
1
 62
     3
 60
     1
100
AcDbPoint
 10
-155.339446865116
 20
167.327077296069
 30
0.0
  0
POINT
  5
386
330
49
100
AcDbEntity
  8
1
 62
     3
 60
     1
100
AcDbPoint
 10
-159.339446865116
 20
127.427077296069
 30
0.0
  0
POINT
  5
387
330
49
100
AcDbEntity
  8
1
 62
     3
 60
     1
100
AcDbPoint
 10
-159.339446865116
 20
122.827077296069
 30
0.0
  0
POINT
  5
388
330
49
100
AcDbEntity
  8
1
 62
     3
 60
     1
100
AcDbPoint
 10
-118.339446865116
 20
122.827077296069
 30
0.0
  0
POINT
  5
389
330
49
100
AcDbEntity
  8
1
 62
     3
 60
     1
100
AcDbPoint
 10
-159.339446865116
 20
116.827077296069
 30
0.0
  0
POINT
  5
38A
330
49
100
AcDbEntity
  8
1
 62
     3
 60
     1
100
AcDbPoint
 10
-118.339446865116
 20
116.827077296069
 30
0.0
  0
POINT
  5
38B
330
49
100
AcDbEntity
  8
1
 62
     3
 60
     1
100
AcDbPoint
 10
-159.339446865116
 20
98.82707729606898
 30
0.0
  0
POINT
  5
38C
330
49
100
AcDbEntity
  8
1
 62
     3
 60
     1
100
AcDbPoint
 10
-159.339446865116
 20
92.82707729606898
 30
0.0
  0
POINT
  5
38D
330
49
100
AcDbEntity
  8
1
 62
     3
 60
     1
100
AcDbPoint
 10
-118.339446865116
 20
92.82707729606898
 30
0.0
  0
POINT
  5
38E
330
49
100
AcDbEntity
  8
1
 62
     3
 60
     1
100
AcDbPoint
 10
-159.339446865116
 20
56.82707729606898
 30
0.0
  0
POINT
  5
38F
330
49
100
AcDbEntity
  8
1
 62
     3
 60
     1
100
AcDbPoint
 10
-118.339446865116
 20
56.82707729606898
 30
0.0
  0
POINT
  5
390
330
49
100
AcDbEntity
  8
1
 62
     3
 60
     1
100
AcDbPoint
 10
-159.339446865116
 20
50.82707729606898
 30
0.0
  0
POINT
  5
391
330
49
100
AcDbEntity
  8
1
 62
     3
 60
     1
100
AcDbPoint
 10
-118.339446865116
 20
50.82707729606898
 30
0.0
  0
POINT
  5
392
330
49
100
AcDbEntity
  8
1
 62
     3
 60
     1
100
AcDbPoint
 10
-159.339446865116
 20
32.82707729606898
 30
0.0
  0
POINT
  5
393
330
49
100
AcDbEntity
  8
1
 62
     3
 60
     1
100
AcDbPoint
 10
-159.339446865116
 20
26.82707729606898
 30
0.0
  0
POINT
  5
394
330
49
100
AcDbEntity
  8
1
 62
     3
 60
     1
100
AcDbPoint
 10
-118.339446865116
 20
26.82707729606898
 30
0.0
  0
POINT
  5
395
330
49
100
AcDbEntity
  8
1
 62
     3
 60
     1
100
AcDbPoint
 10
-159.339446865116
 20
22.22707729606897
 30
0.0
  0
POINT
  5
396
330
49
100
AcDbEntity
  8
1
 62
     3
 60
     1
100
AcDbPoint
 10
-155.339446865116
 20
139.827077296069
 30
0.0
  0
POINT
  5
397
330
49
100
AcDbEntity
  8
1
 62
     3
 60
     1
100
AcDbPoint
 10
-122.339446865116
 20
139.827077296069
 30
0.0
  0
POINT
  5
398
330
49
100
AcDbEntity
  8
1
 62
     3
 60
     1
100
AcDbPoint
 10
-122.339446865116
 20
174.827077296069
 30
0.0
  0
POINT
  5
399
330
49
100
AcDbEntity
  8
1
 62
     3
 60
     1
100
AcDbPoint
 10
-159.339446865116
 20
167.327077296069
 30
0.0
  0
POINT
  5
39A
330
49
100
AcDbEntity
  8
1
 62
     3
 60
     1
100
AcDbPoint
 10
-155.339446865116
 20
174.827077296069
 30
0.0
  0
POINT
  5
39B
330
49
100
AcDbEntity
  8
1
 62
     3
 60
     1
100
AcDbPoint
 10
-155.339446865116
 20
170.089667354642
 30
0.0
  0
POINT
  5
39C
330
49
100
AcDbEntity
  8
1
 62
     3
 60
     1
100
AcDbPoint
 10
-159.339446865116
 20
172.827077296069
 30
0.0
  0
POINT
  5
39D
330
49
100
AcDbEntity
  8
1
 62
     3
 60
     1
100
AcDbPoint
 10
-159.339446865116
 20
174.827077296069
 30
0.0
  0
POINT
  5
39E
330
49
100
AcDbEntity
  8
1
 62
     3
 60
     1
100
AcDbPoint
 10
-155.339446865116
 20
131.035443378065
 30
0.0
  0
POINT
  5
39F
330
49
100
AcDbEntity
  8
1
 62
     3
 60
     1
100
AcDbPoint
 10
-159.339446865116
 20
136.5270772960689
 30
0.0
  0
POINT
  5
3A0
330
49
100
AcDbEntity
  8
1
 62
     3
 60
     1
100
AcDbPoint
 10
-122.339446865116
 20
22.22707729606897
 30
0.0
  0
POINT
  5
3A1
330
49
100
AcDbEntity
  8
1
 62
     3
 60
     1
100
AcDbPoint
 10
-122.339446865116
 20
-25.17292270393102
 30
0.0
  0
POINT
  5
3A2
330
49
100
AcDbEntity
  8
1
 62
     3
 60
     1
100
AcDbPoint
 10
-155.339446865116
 20
22.22707729606897
 30
0.0
  0
POINT
  5
3A3
330
49
100
AcDbEntity
  8
1
 62
     3
 60
     1
100
AcDbPoint
 10
-159.339446865116
 20
13.12707729606905
 30
0.0
  0
POINT
  5
3A4
330
49
100
AcDbEntity
  8
1
 62
     3
 60
     1
100
AcDbPoint
 10
-155.339446865116
 20
-17.67292270393102
 30
0.0
  0
POINT
  5
3A5
330
49
100
AcDbEntity
  8
1
 62
     3
 60
     1
100
AcDbPoint
 10
-155.339446865116
 20
-25.17292270393102
 30
0.0
  0
POINT
  5
3A6
330
49
100
AcDbEntity
  8
1
 62
     3
 60
     1
100
AcDbPoint
 10
-155.339446865116
 20
17.5653023320632
 30
0.0
  0
POINT
  5
3A7
330
49
100
AcDbEntity
  8
1
 62
     3
 60
     1
100
AcDbPoint
 10
-159.339446865116
 20
-25.17292270393102
 30
0.0
  0
POINT
  5
3A8
330
49
100
AcDbEntity
  8
1
 62
     3
 60
     1
100
AcDbPoint
 10
-159.339446865116
 20
-23.17292270393102
 30
0.0
  0
POINT
  5
3A9
330
49
100
AcDbEntity
  8
1
 62
     3
 60
     1
100
AcDbPoint
 10
-155.339446865116
 20
-19.8446892692548
 30
0.0
  0
POINT
  5
3AA
330
49
100
AcDbEntity
  8
1
 62
     3
 60
     1
100
AcDbPoint
 10
-114.839446865116
 20
-0.17292270393102
 30
0.0
  0
POINT
  5
3AB
330
49
100
AcDbEntity
  8
1
 62
     3
 60
     1
100
AcDbPoint
 10
-122.339446865116
 20
17.5653023320632
 30
0.0
  0
POINT
  5
3AC
330
49
100
AcDbEntity
  8
1
 62
     3
 60
     1
100
AcDbPoint
 10
-122.339446865116
 20
-17.67292270393102
 30
0.0
  0
POINT
  5
3AD
330
49
100
AcDbEntity
  8
1
 62
     3
 60
     1
100
AcDbPoint
 10
-114.839446865116
 20
149.827077296069
 30
0.0
  0
POINT
  5
3AE
330
49
100
AcDbEntity
  8
1
 62
     3
 60
     1
100
AcDbPoint
 10
-122.339446865116
 20
131.035443378065
 30
0.0
  0
LINE
  5
3AF
330
49
100
AcDbEntity
  8
1
  6
DOT_CENTER
 62
     2
100
AcDbLine
 10
-24.339446865116
 20
74.827077296069
 30
0.0
 11
-55.339446865116
 21
74.827077296069
 31
0.0
  0
LINE
  5
3B0
330
49
100
AcDbEntity
  8
1
  6
DOT_CENTER
 62
     2
100
AcDbLine
 10
-110.839446865116
 20
74.82707729606899
 30
0.0
 11
-51.339446865116
 21
74.82707729606899
 31
0.0
  0
LINE
  5
3B1
330
49
100
AcDbEntity
  8
1
  6
DOT_CENTER
 62
     2
100
AcDbLine
 10
-217.339446865116
 20
74.82707729606898
 30
0.0
 11
-277.339446865116
 21
74.82707729606898
 31
0.0
  0
LINE
  5
3B2
330
49
100
AcDbEntity
  8
1
  6
Continuous
 62
     7
100
AcDbLine
 10
-275.339446865116
 20
109.827077296069
 30
0.0
 11
-275.339446865116
 21
39.82707729606898
 31
0.0
  0
LINE
  5
3B3
330
49
100
AcDbEntity
  8
1
  6
Continuous
 62
     7
100
AcDbLine
 10
-219.339446865116
 20
39.82707729606898
 30
0.0
 11
-219.339446865116
 21
-15.17292270393102
 31
0.0
  0
LINE
  5
3B4
330
49
100
AcDbEntity
  8
1
  6
Continuous
 62
     7
100
AcDbLine
 10
-219.339446865116
 20
39.82707729606898
 30
0.0
 11
-275.339446865116
 21
39.82707729606898
 31
0.0
  0
LINE
  5
3B5
330
49
100
AcDbEntity
  8
1
  6
Continuous
 62
     7
100
AcDbLine
 10
-219.339446865116
 20
109.827077296069
 30
0.0
 11
-219.339446865116
 21
39.82707729606898
 31
0.0
  0
LINE
  5
3B6
330
49
100
AcDbEntity
  8
1
  6
Continuous
 62
     7
100
AcDbLine
 10
-219.339446865116
 20
109.827077296069
 30
0.0
 11
-275.339446865116
 21
109.827077296069
 31
0.0
  0
LINE
  5
3B7
330
49
100
AcDbEntity
  8
1
  6
Continuous
 62
     7
100
AcDbLine
 10
-219.339446865116
 20
114.827077296069
 30
0.0
 11
-219.339446865116
 21
109.827077296069
 31
0.0
  0
LINE
  5
3B8
330
49
100
AcDbEntity
  8
1
  6
Continuous
 62
     7
100
AcDbLine
 10
-53.339446865116
 20
-0.17292270393102
 30
0.0
 11
-53.339446865116
 21
-25.17292270393102
 31
0.0
  0
LINE
  5
3B9
330
49
100
AcDbEntity
  8
1
  6
Continuous
 62
     7
100
AcDbLine
 10
-108.839446865116
 20
-0.17292270393102
 30
0.0
 11
-53.339446865116
 21
-0.17292270393102
 31
0.0
  0
LINE
  5
3BA
330
49
100
AcDbEntity
  8
1
  6
Continuous
 62
     7
100
AcDbLine
 10
-26.339446865116
 20
129.827077296069
 30
0.0
 11
-53.339446865116
 21
129.827077296069
 31
0.0
  0
LINE
  5
3BB
330
49
100
AcDbEntity
  8
1
  6
Continuous
 62
     7
100
AcDbLine
 10
-26.339446865116
 20
19.82707729606899
 30
0.0
 11
-53.339446865116
 21
19.82707729606898
 31
0.0
  0
LINE
  5
3BC
330
49
100
AcDbEntity
  8
1
  6
Continuous
 62
     7
100
AcDbLine
 10
-53.339446865116
 20
19.82707729606898
 30
0.0
 11
-53.339446865116
 21
9.82707729606898
 31
0.0
  0
LINE
  5
3BD
330
49
100
AcDbEntity
  8
1
  6
Continuous
 62
     7
100
AcDbLine
 10
-53.339446865116
 20
129.827077296069
 30
0.0
 11
-53.339446865116
 21
19.82707729606898
 31
0.0
  0
LINE
  5
3BE
330
49
100
AcDbEntity
  8
1
  6
Continuous
 62
     7
100
AcDbLine
 10
-53.339446865116
 20
149.827077296069
 30
0.0
 11
-53.339446865116
 21
174.827077296069
 31
0.0
  0
LINE
  5
3BF
330
49
100
AcDbEntity
  8
1
  6
Continuous
 62
     7
100
AcDbLine
 10
-53.339446865116
 20
139.827077296069
 30
0.0
 11
-53.339446865116
 21
129.827077296069
 31
0.0
  0
LINE
  5
3C0
330
49
100
AcDbEntity
  8
1
  6
Continuous
 62
     7
100
AcDbLine
 10
-48.33944686511603
 20
139.827077296069
 30
0.0
 11
-53.339446865116
 21
139.827077296069
 31
0.0
  0
LINE
  5
3C1
330
49
100
AcDbEntity
  8
1
  6
Continuous
 62
     7
100
AcDbLine
 10
-53.339446865116
 20
9.82707729606898
 30
0.0
 11
-53.339446865116
 21
-0.17292270393102
 31
0.0
  0
LINE
  5
3C2
330
49
100
AcDbEntity
  8
1
  6
Continuous
 62
     7
100
AcDbLine
 10
-26.339446865116
 20
9.82707729606898
 30
0.0
 11
-53.339446865116
 21
9.82707729606898
 31
0.0
  0
LINE
  5
3C3
330
49
100
AcDbEntity
  8
1
  6
Continuous
 62
     7
100
AcDbLine
 10
-26.339446865116
 20
139.827077296069
 30
0.0
 11
-26.339446865116
 21
9.82707729606898
 31
0.0
  0
LINE
  5
3C4
330
49
100
AcDbEntity
  8
1
  6
Continuous
 62
     7
100
AcDbLine
 10
-53.339446865116
 20
-25.17292270393102
 30
0.0
 11
-108.839446865116
 21
-25.17292270393102
 31
0.0
  0
LINE
  5
3C5
330
49
100
AcDbEntity
  8
1
  6
Continuous
 62
     7
100
AcDbLine
 10
-53.339446865116
 20
149.827077296069
 30
0.0
 11
-53.339446865116
 21
139.827077296069
 31
0.0
  0
LINE
  5
3C6
330
49
100
AcDbEntity
  8
1
  6
Continuous
 62
     7
100
AcDbLine
 10
164.312892290611
 20
178.327077296069
 30
0.0
 11
175.312892290611
 21
178.327077296069
 31
0.0
  0
LINE
  5
3C7
330
49
100
AcDbEntity
  8
1
  6
Continuous
 62
     7
100
AcDbLine
 10
162.6126602201701
 20
180.631727875608
 30
0.0
 11
164.312892290611
 21
178.327077296069
 31
0.0
  0
LINE
  5
3C8
330
49
100
AcDbEntity
  8
1
  6
Continuous
 62
     7
100
AcDbLine
 10
148.312892290611
 20
178.327077296069
 30
0.0
 11
164.312892290611
 21
178.327077296069
 31
0.0
  0
LINE
  5
3C9
330
49
100
AcDbEntity
  8
1
  6
Continuous
 62
     7
100
AcDbLine
 10
150.0131243610519
 20
180.631727875608
 30
0.0
 11
148.312892290611
 21
178.327077296069
 31
0.0
  0
LINE
  5
3CA
330
49
100
AcDbEntity
  8
1
  6
Continuous
 62
     7
100
AcDbLine
 10
109.312892290611
 20
178.327077296069
 30
0.0
 11
148.312892290611
 21
178.327077296069
 31
0.0
  0
LINE
  5
3CB
330
49
100
AcDbEntity
  8
1
  6
Continuous
 62
     7
100
AcDbLine
 10
150.8178351460639
 20
181.0380608372058
 30
0.0
 11
161.8079494351581
 21
181.0380608372058
 31
0.0
  0
LINE
  5
3CC
330
49
100
AcDbEntity
  8
1
  6
DOT_CENTER
 62
     2
100
AcDbLine
 10
142.312892290611
 20
-28.42642610932205
 30
0.0
 11
142.312892290611
 21
178.390038786729
 31
0.0
  0
LINE
  5
3CD
330
49
100
AcDbEntity
  8
1
  6
DOT_CENTER
 62
     2
100
AcDbLine
 10
-197.339446865116
 20
74.82707729606898
 30
0.0
 11
-112.839446865116
 21
74.82707729606898
 31
0.0
  0
LINE
  5
3CE
330
49
100
AcDbEntity
  8
1
  6
DOT_CENTER
 62
     2
100
AcDbLine
 10
-217.339446865116
 20
74.82707729606898
 30
0.0
 11
-193.339446865116
 21
74.82707729606898
 31
0.0
  0
LINE
  5
3CF
330
49
100
AcDbEntity
  8
1
  6
Continuous
 62
     7
100
AcDbLine
 10
175.312892290611
 20
178.327077296069
 30
0.0
 11
175.312892290611
 21
174.827077296069
 31
0.0
  0
LINE
  5
3D0
330
49
100
AcDbEntity
  8
1
  6
Continuous
 62
     7
100
AcDbLine
 10
109.312892290611
 20
174.827077296069
 30
0.0
 11
175.312892290611
 21
174.827077296069
 31
0.0
  0
LINE
  5
3D1
330
49
100
AcDbEntity
  8
1
  6
Continuous
 62
     7
100
AcDbLine
 10
109.312892290611
 20
174.827077296069
 30
0.0
 11
109.312892290611
 21
178.327077296069
 31
0.0
  0
LINE
  5
3D2
330
49
100
AcDbEntity
  8
1
  6
Continuous
 62
     7
100
AcDbLine
 10
-63.53946036511599
 20
177.2880618372058
 30
0.0
 11
-63.53946036511599
 21
174.827077296069
 31
0.0
  0
LINE
  5
3D3
330
49
100
AcDbEntity
  8
1
  6
Continuous
 62
     7
100
AcDbLine
 10
-93.13944536511599
 20
177.2880618372058
 30
0.0
 11
-93.13944536511599
 21
174.827077296069
 31
0.0
  0
LINE
  5
3D4
330
49
100
AcDbEntity
  8
1
  6
Continuous
 62
     7
100
AcDbLine
 10
-81.63944536511599
 20
174.827077296069
 30
0.0
 11
-53.339446865116
 21
174.827077296069
 31
0.0
  0
LINE
  5
3D5
330
49
100
AcDbEntity
  8
1
  6
Continuous
 62
     7
100
AcDbLine
 10
67.31289229061099
 20
174.827077296069
 30
0.0
 11
217.312892290611
 21
174.827077296069
 31
0.0
  0
LINE
  5
3D6
330
49
100
AcDbEntity
  8
1
  6
Continuous
 62
     7
100
AcDbLine
 10
42.31289229061099
 20
149.827077296069
 30
0.0
 11
42.31289229061099
 21
-0.17292270393102
 31
0.0
  0
LINE
  5
3D7
330
49
100
AcDbEntity
  8
1
  6
Continuous
 62
     7
100
AcDbLine
 10
67.31289229061099
 20
-25.17292270393102
 30
0.0
 11
217.312892290611
 21
-25.17292270393102
 31
0.0
  0
LINE
  5
3D8
330
49
100
AcDbEntity
  8
1
  6
Continuous
 62
     7
100
AcDbLine
 10
242.312892290611
 20
-0.17292270393102
 30
0.0
 11
242.312892290611
 21
149.827077296069
 31
0.0
  0
LINE
  5
3D9
330
49
100
AcDbEntity
  8
1
  6
DOT_CENTER
 62
     2
100
AcDbLine
 10
38.444465624006
 20
74.82707729606898
 30
0.0
 11
246.178755068413
 21
74.82707729606898
 31
0.0
  0
LINE
  5
3DA
330
49
100
AcDbEntity
  8
1
  6
DOT_CENTER
 62
     2
100
AcDbLine
 10
210.689301028589
 20
6.45066855809091
 30
0.0
 11
226.7512306248059
 21
-9.61126103812603
 31
0.0
  0
LINE
  5
3DB
330
49
100
AcDbEntity
  8
1
  6
DOT_CENTER
 62
     2
100
AcDbLine
 10
210.385117797046
 20
142.8993028025041
 30
0.0
 11
226.4470473932625
 21
158.9612323987205
 31
0.0
  0
LINE
  5
3DC
330
49
100
AcDbEntity
  8
1
  6
DOT_CENTER
 62
     2
100
AcDbLine
 10
57.25963069520202
 20
159.880338891478
 30
0.0
 11
74.23938483977452
 21
142.9005847469055
 31
0.0
  0
LINE
  5
3DD
330
49
100
AcDbEntity
  8
1
  6
DOT_CENTER
 62
     2
100
AcDbLine
 10
58.02624277007351
 20
-9.4595722244685
 30
0.0
 11
74.70005539852701
 21
7.21424040398506
 31
0.0
  0
LINE
  5
3DE
330
49
100
AcDbEntity
  8
1
  6
Continuous
 62
     7
100
AcDbLine
 10
-215.339446865116
 20
-25.17292270393102
 30
0.0
 11
-215.339446865116
 21
-15.17292270393102
 31
0.0
  0
LINE
  5
3DF
330
49
100
AcDbEntity
  8
1
  6
Continuous
 62
     7
100
AcDbLine
 10
-215.339446865116
 20
164.827077296069
 30
0.0
 11
-219.339446865116
 21
164.827077296069
 31
0.0
  0
LINE
  5
3E0
330
49
100
AcDbEntity
  8
1
  6
Continuous
 62
     7
100
AcDbLine
 10
-215.339446865116
 20
164.827077296069
 30
0.0
 11
-215.339446865116
 21
174.827077296069
 31
0.0
  0
LINE
  5
3E1
330
49
100
AcDbEntity
  8
1
  6
Continuous
 62
     7
100
AcDbLine
 10
-219.339446865116
 20
164.827077296069
 30
0.0
 11
-219.339446865116
 21
114.827077296069
 31
0.0
  0
LINE
  5
3E2
330
49
100
AcDbEntity
  8
1
  6
Continuous
 62
     7
100
AcDbLine
 10
-48.33944686511603
 20
139.827077296069
 30
0.0
 11
-26.339446865116
 21
139.827077296069
 31
0.0
  0
LINE
  5
3E3
330
49
100
AcDbEntity
  8
1
  6
Continuous
 62
     7
100
AcDbLine
 10
-108.839446865116
 20
149.827077296069
 30
0.0
 11
-53.339446865116
 21
149.827077296069
 31
0.0
  0
LINE
  5
3E4
330
49
100
AcDbEntity
  8
1
  6
Continuous
 62
     7
100
AcDbLine
 10
-195.339446865116
 20
149.827077296069
 30
0.0
 11
-215.339446865116
 21
149.827077296069
 31
0.0
  0
LINE
  5
3E5
330
49
100
AcDbEntity
  8
1
  6
Continuous
 62
     7
100
AcDbLine
 10
-215.339446865116
 20
149.827077296069
 30
0.0
 11
-215.339446865116
 21
164.827077296069
 31
0.0
  0
LINE
  5
3E6
330
49
100
AcDbEntity
  8
1
  6
Continuous
 62
     7
100
AcDbLine
 10
-195.339446865116
 20
-0.17292270393102
 30
0.0
 11
-215.339446865116
 21
-0.17292270393102
 31
0.0
  0
LINE
  5
3E7
330
49
100
AcDbEntity
  8
1
  6
Continuous
 62
     7
100
AcDbLine
 10
-215.339446865116
 20
-0.17292270393102
 30
0.0
 11
-215.339446865116
 21
149.827077296069
 31
0.0
  0
LINE
  5
3E8
330
49
100
AcDbEntity
  8
1
  6
Continuous
 62
     7
100
AcDbLine
 10
-215.339446865116
 20
174.827077296069
 30
0.0
 11
-195.339446865116
 21
174.827077296069
 31
0.0
  0
LINE
  5
3E9
330
49
100
AcDbEntity
  8
1
  6
Continuous
 62
     7
100
AcDbLine
 10
-108.839446865116
 20
174.827077296069
 30
0.0
 11
-53.339446865116
 21
174.827077296069
 31
0.0
  0
LINE
  5
3EA
330
49
100
AcDbEntity
  8
1
  6
Continuous
 62
     7
100
AcDbLine
 10
-108.839446865116
 20
-25.17292270393102
 30
0.0
 11
-114.839446865116
 21
-25.17292270393102
 31
0.0
  0
LINE
  5
3EB
330
49
100
AcDbEntity
  8
1
  6
Continuous
 62
     7
100
AcDbLine
 10
-219.339446865116
 20
-15.17292270393102
 30
0.0
 11
-215.339446865116
 21
-15.17292270393102
 31
0.0
  0
LINE
  5
3EC
330
49
100
AcDbEntity
  8
1
  6
Continuous
 62
     7
100
AcDbLine
 10
-215.339446865116
 20
-15.17292270393102
 30
0.0
 11
-215.339446865116
 21
-0.17292270393102
 31
0.0
  0
LINE
  5
3ED
330
49
100
AcDbEntity
  8
1
  6
Continuous
 62
     7
100
AcDbLine
 10
-195.339446865116
 20
174.827077296069
 30
0.0
 11
-195.339446865116
 21
172.827077296069
 31
0.0
  0
LINE
  5
3EE
330
49
100
AcDbEntity
  8
1
  6
Continuous
 62
     7
100
AcDbLine
 10
-195.339446865116
 20
174.827077296069
 30
0.0
 11
-159.339446865116
 21
174.827077296069
 31
0.0
  0
LINE
  5
3EF
330
49
100
AcDbEntity
  8
1
  6
Continuous
 62
     7
100
AcDbLine
 10
-195.339446865116
 20
136.5270772960689
 30
0.0
 11
-159.339446865116
 21
136.5270772960689
 31
0.0
  0
LINE
  5
3F0
330
49
100
AcDbEntity
  8
1
  6
Continuous
 62
     7
100
AcDbLine
 10
-195.339446865116
 20
172.827077296069
 30
0.0
 11
-195.339446865116
 21
139.827077296069
 31
0.0
  0
LINE
  5
3F1
330
49
100
AcDbEntity
  8
1
  6
Continuous
 62
     7
100
AcDbLine
 10
-195.339446865116
 20
-25.17292270393102
 30
0.0
 11
-195.339446865116
 21
-23.17292270393102
 31
0.0
  0
LINE
  5
3F2
330
49
100
AcDbEntity
  8
1
  6
Continuous
 62
     7
100
AcDbLine
 10
-195.339446865116
 20
-25.17292270393102
 30
0.0
 11
-215.339446865116
 21
-25.17292270393102
 31
0.0
  0
LINE
  5
3F3
330
49
100
AcDbEntity
  8
1
  6
Continuous
 62
     7
100
AcDbLine
 10
-114.839446865116
 20
-25.17292270393102
 30
0.0
 11
-122.339446865116
 21
-25.17292270393102
 31
0.0
  0
LINE
  5
3F4
330
49
100
AcDbEntity
  8
1
  6
Continuous
 62
     7
100
AcDbLine
 10
-195.339446865116
 20
13.12707729606905
 30
0.0
 11
-159.339446865116
 21
13.12707729606905
 31
0.0
  0
LINE
  5
3F5
330
49
100
AcDbEntity
  8
1
  6
Continuous
 62
     7
100
AcDbLine
 10
-195.339446865116
 20
9.82707729606898
 30
0.0
 11
-155.339446865116
 21
9.82707729606898
 31
0.0
  0
LINE
  5
3F6
330
49
100
AcDbEntity
  8
1
  6
Continuous
 62
     7
100
AcDbLine
 10
-195.339446865116
 20
9.82707729606898
 30
0.0
 11
-195.339446865116
 21
13.12707729606905
 31
0.0
  0
LINE
  5
3F7
330
49
100
AcDbEntity
  8
1
  6
Continuous
 62
     7
100
AcDbLine
 10
-195.339446865116
 20
-23.17292270393102
 30
0.0
 11
-159.339446865116
 21
-23.17292270393102
 31
0.0
  0
LINE
  5
3F8
330
49
100
AcDbEntity
  8
1
  6
Continuous
 62
     7
100
AcDbLine
 10
-195.339446865116
 20
-23.17292270393102
 30
0.0
 11
-195.339446865116
 21
9.82707729606898
 31
0.0
  0
LINE
  5
3F9
330
49
100
AcDbEntity
  8
1
  6
Continuous
 62
     7
100
AcDbLine
 10
-195.339446865116
 20
139.827077296069
 30
0.0
 11
-195.339446865116
 21
136.5270772960689
 31
0.0
  0
LINE
  5
3FA
330
49
100
AcDbEntity
  8
1
  6
Continuous
 62
     2
100
AcDbLine
 10
123.159608522048
 20
257.207058661447
 30
0.0
 11
127.159608522048
 21
257.207058661447
 31
0.0
  0
LINE
  5
3FB
330
49
100
AcDbEntity
  8
1
  6
Continuous
 62
     2
100
AcDbLine
 10
127.159608522048
 20
257.207058661447
 30
0.0
 11
127.159608522048
 21
253.207058661447
 31
0.0
  0
LINE
  5
3FC
330
49
100
AcDbEntity
  8
1
  6
Continuous
 62
     2
100
AcDbLine
 10
127.159608522048
 20
253.207058661447
 30
0.0
 11
123.159608522048
 21
253.207058661447
 31
0.0
  0
LINE
  5
3FD
330
49
100
AcDbEntity
  8
1
  6
Continuous
 62
     2
100
AcDbLine
 10
123.159608522048
 20
253.207058661447
 30
0.0
 11
123.159608522048
 21
257.207058661447
 31
0.0
  0
LINE
  5
3FE
330
49
100
AcDbEntity
  8
1
  6
Continuous
 62
     2
100
AcDbLine
 10
5.48322462367702
 20
66.440320374507
 30
0.0
 11
9.48322462367702
 21
66.440320374507
 31
0.0
  0
LINE
  5
3FF
330
49
100
AcDbEntity
  8
1
  6
Continuous
 62
     2
100
AcDbLine
 10
9.48322462367702
 20
66.440320374507
 30
0.0
 11
9.48322462367702
 21
62.440320374507
 31
0.0
  0
LINE
  5
400
330
49
100
AcDbEntity
  8
1
  6
Continuous
 62
     2
100
AcDbLine
 10
9.48322462367702
 20
62.440320374507
 30
0.0
 11
5.48322462367702
 21
62.440320374507
 31
0.0
  0
LINE
  5
401
330
49
100
AcDbEntity
  8
1
  6
Continuous
 62
     2
100
AcDbLine
 10
5.48322462367702
 20
62.440320374507
 30
0.0
 11
5.48322462367702
 21
66.440320374507
 31
0.0
  0
LINE
  5
402
330
49
100
AcDbEntity
  8
1
  6
DOT_CENTER
 62
     2
100
AcDbLine
 10
-78.33945286511599
 20
179.2880618372058
 30
0.0
 11
-78.33945286511599
 21
172.827077296069
 31
0.0
  0
LINE
  5
403
330
49
100
AcDbEntity
  8
1
  6
Continuous
 62
     7
100
AcDbLine
 10
-155.339446865116
 20
167.327077296069
 30
0.0
 11
-122.339446865116
 21
167.327077296069
 31
0.0
  0
LINE
  5
404
330
49
100
AcDbEntity
  8
1
  6
Continuous
 62
     7
100
AcDbLine
 10
-159.339446865116
 20
127.427077296069
 30
0.0
 11
-155.339446865116
 21
127.427077296069
 31
0.0
  0
LINE
  5
405
330
49
100
AcDbEntity
  8
1
  6
Continuous
 62
     7
100
AcDbLine
 10
-159.339446865116
 20
122.827077296069
 30
0.0
 11
-118.339446865116
 21
122.827077296069
 31
0.0
  0
LINE
  5
406
330
49
100
AcDbEntity
  8
1
  6
Continuous
 62
     7
100
AcDbLine
 10
-159.339446865116
 20
116.827077296069
 30
0.0
 11
-118.339446865116
 21
116.827077296069
 31
0.0
  0
LINE
  5
407
330
49
100
AcDbEntity
  8
1
  6
Continuous
 62
     7
100
AcDbLine
 10
-159.339446865116
 20
98.82707729606898
 30
0.0
 11
-118.339446865116
 21
98.82707729606898
 31
0.0
  0
LINE
  5
408
330
49
100
AcDbEntity
  8
1
  6
Continuous
 62
     7
100
AcDbLine
 10
-159.339446865116
 20
92.82707729606898
 30
0.0
 11
-118.339446865116
 21
92.82707729606898
 31
0.0
  0
LINE
  5
409
330
49
100
AcDbEntity
  8
1
  6
Continuous
 62
     7
100
AcDbLine
 10
-159.339446865116
 20
56.82707729606898
 30
0.0
 11
-118.339446865116
 21
56.82707729606898
 31
0.0
  0
LINE
  5
40A
330
49
100
AcDbEntity
  8
1
  6
Continuous
 62
     7
100
AcDbLine
 10
-159.339446865116
 20
50.82707729606898
 30
0.0
 11
-118.339446865116
 21
50.82707729606898
 31
0.0
  0
LINE
  5
40B
330
49
100
AcDbEntity
  8
1
  6
Continuous
 62
     7
100
AcDbLine
 10
-159.339446865116
 20
32.82707729606898
 30
0.0
 11
-118.339446865116
 21
32.82707729606898
 31
0.0
  0
LINE
  5
40C
330
49
100
AcDbEntity
  8
1
  6
Continuous
 62
     7
100
AcDbLine
 10
-159.339446865116
 20
26.82707729606898
 30
0.0
 11
-118.339446865116
 21
26.82707729606898
 31
0.0
  0
LINE
  5
40D
330
49
100
AcDbEntity
  8
1
  6
Continuous
 62
     7
100
AcDbLine
 10
-159.339446865116
 20
22.22707729606897
 30
0.0
 11
-155.339446865116
 21
22.22707729606897
 31
0.0
  0
LINE
  5
40E
330
49
100
AcDbEntity
  8
1
  6
Continuous
 62
     7
100
AcDbLine
 10
-155.339446865116
 20
139.827077296069
 30
0.0
 11
-155.339446865116
 21
131.035443378065
 31
0.0
  0
LINE
  5
40F
330
49
100
AcDbEntity
  8
1
  6
Continuous
 62
     7
100
AcDbLine
 10
-155.339446865116
 20
139.827077296069
 30
0.0
 11
-195.339446865116
 21
139.827077296069
 31
0.0
  0
LINE
  5
410
330
49
100
AcDbEntity
  8
1
  6
Continuous
 62
     7
100
AcDbLine
 10
-155.339446865116
 20
127.427077296069
 30
0.0
 11
-122.339446865116
 21
127.427077296069
 31
0.0
  0
LINE
  5
411
330
49
100
AcDbEntity
  8
1
  6
Continuous
 62
     7
100
AcDbLine
 10
-122.339446865116
 20
139.827077296069
 30
0.0
 11
-122.339446865116
 21
131.035443378065
 31
0.0
  0
LINE
  5
412
330
49
100
AcDbEntity
  8
1
  6
Continuous
 62
     7
100
AcDbLine
 10
-122.339446865116
 20
139.827077296069
 30
0.0
 11
-155.339446865116
 21
139.827077296069
 31
0.0
  0
LINE
  5
413
330
49
100
AcDbEntity
  8
1
  6
Continuous
 62
     7
100
AcDbLine
 10
-122.339446865116
 20
127.427077296069
 30
0.0
 11
-118.339446865116
 21
127.427077296069
 31
0.0
  0
LINE
  5
414
330
49
100
AcDbEntity
  8
1
  6
Continuous
 62
     7
100
AcDbLine
 10
-122.339446865116
 20
174.827077296069
 30
0.0
 11
-122.339446865116
 21
139.827077296069
 31
0.0
  0
LINE
  5
415
330
49
100
AcDbEntity
  8
1
  6
Continuous
 62
     7
100
AcDbLine
 10
-122.339446865116
 20
174.827077296069
 30
0.0
 11
-114.839446865116
 21
174.827077296069
 31
0.0
  0
LINE
  5
416
330
49
100
AcDbEntity
  8
1
  6
Continuous
 62
     7
100
AcDbLine
 10
-118.339446865116
 20
127.427077296069
 30
0.0
 11
-118.339446865116
 21
22.22707729606897
 31
0.0
  0
LINE
  5
417
330
49
100
AcDbEntity
  8
1
  6
Continuous
 62
     7
100
AcDbLine
 10
-159.339446865116
 20
127.427077296069
 30
0.0
 11
-159.339446865116
 21
22.22707729606897
 31
0.0
  0
LINE
  5
418
330
49
100
AcDbEntity
  8
1
  6
Continuous
 62
     7
100
AcDbLine
 10
-159.339446865116
 20
167.327077296069
 30
0.0
 11
-159.339446865116
 21
136.5270772960689
 31
0.0
  0
LINE
  5
419
330
49
100
AcDbEntity
  8
1
  6
Continuous
 62
     7
100
AcDbLine
 10
-159.339446865116
 20
167.327077296069
 30
0.0
 11
-155.339446865116
 21
167.327077296069
 31
0.0
  0
LINE
  5
41A
330
49
100
AcDbEntity
  8
1
  6
Continuous
 62
     7
100
AcDbLine
 10
-155.339446865116
 20
167.327077296069
 30
0.0
 11
-155.339446865116
 21
170.089667354642
 31
0.0
  0
LINE
  5
41B
330
49
100
AcDbEntity
  8
1
  6
Continuous
 62
     7
100
AcDbLine
 10
-155.339446865116
 20
174.827077296069
 30
0.0
 11
-122.339446865116
 21
174.827077296069
 31
0.0
  0
LINE
  5
41C
330
49
100
AcDbEntity
  8
1
  6
Continuous
 62
     7
100
AcDbLine
 10
-195.339446865116
 20
172.827077296069
 30
0.0
 11
-159.339446865116
 21
172.827077296069
 31
0.0
  0
LINE
  5
41D
330
49
100
AcDbEntity
  8
1
  6
Continuous
 62
     7
100
AcDbLine
 10
-155.339446865116
 20
170.089667354642
 30
0.0
 11
-159.339446865116
 21
172.827077296069
 31
0.0
  0
LINE
  5
41E
330
49
100
AcDbEntity
  8
1
  6
Continuous
 62
     7
100
AcDbLine
 10
-155.339446865116
 20
170.089667354642
 30
0.0
 11
-155.339446865116
 21
174.827077296069
 31
0.0
  0
LINE
  5
41F
330
49
100
AcDbEntity
  8
1
  6
Continuous
 62
     7
100
AcDbLine
 10
-159.339446865116
 20
172.827077296069
 30
0.0
 11
-159.339446865116
 21
174.827077296069
 31
0.0
  0
LINE
  5
420
330
49
100
AcDbEntity
  8
1
  6
Continuous
 62
     7
100
AcDbLine
 10
-159.339446865116
 20
174.827077296069
 30
0.0
 11
-155.339446865116
 21
174.827077296069
 31
0.0
  0
LINE
  5
421
330
49
100
AcDbEntity
  8
1
  6
Continuous
 62
     7
100
AcDbLine
 10
-155.339446865116
 20
131.035443378065
 30
0.0
 11
-159.339446865116
 21
136.5270772960689
 31
0.0
  0
LINE
  5
422
330
49
100
AcDbEntity
  8
1
  6
Continuous
 62
     7
100
AcDbLine
 10
-155.339446865116
 20
131.035443378065
 30
0.0
 11
-155.339446865116
 21
127.427077296069
 31
0.0
  0
LINE
  5
423
330
49
100
AcDbEntity
  8
1
  6
Continuous
 62
     7
100
AcDbLine
 10
-122.339446865116
 20
22.22707729606897
 30
0.0
 11
-122.339446865116
 21
17.5653023320632
 31
0.0
  0
LINE
  5
424
330
49
100
AcDbEntity
  8
1
  6
Continuous
 62
     7
100
AcDbLine
 10
-122.339446865116
 20
-25.17292270393102
 30
0.0
 11
-155.339446865116
 21
-25.17292270393102
 31
0.0
  0
LINE
  5
425
330
49
100
AcDbEntity
  8
1
  6
Continuous
 62
     7
100
AcDbLine
 10
-122.339446865116
 20
22.22707729606897
 30
0.0
 11
-118.339446865116
 21
22.22707729606897
 31
0.0
  0
LINE
  5
426
330
49
100
AcDbEntity
  8
1
  6
Continuous
 62
     7
100
AcDbLine
 10
-155.339446865116
 20
22.22707729606897
 30
0.0
 11
-155.339446865116
 21
17.5653023320632
 31
0.0
  0
LINE
  5
427
330
49
100
AcDbEntity
  8
1
  6
Continuous
 62
     7
100
AcDbLine
 10
-155.339446865116
 20
22.22707729606897
 30
0.0
 11
-122.339446865116
 21
22.22707729606897
 31
0.0
  0
LINE
  5
428
330
49
100
AcDbEntity
  8
1
  6
Continuous
 62
     7
100
AcDbLine
 10
-159.339446865116
 20
13.12707729606905
 30
0.0
 11
-159.339446865116
 21
-17.67292270393102
 31
0.0
  0
LINE
  5
429
330
49
100
AcDbEntity
  8
1
  6
Continuous
 62
     7
100
AcDbLine
 10
-155.339446865116
 20
-17.67292270393102
 30
0.0
 11
-155.339446865116
 21
-19.8446892692548
 31
0.0
  0
LINE
  5
42A
330
49
100
AcDbEntity
  8
1
  6
Continuous
 62
     7
100
AcDbLine
 10
-155.339446865116
 20
-25.17292270393102
 30
0.0
 11
-159.339446865116
 21
-25.17292270393102
 31
0.0
  0
LINE
  5
42B
330
49
100
AcDbEntity
  8
1
  6
Continuous
 62
     7
100
AcDbLine
 10
-159.339446865116
 20
-17.67292270393102
 30
0.0
 11
-155.339446865116
 21
-17.67292270393102
 31
0.0
  0
LINE
  5
42C
330
49
100
AcDbEntity
  8
1
  6
Continuous
 62
     7
100
AcDbLine
 10
-155.339446865116
 20
136.5270772960689
 30
0.0
 11
-122.339446865116
 21
136.5270772960689
 31
0.0
  0
LINE
  5
42D
330
49
100
AcDbEntity
  8
1
  6
Continuous
 62
     7
100
AcDbLine
 10
-159.339446865116
 20
13.12707729606905
 30
0.0
 11
-155.339446865116
 21
17.5653023320632
 31
0.0
  0
LINE
  5
42E
330
49
100
AcDbEntity
  8
1
  6
Continuous
 62
     7
100
AcDbLine
 10
-155.339446865116
 20
17.5653023320632
 30
0.0
 11
-155.339446865116
 21
9.82707729606898
 31
0.0
  0
LINE
  5
42F
330
49
100
AcDbEntity
  8
1
  6
Continuous
 62
     7
100
AcDbLine
 10
-159.339446865116
 20
-25.17292270393102
 30
0.0
 11
-159.339446865116
 21
-23.17292270393102
 31
0.0
  0
LINE
  5
430
330
49
100
AcDbEntity
  8
1
  6
Continuous
 62
     7
100
AcDbLine
 10
-159.339446865116
 20
-25.17292270393102
 30
0.0
 11
-195.339446865116
 21
-25.17292270393102
 31
0.0
  0
LINE
  5
431
330
49
100
AcDbEntity
  8
1
  6
Continuous
 62
     7
100
AcDbLine
 10
-159.339446865116
 20
-23.17292270393102
 30
0.0
 11
-155.339446865116
 21
-19.8446892692548
 31
0.0
  0
LINE
  5
432
330
49
100
AcDbEntity
  8
1
  6
Continuous
 62
     7
100
AcDbLine
 10
-155.339446865116
 20
-19.8446892692548
 30
0.0
 11
-155.339446865116
 21
-25.17292270393102
 31
0.0
  0
LINE
  5
433
330
49
100
AcDbEntity
  8
1
  6
Continuous
 62
     7
100
AcDbLine
 10
-114.839446865116
 20
-25.17292270393102
 30
0.0
 11
-114.839446865116
 21
-0.17292270393102
 31
0.0
  0
LINE
  5
434
330
49
100
AcDbEntity
  8
1
  6
Continuous
 62
     7
100
AcDbLine
 10
-108.839446865116
 20
-0.17292270393102
 30
0.0
 11
-114.839446865116
 21
-0.17292270393102
 31
0.0
  0
LINE
  5
435
330
49
100
AcDbEntity
  8
1
  6
Continuous
 62
     7
100
AcDbLine
 10
-114.839446865116
 20
-0.17292270393102
 30
0.0
 11
-122.339446865116
 21
17.5653023320632
 31
0.0
  0
LINE
  5
436
330
49
100
AcDbEntity
  8
1
  6
Continuous
 62
     7
100
AcDbLine
 10
-122.339446865116
 20
17.5653023320632
 30
0.0
 11
-122.339446865116
 21
-17.67292270393102
 31
0.0
  0
LINE
  5
437
330
49
100
AcDbEntity
  8
1
  6
Continuous
 62
     7
100
AcDbLine
 10
-155.339446865116
 20
9.82707729606898
 30
0.0
 11
-122.339446865116
 21
9.82707729606898
 31
0.0
  0
LINE
  5
438
330
49
100
AcDbEntity
  8
1
  6
Continuous
 62
     7
100
AcDbLine
 10
-155.339446865116
 20
13.12707729606905
 30
0.0
 11
-122.339446865116
 21
13.12707729606905
 31
0.0
  0
LINE
  5
439
330
49
100
AcDbEntity
  8
1
  6
Continuous
 62
     7
100
AcDbLine
 10
-155.339446865116
 20
-17.67292270393102
 30
0.0
 11
-122.339446865116
 21
-17.67292270393102
 31
0.0
  0
LINE
  5
43A
330
49
100
AcDbEntity
  8
1
  6
Continuous
 62
     7
100
AcDbLine
 10
-122.339446865116
 20
-17.67292270393102
 30
0.0
 11
-122.339446865116
 21
-25.17292270393102
 31
0.0
  0
LINE
  5
43B
330
49
100
AcDbEntity
  8
1
  6
Continuous
 62
     7
100
AcDbLine
 10
-108.839446865116
 20
149.827077296069
 30
0.0
 11
-114.839446865116
 21
149.827077296069
 31
0.0
  0
LINE
  5
43C
330
49
100
AcDbEntity
  8
1
  6
Continuous
 62
     7
100
AcDbLine
 10
-114.839446865116
 20
149.827077296069
 30
0.0
 11
-114.839446865116
 21
174.827077296069
 31
0.0
  0
LINE
  5
43D
330
49
100
AcDbEntity
  8
1
  6
Continuous
 62
     7
100
AcDbLine
 10
-114.839446865116
 20
174.827077296069
 30
0.0
 11
-108.839446865116
 21
174.827077296069
 31
0.0
  0
LINE
  5
43E
330
49
100
AcDbEntity
  8
1
  6
Continuous
 62
     7
100
AcDbLine
 10
-114.839446865116
 20
149.827077296069
 30
0.0
 11
-122.339446865116
 21
131.035443378065
 31
0.0
  0
LINE
  5
43F
330
49
100
AcDbEntity
  8
1
  6
Continuous
 62
     7
100
AcDbLine
 10
-122.339446865116
 20
131.035443378065
 30
0.0
 11
-122.339446865116
 21
127.427077296069
 31
0.0
  0
ARC
  5
440
330
49
100
AcDbEntity
  8
1
  6
Continuous
 62
     7
100
AcDbCircle
 10
142.312892290611
 20
74.82707729606898
 30
0.0
 40
125.0
100
AcDbArc
 50
36.86989764584403
 51
53.13010235415599
  0
ARC
  5
441
330
49
100
AcDbEntity
  8
1
  6
Continuous
 62
     7
100
AcDbCircle
 10
142.312892290611
 20
74.82707729606898
 30
0.0
 40
125.0
100
AcDbArc
 50
126.869897645844
 51
143.130102354156
  0
ARC
  5
442
330
49
100
AcDbEntity
  8
1
  6
Continuous
 62
     7
100
AcDbCircle
 10
142.312892290611
 20
74.82707729606898
 30
0.0
 40
125.0
100
AcDbArc
 50
-143.130102354156
 51
-126.869897645844
  0
ARC
  5
443
330
49
100
AcDbEntity
  8
1
  6
Continuous
 62
     7
100
AcDbCircle
 10
142.312892290611
 20
74.82707729606898
 30
0.0
 40
125.0
100
AcDbArc
 50
-53.13010235415598
 51
-36.86989764584402
  0
CIRCLE
  5
444
330
49
100
AcDbEntity
  8
1
  6
Continuous
 62
     7
100
AcDbCircle
 10
142.312892290611
 20
74.82707729606898
 30
0.0
 40
35.0
  0
CIRCLE
  5
445
330
49
100
AcDbEntity
  8
1
  6
Continuous
 62
     7
100
AcDbCircle
 10
142.312892290611
 20
74.82707729606898
 30
0.0
 40
20.0
  0
CIRCLE
  5
446
330
49
100
AcDbEntity
  8
1
  6
Continuous
 62
     7
100
AcDbCircle
 10
142.312892290611
 20
74.82707729606898
 30
0.0
 40
80.0
  0
CIRCLE
  5
447
330
49
100
AcDbEntity
  8
1
  6
Continuous
 62
     7
100
AcDbCircle
 10
142.312892290611
 20
74.82707729606898
 30
0.0
 40
90.0
  0
CIRCLE
  5
448
330
49
100
AcDbEntity
  8
1
  6
DOT_CENTER
 62
     2
100
AcDbCircle
 10
142.312892290611
 20
74.82707729606898
 30
0.0
 40
107.5
  0
CIRCLE
  5
449
330
49
100
AcDbEntity
  8
1
  6
Continuous
 62
     7
100
AcDbCircle
 10
218.3268712681649
 20
150.8410562736228
 30
0.0
 40
6.5
  0
CIRCLE
  5
44A
330
49
100
AcDbEntity
  8
1
  6
Continuous
 62
     7
100
AcDbCircle
 10
218.3268712681648
 20
-1.18690168148487
 30
0.0
 40
6.5
  0
CIRCLE
  5
44B
330
49
100
AcDbEntity
  8
1
  6
Continuous
 62
     7
100
AcDbCircle
 10
66.29891331305708
 20
-1.18690168148487
 30
0.0
 40
6.5
  0
CIRCLE
  5
44C
330
49
100
AcDbEntity
  8
1
  6
Continuous
 62
     7
100
AcDbCircle
 10
66.29891331305708
 20
150.8410562736228
 30
0.0
 40
6.5
  0
ARC
  5
44D
330
49
100
AcDbEntity
  8
1
  6
Continuous
 62
     7
100
AcDbCircle
 10
161.8079494351581
 20
180.0380608372058
 30
0.0
 40
0.9999999999999515
100
AcDbArc
 50
36.41766651359897
 51
90.0
  0
ARC
  5
44E
330
49
100
AcDbEntity
  8
1
  6
Continuous
 62
     7
100
AcDbCircle
 10
150.8178351460639
 20
180.0380608372058
 30
0.0
 40
1.0
100
AcDbArc
 50
90.0
 51
143.582333486401
  0
DIMENSION
  5
459
330
49
100
AcDbEntity
  8
1
100
AcDbDimension
  2
*D9
 10
-215.339446865116
 20
248.852316152189
 30
0.0
 11
-244.901919484004
 21
253.852316152189
 31
0.0
 70
    32
  1
<>
 71
     5
 42
-1.0
 53
0.00013888888889
  3
ME10_DIM_10
100
AcDbAlignedDimension
 13
-275.339446865116
 23
109.827077296069
 33
0.0
 14
-215.339446865116
 24
149.827077296069
 34
0.0
100
AcDbRotatedDimension
  0
DIMENSION
  5
464
330
49
100
AcDbEntity
  8
1
100
AcDbDimension
  2
*D10
 10
-305.164864068909
 20
39.82707729606898
 30
0.0
 11
-314.664864068909
 21
80.3258679740215
 31
0.0
 70
    32
  1
<>
 71
     5
 42
-1.0
 53
90.0
  3
ME10_DIM_11
100
AcDbAlignedDimension
 13
-275.339446865116
 23
109.827077296069
 33
0.0
 14
-275.339446865116
 24
39.82707729606898
 34
0.0
 50
90.0
100
AcDbRotatedDimension
  0
DIMENSION
  5
46F
330
49
100
AcDbEntity
  8
1
100
AcDbDimension
  2
*D11
 10
-215.339446865116
 20
248.97452669947
 30
0.0
 11
-133.134733508295
 21
253.97452669947
 31
0.0
 70
    32
  1
k
 71
     5
 42
-1.0
 53
0.00013888888889
  3
ME10_DIM_12
100
AcDbAlignedDimension
 13
-26.339446865116
 23
139.827077296069
 33
0.0
 14
-215.339446865116
 24
149.827077296069
 34
0.0
100
AcDbRotatedDimension
  0
DIMENSION
  5
47A
330
49
100
AcDbEntity
  8
1
100
AcDbDimension
  2
*D12
 10
12.4669299087522
 20
9.82707729606898
 30
0.0
 11
7.4669299087522
 21
75.4287434123834
 31
0.0
 70
    32
  1
<>
 71
     5
 42
-1.0
 53
90.0
  3
ME10_DIM_13
100
AcDbAlignedDimension
 13
-48.33944686511603
 23
139.827077296069
 33
0.0
 14
-26.339446865116
 24
9.82707729606898
 34
0.0
 50
90.0
100
AcDbRotatedDimension
  0
DIMENSION
  5
485
330
49
100
AcDbEntity
  8
1
100
AcDbDimension
  2
*D13
 10
283.366013638933
 20
-25.17292270393099
 30
0.0
 11
278.366013638933
 21
131.035443378065
 31
0.0
 70
    32
  1
ca. 239
 71
     5
 42
-1.0
 53
90.0
  3
ME10_DIM_14
100
AcDbAlignedDimension
 13
123.8753727943771
 23
213.6364640443163
 33
0.0
 14
67.31289229061099
 24
-25.17292270393102
 34
0.0
 50
90.0
100
AcDbRotatedDimension
  0
DIMENSION
  5
490
330
49
100
AcDbEntity
  8
1
100
AcDbDimension
  2
*D14
 10
-347.620791549842
 20
-15.17292270393102
 30
0.0
 11
-355.470791549842
 21
74.82707729606898
 31
0.0
 70
    32
  1
<>
 71
     5
 42
-1.0
 53
90.0
  3
ME10_DIM_15
100
AcDbAlignedDimension
 13
-215.339446865116
 23
164.827077296069
 33
0.0
 14
-215.339446865116
 24
-15.17292270393102
 34
0.0
 50
90.0
100
AcDbRotatedDimension
  0
DIMENSION
  5
49B
330
49
100
AcDbEntity
  8
1
100
AcDbDimension
  2
*D15
 10
-78.339446865116
 20
228.1858050784259
 30
0.0
 11
-58.28945504820006
 21
233.1858050784259
 31
0.0
 70
    32
  1
<>
 71
     5
 42
-1.0
 53
0.00013888888889
  3
ME10_DIM_16
100
AcDbAlignedDimension
 13
-39.839446865116
 23
139.827077296069
 33
0.0
 14
-78.339446865116
 24
181.9882408053003
 34
0.0
100
AcDbRotatedDimension
  0
DIMENSION
  5
4A6
330
49
100
AcDbEntity
  8
1
100
AcDbDimension
  2
*D16
 10
-215.3394468651159
 20
202.353117045519
 30
0.0
 11
-205.305838233392
 21
207.353117045519
 31
0.0
 70
    32
  1
<>
 71
     5
 42
-1.0
 53
0.00013888888889
  3
ME10_DIM_17
100
AcDbAlignedDimension
 13
-195.339446865116
 23
172.827077296069
 33
0.0
 14
-215.339446865116
 24
164.827077296069
 34
0.0
100
AcDbRotatedDimension
  0
DIMENSION
  5
4B3
330
49
100
AcDbEntity
  8
1
100
AcDbDimension
  2
*D17
 10
-219.339446865116
 20
187.563112437055
 30
0.0
 11
-230.131917397601
 21
192.563112437055
 31
0.0
 70
    32
  1
<>
 71
     5
 42
-1.0
 53
0.00013888888889
  3
ME10_DIM_18
100
AcDbAlignedDimension
 13
-215.339446865116
 23
174.827077296069
 33
0.0
 14
-219.339446865116
 24
164.827077296069
 34
0.0
100
AcDbRotatedDimension
  0
DIMENSION
  5
4BE
330
49
100
AcDbEntity
  8
1
100
AcDbDimension
  2
*D18
 10
42.31289229061099
 20
250.44820928732
 30
0.0
 11
136.6430171169267
 21
255.44820928732
 31
0.0
 70
    32
  1
<>
 71
     5
 42
-1.0
 53
0.00013888888889
  3
ME10_DIM_19
100
AcDbAlignedDimension
 13
242.312892290611
 23
149.827077296069
 33
0.0
 14
42.31289229061099
 24
149.827077296069
 34
0.0
100
AcDbRotatedDimension
  0
DIMENSION
  5
4C9
330
49
100
AcDbEntity
  8
1
100
AcDbDimension
  2
*D19
 10
-215.339446865116
 20
227.988520648932
 30
0.0
 11
-147.3461024355016
 21
232.988520648932
 31
0.0
 70
    32
  1
q
 71
     5
 42
-1.0
 53
0.00013888888889
  3
ME10_DIM_20
100
AcDbAlignedDimension
 13
-78.33945286511599
 23
172.827077296069
 33
0.0
 14
-215.339446865116
 24
174.827077296069
 34
0.0
100
AcDbRotatedDimension
  0
INSERT
  5
4D0
330
49
100
AcDbEntity
  8
1
100
AcDbBlockReference
  2
*D20
 10
0.0
 20
0.0
 30
0.0
  0
INSERT
  5
4D8
330
49
100
AcDbEntity
  8
1
100
AcDbBlockReference
  2
*D21
 10
0.0
 20
0.0
 30
0.0
  0
INSERT
  5
4E2
330
49
100
AcDbEntity
  8
1
100
AcDbBlockReference
  2
*D22
 10
0.0
 20
0.0
 30
0.0
  0
INSERT
  5
4EE
330
49
100
AcDbEntity
  8
1
100
AcDbBlockReference
  2
*D23
 10
0.0
 20
0.0
 30
0.0
  0
DIMENSION
  5
4F9
330
49
100
AcDbEntity
  8
1
100
AcDbDimension
  2
*D24
 10
119.8251023008845
 20
129.1174048770645
 30
0.0
 11
118.561649045154
 21
134.001844579252
 31
0.0
 70
    37
  1
<>
 71
     5
 42
-1.0
  3
ME10_DIM_21
100
AcDb3PointAngularDimension
 13
142.312892290611
 23
133.5905044210576
 33
0.0
 14
100.76087448477
 24
116.3790951019099
 34
0.0
 15
142.312892290611
 25
74.82707729606877
 35
0.0
  0
DIMENSION
  5
504
330
49
100
AcDbEntity
  8
1
100
AcDbDimension
  2
*D25
 10
165.1297943732995
 20
129.9119517554346
 30
0.0
 11
169.918499463184
 21
133.257542399281
 31
0.0
 70
    37
  1
<>
 71
     5
 42
-1.0
  3
ME10_DIM_22
100
AcDb3PointAngularDimension
 13
184.4730299496311
 23
116.9872149550892
 33
0.0
 14
142.312892290611
 24
134.450515764972
 34
0.0
 15
142.312892290611
 25
74.82707729606918
 35
0.0
  0
ENDBLK
  5
4C
330
49
100
AcDbEntity
  8
0
100
AcDbBlockEnd
  0
BLOCK
  5
4E
330
4D
100
AcDbEntity
  8
0
100
AcDbBlockBegin
  2
TOP__2
 70
     0
 71
     0
 10
4.33500042136929
 20
549.495168712188
 30
0.0
  3
TOP__2
  1

  0
POINT
  5
505
330
4D
100
AcDbEntity
  8
1
 62
     3
 60
     1
100
AcDbPoint
 10
68.33500042136929
 20
-179.5048312878117
 30
0.0
  0
POINT
  5
506
330
4D
100
AcDbEntity
  8
1
 62
     3
 60
     1
100
AcDbPoint
 10
68.33500042136929
 20
-147.504831287812
 30
0.0
  0
POINT
  5
507
330
4D
100
AcDbEntity
  8
1
 62
     3
 60
     1
100
AcDbPoint
 10
68.33500042136929
 20
-100.504831287812
 30
0.0
  0
POINT
  5
508
330
4D
100
AcDbEntity
  8
1
 62
     3
 60
     1
100
AcDbPoint
 10
68.33500042136929
 20
-162.504831287812
 30
0.0
  0
POINT
  5
509
330
4D
100
AcDbEntity
  8
1
 62
     3
 60
     1
100
AcDbPoint
 10
-107.8822513020957
 20
-147.504831287812
 30
0.0
  0
POINT
  5
50A
330
4D
100
AcDbEntity
  8
1
 62
     3
 60
     1
100
AcDbPoint
 10
-136.0423581650638
 20
-100.504831287812
 30
0.0
  0
POINT
  5
50B
330
4D
100
AcDbEntity
  8
1
 62
     3
 60
     1
100
AcDbPoint
 10
-165.0430652328968
 20
-100.504831287812
 30
0.0
  0
POINT
  5
50C
330
4D
100
AcDbEntity
  8
1
 62
     3
 60
     1
100
AcDbPoint
 10
24.93258106653059
 20
-100.504831287812
 30
0.0
  0
POINT
  5
50D
330
4D
100
AcDbEntity
  8
1
 62
     3
 60
     1
100
AcDbPoint
 10
-280.010713475288
 20
-100.504831287812
 30
0.0
  0
POINT
  5
50E
330
4D
100
AcDbEntity
  8
1
 62
     3
 60
     1
100
AcDbPoint
 10
-136.0423581650638
 20
-160.504831287812
 30
0.0
  0
POINT
  5
50F
330
4D
100
AcDbEntity
  8
1
 62
     3
 60
     1
100
AcDbPoint
 10
-165.0430652328968
 20
-160.504831287812
 30
0.0
  0
POINT
  5
510
330
4D
100
AcDbEntity
  8
1
 62
     3
 60
     1
100
AcDbPoint
 10
-181.0107134752878
 20
-100.504831287812
 30
0.0
  0
POINT
  5
511
330
4D
100
AcDbEntity
  8
1
 62
     3
 60
     1
100
AcDbPoint
 10
-280.0107134752878
 20
-236.504831287812
 30
0.0
  0
POINT
  5
512
330
4D
100
AcDbEntity
  8
1
 62
     3
 60
     1
100
AcDbPoint
 10
-136.0423581650638
 20
-236.504831287812
 30
0.0
  0
POINT
  5
513
330
4D
100
AcDbEntity
  8
1
 62
     3
 60
     1
100
AcDbPoint
 10
-50.69487812311562
 20
-236.504831287812
 30
0.0
  0
POINT
  5
514
330
4D
100
AcDbEntity
  8
1
 62
     3
 60
     1
100
AcDbPoint
 10
68.33500042136929
 20
-236.504831287812
 30
0.0
  0
POINT
  5
515
330
4D
100
AcDbEntity
  8
1
 62
     3
 60
     1
100
AcDbPoint
 10
-280.0107134752878
 20
-217.504831287812
 30
0.0
  0
LINE
  5
516
330
4D
100
AcDbEntity
  8
1
  6
Continuous
 62
     2
100
AcDbLine
 10
24.93258106653059
 20
-198.504831287812
 30
0.0
 11
68.33500042136929
 21
-198.504831287812
 31
0.0
  0
LINE
  5
517
330
4D
100
AcDbEntity
  8
1
  6
Continuous
 62
     7
100
AcDbLine
 10
68.33500042136929
 20
-179.5048312878117
 30
0.0
 11
68.33500042136929
 21
-198.504831287812
 31
0.0
  0
LINE
  5
518
330
4D
100
AcDbEntity
  8
1
  6
Continuous
 62
     2
100
AcDbLine
 10
24.93258106653059
 20
-179.5048312878117
 30
0.0
 11
68.33500042136929
 21
-179.5048312878117
 31
0.0
  0
LINE
  5
519
330
4D
100
AcDbEntity
  8
1
  6
Continuous
 62
     7
100
AcDbLine
 10
68.33500042136929
 20
-147.504831287812
 30
0.0
 11
68.33500042136929
 21
-160.504831287812
 31
0.0
  0
LINE
  5
51A
330
4D
100
AcDbEntity
  8
1
  6
Continuous
 62
     7
100
AcDbLine
 10
24.93258106653059
 20
-147.504831287812
 30
0.0
 11
68.33500042136929
 21
-147.504831287812
 31
0.0
  0
LINE
  5
51B
330
4D
100
AcDbEntity
  8
1
  6
Continuous
 62
     7
100
AcDbLine
 10
68.33500042136929
 20
-160.504831287812
 30
0.0
 11
68.33500042136929
 21
-179.5048312878117
 31
0.0
  0
LINE
  5
51C
330
4D
100
AcDbEntity
  8
1
  6
Continuous
 62
     7
100
AcDbLine
 10
24.93258106653059
 20
-160.504831287812
 30
0.0
 11
68.33500042136929
 21
-160.504831287812
 31
0.0
  0
LINE
  5
51D
330
4D
100
AcDbEntity
  8
1
  6
Continuous
 62
     7
100
AcDbLine
 10
68.33500042136929
 20
-100.504831287812
 30
0.0
 11
24.93258106653059
 21
-100.504831287812
 31
0.0
  0
LINE
  5
51E
330
4D
100
AcDbEntity
  8
1
  6
Continuous
 62
     7
100
AcDbLine
 10
68.33500042136929
 20
-100.504831287812
 30
0.0
 11
68.33500042136929
 21
-147.504831287812
 31
0.0
  0
LINE
  5
51F
330
4D
100
AcDbEntity
  8
1
  6
Continuous
 62
     7
100
AcDbLine
 10
-50.69487812311562
 20
-100.504831287812
 30
0.0
 11
24.93258106653059
 21
-100.504831287812
 31
0.0
  0
LINE
  5
520
330
4D
100
AcDbEntity
  8
1
  6
Continuous
 62
     2
100
AcDbLine
 10
-106.0107134752879
 20
-198.504831287812
 30
0.0
 11
24.93258106653059
 21
-198.504831287812
 31
0.0
  0
LINE
  5
521
330
4D
100
AcDbEntity
  8
1
  6
Continuous
 62
     2
100
AcDbLine
 10
-106.0107134752879
 20
-179.5048312878117
 30
0.0
 11
24.93258106653059
 21
-179.5048312878117
 31
0.0
  0
LINE
  5
522
330
4D
100
AcDbEntity
  8
1
  6
Continuous
 62
     7
100
AcDbLine
 10
-136.0423581650638
 20
-100.504831287812
 30
0.0
 11
-50.69487812311562
 21
-100.504831287812
 31
0.0
  0
LINE
  5
523
330
4D
100
AcDbEntity
  8
1
  6
Continuous
 62
     7
100
AcDbLine
 10
-107.8822513020957
 20
-147.504831287812
 30
0.0
 11
24.93258106653059
 21
-147.504831287812
 31
0.0
  0
LINE
  5
524
330
4D
100
AcDbEntity
  8
1
  6
Continuous
 62
     7
100
AcDbLine
 10
-107.8822513020957
 20
-147.504831287812
 30
0.0
 11
24.93258106653059
 21
-147.504831287812
 31
0.0
  0
LINE
  5
525
330
4D
100
AcDbEntity
  8
1
  6
Continuous
 62
     7
100
AcDbLine
 10
-106.0107134752879
 20
-160.504831287812
 30
0.0
 11
24.93258106653059
 21
-160.504831287812
 31
0.0
  0
LINE
  5
526
330
4D
100
AcDbEntity
  8
1
  6
Continuous
 62
     7
100
AcDbLine
 10
-136.0423581650638
 20
-160.504831287812
 30
0.0
 11
-165.0430652328968
 21
-160.504831287812
 31
0.0
  0
LINE
  5
527
330
4D
100
AcDbEntity
  8
1
  6
Continuous
 62
     7
100
AcDbLine
 10
-136.0423581650638
 20
-100.504831287812
 30
0.0
 11
-136.0423581650638
 21
-160.504831287812
 31
0.0
  0
LINE
  5
528
330
4D
100
AcDbEntity
  8
1
  6
Continuous
 62
     7
100
AcDbLine
 10
-165.0430652328968
 20
-100.504831287812
 30
0.0
 11
-136.0423581650638
 21
-100.504831287812
 31
0.0
  0
LINE
  5
529
330
4D
100
AcDbEntity
  8
1
  6
Continuous
 62
     7
100
AcDbLine
 10
-165.0430652328968
 20
-160.504831287812
 30
0.0
 11
-280.010713475288
 21
-160.5048312878118
 31
0.0
  0
LINE
  5
52A
330
4D
100
AcDbEntity
  8
1
  6
Continuous
 62
     7
100
AcDbLine
 10
-165.0430652328968
 20
-100.504831287812
 30
0.0
 11
-165.0430652328968
 21
-160.504831287812
 31
0.0
  0
LINE
  5
52B
330
4D
100
AcDbEntity
  8
1
  6
Continuous
 62
     7
100
AcDbLine
 10
-280.010713475288
 20
-147.504831287812
 30
0.0
 11
-107.8822513020957
 21
-147.504831287812
 31
0.0
  0
LINE
  5
52C
330
4D
100
AcDbEntity
  8
1
  6
Continuous
 62
     7
100
AcDbLine
 10
-280.010713475288
 20
-100.504831287812
 30
0.0
 11
-165.0430652328968
 21
-100.504831287812
 31
0.0
  0
LINE
  5
52D
330
4D
100
AcDbEntity
  8
1
  6
Continuous
 62
     7
100
AcDbLine
 10
-106.0107134752879
 20
-160.504831287812
 30
0.0
 11
-136.0423581650638
 21
-160.504831287812
 31
0.0
  0
LINE
  5
52E
330
4D
100
AcDbEntity
  8
1
  6
Continuous
 62
     2
100
AcDbLine
 10
-106.0107134752879
 20
-179.5048312878117
 30
0.0
 11
-280.010713475288
 21
-179.5048312878117
 31
0.0
  0
LINE
  5
52F
330
4D
100
AcDbEntity
  8
1
  6
Continuous
 62
     2
100
AcDbLine
 10
-106.0107134752879
 20
-198.504831287812
 30
0.0
 11
-280.010713475288
 21
-198.504831287812
 31
0.0
  0
LINE
  5
530
330
4D
100
AcDbEntity
  8
1
  6
Continuous
 62
     7
100
AcDbLine
 10
-280.010713475288
 20
-100.504831287812
 30
0.0
 11
-280.0107134752878
 21
-217.504831287812
 31
0.0
  0
LINE
  5
531
330
4D
100
AcDbEntity
  8
1
  6
Continuous
 62
     7
100
AcDbLine
 10
-165.0430652328968
 20
-160.504831287812
 30
0.0
 11
-165.0430652328968
 21
-236.504831287812
 31
0.0
  0
LINE
  5
532
330
4D
100
AcDbEntity
  8
1
  6
Continuous
 62
     7
100
AcDbLine
 10
-136.0423581650638
 20
-160.504831287812
 30
0.0
 11
-136.0423581650638
 21
-236.504831287812
 31
0.0
  0
LINE
  5
533
330
4D
100
AcDbEntity
  8
1
  6
Continuous
 62
     7
100
AcDbLine
 10
-50.69487812311562
 20
-100.504831287812
 30
0.0
 11
-50.69487812311562
 21
-236.504831287812
 31
0.0
  0
LINE
  5
534
330
4D
100
AcDbEntity
  8
1
  6
Continuous
 62
     7
100
AcDbLine
 10
68.33500042136929
 20
-198.504831287812
 30
0.0
 11
68.33500042136929
 21
-217.504831287812
 31
0.0
  0
LINE
  5
535
330
4D
100
AcDbEntity
  8
1
  6
Continuous
 62
     7
100
AcDbLine
 10
-280.0107134752878
 20
-236.504831287812
 30
0.0
 11
68.33500042136929
 21
-236.504831287812
 31
0.0
  0
LINE
  5
536
330
4D
100
AcDbEntity
  8
1
  6
Continuous
 62
     2
100
AcDbLine
 10
-280.0107134752878
 20
-217.504831287812
 30
0.0
 11
68.33500042136929
 21
-217.504831287812
 31
0.0
  0
LINE
  5
537
330
4D
100
AcDbEntity
  8
1
  6
Continuous
 62
     7
100
AcDbLine
 10
-280.0107134752878
 20
-217.504831287812
 30
0.0
 11
-280.0107134752878
 21
-236.504831287812
 31
0.0
  0
LINE
  5
538
330
4D
100
AcDbEntity
  8
1
  6
Continuous
 62
     7
100
AcDbLine
 10
68.33500042136929
 20
-217.504831287812
 30
0.0
 11
68.33500042136929
 21
-236.504831287812
 31
0.0
  0
MTEXT
  5
539
330
4D
100
AcDbEntity
  8
1
 62
     3
100
AcDbMText
 10
8.98928652471209
 20
-207.5071382515871
 30
0.0
 40
7.0
 41
0.0
 71
     5
 72
     1
  1
352
  7
CONVERTER_15
 73
     1
 44
1.32052821128451
  0
MTEXT
  5
53A
330
4D
100
AcDbEntity
  8
1
 62
     3
100
AcDbMText
 10
8.98928652471209
 20
-188.5071382515871
 30
0.0
 40
7.0
 41
0.0
 71
     5
 72
     1
  1
312
  7
CONVERTER_15
 73
     1
 44
1.32052821128451
  0
MTEXT
  5
53B
330
4D
100
AcDbEntity
  8
1
 62
     3
100
AcDbMText
 10
8.98928652471209
 20
-169.5071382515869
 30
0.0
 40
7.0
 41
0.0
 71
     5
 72
     1
  1
272
  7
CONVERTER_15
 73
     1
 44
1.32052821128451
  0
MTEXT
  5
53C
330
4D
100
AcDbEntity
  8
1
 62
     7
100
AcDbMText
 10
8.98928652471218
 20
-153.5071382515872
 30
0.0
 40
7.0
 41
0.0
 71
     5
 72
     1
  1
k
  7
CONVERTER_15
 73
     1
 44
1.32052821128451
  0
MTEXT
  5
53D
330
4D
100
AcDbEntity
  8
1
 62
     7
100
AcDbMText
 10
-43.18759457157213
 20
-122.5048312878121
 30
0.0
 40
7.0
 41
0.0
 71
     4
 72
     1
  1
Hohlwelle und Bremse\Phollow shaft and brake\Parbre creux plein et frein
  7
CONVERTER_15
 73
     1
 44
1.32052821128451
  0
MTEXT
  5
53E
330
4D
100
AcDbEntity
  8
1
 62
     7
100
AcDbMText
 10
-131.1875945715721
 20
-122.5048312878121
 30
0.0
 40
7.0
 41
0.0
 71
     4
 72
     1
  1
Hohlwelle\Phollow shaft\Pabre creux plein
  7
CONVERTER_15
 73
     1
 44
1.32052821128451
  0
MTEXT
  5
53F
330
4D
100
AcDbEntity
  8
1
 62
     3
100
AcDbMText
 10
-149.0107134752878
 20
-208.004831287812
 30
0.0
 40
7.0
 41
0.0
 71
     5
 72
     1
  1
217
  7
CONVERTER_15
 73
     1
 44
1.32052821128451
  0
MTEXT
  5
540
330
4D
100
AcDbEntity
  8
1
 62
     3
100
AcDbMText
 10
-96.26258022379201
 20
-208.004831287812
 30
0.0
 40
7.0
 41
0.0
 71
     5
 72
     1
  1
269
  7
CONVERTER_15
 73
     1
 44
1.32052821128451
  0
MTEXT
  5
541
330
4D
100
AcDbEntity
  8
1
 62
     3
100
AcDbMText
 10
-149.0107134752878
 20
-189.004831287812
 30
0.0
 40
7.0
 41
0.0
 71
     5
 72
     1
  1
177
  7
CONVERTER_15
 73
     1
 44
1.32052821128451
  0
MTEXT
  5
542
330
4D
100
AcDbEntity
  8
1
 62
     3
100
AcDbMText
 10
-96.26258022379201
 20
-189.004831287812
 30
0.0
 40
7.0
 41
0.0
 71
     5
 72
     1
  1
229
  7
CONVERTER_15
 73
     1
 44
1.32052821128451
  0
MTEXT
  5
543
330
4D
100
AcDbEntity
  8
1
 62
     7
100
AcDbMText
 10
-273.1875945715721
 20
-122.5048312878121
 30
0.0
 40
7.0
 41
0.0
 71
     4
 72
     1
  1
Typ\PType\PType
  7
CONVERTER_15
 73
     1
 44
1.32052821128451
  0
MTEXT
  5
544
330
4D
100
AcDbEntity
  8
1
 62
     3
100
AcDbMText
 10
-225.1432377645732
 20
-170.0048312878117
 30
0.0
 40
7.0
 41
0.0
 71
     5
 72
     1
  1
KTY 6284... Q-(MF)-Rx/H
  7
CONVERTER_15
 73
     1
 44
1.32052821128451
  0
MTEXT
  5
545
330
4D
100
AcDbEntity
  8
1
 62
     3
100
AcDbMText
 10
-96.26258022379201
 20
-170.0048312878117
 30
0.0
 40
7.0
 41
0.0
 71
     5
 72
     1
  1
189
  7
CONVERTER_15
 73
     1
 44
1.32052821128451
  0
MTEXT
  5
546
330
4D
100
AcDbEntity
  8
1
 62
     7
100
AcDbMText
 10
-96.26258022379191
 20
-154.0048312878121
 30
0.0
 40
7.0
 41
0.0
 71
     5
 72
     1
  1
k
  7
CONVERTER_15
 73
     1
 44
1.32052821128451
  0
MTEXT
  5
547
330
4D
100
AcDbEntity
  8
1
 62
     3
100
AcDbMText
 10
-149.0107134752879
 20
-170.0048312878117
 30
0.0
 40
7.0
 41
0.0
 71
     5
 72
     1
  1
137
  7
CONVERTER_15
 73
     1
 44
1.32052821128451
  0
MTEXT
  5
548
330
4D
100
AcDbEntity
  8
1
 62
     7
100
AcDbMText
 10
-149.0107134752877
 20
-154.0048312878121
 30
0.0
 40
7.0
 41
0.0
 71
     5
 72
     1
  1
q
  7
CONVERTER_15
 73
     1
 44
1.32052821128451
  0
MTEXT
  5
549
330
4D
100
AcDbEntity
  8
1
 62
     3
100
AcDbMText
 10
164.4397301685796
 20
-151.9661144155357
 30
0.0
 40
7.0
 41
0.0
 71
     4
 72
     1
  1
Bauform: IM B5\PIP 54
  7
CONVERTER_15
 73
     1
 44
1.32052821128451
  0
MTEXT
  5
54A
330
4D
100
AcDbEntity
  8
1
 62
     3
100
AcDbMText
 10
-225.1432377645732
 20
-189.004831287812
 30
0.0
 40
7.0
 41
0.0
 71
     5
 72
     1
  1
KTY 6288... Q-(MF)-Rx/H
  7
CONVERTER_15
 73
     1
 44
1.32052821128451
  0
MTEXT
  5
54B
330
4D
100
AcDbEntity
  8
1
 62
     3
100
AcDbMText
 10
-225.1432377645732
 20
-208.0048312878122
 30
0.0
 40
7.0
 41
0.0
 71
     5
 72
     1
  1
KTY 62812... Q-(MF)-Rx/H
  7
CONVERTER_15
 73
     1
 44
1.32052821128451
  0
MTEXT
  5
54C
330
4D
100
AcDbEntity
  8
1
 62
     3
100
AcDbMText
 10
-225.1432377645732
 20
-227.0048312878122
 30
0.0
 40
7.0
 41
0.0
 71
     5
 72
     1
  1
KTY 62816... Q-(MF)-Rx/H
  7
CONVERTER_15
 73
     1
 44
1.32052821128451
  0
MTEXT
  5
54D
330
4D
100
AcDbEntity
  8
1
 62
     3
100
AcDbMText
 10
-149.0107134752878
 20
-227.004831287812
 30
0.0
 40
7.0
 41
0.0
 71
     5
 72
     1
  1
257
  7
CONVERTER_15
 73
     1
 44
1.32052821128451
  0
MTEXT
  5
54E
330
4D
100
AcDbEntity
  8
1
 62
     3
100
AcDbMText
 10
-96.26258022379201
 20
-227.004831287812
 30
0.0
 40
7.0
 41
0.0
 71
     5
 72
     1
  1
309
  7
CONVERTER_15
 73
     1
 44
1.32052821128451
  0
MTEXT
  5
54F
330
4D
100
AcDbEntity
  8
1
 62
     3
100
AcDbMText
 10
8.98928652471209
 20
-226.5071382515871
 30
0.0
 40
7.0
 41
0.0
 71
     5
 72
     1
  1
392
  7
CONVERTER_15
 73
     1
 44
1.32052821128451
  0
ENDBLK
  5
4F
330
4D
100
AcDbEntity
  8
0
100
AcDbBlockEnd
  0
BLOCK
  5
456
330
44F
100
AcDbEntity
  8
0
100
AcDbBlockBegin
  2
*D9
 70
     1
 71
     0
 10
0.0
 20
0.0
 30
0.0
  3
*D9
  1

  0
LINE
  5
450
330
44F
100
AcDbEntity
  8
1
  6
Continuous
 62
     2
100
AcDbLine
 10
-215.339446865116
 20
248.852316152189
 30
0.0
 11
-275.339446865116
 21
248.852316152189
 31
0.0
  0
LINE
  5
451
330
44F
100
AcDbEntity
  8
1
  6
Continuous
 62
     2
100
AcDbLine
 10
-215.339446865116
 20
149.827077296069
 30
0.0
 11
-215.339446865116
 21
249.852316152189
 31
0.0
  0
LINE
  5
452
330
44F
100
AcDbEntity
  8
1
  6
Continuous
 62
     2
100
AcDbLine
 10
-275.339446865116
 20
109.827077296069
 30
0.0
 11
-275.339446865116
 21
249.852316152189
 31
0.0
  0
SOLID
  5
453
330
44F
100
AcDbEntity
  8
1
 62
     2
100
AcDbTrace
 10
-221.339446865116
 20
248.0624011666646
 30
0.0
 11
-221.339446865116
 21
249.6422311377134
 31
0.0
 12
-215.339446865116
 22
248.852316152189
 32
0.0
 13
-215.339446865116
 23
248.852316152189
 33
0.0
  0
SOLID
  5
454
330
44F
100
AcDbEntity
  8
1
 62
     2
100
AcDbTrace
 10
-269.339446865116
 20
249.6422311377134
 30
0.0
 11
-269.339446865116
 21
248.0624011666646
 31
0.0
 12
-275.339446865116
 22
248.852316152189
 32
0.0
 13
-275.339446865116
 23
248.852316152189
 33
0.0
  0
MTEXT
  5
455
330
44F
100
AcDbEntity
  8
1
 62
     3
100
AcDbMText
 10
-248.501919484004
 20
250.852316152189
 30
0.0
 40
6.0
 41
0.0
 71
     7
 72
     1
  1
60
  7
CONVERTER_15
 11
0.9999999999970621
 21
2.424068405545307E-6
 31
0.0
 73
     1
 44
0.60024009603842
  0
ENDBLK
  5
457
330
44F
100
AcDbEntity
  8
0
100
AcDbBlockEnd
  0
BLOCK
  5
461
330
45A
100
AcDbEntity
  8
0
100
AcDbBlockBegin
  2
*D10
 70
     1
 71
     0
 10
0.0
 20
0.0
 30
0.0
  3
*D10
  1

  0
LINE
  5
45B
330
45A
100
AcDbEntity
  8
1
  6
Continuous
 62
     2
100
AcDbLine
 10
-305.164864068909
 20
39.82707729606898
 30
0.0
 11
-305.164864068909
 21
109.827077296069
 31
0.0
  0
LINE
  5
45C
330
45A
100
AcDbEntity
  8
1
  6
Continuous
 62
     2
100
AcDbLine
 10
-275.339446865116
 20
39.82707729606898
 30
0.0
 11
-306.164864068909
 21
39.82707729606898
 31
0.0
  0
LINE
  5
45D
330
45A
100
AcDbEntity
  8
1
  6
Continuous
 62
     2
100
AcDbLine
 10
-275.339446865116
 20
109.827077296069
 30
0.0
 11
-306.164864068909
 21
109.827077296069
 31
0.0
  0
SOLID
  5
45E
330
45A
100
AcDbEntity
  8
1
 62
     2
100
AcDbTrace
 10
-305.9547790544334
 20
45.82707729606898
 30
0.0
 11
-304.3749490833846
 21
45.82707729606898
 31
0.0
 12
-305.164864068909
 22
39.82707729606898
 32
0.0
 13
-305.164864068909
 23
39.82707729606898
 33
0.0
  0
SOLID
  5
45F
330
45A
100
AcDbEntity
  8
1
 62
     2
100
AcDbTrace
 10
-304.3749490833846
 20
103.827077296069
 30
0.0
 11
-305.9547790544334
 21
103.827077296069
 31
0.0
 12
-305.164864068909
 22
109.827077296069
 32
0.0
 13
-305.164864068909
 23
109.827077296069
 33
0.0
  0
MTEXT
  5
460
330
45A
100
AcDbEntity
  8
1
 62
     3
100
AcDbMText
 10
-311.664864068909
 20
64.9658679740215
 30
0.0
 40
6.0
 41
0.0
 71
     7
 72
     1
  1
\C3;{\Fgdt;n}\C3;\C3;70\C2;\H6;\S^ k5;
  7
CONVERTER_15
 11
0.0
 21
1.0
 31
0.0
 73
     1
 44
0.60024009603842
  0
ENDBLK
  5
462
330
45A
100
AcDbEntity
  8
0
100
AcDbBlockEnd
  0
BLOCK
  5
46C
330
465
100
AcDbEntity
  8
0
100
AcDbBlockBegin
  2
*D11
 70
     1
 71
     0
 10
0.0
 20
0.0
 30
0.0
  3
*D11
  1

  0
LINE
  5
466
330
465
100
AcDbEntity
  8
1
  6
Continuous
 62
     2
100
AcDbLine
 10
-215.339446865116
 20
248.97452669947
 30
0.0
 11
-26.339446865116
 21
248.97452669947
 31
0.0
  0
LINE
  5
467
330
465
100
AcDbEntity
  8
1
  6
Continuous
 62
     2
100
AcDbLine
 10
-215.339446865116
 20
149.827077296069
 30
0.0
 11
-215.339446865116
 21
249.97452669947
 31
0.0
  0
LINE
  5
468
330
465
100
AcDbEntity
  8
1
  6
Continuous
 62
     2
100
AcDbLine
 10
-26.339446865116
 20
139.827077296069
 30
0.0
 11
-26.339446865116
 21
249.97452669947
 31
0.0
  0
SOLID
  5
469
330
465
100
AcDbEntity
  8
1
 62
     2
100
AcDbTrace
 10
-209.339446865116
 20
249.7644416849944
 30
0.0
 11
-209.339446865116
 21
248.1846117139456
 31
0.0
 12
-215.339446865116
 22
248.97452669947
 32
0.0
 13
-215.339446865116
 23
248.97452669947
 33
0.0
  0
SOLID
  5
46A
330
465
100
AcDbEntity
  8
1
 62
     2
100
AcDbTrace
 10
-32.339446865116
 20
248.1846117139456
 30
0.0
 11
-32.339446865116
 21
249.7644416849944
 31
0.0
 12
-26.339446865116
 22
248.97452669947
 32
0.0
 13
-26.339446865116
 23
248.97452669947
 33
0.0
  0
MTEXT
  5
46B
330
465
100
AcDbEntity
  8
1
 62
     3
100
AcDbMText
 10
-134.574733508295
 20
250.97452669947
 30
0.0
 40
6.0
 41
0.0
 71
     7
 72
     1
  1
k
  7
CONVERTER_15
 11
0.9999999999970621
 21
2.424068405545307E-6
 31
0.0
 73
     1
 44
0.60024009603842
  0
ENDBLK
  5
46D
330
465
100
AcDbEntity
  8
0
100
AcDbBlockEnd
  0
BLOCK
  5
477
330
470
100
AcDbEntity
  8
0
100
AcDbBlockBegin
  2
*D12
 70
     1
 71
     0
 10
0.0
 20
0.0
 30
0.0
  3
*D12
  1

  0
LINE
  5
471
330
470
100
AcDbEntity
  8
1
  6
Continuous
 62
     2
100
AcDbLine
 10
12.4669299087522
 20
9.82707729606898
 30
0.0
 11
12.4669299087522
 21
139.827077296069
 31
0.0
  0
LINE
  5
472
330
470
100
AcDbEntity
  8
1
  6
Continuous
 62
     2
100
AcDbLine
 10
-26.339446865116
 20
9.82707729606898
 30
0.0
 11
13.4669299087522
 21
9.82707729606898
 31
0.0
  0
LINE
  5
473
330
470
100
AcDbEntity
  8
1
  6
Continuous
 62
     2
100
AcDbLine
 10
-48.33944686511603
 20
139.827077296069
 30
0.0
 11
13.4669299087522
 21
139.827077296069
 31
0.0
  0
SOLID
  5
474
330
470
100
AcDbEntity
  8
1
 62
     2
100
AcDbTrace
 10
11.67701492322782
 20
15.82707729606898
 30
0.0
 11
13.25684489427658
 21
15.82707729606898
 31
0.0
 12
12.4669299087522
 22
9.82707729606898
 32
0.0
 13
12.4669299087522
 23
9.82707729606898
 33
0.0
  0
SOLID
  5
475
330
470
100
AcDbEntity
  8
1
 62
     2
100
AcDbTrace
 10
13.25684489427657
 20
133.827077296069
 30
0.0
 11
11.67701492322782
 21
133.827077296069
 31
0.0
 12
12.4669299087522
 22
139.827077296069
 32
0.0
 13
12.4669299087522
 23
139.827077296069
 33
0.0
  0
MTEXT
  5
476
330
470
100
AcDbEntity
  8
1
 62
     3
100
AcDbMText
 10
10.4669299087522
 20
70.38874341238339
 30
0.0
 40
6.0
 41
0.0
 71
     7
 72
     1
  1
130
  7
CONVERTER_15
 11
0.0
 21
1.0
 31
0.0
 73
     1
 44
0.60024009603842
  0
ENDBLK
  5
478
330
470
100
AcDbEntity
  8
0
100
AcDbBlockEnd
  0
BLOCK
  5
482
330
47B
100
AcDbEntity
  8
0
100
AcDbBlockBegin
  2
*D13
 70
     1
 71
     0
 10
0.0
 20
0.0
 30
0.0
  3
*D13
  1

  0
LINE
  5
47C
330
47B
100
AcDbEntity
  8
1
  6
Continuous
 62
     2
100
AcDbLine
 10
283.366013638933
 20
-25.17292270393099
 30
0.0
 11
283.366013638933
 21
213.6364640443163
 31
0.0
  0
LINE
  5
47D
330
47B
100
AcDbEntity
  8
1
  6
Continuous
 62
     2
100
AcDbLine
 10
123.8753727943771
 20
213.6364640443163
 30
0.0
 11
284.366013638933
 21
213.6364640443163
 31
0.0
  0
LINE
  5
47E
330
47B
100
AcDbEntity
  8
1
  6
Continuous
 62
     2
100
AcDbLine
 10
67.31289229061099
 20
-25.17292270393099
 30
0.0
 11
284.366013638933
 21
-25.17292270393099
 31
0.0
  0
SOLID
  5
47F
330
47B
100
AcDbEntity
  8
1
 62
     2
100
AcDbTrace
 10
282.5760986534086
 20
-19.17292270393099
 30
0.0
 11
284.1559286244574
 21
-19.17292270393099
 31
0.0
 12
283.366013638933
 22
-25.17292270393099
 32
0.0
 13
283.366013638933
 23
-25.17292270393099
 33
0.0
  0
SOLID
  5
480
330
47B
100
AcDbEntity
  8
1
 62
     2
100
AcDbTrace
 10
284.1559286244574
 20
207.6364640443163
 30
0.0
 11
282.5760986534086
 21
207.6364640443163
 31
0.0
 12
283.366013638933
 22
213.6364640443163
 32
0.0
 13
283.366013638933
 23
213.6364640443163
 33
0.0
  0
MTEXT
  5
481
330
47B
100
AcDbEntity
  8
1
 62
     3
100
AcDbMText
 10
281.366013638933
 20
118.135443378065
 30
0.0
 40
6.0
 41
0.0
 71
     7
 72
     1
  1
ca. 239
  7
CONVERTER_15
 11
0.0
 21
1.0
 31
0.0
 73
     1
 44
0.60024009603842
  0
ENDBLK
  5
483
330
47B
100
AcDbEntity
  8
0
100
AcDbBlockEnd
  0
BLOCK
  5
48D
330
486
100
AcDbEntity
  8
0
100
AcDbBlockBegin
  2
*D14
 70
     1
 71
     0
 10
0.0
 20
0.0
 30
0.0
  3
*D14
  1

  0
LINE
  5
487
330
486
100
AcDbEntity
  8
1
  6
Continuous
 62
     2
100
AcDbLine
 10
-347.620791549842
 20
-15.17292270393102
 30
0.0
 11
-347.620791549842
 21
164.827077296069
 31
0.0
  0
LINE
  5
488
330
486
100
AcDbEntity
  8
1
  6
Continuous
 62
     2
100
AcDbLine
 10
-215.339446865116
 20
164.827077296069
 30
0.0
 11
-348.620791549842
 21
164.827077296069
 31
0.0
  0
LINE
  5
489
330
486
100
AcDbEntity
  8
1
  6
Continuous
 62
     2
100
AcDbLine
 10
-215.339446865116
 20
-15.17292270393102
 30
0.0
 11
-348.620791549842
 21
-15.17292270393102
 31
0.0
  0
SOLID
  5
48A
330
486
100
AcDbEntity
  8
1
 62
     2
100
AcDbTrace
 10
-348.4107065353663
 20
-9.17292270393102
 30
0.0
 11
-346.8308765643176
 21
-9.17292270393102
 31
0.0
 12
-347.620791549842
 22
-15.17292270393102
 32
0.0
 13
-347.620791549842
 23
-15.17292270393102
 33
0.0
  0
SOLID
  5
48B
330
486
100
AcDbEntity
  8
1
 62
     2
100
AcDbTrace
 10
-346.8308765643176
 20
158.827077296069
 30
0.0
 11
-348.4107065353663
 21
158.827077296069
 31
0.0
 12
-347.620791549842
 22
164.827077296069
 32
0.0
 13
-347.620791549842
 23
164.827077296069
 33
0.0
  0
MTEXT
  5
48C
330
486
100
AcDbEntity
  8
1
 62
     3
100
AcDbMText
 10
-352.470791549842
 20
60.04307729606897
 30
0.0
 40
6.0
 41
0.0
 71
     7
 72
     1
  1
\C3;{\Fgdt;n}\C3;\C3;180\C2;\H3.6;\S^ j6;
  7
CONVERTER_15
 11
0.0
 21
1.0
 31
0.0
 73
     1
 44
0.60024009603842
  0
ENDBLK
  5
48E
330
486
100
AcDbEntity
  8
0
100
AcDbBlockEnd
  0
BLOCK
  5
498
330
491
100
AcDbEntity
  8
0
100
AcDbBlockBegin
  2
*D15
 70
     1
 71
     0
 10
0.0
 20
0.0
 30
0.0
  3
*D15
  1

  0
LINE
  5
492
330
491
100
AcDbEntity
  8
1
  6
Continuous
 62
     2
100
AcDbLine
 10
-78.339446865116
 20
228.1858050784259
 30
0.0
 11
-39.839446865116
 21
228.1858050784259
 31
0.0
  0
LINE
  5
493
330
491
100
AcDbEntity
  8
1
  6
Continuous
 62
     2
100
AcDbLine
 10
-78.339446865116
 20
181.9882408053003
 30
0.0
 11
-78.339446865116
 21
229.1858050784259
 31
0.0
  0
LINE
  5
494
330
491
100
AcDbEntity
  8
1
  6
Continuous
 62
     2
100
AcDbLine
 10
-39.839446865116
 20
139.827077296069
 30
0.0
 11
-39.839446865116
 21
229.1858050784259
 31
0.0
  0
SOLID
  5
495
330
491
100
AcDbEntity
  8
1
 62
     2
100
AcDbTrace
 10
-72.339446865116
 20
228.9757200639503
 30
0.0
 11
-72.339446865116
 21
227.3958900929015
 31
0.0
 12
-78.339446865116
 22
228.1858050784259
 32
0.0
 13
-78.339446865116
 23
228.1858050784259
 33
0.0
  0
SOLID
  5
496
330
491
100
AcDbEntity
  8
1
 62
     2
100
AcDbTrace
 10
-45.839446865116
 20
227.3958900929015
 30
0.0
 11
-45.839446865116
 21
228.9757200639503
 31
0.0
 12
-39.839446865116
 22
228.1858050784259
 32
0.0
 13
-39.839446865116
 23
228.1858050784259
 33
0.0
  0
MTEXT
  5
497
330
491
100
AcDbEntity
  8
1
 62
     3
100
AcDbMText
 10
-64.82945504820006
 20
230.1858050784259
 30
0.0
 40
6.0
 41
0.0
 71
     7
 72
     1
  1
38.5
  7
CONVERTER_15
 11
0.9999999999970621
 21
2.424068405545307E-6
 31
0.0
 73
     1
 44
0.60024009603842
  0
ENDBLK
  5
499
330
491
100
AcDbEntity
  8
0
100
AcDbBlockEnd
  0
BLOCK
  5
4A3
330
49C
100
AcDbEntity
  8
0
100
AcDbBlockBegin
  2
*D16
 70
     1
 71
     0
 10
0.0
 20
0.0
 30
0.0
  3
*D16
  1

  0
LINE
  5
49D
330
49C
100
AcDbEntity
  8
1
  6
Continuous
 62
     2
100
AcDbLine
 10
-215.3394468651159
 20
202.353117045519
 30
0.0
 11
-195.3394468651159
 21
202.353117045519
 31
0.0
  0
LINE
  5
49E
330
49C
100
AcDbEntity
  8
1
  6
Continuous
 62
     2
100
AcDbLine
 10
-195.3394468651159
 20
172.827077296069
 30
0.0
 11
-195.3394468651159
 21
203.353117045519
 31
0.0
  0
LINE
  5
49F
330
49C
100
AcDbEntity
  8
1
  6
Continuous
 62
     2
100
AcDbLine
 10
-215.3394468651159
 20
164.827077296069
 30
0.0
 11
-215.3394468651159
 21
203.353117045519
 31
0.0
  0
SOLID
  5
4A0
330
49C
100
AcDbEntity
  8
1
 62
     2
100
AcDbTrace
 10
-209.3394468651159
 20
203.1430320310434
 30
0.0
 11
-209.3394468651159
 21
201.5632020599946
 31
0.0
 12
-215.3394468651159
 22
202.353117045519
 32
0.0
 13
-215.3394468651159
 23
202.353117045519
 33
0.0
  0
SOLID
  5
4A1
330
49C
100
AcDbEntity
  8
1
 62
     2
100
AcDbTrace
 10
-201.3394468651159
 20
201.5632020599946
 30
0.0
 11
-201.3394468651159
 21
203.1430320310434
 31
0.0
 12
-195.3394468651159
 22
202.353117045519
 32
0.0
 13
-195.3394468651159
 23
202.353117045519
 33
0.0
  0
MTEXT
  5
4A2
330
49C
100
AcDbEntity
  8
1
 62
     3
100
AcDbMText
 10
-208.905838233392
 20
204.353117045519
 30
0.0
 40
6.0
 41
0.0
 71
     7
 72
     1
  1
20
  7
CONVERTER_15
 11
0.9999999999970621
 21
2.424068405545307E-6
 31
0.0
 73
     1
 44
0.60024009603842
  0
ENDBLK
  5
4A4
330
49C
100
AcDbEntity
  8
0
100
AcDbBlockEnd
  0
BLOCK
  5
4B0
330
4A7
100
AcDbEntity
  8
0
100
AcDbBlockBegin
  2
*D17
 70
     1
 71
     0
 10
0.0
 20
0.0
 30
0.0
  3
*D17
  1

  0
LINE
  5
4A8
330
4A7
100
AcDbEntity
  8
1
  6
Continuous
 62
     2
100
AcDbLine
 10
-231.5719173976011
 20
187.563112437055
 30
0.0
 11
-219.339446865116
 21
187.563112437055
 31
0.0
  0
LINE
  5
4A9
330
4A7
100
AcDbEntity
  8
1
  6
Continuous
 62
     2
100
AcDbLine
 10
-219.339446865116
 20
187.563112437055
 30
0.0
 11
-215.339446865116
 21
187.563112437055
 31
0.0
  0
LINE
  5
4AA
330
4A7
100
AcDbEntity
  8
1
  6
Continuous
 62
     2
100
AcDbLine
 10
-215.339446865116
 20
187.563112437055
 30
0.0
 11
-203.339446865116
 21
187.563112437055
 31
0.0
  0
LINE
  5
4AB
330
4A7
100
AcDbEntity
  8
1
  6
Continuous
 62
     2
100
AcDbLine
 10
-215.339446865116
 20
174.827077296069
 30
0.0
 11
-215.339446865116
 21
188.563112437055
 31
0.0
  0
LINE
  5
4AC
330
4A7
100
AcDbEntity
  8
1
  6
Continuous
 62
     2
100
AcDbLine
 10
-219.339446865116
 20
164.827077296069
 30
0.0
 11
-219.339446865116
 21
188.563112437055
 31
0.0
  0
SOLID
  5
4AD
330
4A7
100
AcDbEntity
  8
1
 62
     2
100
AcDbTrace
 10
-225.339446865116
 20
186.7731974515306
 30
0.0
 11
-225.339446865116
 21
188.3530274225794
 31
0.0
 12
-219.339446865116
 22
187.563112437055
 32
0.0
 13
-219.339446865116
 23
187.563112437055
 33
0.0
  0
SOLID
  5
4AE
330
4A7
100
AcDbEntity
  8
1
 62
     2
100
AcDbTrace
 10
-209.339446865116
 20
188.3530274225794
 30
0.0
 11
-209.339446865116
 21
186.7731974515306
 31
0.0
 12
-215.339446865116
 22
187.563112437055
 32
0.0
 13
-215.339446865116
 23
187.563112437055
 33
0.0
  0
MTEXT
  5
4AF
330
4A7
100
AcDbEntity
  8
1
 62
     3
100
AcDbMText
 10
-231.571917397601
 20
189.563112437055
 30
0.0
 40
6.0
 41
0.0
 71
     7
 72
     1
  1
4
  7
CONVERTER_15
 11
0.9999999999970621
 21
2.424068405545307E-6
 31
0.0
 73
     1
 44
0.60024009603842
  0
ENDBLK
  5
4B1
330
4A7
100
AcDbEntity
  8
0
100
AcDbBlockEnd
  0
BLOCK
  5
4BB
330
4B4
100
AcDbEntity
  8
0
100
AcDbBlockBegin
  2
*D18
 70
     1
 71
     0
 10
0.0
 20
0.0
 30
0.0
  3
*D18
  1

  0
LINE
  5
4B5
330
4B4
100
AcDbEntity
  8
1
  6
Continuous
 62
     2
100
AcDbLine
 10
42.31289229061099
 20
250.44820928732
 30
0.0
 11
242.312892290611
 21
250.44820928732
 31
0.0
  0
LINE
  5
4B6
330
4B4
100
AcDbEntity
  8
1
  6
Continuous
 62
     2
100
AcDbLine
 10
242.312892290611
 20
149.827077296069
 30
0.0
 11
242.312892290611
 21
251.44820928732
 31
0.0
  0
LINE
  5
4B7
330
4B4
100
AcDbEntity
  8
1
  6
Continuous
 62
     2
100
AcDbLine
 10
42.31289229061099
 20
149.827077296069
 30
0.0
 11
42.31289229061099
 21
251.44820928732
 31
0.0
  0
SOLID
  5
4B8
330
4B4
100
AcDbEntity
  8
1
 62
     2
100
AcDbTrace
 10
48.31289229061099
 20
251.2381242728444
 30
0.0
 11
48.31289229061099
 21
249.6582943017956
 31
0.0
 12
42.31289229061099
 22
250.44820928732
 32
0.0
 13
42.31289229061099
 23
250.44820928732
 33
0.0
  0
SOLID
  5
4B9
330
4B4
100
AcDbEntity
  8
1
 62
     2
100
AcDbTrace
 10
236.312892290611
 20
249.6582943017956
 30
0.0
 11
236.312892290611
 21
251.2381242728444
 31
0.0
 12
242.312892290611
 22
250.44820928732
 32
0.0
 13
242.312892290611
 23
250.44820928732
 33
0.0
  0
MTEXT
  5
4BA
330
4B4
100
AcDbEntity
  8
1
 62
     3
100
AcDbMText
 10
130.8830171169267
 20
252.44820928732
 30
0.0
 40
6.0
 41
0.0
 71
     7
 72
     1
  1
200
  7
CONVERTER_15
 11
0.9999999999970621
 21
2.424068405545307E-6
 31
0.0
 73
     1
 44
0.60024009603842
  0
ENDBLK
  5
4BC
330
4B4
100
AcDbEntity
  8
0
100
AcDbBlockEnd
  0
BLOCK
  5
4C6
330
4BF
100
AcDbEntity
  8
0
100
AcDbBlockBegin
  2
*D19
 70
     1
 71
     0
 10
0.0
 20
0.0
 30
0.0
  3
*D19
  1

  0
LINE
  5
4C0
330
4BF
100
AcDbEntity
  8
1
  6
Continuous
 62
     2
100
AcDbLine
 10
-215.339446865116
 20
227.988520648932
 30
0.0
 11
-78.33945286511602
 21
227.988520648932
 31
0.0
  0
LINE
  5
4C1
330
4BF
100
AcDbEntity
  8
1
  6
Continuous
 62
     2
100
AcDbLine
 10
-215.339446865116
 20
174.827077296069
 30
0.0
 11
-215.339446865116
 21
228.988520648932
 31
0.0
  0
LINE
  5
4C2
330
4BF
100
AcDbEntity
  8
1
  6
Continuous
 62
     2
100
AcDbLine
 10
-78.33945286511602
 20
172.827077296069
 30
0.0
 11
-78.33945286511602
 21
228.988520648932
 31
0.0
  0
SOLID
  5
4C3
330
4BF
100
AcDbEntity
  8
1
 62
     2
100
AcDbTrace
 10
-209.339446865116
 20
228.7784356344564
 30
0.0
 11
-209.339446865116
 21
227.1986056634076
 31
0.0
 12
-215.339446865116
 22
227.988520648932
 32
0.0
 13
-215.339446865116
 23
227.988520648932
 33
0.0
  0
SOLID
  5
4C4
330
4BF
100
AcDbEntity
  8
1
 62
     2
100
AcDbTrace
 10
-84.33945286511602
 20
227.1986056634076
 30
0.0
 11
-84.33945286511602
 21
228.7784356344564
 31
0.0
 12
-78.33945286511602
 22
227.988520648932
 32
0.0
 13
-78.33945286511602
 23
227.988520648932
 33
0.0
  0
MTEXT
  5
4C5
330
4BF
100
AcDbEntity
  8
1
 62
     3
100
AcDbMText
 10
-148.7861024355016
 20
231.788520648932
 30
0.0
 40
6.0
 41
0.0
 71
     7
 72
     1
  1
q
  7
CONVERTER_15
 11
0.9999999999970621
 21
2.424068405545307E-6
 31
0.0
 73
     1
 44
0.60024009603842
  0
ENDBLK
  5
4C7
330
4BF
100
AcDbEntity
  8
0
100
AcDbBlockEnd
  0
BLOCK
  5
4CE
330
4CA
100
AcDbEntity
  8
0
100
AcDbBlockBegin
  2
*D20
 70
     1
 71
     0
 10
0.0
 20
0.0
 30
0.0
  3
*D20
  1

  0
LINE
  5
4CB
330
4CA
100
AcDbEntity
  8
1
  6
Continuous
 62
     2
100
AcDbLine
 10
45.74044264471257
 20
191.2815360152923
 30
0.0
 11
62.52068363930732
 21
171.0466357992486
 31
0.0
  0
SOLID
  5
4CC
330
4CA
100
AcDbEntity
  8
1
 62
     2
100
AcDbTrace
 10
58.08261545474713
 20
175.1609421166672
 30
0.0
 11
59.29869979334234
 21
176.1694070981353
 31
0.0
 12
62.52068363930732
 22
171.0466357992486
 32
0.0
 13
62.52068363930732
 23
171.0466357992486
 33
0.0
  0
MTEXT
  5
4CD
330
4CA
100
AcDbEntity
  8
1
 62
     3
100
AcDbMText
 10
45.05854049191112
 20
195.2369638624416
 30
0.0
 40
6.0
 41
0.0
 71
     7
 72
     1
  1
\C3;{\Fgdt;n}\C3;250
  7
CONVERTER_15
 11
0.6383376692104296
 21
-0.7697564680254374
 31
0.0
 73
     1
 44
0.60024009603842
  0
ENDBLK
  5
4CF
330
4CA
100
AcDbEntity
  8
0
100
AcDbBlockEnd
  0
BLOCK
  5
4D6
330
4D1
100
AcDbEntity
  8
0
100
AcDbBlockBegin
  2
*D21
 70
     1
 71
     0
 10
0.0
 20
0.0
 30
0.0
  3
*D21
  1

  0
LINE
  5
4D2
330
4D1
100
AcDbEntity
  8
1
  6
Continuous
 62
     2
100
AcDbLine
 10
234.3914708881973
 20
130.3048689198181
 30
0.0
 11
50.23431369302471
 21
19.34928567231992
 31
0.0
  0
SOLID
  5
4D3
330
4D1
100
AcDbEntity
  8
1
 62
     2
100
AcDbTrace
 10
54.96592981040258
 20
23.12231821950607
 30
0.0
 11
55.78123658188905
 21
21.76912288778481
 31
0.0
 12
50.23431369302471
 22
19.34928567231992
 32
0.0
 13
50.23431369302471
 23
19.34928567231992
 33
0.0
  0
SOLID
  5
4D4
330
4D1
100
AcDbEntity
  8
1
 62
     2
100
AcDbTrace
 10
229.6598547708194
 20
126.531836372632
 30
0.0
 11
228.8445479993329
 21
127.8850317043533
 31
0.0
 12
234.3914708881973
 22
130.3048689198181
 32
0.0
 13
234.3914708881973
 23
130.3048689198181
 33
0.0
  0
MTEXT
  5
4D5
330
4D1
100
AcDbEntity
  8
1
 62
     3
100
AcDbMText
 10
76.5946928560156
 20
37.56650457247571
 30
0.0
 40
6.0
 41
0.0
 71
     7
 72
     1
  1
\C3;{\Fgdt;n}\C3;215
  7
CONVERTER_15
 11
0.856544917186849
 21
0.516072480220922
 31
0.0
 73
     1
 44
0.60024009603842
  0
ENDBLK
  5
4D7
330
4D1
100
AcDbEntity
  8
0
100
AcDbBlockEnd
  0
BLOCK
  5
4E0
330
4D9
100
AcDbEntity
  8
0
100
AcDbBlockBegin
  2
*D22
 70
     1
 71
     0
 10
0.0
 20
0.0
 30
0.0
  3
*D22
  1

  0
LINE
  5
4DA
330
4D9
100
AcDbEntity
  8
1
  6
Continuous
 62
     2
100
AcDbLine
 10
122.312892290611
 20
12.5353876715239
 30
0.0
 11
162.312892290611
 21
12.5353876715239
 31
0.0
  0
LINE
  5
4DB
330
4D9
100
AcDbEntity
  8
1
  6
Continuous
 62
     2
100
AcDbLine
 10
122.312892290611
 20
74.82707729606898
 30
0.0
 11
122.312892290611
 21
11.5353876715239
 31
0.0
  0
LINE
  5
4DC
330
4D9
100
AcDbEntity
  8
1
  6
Continuous
 62
     2
100
AcDbLine
 10
162.312892290611
 20
74.82707729606898
 30
0.0
 11
162.312892290611
 21
11.5353876715239
 31
0.0
  0
SOLID
  5
4DD
330
4D9
100
AcDbEntity
  8
1
 62
     2
100
AcDbTrace
 10
128.312892290611
 20
13.32530265704827
 30
0.0
 11
128.312892290611
 21
11.74547268599953
 31
0.0
 12
122.312892290611
 22
12.5353876715239
 32
0.0
 13
122.312892290611
 23
12.5353876715239
 33
0.0
  0
SOLID
  5
4DE
330
4D9
100
AcDbEntity
  8
1
 62
     2
100
AcDbTrace
 10
156.312892290611
 20
11.74547268599953
 30
0.0
 11
156.312892290611
 21
13.32530265704827
 31
0.0
 12
162.312892290611
 22
12.5353876715239
 32
0.0
 13
162.312892290611
 23
12.5353876715239
 33
0.0
  0
MTEXT
  5
4DF
330
4D9
100
AcDbEntity
  8
1
 62
     3
100
AcDbMText
 10
135.9685134807009
 20
14.53536381869079
 30
0.0
 40
6.0
 41
0.0
 71
     7
 72
     1
  1
\C3;{\Fgdt;n}\C3;40
  7
CONVERTER_15
 11
0.9999999999970621
 21
2.424068405545307E-6
 31
0.0
 73
     1
 44
0.60024009603842
  0
ENDBLK
  5
4E1
330
4D9
100
AcDbEntity
  8
0
100
AcDbBlockEnd
  0
BLOCK
  5
4EC
330
4E3
100
AcDbEntity
  8
0
100
AcDbBlockBegin
  2
*D23
 70
     1
 71
     0
 10
0.0
 20
0.0
 30
0.0
  3
*D23
  1

  0
LINE
  5
4E4
330
4E3
100
AcDbEntity
  8
1
  6
Continuous
 62
     2
100
AcDbLine
 10
40.244081713362
 20
-21.27529096290402
 30
0.0
 11
59.79891331305709
 21
-21.27529096290402
 31
0.0
  0
LINE
  5
4E5
330
4E3
100
AcDbEntity
  8
1
  6
Continuous
 62
     2
100
AcDbLine
 10
59.79891331305709
 20
-21.27529096290402
 30
0.0
 11
72.79891331305708
 21
-21.27529096290402
 31
0.0
  0
LINE
  5
4E6
330
4E3
100
AcDbEntity
  8
1
  6
Continuous
 62
     2
100
AcDbLine
 10
72.79891331305708
 20
-21.27529096290402
 30
0.0
 11
84.79891331305708
 21
-21.27529096290402
 31
0.0
  0
LINE
  5
4E7
330
4E3
100
AcDbEntity
  8
1
  6
Continuous
 62
     2
100
AcDbLine
 10
72.79891331305708
 20
-1.18690168148481
 30
0.0
 11
72.79891331305708
 21
-22.27529096290402
 31
0.0
  0
LINE
  5
4E8
330
4E3
100
AcDbEntity
  8
1
  6
Continuous
 62
     2
100
AcDbLine
 10
59.79891331305709
 20
-1.18690168148481
 30
0.0
 11
59.79891331305709
 21
-22.27529096290402
 31
0.0
  0
SOLID
  5
4E9
330
4E3
100
AcDbEntity
  8
1
 62
     2
100
AcDbTrace
 10
53.79891331305709
 20
-22.06520594842839
 30
0.0
 11
53.79891331305709
 21
-20.48537597737964
 31
0.0
 12
59.79891331305709
 22
-21.27529096290402
 32
0.0
 13
59.79891331305709
 23
-21.27529096290402
 33
0.0
  0
SOLID
  5
4EA
330
4E3
100
AcDbEntity
  8
1
 62
     2
100
AcDbTrace
 10
78.79891331305708
 20
-20.48537597737964
 30
0.0
 11
78.79891331305708
 21
-22.0652059484284
 31
0.0
 12
72.79891331305708
 22
-21.27529096290402
 32
0.0
 13
72.79891331305708
 23
-21.27529096290402
 33
0.0
  0
MTEXT
  5
4EB
330
4E3
100
AcDbEntity
  8
1
 62
     3
100
AcDbMText
 10
36.76408171339091
 20
-19.27531481573713
 30
0.0
 40
6.0
 41
0.0
 71
     7
 72
     1
  1
\C3;{\Fgdt;n}\C3;13
  7
CONVERTER_15
 11
0.9999999999970621
 21
2.424068405545307E-6
 31
0.0
 73
     1
 44
0.60024009603842
  0
ENDBLK
  5
4ED
330
4E3
100
AcDbEntity
  8
0
100
AcDbBlockEnd
  0
BLOCK
  5
4F6
330
4EF
100
AcDbEntity
  8
0
100
AcDbBlockBegin
  2
*D24
 70
     1
 71
     0
 10
0.0
 20
0.0
 30
0.0
  3
*D24
  1

  0
LINE
  5
4F0
330
4EF
100
AcDbEntity
  8
1
  6
Continuous
 62
     2
100
AcDbLine
 10
100.76087448477
 20
116.3790951019099
 30
0.0
 11
101.4679812659565
 21
115.6719883207234
 31
0.0
  0
LINE
  5
4F1
330
4EF
100
AcDbEntity
  8
1
  6
Continuous
 62
     2
100
AcDbLine
 10
74.23938483977454
 20
142.9005847469055
 30
0.0
 11
100.76087448477
 21
116.3790951019099
 31
0.0
  0
ARC
  5
4F2
330
4EF
100
AcDbEntity
  8
1
  6
Continuous
 62
     2
100
AcDbCircle
 10
142.312892290611
 20
74.82707729606877
 30
0.0
 40
58.76342712498884
100
AcDbArc
 50
90.0
 51
134.9999999999999
  0
SOLID
  5
4F3
330
4EF
100
AcDbEntity
  8
1
 62
     2
100
AcDbTrace
 10
136.3610189148539
 20
132.4954386680961
 30
0.0
 11
136.2804002096589
 21
134.073210312472
 31
0.0
 12
142.312892290611
 22
133.5905044210576
 32
0.0
 13
142.312892290611
 23
133.5905044210576
 33
0.0
  0
SOLID
  5
4F4
330
4EF
100
AcDbEntity
  8
1
 62
     2
100
AcDbTrace
 10
104.6851659335276
 20
120.9860357689431
 30
0.0
 11
105.7438129292958
 21
119.8133767069072
 31
0.0
 12
100.76087448477
 22
116.3790951019099
 32
0.0
 13
100.76087448477
 23
116.3790951019099
 33
0.0
  0
MTEXT
  5
4F5
330
4EF
100
AcDbEntity
  8
1
 62
     3
100
AcDbMText
 10
114.7790882200268
 20
129.2509884875341
 30
0.0
 40
6.0
 41
0.0
 71
     7
 72
     1
  1
45{\Fgdt;~}
  7
CONVERTER_15
 11
0.9280361792221282
 21
0.3724900670552089
 31
0.0
 73
     1
 44
0.60024009603842
  0
ENDBLK
  5
4F7
330
4EF
100
AcDbEntity
  8
0
100
AcDbBlockEnd
  0
BLOCK
  5
501
330
4FA
100
AcDbEntity
  8
0
100
AcDbBlockBegin
  2
*D25
 70
     1
 71
     0
 10
0.0
 20
0.0
 30
0.0
  3
*D25
  1

  0
LINE
  5
4FB
330
4FA
100
AcDbEntity
  8
1
  6
Continuous
 62
     2
100
AcDbLine
 10
184.4730299496311
 20
116.9872149550892
 30
0.0
 11
183.7659231684445
 21
116.2801081739026
 31
0.0
  0
LINE
  5
4FC
330
4FA
100
AcDbEntity
  8
1
  6
Continuous
 62
     2
100
AcDbLine
 10
210.385117797046
 20
142.8993028025041
 30
0.0
 11
184.4730299496311
 21
116.9872149550892
 31
0.0
  0
ARC
  5
4FD
330
4FA
100
AcDbEntity
  8
1
  6
Continuous
 62
     2
100
AcDbCircle
 10
142.312892290611
 20
74.82707729606918
 30
0.0
 40
59.62343846890281
100
AcDbArc
 50
44.99999999999994
 51
90.0
  0
SOLID
  5
4FE
330
4FA
100
AcDbEntity
  8
1
 62
     2
100
AcDbTrace
 10
179.4926217881884
 20
120.4251649590584
 30
0.0
 11
180.5521320181703
 21
121.597044137979
 31
0.0
 12
184.4730299496311
 22
116.9872149550892
 32
0.0
 13
184.4730299496311
 23
116.9872149550892
 33
0.0
  0
SOLID
  5
4FF
330
4FA
100
AcDbEntity
  8
1
 62
     2
100
AcDbTrace
 10
148.3450272816202
 20
134.9376637246288
 30
0.0
 11
148.2655704358308
 21
133.359833142126
 31
0.0
 12
142.312892290611
 22
134.450515764972
 32
0.0
 13
142.312892290611
 23
134.450515764972
 33
0.0
  0
MTEXT
  5
500
330
4FA
100
AcDbEntity
  8
1
 62
     3
100
AcDbMText
 10
163.8629616191092
 20
132.8005288119792
 30
0.0
 40
6.0
 41
0.0
 71
     7
 72
     1
  1
45{\Fgdt;~}
  7
CONVERTER_15
 11
0.9041683093252444
 21
-0.4271763902791552
 31
0.0
 73
     1
 44
0.60024009603842
  0
ENDBLK
  5
502
330
4FA
100
AcDbEntity
  8
0
100
AcDbBlockEnd
  0
ENDSEC
  0
SECTION
  2
ENTITIES
  0
INSERT
  5
50
330
1F
100
AcDbEntity
  8
1
100
AcDbBlockReference
  2
tb_frame_A1
 10
0.0
 20
0.0
 30
0.0
  0
INSERT
  5
51
330
1F
100
AcDbEntity
  8
0
100
AcDbBlockReference
  2
TOP__1
 10
394.678262332534
 20
336.880190442832
 30
0.0
  0
INSERT
  5
52
330
1F
100
AcDbEntity
  8
0
100
AcDbBlockReference
  2
TOP__2
 10
4.33500042136929
 20
549.495168712188
 30
0.0
  0
ENDSEC
  0
SECTION
  2
OBJECTS
  0
DICTIONARY
  5
C
330
0
100
AcDbDictionary
281
     1
  3
ACAD_GROUP
350
D
  3
ACAD_LAYOUT
350
1A
  3
ACAD_MLINESTYLE
350
17
  3
ACAD_PLOTSETTINGS
350
19
  3
ACAD_PLOTSTYLENAME
350
E
  0
DICTIONARY
  5
D
102
{ACAD_REACTORS
330
C
102
}
330
C
100
AcDbDictionary
281
     1
  0
DICTIONARY
  5
1A
102
{ACAD_REACTORS
330
C
102
}
330
C
100
AcDbDictionary
281
     1
  3
Layout1
350
1E
  3
Layout2
350
26
  3
Model
350
22
  0
DICTIONARY
  5
17
102
{ACAD_REACTORS
330
C
102
}
330
C
100
AcDbDictionary
281
     1
  3
Standard
350
18
  0
DICTIONARY
  5
19
102
{ACAD_REACTORS
330
C
102
}
330
C
100
AcDbDictionary
281
     1
  0
ACDBDICTIONARYWDFLT
  5
E
102
{ACAD_REACTORS
330
C
102
}
330
C
100
AcDbDictionary
281
     1
  3
Normal
350
F
100
AcDbDictionaryWithDefault
340
F
  0
LAYOUT
  5
1E
102
{ACAD_REACTORS
330
1A
102
}
330
1A
100
AcDbPlotSettings
  1

  2

  4

  6

 40
0.0
 41
0.0
 42
0.0
 43
0.0
 44
0.0
 45
0.0
 46
0.0
 47
0.0
 48
0.0
 49
0.0
140
0.0
141
0.0
142
1.0
143
1.0
 70
   688
 72
     0
 73
     0
 74
     5
  7

 75
    16
 76
     0
 77
     2
 78
   300
147
1.0
148
0.0
149
0.0
100
AcDbLayout
  1
Layout1
 70
     1
 71
     1
 10
0.0
 20
0.0
 11
0.0
 21
0.0
 12
0.0
 22
0.0
 32
0.0
 14
0.0
 24
0.0
 34
0.0
 15
0.0
 25
0.0
 35
0.0
146
0.0
 13
0.0
 23
0.0
 33
0.0
 16
1.0
 26
0.0
 36
0.0
 17
0.0
 27
1.0
 37
0.0
 76
     0
330
1B
  0
LAYOUT
  5
26
102
{ACAD_REACTORS
330
1A
102
}
330
1A
100
AcDbPlotSettings
  1

  2

  4

  6

 40
0.0
 41
0.0
 42
0.0
 43
0.0
 44
0.0
 45
0.0
 46
0.0
 47
0.0
 48
0.0
 49
0.0
140
0.0
141
0.0
142
1.0
143
1.0
 70
   688
 72
     0
 73
     0
 74
     5
  7

 75
    16
 76
     0
 77
     2
 78
   300
147
1.0
148
0.0
149
0.0
100
AcDbLayout
  1
Layout2
 70
     1
 71
     2
 10
0.0
 20
0.0
 11
0.0
 21
0.0
 12
0.0
 22
0.0
 32
0.0
 14
0.0
 24
0.0
 34
0.0
 15
0.0
 25
0.0
 35
0.0
146
0.0
 13
0.0
 23
0.0
 33
0.0
 16
1.0
 26
0.0
 36
0.0
 17
0.0
 27
1.0
 37
0.0
 76
     0
330
23
  0
LAYOUT
  5
22
102
{ACAD_REACTORS
330
1A
102
}
330
1A
100
AcDbPlotSettings
  1

  2

  4

  6

 40
0.0
 41
0.0
 42
0.0
 43
0.0
 44
0.0
 45
0.0
 46
0.0
 47
0.0
 48
0.0
 49
0.0
140
0.0
141
0.0
142
1.0
143
1.0
 70
  1712
 72
     0
 73
     0
 74
     0
  7

 75
     0
 76
     0
 77
     2
 78
   300
147
1.0
148
0.0
149
0.0
100
AcDbLayout
  1
Model
 70
     1
 71
     0
 10
0.0
 20
0.0
 11
0.0
 21
0.0
 12
0.0
 22
0.0
 32
0.0
 14
-435.1995520566823
 24
-271.8202313650459
 34
0.0
 15
405.8004479433177
 25
322.1797686349541
 35
0.0
146
0.0
 13
0.0
 23
0.0
 33
0.0
 16
1.0
 26
0.0
 36
0.0
 17
0.0
 27
1.0
 37
0.0
 76
     0
330
1F
  0
MLINESTYLE
  5
18
102
{ACAD_REACTORS
330
17
102
}
330
17
100
AcDbMlineStyle
  2
Standard
 70
     0
  3

 62
   256
 51
90.0
 52
90.0
 71
     2
 49
0.5
 62
   256
  6
BYLAYER
 49
-0.5
 62
   256
  6
BYLAYER
  0
ACDBPLACEHOLDER
  5
F
102
{ACAD_REACTORS
330
E
102
}
330
E
  0
ENDSEC
  0
EOF
