  0
SECTION
  2
HEADER
  9
$ACADVER
  1
AC1018
  9
$ACADMAINTVER
 70
     0
  9
$DWGCODEPAGE
  3
ANSI_1252
  9
$INSBASE
 10
0.0
 20
0.0
 30
0.0
  9
$EXTMIN
 10
-296.085652803072
 20
-132.04396984033
 30
0.0
  9
$EXTMAX
 10
146.2269274193539
 20
82.7212755943664
 30
0.0
  9
$LIMMIN
 10
0.0
 20
0.0
  9
$LIMMAX
 10
12.0
 20
9.0
  9
$ORTHOMODE
 70
     0
  9
$REGENMODE
 70
     1
  9
$FILLMODE
 70
     1
  9
$QTEXTMODE
 70
     0
  9
$MIRRTEXT
 70
     1
  9
$LTSCALE
 40
1.0
  9
$ATTMODE
 70
     1
  9
$TEXTSIZE
 40
0.2
  9
$TRACEWID
 40
0.05
  9
$TEXTSTYLE
  7
Standard
  9
$CLAYER
  8
0
  9
$CELTYPE
  6
ByLayer
  9
$CECOLOR
 62
   256
  9
$CELTSCALE
 40
1.0
  9
$DISPSILH
 70
     0
  9
$DIMSCALE
 40
1.0
  9
$DIMASZ
 40
0.18
  9
$DIMEXO
 40
0.0625
  9
$DIMDLI
 40
0.38
  9
$DIMRND
 40
0.0
  9
$DIMDLE
 40
0.0
  9
$DIMEXE
 40
0.18
  9
$DIMTP
 40
0.0
  9
$DIMTM
 40
0.0
  9
$DIMTXT
 40
0.18
  9
$DIMCEN
 40
0.09
  9
$DIMTSZ
 40
0.0
  9
$DIMTOL
 70
     0
  9
$DIMLIM
 70
     0
  9
$DIMTIH
 70
     1
  9
$DIMTOH
 70
     1
  9
$DIMSE1
 70
     0
  9
$DIMSE2
 70
     0
  9
$DIMTAD
 70
     0
  9
$DIMZIN
 70
     0
  9
$DIMBLK
  1

  9
$DIMASO
 70
     1
  9
$DIMSHO
 70
     1
  9
$DIMPOST
  1

  9
$DIMAPOST
  1

  9
$DIMALT
 70
     0
  9
$DIMALTD
 70
     2
  9
$DIMALTF
 40
25.4
  9
$DIMLFAC
 40
1.0
  9
$DIMTOFL
 70
     0
  9
$DIMTVP
 40
0.0
  9
$DIMTIX
 70
     0
  9
$DIMSOXD
 70
     0
  9
$DIMSAH
 70
     0
  9
$DIMBLK1
  1

  9
$DIMBLK2
  1

  9
$DIMSTYLE
  2
Standard
  9
$DIMCLRD
 70
     0
  9
$DIMCLRE
 70
     0
  9
$DIMCLRT
 70
     0
  9
$DIMTFAC
 40
1.0
  9
$DIMGAP
 40
0.09
  9
$DIMJUST
 70
     0
  9
$DIMSD1
 70
     0
  9
$DIMSD2
 70
     0
  9
$DIMTOLJ
 70
     1
  9
$DIMTZIN
 70
     0
  9
$DIMALTZ
 70
     0
  9
$DIMALTTZ
 70
     0
  9
$DIMUPT
 70
     0
  9
$DIMDEC
 70
     4
  9
$DIMTDEC
 70
     4
  9
$DIMALTU
 70
     2
  9
$DIMALTTD
 70
     2
  9
$DIMTXSTY
  7
Standard
  9
$DIMAUNIT
 70
     0
  9
$DIMADEC
 70
     0
  9
$DIMALTRND
 40
0.0
  9
$DIMAZIN
 70
     0
  9
$DIMDSEP
 70
    46
  9
$DIMATFIT
 70
     3
  9
$DIMFRAC
 70
     0
  9
$DIMLDRBLK
  1

  9
$DIMLUNIT
 70
     2
  9
$DIMLWD
 70
    -2
  9
$DIMLWE
 70
    -2
  9
$DIMTMOVE
 70
     0
  9
$LUNITS
 70
     2
  9
$LUPREC
 70
     4
  9
$SKETCHINC
 40
0.1
  9
$FILLETRAD
 40
0.5
  9
$AUNITS
 70
     0
  9
$AUPREC
 70
     0
  9
$MENU
  1
.
  9
$ELEVATION
 40
0.0
  9
$PELEVATION
 40
0.0
  9
$THICKNESS
 40
0.0
  9
$LIMCHECK
 70
     0
  9
$CHAMFERA
 40
0.5
  9
$CHAMFERB
 40
0.5
  9
$CHAMFERC
 40
1.0
  9
$CHAMFERD
 40
0.0
  9
$SKPOLY
 70
     0
  9
$TDCREATE
 40
2454966.4288389
  9
$TDUCREATE
 40
2454966.345505567
  9
$TDUPDATE
 40
2454966.428838912
  9
$TDUUPDATE
 40
2454966.345505579
  9
$TDINDWG
 40
0.0000000116
  9
$TDUSRTIMER
 40
0.0000000116
  9
$USRTIMER
 70
     1
  9
$ANGBASE
 50
0.0
  9
$ANGDIR
 70
     0
  9
$PDMODE
 70
     0
  9
$PDSIZE
 40
0.0
  9
$PLINEWID
 40
0.0
  9
$SPLFRAME
 70
     0
  9
$SPLINETYPE
 70
     6
  9
$SPLINESEGS
 70
     8
  9
$HANDSEED
  5
4EF
  9
$SURFTAB1
 70
     6
  9
$SURFTAB2
 70
     6
  9
$SURFTYPE
 70
     6
  9
$SURFU
 70
     6
  9
$SURFV
 70
     6
  9
$UCSBASE
  2

  9
$UCSNAME
  2

  9
$UCSORG
 10
0.0
 20
0.0
 30
0.0
  9
$UCSXDIR
 10
1.0
 20
0.0
 30
0.0
  9
$UCSYDIR
 10
0.0
 20
1.0
 30
0.0
  9
$UCSORTHOREF
  2

  9
$UCSORTHOVIEW
 70
     0
  9
$UCSORGTOP
 10
0.0
 20
0.0
 30
0.0
  9
$UCSORGBOTTOM
 10
0.0
 20
0.0
 30
0.0
  9
$UCSORGLEFT
 10
0.0
 20
0.0
 30
0.0
  9
$UCSORGRIGHT
 10
0.0
 20
0.0
 30
0.0
  9
$UCSORGFRONT
 10
0.0
 20
0.0
 30
0.0
  9
$UCSORGBACK
 10
0.0
 20
0.0
 30
0.0
  9
$PUCSBASE
  2

  9
$PUCSNAME
  2

  9
$PUCSORG
 10
0.0
 20
0.0
 30
0.0
  9
$PUCSXDIR
 10
1.0
 20
0.0
 30
0.0
  9
$PUCSYDIR
 10
0.0
 20
1.0
 30
0.0
  9
$PUCSORTHOREF
  2

  9
$PUCSORTHOVIEW
 70
     0
  9
$PUCSORGTOP
 10
0.0
 20
0.0
 30
0.0
  9
$PUCSORGBOTTOM
 10
0.0
 20
0.0
 30
0.0
  9
$PUCSORGLEFT
 10
0.0
 20
0.0
 30
0.0
  9
$PUCSORGRIGHT
 10
0.0
 20
0.0
 30
0.0
  9
$PUCSORGFRONT
 10
0.0
 20
0.0
 30
0.0
  9
$PUCSORGBACK
 10
0.0
 20
0.0
 30
0.0
  9
$USERI1
 70
     0
  9
$USERI2
 70
     0
  9
$USERI3
 70
     0
  9
$USERI4
 70
     0
  9
$USERI5
 70
     0
  9
$USERR1
 40
14.5
  9
$USERR2
 40
0.0
  9
$USERR3
 40
0.0
  9
$USERR4
 40
0.0
  9
$USERR5
 40
0.0
  9
$WORLDVIEW
 70
     1
  9
$SHADEDGE
 70
     3
  9
$SHADEDIF
 70
    70
  9
$TILEMODE
 70
     1
  9
$MAXACTVP
 70
    64
  9
$PINSBASE
 10
0.0
 20
0.0
 30
0.0
  9
$PLIMCHECK
 70
     0
  9
$PEXTMIN
 10
1.00000000000000E+20
 20
1.00000000000000E+20
 30
1.00000000000000E+20
  9
$PEXTMAX
 10
-1.00000000000000E+20
 20
-1.00000000000000E+20
 30
-1.00000000000000E+20
  9
$PLIMMIN
 10
0.0
 20
0.0
  9
$PLIMMAX
 10
12.0
 20
9.0
  9
$UNITMODE
 70
     0
  9
$VISRETAIN
 70
     1
  9
$PLINEGEN
 70
     0
  9
$PSLTSCALE
 70
     1
  9
$TREEDEPTH
 70
  3020
  9
$CMLSTYLE
  2
Standard
  9
$CMLJUST
 70
     0
  9
$CMLSCALE
 40
1.0
  9
$PROXYGRAPHICS
 70
     1
  9
$MEASUREMENT
 70
     1
  9
$CELWEIGHT
370
    -1
  9
$ENDCAPS
280
     0
  9
$JOINSTYLE
280
     0
  9
$LWDISPLAY
290
     0
  9
$INSUNITS
 70
     1
  9
$HYPERLINKBASE
  1

  9
$STYLESHEET
  1

  9
$XEDIT
290
     1
  9
$CEPSNTYPE
380
     0
  9
$PSTYLEMODE
290
     1
  9
$FINGERPRINTGUID
  2
{286D0775-8872-4CA2-A47C-7982B87B47C4}
  9
$VERSIONGUID
  2
{FAEB1C32-E019-11D5-929B-00C0DF256EC4}
  9
$EXTNAMES
290
     1
  9
$PSVPSCALE
 40
0.0
  9
$OLESTARTUP
290
     0
  9
$SORTENTS
280
   127
  9
$INDEXCTL
280
     0
  9
$HIDETEXT
280
     1
  9
$XCLIPFRAME
290
     0
  9
$HALOGAP
280
     0
  9
$OBSCOLOR
 70
   257
  9
$OBSLTYPE
280
     0
  9
$INTERSECTIONDISPLAY
280
     0
  9
$INTERSECTIONCOLOR
 70
   257
  9
$DIMASSOC
280
     2
  9
$PROJECTNAME
  1

  0
ENDSEC
  0
SECTION
  2
CLASSES
  0
CLASS
  1
ACDBDICTIONARYWDFLT
  2
AcDbDictionaryWithDefault
  3
ObjectDBX Classes
 90
        0
 91
        3
280
     0
281
     0
  0
ENDSEC
  0
SECTION
  2
TABLES
  0
TABLE
  2
VPORT
  5
8
330
0
100
AcDbSymbolTable
 70
     1
  0
VPORT
  5
29
330
8
100
AcDbSymbolTableRecord
100
AcDbViewportTableRecord
  2
*Active
 70
     0
 10
0.0
 20
0.0
 11
1.0
 21
1.0
 12
-74.92936269185904
 22
-24.66134712298179
 13
0.0
 23
0.0
 14
0.5
 24
0.5
 15
0.5
 25
0.5
 16
0.0
 26
0.0
 36
1.0
 17
0.0
 27
0.0
 37
0.0
 40
303.5816706596262
 41
1.60267857142857
 42
50.0
 43
0.0
 44
0.0
 50
0.0
 51
0.0
 71
     0
 72
   100
 73
     1
 74
     3
 75
     0
 76
     0
 77
     0
 78
     0
281
     0
 65
     1
110
0.0
120
0.0
130
0.0
111
1.0
121
0.0
131
0.0
112
0.0
122
1.0
132
0.0
 79
     0
146
0.0
  0
ENDTAB
  0
TABLE
  2
LTYPE
  5
5
330
0
100
AcDbSymbolTable
 70
     8
  0
LTYPE
  5
14
330
5
100
AcDbSymbolTableRecord
100
AcDbLinetypeTableRecord
  2
ByBlock
 70
     0
  3

 72
    65
 73
     0
 40
0.0
  0
LTYPE
  5
15
330
5
100
AcDbSymbolTableRecord
100
AcDbLinetypeTableRecord
  2
ByLayer
 70
     0
  3

 72
    65
 73
     0
 40
0.0
  0
LTYPE
  5
16
330
5
100
AcDbSymbolTableRecord
100
AcDbLinetypeTableRecord
  2
Continuous
 70
     0
  3
Solid line
 72
    65
 73
     0
 40
0.0
  0
LTYPE
  5
2A
330
5
100
AcDbSymbolTableRecord
100
AcDbLinetypeTableRecord
  2
DASHED
 70
     0
  3
Dashed
 72
    65
 73
     2
 40
15.0
 49
7.0
 74
     0
 49
-8.0
 74
     0
  0
LTYPE
  5
2B
330
5
100
AcDbSymbolTableRecord
100
AcDbLinetypeTableRecord
  2
DOTTED
 70
     0
  3
Dotted
 72
    65
 73
     2
 40
1.0
 49
0.0
 74
     0
 49
-1.0
 74
     0
  0
LTYPE
  5
2C
330
5
100
AcDbSymbolTableRecord
100
AcDbLinetypeTableRecord
  2
DOT_CENTER
 70
     0
  3
Dot_Center
 72
    65
 73
     4
 40
14.0
 49
12.0
 74
     0
 49
-1.0
 74
     0
 49
0.0
 74
     0
 49
-1.0
 74
     0
  0
LTYPE
  5
2D
330
5
100
AcDbSymbolTableRecord
100
AcDbLinetypeTableRecord
  2
LONG_DASHED
 70
     0
  3
Long_Dashed
 72
    65
 73
     2
 40
15.0
 49
10.0
 74
     0
 49
-5.0
 74
     0
  0
LTYPE
  5
2E
330
5
100
AcDbSymbolTableRecord
100
AcDbLinetypeTableRecord
  2
DASH_CENTER
 70
     0
  3
Dash_Center
 72
    65
 73
     4
 40
14.0
 49
11.0
 74
     0
 49
-1.0
 74
     0
 49
1.0
 74
     0
 49
-1.0
 74
     0
  0
LTYPE
  5
2F
330
5
100
AcDbSymbolTableRecord
100
AcDbLinetypeTableRecord
  2
PHANTOM
 70
     0
  3
Phantom
 72
    65
 73
     6
 40
13.0
 49
10.0
 74
     0
 49
-1.0
 74
     0
 49
0.0
 74
     0
 49
-1.0
 74
     0
 49
0.0
 74
     0
 49
-1.0
 74
     0
  0
LTYPE
  5
30
330
5
100
AcDbSymbolTableRecord
100
AcDbLinetypeTableRecord
  2
CENTER_DASH_DASH
 70
     0
  3
Center_Dash_Dash
 72
    65
 73
     6
 40
14.0
 49
9.0
 74
     0
 49
-1.0
 74
     0
 49
1.0
 74
     0
 49
-1.0
 74
     0
 49
1.0
 74
     0
 49
-1.0
 74
     0
  0
ENDTAB
  0
TABLE
  2
LAYER
  5
2
330
0
100
AcDbSymbolTable
 70
     2
  0
LAYER
  5
10
330
2
100
AcDbSymbolTableRecord
100
AcDbLayerTableRecord
  2
0
 70
     0
 62
     7
  6
Continuous
370
    -3
390
F
  0
LAYER
  5
31
330
2
100
AcDbSymbolTableRecord
100
AcDbLayerTableRecord
  2
1
 70
     0
 62
     7
  6
Continuous
370
    -3
390
F
  0
ENDTAB
  0
TABLE
  2
STYLE
  5
3
330
0
100
AcDbSymbolTable
 70
     2
  0
STYLE
  5
11
330
3
100
AcDbSymbolTableRecord
100
AcDbTextStyleTableRecord
  2
Standard
 70
     0
 40
0.0
 41
1.0
 50
0.0
 71
     0
 42
0.2
  3
txt
  4

  0
STYLE
  5
3D8
330
3
100
AcDbSymbolTableRecord
100
AcDbTextStyleTableRecord
  2
CONVERTER_11
 70
     0
 40
0.0
 41
0.72
 50
0.0
 71
     0
 42
0.2
  3
txt.shx
  4

  0
ENDTAB
  0
TABLE
  2
VIEW
  5
6
330
0
100
AcDbSymbolTable
 70
     0
  0
ENDTAB
  0
TABLE
  2
UCS
  5
7
330
0
100
AcDbSymbolTable
 70
     0
  0
ENDTAB
  0
TABLE
  2
APPID
  5
9
330
0
100
AcDbSymbolTable
 70
     1
  0
APPID
  5
12
330
9
100
AcDbSymbolTableRecord
100
AcDbRegAppTableRecord
  2
ACAD
 70
     0
  0
ENDTAB
  0
TABLE
  2
DIMSTYLE
  5
A
330
0
100
AcDbSymbolTable
 70
    24
100
AcDbDimStyleTable
  0
DIMSTYLE
105
27
330
A
100
AcDbSymbolTableRecord
100
AcDbDimStyleTableRecord
  2
Standard
 70
     0
340
11
  0
DIMSTYLE
105
3E5
102
{ACAD_REACTORS
330
3E6
102
}
330
A
100
AcDbSymbolTableRecord
100
AcDbDimStyleTableRecord
  2
ME10_DIM_10
 70
     0
 41
7.0
 42
0.0
 44
2.0
 73
     0
 74
     0
 77
     1
 78
     8
140
7.0
147
4.0
172
     1
173
     1
176
     2
177
     2
178
     3
271
     3
340
3D8
  0
DIMSTYLE
105
3F0
102
{ACAD_REACTORS
330
3F1
102
}
330
A
100
AcDbSymbolTableRecord
100
AcDbDimStyleTableRecord
  2
ME10_DIM_11
 70
     0
 41
7.0
 42
0.0
 44
2.0
 73
     0
 74
     0
 77
     1
 78
     8
140
7.0
147
4.0
172
     1
173
     1
176
     2
177
     2
178
     3
271
     3
340
3D8
  0
DIMSTYLE
105
3FB
102
{ACAD_REACTORS
330
3FC
102
}
330
A
100
AcDbSymbolTableRecord
100
AcDbDimStyleTableRecord
  2
ME10_DIM_12
 70
     0
 41
7.0
 42
0.0
 44
2.0
 73
     0
 74
     0
 77
     1
 78
     8
140
7.0
147
4.0
172
     1
173
     1
176
     2
177
     2
178
     3
271
     3
340
3D8
  0
DIMSTYLE
105
408
102
{ACAD_REACTORS
330
409
102
}
330
A
100
AcDbSymbolTableRecord
100
AcDbDimStyleTableRecord
  2
ME10_DIM_13
 70
     0
 41
7.0
 42
0.0
 44
2.0
 73
     0
 74
     0
 77
     1
 78
     8
140
7.0
147
4.0
172
     1
173
     1
176
     2
177
     2
178
     3
271
     3
340
3D8
  0
DIMSTYLE
105
415
102
{ACAD_REACTORS
330
416
102
}
330
A
100
AcDbSymbolTableRecord
100
AcDbDimStyleTableRecord
  2
ME10_DIM_14
 70
     0
 41
7.0
 42
0.0
 44
2.0
 73
     0
 74
     0
 77
     1
 78
     8
140
7.0
147
4.0
172
     1
173
     1
176
     2
177
     2
178
     3
271
     3
340
3D8
  0
DIMSTYLE
105
422
102
{ACAD_REACTORS
330
423
102
}
330
A
100
AcDbSymbolTableRecord
100
AcDbDimStyleTableRecord
  2
ME10_DIM_15
 70
     0
 41
7.0
 42
0.0
 44
2.0
 73
     0
 74
     0
 77
     1
 78
     8
140
7.0
147
4.0
172
     1
173
     1
176
     2
177
     2
178
     3
271
     3
340
3D8
  0
DIMSTYLE
105
42D
102
{ACAD_REACTORS
330
42E
102
}
330
A
100
AcDbSymbolTableRecord
100
AcDbDimStyleTableRecord
  2
ME10_DIM_16
 70
     0
 41
7.0
 42
0.0
 44
2.0
 73
     0
 74
     0
 77
     1
 78
     8
140
7.0
147
4.0
172
     1
173
     1
176
     2
177
     2
178
     3
271
     3
340
3D8
  0
DIMSTYLE
105
43A
102
{ACAD_REACTORS
330
43B
102
}
330
A
100
AcDbSymbolTableRecord
100
AcDbDimStyleTableRecord
  2
ME10_DIM_17
 70
     0
 41
7.0
 42
0.0
 44
2.0
 73
     0
 74
     0
 77
     1
 78
     8
140
7.0
147
4.0
172
     1
173
     1
176
     2
177
     2
178
     3
271
     3
340
3D8
  0
DIMSTYLE
105
447
102
{ACAD_REACTORS
330
448
102
}
330
A
100
AcDbSymbolTableRecord
100
AcDbDimStyleTableRecord
  2
ME10_DIM_18
 70
     0
 41
7.0
 42
0.0
 44
2.0
 73
     0
 74
     0
 77
     1
 78
     8
140
7.0
147
4.0
172
     1
173
     1
176
     2
177
     2
178
     3
271
     3
340
3D8
  0
DIMSTYLE
105
452
102
{ACAD_REACTORS
330
453
102
}
330
A
100
AcDbSymbolTableRecord
100
AcDbDimStyleTableRecord
  2
ME10_DIM_19
 70
     0
 41
7.0
 42
0.0
 44
2.0
 73
     0
 74
     0
 77
     1
 78
     8
140
7.0
147
4.0
172
     1
173
     1
176
     2
177
     2
178
     3
271
     3
340
3D8
  0
DIMSTYLE
105
45E
102
{ACAD_REACTORS
330
45F
102
}
330
A
100
AcDbSymbolTableRecord
100
AcDbDimStyleTableRecord
  2
ME10_DIM_20
 70
     0
  3
{\Fgdt;n}<>
 41
7.0
 42
0.0
 44
2.0
 48
-6.0
 71
     1
 73
     0
 74
     0
 77
     1
 78
     8
140
7.0
146
0.6
147
4.0
172
     1
173
     1
176
     2
177
     2
178
     3
271
     3
272
     0
340
3D8
  0
DIMSTYLE
105
46A
102
{ACAD_REACTORS
330
46B
102
}
330
A
100
AcDbSymbolTableRecord
100
AcDbDimStyleTableRecord
  2
ME10_DIM_21
 70
     0
  3
{\Fgdt;n}<>
 41
7.0
 42
0.0
 44
2.0
 48
-6.0
 71
     1
 73
     0
 74
     0
 77
     1
 78
     8
140
7.0
146
0.6
147
4.0
172
     1
173
     1
176
     2
177
     2
178
     3
271
     3
272
     0
340
3D8
  0
DIMSTYLE
105
475
102
{ACAD_REACTORS
330
476
102
}
330
A
100
AcDbSymbolTableRecord
100
AcDbDimStyleTableRecord
  2
ME10_DIM_22
 70
     0
 41
7.0
 42
0.0
 44
2.0
 73
     0
 74
     0
 77
     1
 78
     8
140
7.0
147
4.0
172
     1
173
     1
176
     2
177
     2
178
     3
271
     3
340
3D8
  0
DIMSTYLE
105
480
102
{ACAD_REACTORS
330
481
102
}
330
A
100
AcDbSymbolTableRecord
100
AcDbDimStyleTableRecord
  2
ME10_DIM_23
 70
     0
 41
7.0
 42
0.0
 44
2.0
 73
     0
 74
     0
 77
     1
 78
     8
140
7.0
147
4.0
172
     1
173
     1
176
     2
177
     2
178
     3
271
     3
340
3D8
  0
DIMSTYLE
105
48D
102
{ACAD_REACTORS
330
48E
102
}
330
A
100
AcDbSymbolTableRecord
100
AcDbDimStyleTableRecord
  2
ME10_DIM_24
 70
     0
 41
7.0
 42
0.0
 44
2.0
 73
     0
 74
     0
 77
     1
 78
     8
140
7.0
147
4.0
172
     1
173
     1
176
     2
177
     2
178
     3
271
     3
340
3D8
  0
DIMSTYLE
105
498
102
{ACAD_REACTORS
330
499
102
}
330
A
100
AcDbSymbolTableRecord
100
AcDbDimStyleTableRecord
  2
ME10_DIM_25
 70
     0
 41
7.0
 42
0.0
 44
2.0
 73
     0
 74
     0
 77
     1
 78
     8
140
7.0
147
4.0
172
     1
173
     1
176
     2
177
     2
178
     3
271
     3
340
3D8
  0
DIMSTYLE
105
4A5
102
{ACAD_REACTORS
330
4A6
102
}
330
A
100
AcDbSymbolTableRecord
100
AcDbDimStyleTableRecord
  2
ME10_DIM_26
 70
     0
 41
7.0
 42
0.0
 44
2.0
 73
     0
 74
     0
 77
     1
 78
     8
140
7.0
147
4.0
172
     1
173
     1
176
     2
177
     2
178
     3
271
     3
340
3D8
  0
DIMSTYLE
105
4B1
102
{ACAD_REACTORS
330
4B2
102
}
330
A
100
AcDbSymbolTableRecord
100
AcDbDimStyleTableRecord
  2
ME10_DIM_27
 70
     0
  3
{\Fgdt;n}<>
 41
7.0
 42
0.0
 44
2.0
 47
7.0
 71
     1
 73
     0
 74
     0
 77
     1
 78
     8
140
7.0
146
0.6
147
4.0
172
     1
173
     1
176
     2
177
     2
178
     3
271
     3
272
     0
340
3D8
  0
DIMSTYLE
105
4BD
102
{ACAD_REACTORS
330
4BE
102
}
330
A
100
AcDbSymbolTableRecord
100
AcDbDimStyleTableRecord
  2
ME10_DIM_28
 70
     0
  3
{\Fgdt;n}<>
 41
7.0
 42
0.0
 44
2.0
 47
7.0
 71
     1
 73
     0
 74
     0
 77
     1
 78
     8
140
7.0
146
0.6
147
4.0
172
     1
173
     1
176
     2
177
     2
178
     3
271
     3
272
     0
340
3D8
  0
DIMSTYLE
105
4C8
102
{ACAD_REACTORS
330
4C9
102
}
330
A
100
AcDbSymbolTableRecord
100
AcDbDimStyleTableRecord
  2
ME10_DIM_29
 70
     0
  3
{\Fgdt;n}<>
 41
7.0
 42
0.0
 44
2.0
 48
-7.0
 71
     1
 73
     0
 74
     0
 77
     1
 78
     8
140
7.0
146
0.6
147
4.0
172
     1
173
     1
176
     2
177
     2
178
     3
271
     3
272
     0
340
3D8
  0
DIMSTYLE
105
4D5
102
{ACAD_REACTORS
330
4D6
102
}
330
A
100
AcDbSymbolTableRecord
100
AcDbDimStyleTableRecord
  2
ME10_DIM_30
 70
     0
 41
7.0
 42
0.0
 44
2.0
 73
     0
 74
     0
 77
     1
 78
     8
140
7.0
147
4.0
172
     1
173
     1
176
     2
177
     2
178
     3
271
     3
340
3D8
  0
DIMSTYLE
105
4E2
102
{ACAD_REACTORS
330
4E3
102
}
330
A
100
AcDbSymbolTableRecord
100
AcDbDimStyleTableRecord
  2
ME10_DIM_31
 70
     0
 41
7.0
 42
0.0
 44
2.0
 73
     0
 74
     0
 77
     1
 78
     8
140
7.0
147
4.0
172
     1
173
     1
176
     2
177
     2
178
     3
271
     3
340
3D8
  0
DIMSTYLE
105
4ED
102
{ACAD_REACTORS
330
4EE
102
}
330
A
100
AcDbSymbolTableRecord
100
AcDbDimStyleTableRecord
  2
ME10_DIM_32
 70
     0
 41
7.0
 42
0.0
 44
2.0
 73
     0
 74
     0
 77
     1
 78
     8
140
7.0
147
4.0
172
     1
173
     1
176
     2
177
     2
178
     3
271
     3
340
3D8
  0
ENDTAB
  0
TABLE
  2
BLOCK_RECORD
  5
1
330
0
100
AcDbSymbolTable
 70
    25
  0
BLOCK_RECORD
  5
1F
330
1
100
AcDbSymbolTableRecord
100
AcDbBlockTableRecord
  2
*Model_Space
340
22
  0
BLOCK_RECORD
  5
1B
330
1
100
AcDbSymbolTableRecord
100
AcDbBlockTableRecord
  2
*Paper_Space
340
1E
  0
BLOCK_RECORD
  5
23
330
1
100
AcDbSymbolTableRecord
100
AcDbBlockTableRecord
  2
*Paper_Space0
340
26
  0
BLOCK_RECORD
  5
32
330
1
100
AcDbSymbolTableRecord
100
AcDbBlockTableRecord
  2
TOP
340
0
102
{BLKREFS
331
35
102
}
  0
BLOCK_RECORD
  5
3DA
330
1
100
AcDbSymbolTableRecord
100
AcDbBlockTableRecord
  2
*D2
340
0
  0
BLOCK_RECORD
  5
3E7
330
1
100
AcDbSymbolTableRecord
100
AcDbBlockTableRecord
  2
*D3
340
0
  0
BLOCK_RECORD
  5
3F2
330
1
100
AcDbSymbolTableRecord
100
AcDbBlockTableRecord
  2
*D4
340
0
  0
BLOCK_RECORD
  5
3FD
330
1
100
AcDbSymbolTableRecord
100
AcDbBlockTableRecord
  2
*D5
340
0
  0
BLOCK_RECORD
  5
40A
330
1
100
AcDbSymbolTableRecord
100
AcDbBlockTableRecord
  2
*D6
340
0
  0
BLOCK_RECORD
  5
417
330
1
100
AcDbSymbolTableRecord
100
AcDbBlockTableRecord
  2
*D7
340
0
  0
BLOCK_RECORD
  5
424
330
1
100
AcDbSymbolTableRecord
100
AcDbBlockTableRecord
  2
*D8
340
0
  0
BLOCK_RECORD
  5
42F
330
1
100
AcDbSymbolTableRecord
100
AcDbBlockTableRecord
  2
*D9
340
0
  0
BLOCK_RECORD
  5
43C
330
1
100
AcDbSymbolTableRecord
100
AcDbBlockTableRecord
  2
*D10
340
0
  0
BLOCK_RECORD
  5
449
330
1
100
AcDbSymbolTableRecord
100
AcDbBlockTableRecord
  2
*D11
340
0
  0
BLOCK_RECORD
  5
454
330
1
100
AcDbSymbolTableRecord
100
AcDbBlockTableRecord
  2
*D12
340
0
  0
BLOCK_RECORD
  5
460
330
1
100
AcDbSymbolTableRecord
100
AcDbBlockTableRecord
  2
*D13
340
0
  0
BLOCK_RECORD
  5
46C
330
1
100
AcDbSymbolTableRecord
100
AcDbBlockTableRecord
  2
*D14
340
0
  0
BLOCK_RECORD
  5
477
330
1
100
AcDbSymbolTableRecord
100
AcDbBlockTableRecord
  2
*D15
340
0
  0
BLOCK_RECORD
  5
482
330
1
100
AcDbSymbolTableRecord
100
AcDbBlockTableRecord
  2
*D16
340
0
  0
BLOCK_RECORD
  5
48F
330
1
100
AcDbSymbolTableRecord
100
AcDbBlockTableRecord
  2
*D17
340
0
  0
BLOCK_RECORD
  5
49A
330
1
100
AcDbSymbolTableRecord
100
AcDbBlockTableRecord
  2
*D18
340
0
  0
BLOCK_RECORD
  5
4A7
330
1
100
AcDbSymbolTableRecord
100
AcDbBlockTableRecord
  2
*D19
340
0
  0
BLOCK_RECORD
  5
4B3
330
1
100
AcDbSymbolTableRecord
100
AcDbBlockTableRecord
  2
*D20
340
0
  0
BLOCK_RECORD
  5
4BF
330
1
100
AcDbSymbolTableRecord
100
AcDbBlockTableRecord
  2
*D21
340
0
  0
BLOCK_RECORD
  5
4CA
330
1
100
AcDbSymbolTableRecord
100
AcDbBlockTableRecord
  2
*D22
340
0
  0
BLOCK_RECORD
  5
4D7
330
1
100
AcDbSymbolTableRecord
100
AcDbBlockTableRecord
  2
*D23
340
0
  0
BLOCK_RECORD
  5
4E4
330
1
100
AcDbSymbolTableRecord
100
AcDbBlockTableRecord
  2
*D24
340
0
  0
ENDTAB
  0
ENDSEC
  0
SECTION
  2
BLOCKS
  0
BLOCK
  5
20
330
1F
100
AcDbEntity
  8
0
100
AcDbBlockBegin
  2
*Model_Space
 70
     0
 71
     0
 10
0.0
 20
0.0
 30
0.0
  3
*Model_Space
  1

  0
ENDBLK
  5
21
330
1F
100
AcDbEntity
  8
0
100
AcDbBlockEnd
  0
BLOCK
  5
1C
330
1B
100
AcDbEntity
 67
     1
  8
0
100
AcDbBlockBegin
  2
*Paper_Space
 70
     0
 71
     0
 10
0.0
 20
0.0
 30
0.0
  3
*Paper_Space
  1

  0
ENDBLK
  5
1D
330
1B
100
AcDbEntity
 67
     1
  8
0
100
AcDbBlockEnd
  0
BLOCK
  5
24
330
23
100
AcDbEntity
  8
0
100
AcDbBlockBegin
  2
*Paper_Space0
 70
     0
 71
     0
 10
0.0
 20
0.0
 30
0.0
  3
*Paper_Space0
  1

  0
ENDBLK
  5
25
330
23
100
AcDbEntity
  8
0
100
AcDbBlockEnd
  0
BLOCK
  5
33
330
32
100
AcDbEntity
  8
0
100
AcDbBlockBegin
  2
TOP
 70
     0
 71
     0
 10
-271.6530725806461
 20
-140.9664999999998
 30
0.0
  3
TOP
  1

  0
POINT
  5
36
330
32
100
AcDbEntity
  8
1
 62
     3
 60
     1
100
AcDbPoint
 10
-177.7730725806461
 20
13.90314516129063
 30
0.0
  0
POINT
  5
37
330
32
100
AcDbEntity
  8
1
 62
     3
 60
     1
100
AcDbPoint
 10
-177.7730725806461
 20
45.90314516129063
 30
0.0
  0
POINT
  5
38
330
32
100
AcDbEntity
  8
1
 62
     3
 60
     1
100
AcDbPoint
 10
-174.7730725806461
 20
42.90314516129063
 30
0.0
  0
POINT
  5
39
330
32
100
AcDbEntity
  8
1
 62
     3
 60
     1
100
AcDbPoint
 10
-174.7730725806461
 20
16.90314516129063
 30
0.0
  0
POINT
  5
3A
330
32
100
AcDbEntity
  8
1
 62
     3
 60
     1
100
AcDbPoint
 10
-180.7730725806461
 20
16.90314516129063
 30
0.0
  0
POINT
  5
3B
330
32
100
AcDbEntity
  8
1
 62
     3
 60
     1
100
AcDbPoint
 10
-180.7730725806461
 20
42.90314516129063
 30
0.0
  0
POINT
  5
3C
330
32
100
AcDbEntity
  8
1
 62
     3
 60
     1
100
AcDbPoint
 10
-187.7730725806461
 20
12.40314516129063
 30
0.0
  0
POINT
  5
3D
330
32
100
AcDbEntity
  8
1
 62
     3
 60
     1
100
AcDbPoint
 10
-187.7730725806461
 20
47.40314516129063
 30
0.0
  0
POINT
  5
3E
330
32
100
AcDbEntity
  8
1
 62
     3
 60
     1
100
AcDbPoint
 10
-167.7730725806461
 20
47.40314516129063
 30
0.0
  0
POINT
  5
3F
330
32
100
AcDbEntity
  8
1
 62
     3
 60
     1
100
AcDbPoint
 10
-167.7730725806461
 20
12.40314516129062
 30
0.0
  0
POINT
  5
40
330
32
100
AcDbEntity
  8
1
 62
     3
 60
     1
100
AcDbPoint
 10
-162.7730725806461
 20
10.40314516129062
 30
0.0
  0
POINT
  5
41
330
32
100
AcDbEntity
  8
1
 62
     3
 60
     1
100
AcDbPoint
 10
-162.7730725806461
 20
12.40314516129063
 30
0.0
  0
POINT
  5
42
330
32
100
AcDbEntity
  8
1
 62
     3
 60
     1
100
AcDbPoint
 10
-192.6730725806461
 20
12.40314516129063
 30
0.0
  0
POINT
  5
43
330
32
100
AcDbEntity
  8
1
 62
     3
 60
     1
100
AcDbPoint
 10
-192.6730725806461
 20
10.40314516129063
 30
0.0
  0
POINT
  5
44
330
32
100
AcDbEntity
  8
1
 62
     3
 60
     1
100
AcDbPoint
 10
-192.6730725806461
 20
-75.59685483870938
 30
0.0
  0
POINT
  5
45
330
32
100
AcDbEntity
  8
1
 62
     3
 60
     1
100
AcDbPoint
 10
-162.7730725806461
 20
-75.59685483870938
 30
0.0
  0
POINT
  5
46
330
32
100
AcDbEntity
  8
1
 62
     3
 60
     1
100
AcDbPoint
 10
-177.7730725806461
 20
-79.0968548387094
 30
0.0
  0
POINT
  5
47
330
32
100
AcDbEntity
  8
1
 62
     3
 60
     1
100
AcDbPoint
 10
-177.7730725806461
 20
-111.0968548387094
 30
0.0
  0
POINT
  5
48
330
32
100
AcDbEntity
  8
1
 62
     3
 60
     1
100
AcDbPoint
 10
-174.7730725806461
 20
-108.0968548387094
 30
0.0
  0
POINT
  5
49
330
32
100
AcDbEntity
  8
1
 62
     3
 60
     1
100
AcDbPoint
 10
-174.7730725806461
 20
-82.0968548387094
 30
0.0
  0
POINT
  5
4A
330
32
100
AcDbEntity
  8
1
 62
     3
 60
     1
100
AcDbPoint
 10
-180.7730725806461
 20
-82.0968548387094
 30
0.0
  0
POINT
  5
4B
330
32
100
AcDbEntity
  8
1
 62
     3
 60
     1
100
AcDbPoint
 10
-180.7730725806461
 20
-108.0968548387094
 30
0.0
  0
POINT
  5
4C
330
32
100
AcDbEntity
  8
1
 62
     3
 60
     1
100
AcDbPoint
 10
51.2269274193539
 20
38.90314516129062
 30
0.0
  0
POINT
  5
4D
330
32
100
AcDbEntity
  8
1
 62
     3
 60
     1
100
AcDbPoint
 10
31.2269274193539
 20
38.90314516129062
 30
0.0
  0
POINT
  5
4E
330
32
100
AcDbEntity
  8
1
 62
     3
 60
     1
100
AcDbPoint
 10
52.2269274193539
 20
38.90314516129062
 30
0.0
  0
POINT
  5
4F
330
32
100
AcDbEntity
  8
1
 62
     3
 60
     1
100
AcDbPoint
 10
30.2269274193539
 20
38.90314516129062
 30
0.0
  0
POINT
  5
50
330
32
100
AcDbEntity
  8
1
 62
     3
 60
     1
100
AcDbPoint
 10
29.2269274193539
 20
36.90314516129062
 30
0.0
  0
POINT
  5
51
330
32
100
AcDbEntity
  8
1
 62
     3
 60
     1
100
AcDbPoint
 10
29.2269274193539
 20
18.90314516129062
 30
0.0
  0
POINT
  5
52
330
32
100
AcDbEntity
  8
1
 62
     3
 60
     1
100
AcDbPoint
 10
53.2269274193539
 20
36.90314516129062
 30
0.0
  0
POINT
  5
53
330
32
100
AcDbEntity
  8
1
 62
     3
 60
     1
100
AcDbPoint
 10
53.2269274193539
 20
18.90314516129062
 30
0.0
  0
POINT
  5
54
330
32
100
AcDbEntity
  8
1
 62
     3
 60
     1
100
AcDbPoint
 10
54.2269274193539
 20
18.90314516129062
 30
0.0
  0
POINT
  5
55
330
32
100
AcDbEntity
  8
1
 62
     3
 60
     1
100
AcDbPoint
 10
54.2269274193539
 20
12.40314516129062
 30
0.0
  0
POINT
  5
56
330
32
100
AcDbEntity
  8
1
 62
     3
 60
     1
100
AcDbPoint
 10
28.2269274193539
 20
18.90314516129062
 30
0.0
  0
POINT
  5
57
330
32
100
AcDbEntity
  8
1
 62
     3
 60
     1
100
AcDbPoint
 10
28.2269274193539
 20
12.40314516129063
 30
0.0
  0
POINT
  5
58
330
32
100
AcDbEntity
  8
1
 62
     3
 60
     1
100
AcDbPoint
 10
56.2269274193539
 20
10.40314516129062
 30
0.0
  0
POINT
  5
59
330
32
100
AcDbEntity
  8
1
 62
     3
 60
     1
100
AcDbPoint
 10
56.2269274193539
 20
12.40314516129062
 30
0.0
  0
POINT
  5
5A
330
32
100
AcDbEntity
  8
1
 62
     3
 60
     1
100
AcDbPoint
 10
26.2269274193539
 20
10.40314516129062
 30
0.0
  0
POINT
  5
5B
330
32
100
AcDbEntity
  8
1
 62
     3
 60
     1
100
AcDbPoint
 10
26.2269274193539
 20
12.40314516129062
 30
0.0
  0
POINT
  5
5C
330
32
100
AcDbEntity
  8
1
 62
     3
 60
     1
100
AcDbPoint
 10
26.2269274193539
 20
-75.59685483870938
 30
0.0
  0
POINT
  5
5D
330
32
100
AcDbEntity
  8
1
 62
     3
 60
     1
100
AcDbPoint
 10
56.2269274193539
 20
-75.59685483870938
 30
0.0
  0
LINE
  5
5E
330
32
100
AcDbEntity
  8
1
  6
Continuous
 62
     7
100
AcDbLine
 10
-174.7730725806461
 20
16.90314516129063
 30
0.0
 11
-174.7730725806461
 21
42.90314516129063
 31
0.0
  0
LINE
  5
5F
330
32
100
AcDbEntity
  8
1
  6
Continuous
 62
     7
100
AcDbLine
 10
-180.7730725806461
 20
42.90314516129063
 30
0.0
 11
-180.7730725806461
 21
16.90314516129063
 31
0.0
  0
LINE
  5
60
330
32
100
AcDbEntity
  8
1
  6
Continuous
 62
     7
100
AcDbLine
 10
-187.7730725806461
 20
12.40314516129063
 30
0.0
 11
-167.7730725806461
 21
12.40314516129062
 31
0.0
  0
LINE
  5
61
330
32
100
AcDbEntity
  8
1
  6
Continuous
 62
     7
100
AcDbLine
 10
-187.7730725806461
 20
47.40314516129063
 30
0.0
 11
-187.7730725806461
 21
12.40314516129063
 31
0.0
  0
LINE
  5
62
330
32
100
AcDbEntity
  8
1
  6
Continuous
 62
     7
100
AcDbLine
 10
-167.7730725806461
 20
47.40314516129063
 30
0.0
 11
-187.7730725806461
 21
47.40314516129063
 31
0.0
  0
LINE
  5
63
330
32
100
AcDbEntity
  8
1
  6
Continuous
 62
     7
100
AcDbLine
 10
-167.7730725806461
 20
12.40314516129062
 30
0.0
 11
-162.7730725806461
 21
12.40314516129063
 31
0.0
  0
LINE
  5
64
330
32
100
AcDbEntity
  8
1
  6
Continuous
 62
     7
100
AcDbLine
 10
-167.7730725806461
 20
12.40314516129062
 30
0.0
 11
-167.7730725806461
 21
47.40314516129063
 31
0.0
  0
LINE
  5
65
330
32
100
AcDbEntity
  8
1
  6
Continuous
 62
     7
100
AcDbLine
 10
-162.7730725806461
 20
10.40314516129062
 30
0.0
 11
-154.2530725806461
 21
10.40314516129063
 31
0.0
  0
LINE
  5
66
330
32
100
AcDbEntity
  8
1
  6
Continuous
 62
     7
100
AcDbLine
 10
-162.7730725806461
 20
12.40314516129063
 30
0.0
 11
-162.7730725806461
 21
10.40314516129062
 31
0.0
  0
LINE
  5
67
330
32
100
AcDbEntity
  8
1
  6
Continuous
 62
     7
100
AcDbLine
 10
-192.6730725806461
 20
12.40314516129063
 30
0.0
 11
-187.7730725806461
 21
12.40314516129063
 31
0.0
  0
LINE
  5
68
330
32
100
AcDbEntity
  8
1
  6
Continuous
 62
     7
100
AcDbLine
 10
-192.6730725806461
 20
10.40314516129063
 30
0.0
 11
-192.4230725806461
 21
10.40314516129063
 31
0.0
  0
LINE
  5
69
330
32
100
AcDbEntity
  8
1
  6
Continuous
 62
     7
100
AcDbLine
 10
-192.6730725806461
 20
10.40314516129063
 30
0.0
 11
-192.6730725806461
 21
12.40314516129063
 31
0.0
  0
LINE
  5
6A
330
32
100
AcDbEntity
  8
1
  6
Continuous
 62
     7
100
AcDbLine
 10
-174.7730725806461
 20
-82.0968548387094
 30
0.0
 11
-174.7730725806461
 21
-108.0968548387094
 31
0.0
  0
LINE
  5
6B
330
32
100
AcDbEntity
  8
1
  6
Continuous
 62
     7
100
AcDbLine
 10
-180.7730725806461
 20
-108.0968548387094
 30
0.0
 11
-180.7730725806461
 21
-82.0968548387094
 31
0.0
  0
LINE
  5
6C
330
32
100
AcDbEntity
  8
1
  6
DOT_CENTER
 62
     2
100
AcDbLine
 10
41.2269274193539
 20
-80.614344174516
 30
0.0
 11
41.22692741935389
 21
42.92995592445743
 31
0.0
  0
LINE
  5
6D
330
32
100
AcDbEntity
  8
1
  6
Continuous
 62
     7
100
AcDbLine
 10
51.2269274193539
 20
-77.59685483870938
 30
0.0
 11
51.17692741935389
 21
-77.59685483870938
 31
0.0
  0
LINE
  5
6E
330
32
100
AcDbEntity
  8
1
  6
Continuous
 62
     7
100
AcDbLine
 10
51.2269274193539
 20
-75.59685483870938
 30
0.0
 11
50.27692741935391
 21
-75.59685483870938
 31
0.0
  0
LINE
  5
6F
330
32
100
AcDbEntity
  8
1
  6
DASHED
 62
     7
100
AcDbLine
 10
51.2269274193539
 20
-77.59685483870938
 30
0.0
 11
51.2269274193539
 21
-75.59685483870938
 31
0.0
  0
LINE
  5
70
330
32
100
AcDbEntity
  8
1
  6
Continuous
 62
     7
100
AcDbLine
 10
31.2269274193539
 20
-77.59685483870938
 30
0.0
 11
29.99692741935391
 21
-77.59685483870938
 31
0.0
  0
LINE
  5
71
330
32
100
AcDbEntity
  8
1
  6
Continuous
 62
     7
100
AcDbLine
 10
31.2269274193539
 20
-75.59685483870938
 30
0.0
 11
29.2269274193539
 21
-75.59685483870938
 31
0.0
  0
LINE
  5
72
330
32
100
AcDbEntity
  8
1
  6
DASHED
 62
     7
100
AcDbLine
 10
31.2269274193539
 20
-77.59685483870938
 30
0.0
 11
31.2269274193539
 21
-75.59685483870938
 31
0.0
  0
LINE
  5
73
330
32
100
AcDbEntity
  8
1
  6
Continuous
 62
     7
100
AcDbLine
 10
51.2269274193539
 20
38.90314516129062
 30
0.0
 11
52.2269274193539
 21
38.90314516129062
 31
0.0
  0
LINE
  5
74
330
32
100
AcDbEntity
  8
1
  6
Continuous
 62
     7
100
AcDbLine
 10
51.2269274193539
 20
10.40314516129062
 30
0.0
 11
52.32692741935389
 21
10.40314516129063
 31
0.0
  0
LINE
  5
75
330
32
100
AcDbEntity
  8
1
  6
DASHED
 62
     7
100
AcDbLine
 10
51.2269274193539
 20
38.90314516129062
 30
0.0
 11
51.2269274193539
 21
10.40314516129062
 31
0.0
  0
LINE
  5
76
330
32
100
AcDbEntity
  8
1
  6
Continuous
 62
     7
100
AcDbLine
 10
31.2269274193539
 20
38.90314516129062
 30
0.0
 11
51.2269274193539
 21
38.90314516129062
 31
0.0
  0
LINE
  5
77
330
32
100
AcDbEntity
  8
1
  6
Continuous
 62
     7
100
AcDbLine
 10
31.2269274193539
 20
10.40314516129062
 30
0.0
 11
51.2269274193539
 21
10.40314516129062
 31
0.0
  0
LINE
  5
78
330
32
100
AcDbEntity
  8
1
  6
DASHED
 62
     7
100
AcDbLine
 10
31.2269274193539
 20
38.90314516129062
 30
0.0
 11
31.2269274193539
 21
10.40314516129062
 31
0.0
  0
LINE
  5
79
330
32
100
AcDbEntity
  8
1
  6
Continuous
 62
     7
100
AcDbLine
 10
52.2269274193539
 20
38.90314516129062
 30
0.0
 11
53.2269274193539
 21
36.90314516129062
 31
0.0
  0
LINE
  5
7A
330
32
100
AcDbEntity
  8
1
  6
Continuous
 62
     7
100
AcDbLine
 10
30.2269274193539
 20
38.90314516129062
 30
0.0
 11
31.2269274193539
 21
38.90314516129062
 31
0.0
  0
LINE
  5
7B
330
32
100
AcDbEntity
  8
1
  6
Continuous
 62
     7
100
AcDbLine
 10
29.2269274193539
 20
36.90314516129062
 30
0.0
 11
30.2269274193539
 21
38.90314516129062
 31
0.0
  0
LINE
  5
7C
330
32
100
AcDbEntity
  8
1
  6
Continuous
 62
     7
100
AcDbLine
 10
29.2269274193539
 20
36.90314516129062
 30
0.0
 11
53.2269274193539
 21
36.90314516129062
 31
0.0
  0
LINE
  5
7D
330
32
100
AcDbEntity
  8
1
  6
Continuous
 62
     7
100
AcDbLine
 10
29.2269274193539
 20
18.90314516129062
 30
0.0
 11
28.2269274193539
 21
18.90314516129062
 31
0.0
  0
LINE
  5
7E
330
32
100
AcDbEntity
  8
1
  6
Continuous
 62
     7
100
AcDbLine
 10
29.2269274193539
 20
18.90314516129062
 30
0.0
 11
29.2269274193539
 21
36.90314516129062
 31
0.0
  0
LINE
  5
7F
330
32
100
AcDbEntity
  8
1
  6
Continuous
 62
     7
100
AcDbLine
 10
53.2269274193539
 20
18.90314516129062
 30
0.0
 11
29.2269274193539
 21
18.90314516129062
 31
0.0
  0
LINE
  5
80
330
32
100
AcDbEntity
  8
1
  6
Continuous
 62
     7
100
AcDbLine
 10
53.2269274193539
 20
18.90314516129062
 30
0.0
 11
53.2269274193539
 21
36.90314516129062
 31
0.0
  0
LINE
  5
81
330
32
100
AcDbEntity
  8
1
  6
Continuous
 62
     7
100
AcDbLine
 10
54.2269274193539
 20
18.90314516129062
 30
0.0
 11
53.2269274193539
 21
18.90314516129062
 31
0.0
  0
LINE
  5
82
330
32
100
AcDbEntity
  8
1
  6
Continuous
 62
     7
100
AcDbLine
 10
54.2269274193539
 20
12.40314516129062
 30
0.0
 11
56.2269274193539
 21
12.40314516129062
 31
0.0
  0
LINE
  5
83
330
32
100
AcDbEntity
  8
1
  6
Continuous
 62
     7
100
AcDbLine
 10
54.2269274193539
 20
12.40314516129062
 30
0.0
 11
54.2269274193539
 21
18.90314516129062
 31
0.0
  0
LINE
  5
84
330
32
100
AcDbEntity
  8
1
  6
Continuous
 62
     7
100
AcDbLine
 10
28.2269274193539
 20
12.40314516129063
 30
0.0
 11
54.2269274193539
 21
12.40314516129062
 31
0.0
  0
LINE
  5
85
330
32
100
AcDbEntity
  8
1
  6
Continuous
 62
     7
100
AcDbLine
 10
28.2269274193539
 20
12.40314516129063
 30
0.0
 11
28.2269274193539
 21
18.90314516129062
 31
0.0
  0
LINE
  5
86
330
32
100
AcDbEntity
  8
1
  6
Continuous
 62
     7
100
AcDbLine
 10
56.2269274193539
 20
10.40314516129062
 30
0.0
 11
64.74692741935391
 21
10.40314516129063
 31
0.0
  0
LINE
  5
87
330
32
100
AcDbEntity
  8
1
  6
Continuous
 62
     7
100
AcDbLine
 10
56.2269274193539
 20
12.40314516129062
 30
0.0
 11
56.2269274193539
 21
10.40314516129062
 31
0.0
  0
LINE
  5
88
330
32
100
AcDbEntity
  8
1
  6
Continuous
 62
     7
100
AcDbLine
 10
26.2269274193539
 20
12.40314516129062
 30
0.0
 11
28.2269274193539
 21
12.40314516129063
 31
0.0
  0
LINE
  5
89
330
32
100
AcDbEntity
  8
1
  6
Continuous
 62
     7
100
AcDbLine
 10
26.2269274193539
 20
10.40314516129062
 30
0.0
 11
26.57692741935389
 21
10.40314516129063
 31
0.0
  0
LINE
  5
8A
330
32
100
AcDbEntity
  8
1
  6
Continuous
 62
     7
100
AcDbLine
 10
26.2269274193539
 20
12.40314516129062
 30
0.0
 11
26.2269274193539
 21
10.40314516129062
 31
0.0
  0
LINE
  5
8B
330
32
100
AcDbEntity
  8
1
  6
Continuous
 62
     7
100
AcDbLine
 10
-133.2730725806461
 20
-75.58685483870939
 30
0.0
 11
-133.2730725806461
 21
-62.58685483870939
 31
0.0
  0
LINE
  5
8C
330
32
100
AcDbEntity
  8
1
  6
Continuous
 62
     7
100
AcDbLine
 10
-222.2730725806461
 20
-62.58685483870939
 30
0.0
 11
-222.2730725806461
 21
-75.58685483870939
 31
0.0
  0
LINE
  5
8D
330
32
100
AcDbEntity
  8
1
  6
Continuous
 62
     7
100
AcDbLine
 10
-131.2030725806461
 20
0.63314516129062
 30
0.0
 11
-144.5530725806461
 21
-0.34685483870937
 31
0.0
  0
LINE
  5
8E
330
32
100
AcDbEntity
  8
1
  6
Continuous
 62
     7
100
AcDbLine
 10
-210.7730725806461
 20
-3.09685483870937
 30
0.0
 11
-217.7730725806461
 21
-3.09685483870937
 31
0.0
  0
LINE
  5
8F
330
32
100
AcDbEntity
  8
1
  6
Continuous
 62
     7
100
AcDbLine
 10
-162.7730725806461
 20
-77.59685483870938
 30
0.0
 11
-162.7730725806461
 21
-75.59685483870938
 31
0.0
  0
LINE
  5
90
330
32
100
AcDbEntity
  8
1
  6
Continuous
 62
     7
100
AcDbLine
 10
-192.7730725806461
 20
-75.59685483870938
 30
0.0
 11
-192.7730725806461
 21
-77.59685483870938
 31
0.0
  0
LINE
  5
91
330
32
100
AcDbEntity
  8
1
  6
Continuous
 62
     7
100
AcDbLine
 10
-167.7730725806461
 20
-112.5968548387094
 30
0.0
 11
-167.7730725806461
 21
-77.59685483870938
 31
0.0
  0
LINE
  5
92
330
32
100
AcDbEntity
  8
1
  6
Continuous
 62
     7
100
AcDbLine
 10
-187.7730725806461
 20
-77.59685483870938
 30
0.0
 11
-187.7730725806461
 21
-112.5968548387094
 31
0.0
  0
LINE
  5
93
330
32
100
AcDbEntity
  8
1
  6
Continuous
 62
     7
100
AcDbLine
 10
-217.7730725806461
 20
-3.09685483870937
 30
0.0
 11
-218.5530725806461
 21
-3.24685483870938
 31
0.0
  0
LINE
  5
94
330
32
100
AcDbEntity
  8
1
  6
Continuous
 62
     7
100
AcDbLine
 10
-218.5530725806461
 20
-3.24685483870938
 30
0.0
 11
-219.2030725806461
 21
-3.66685483870939
 31
0.0
  0
LINE
  5
95
330
32
100
AcDbEntity
  8
1
  6
Continuous
 62
     7
100
AcDbLine
 10
-219.2030725806461
 20
-3.66685483870939
 30
0.0
 11
-219.6230725806461
 21
-4.31685483870937
 31
0.0
  0
LINE
  5
96
330
32
100
AcDbEntity
  8
1
  6
Continuous
 62
     7
100
AcDbLine
 10
-219.6230725806461
 20
-4.31685483870937
 30
0.0
 11
-219.7730725806461
 21
-5.09685483870937
 31
0.0
  0
LINE
  5
97
330
32
100
AcDbEntity
  8
1
  6
Continuous
 62
     7
100
AcDbLine
 10
-210.7730725806461
 20
-3.06685483870937
 30
0.0
 11
-210.0030725806461
 21
-2.96685483870938
 31
0.0
  0
LINE
  5
98
330
32
100
AcDbEntity
  8
1
  6
Continuous
 62
     7
100
AcDbLine
 10
-210.0030725806461
 20
-2.96685483870938
 30
0.0
 11
-209.3030725806461
 21
-2.66685483870939
 31
0.0
  0
LINE
  5
99
330
32
100
AcDbEntity
  8
1
  6
Continuous
 62
     7
100
AcDbLine
 10
-209.3030725806461
 20
-2.66685483870939
 30
0.0
 11
-208.6730725806461
 21
-2.19685483870939
 31
0.0
  0
LINE
  5
9A
330
32
100
AcDbEntity
  8
1
  6
Continuous
 62
     7
100
AcDbLine
 10
-208.6730725806461
 20
-2.19685483870939
 30
0.0
 11
-208.2030725806461
 21
-1.59685483870937
 31
0.0
  0
LINE
  5
9B
330
32
100
AcDbEntity
  8
1
  6
Continuous
 62
     7
100
AcDbLine
 10
-208.2030725806461
 20
-1.59685483870937
 30
0.0
 11
-207.9030725806461
 21
-0.86685483870938
 31
0.0
  0
LINE
  5
9C
330
32
100
AcDbEntity
  8
1
  6
Continuous
 62
     7
100
AcDbLine
 10
-207.9030725806461
 20
-0.86685483870938
 30
0.0
 11
-207.8030725806461
 21
-0.09685483870937
 31
0.0
  0
LINE
  5
9D
330
32
100
AcDbEntity
  8
1
  6
Continuous
 62
     7
100
AcDbLine
 10
-145.5730725806461
 20
-0.24685483870938
 30
0.0
 11
-145.0730725806461
 21
-0.31685483870937
 31
0.0
  0
LINE
  5
9E
330
32
100
AcDbEntity
  8
1
  6
Continuous
 62
     7
100
AcDbLine
 10
-145.0730725806461
 20
-0.31685483870937
 30
0.0
 11
-144.5530725806461
 21
-0.34685483870937
 31
0.0
  0
LINE
  5
9F
330
32
100
AcDbEntity
  8
1
  6
Continuous
 62
     7
100
AcDbLine
 10
-87.1230725806461
 20
9.90314516129063
 30
0.0
 11
-90.4030725806461
 21
9.5531451612906
 31
0.0
  0
LINE
  5
A0
330
32
100
AcDbEntity
  8
1
  6
Continuous
 62
     7
100
AcDbLine
 10
-90.47307258064609
 20
9.53314516129062
 30
0.0
 11
-94.7730725806461
 21
8.58314516129061
 31
0.0
  0
LINE
  5
A1
330
32
100
AcDbEntity
  8
1
  6
Continuous
 62
     7
100
AcDbLine
 10
-94.7730725806461
 20
8.58314516129061
 30
0.0
 11
-100.2530725806461
 21
7.38314516129062
 31
0.0
  0
LINE
  5
A2
330
32
100
AcDbEntity
  8
1
  6
Continuous
 62
     7
100
AcDbLine
 10
-100.2530725806461
 20
7.38314516129062
 30
0.0
 11
-106.5730725806461
 21
5.98314516129061
 31
0.0
  0
LINE
  5
A3
330
32
100
AcDbEntity
  8
1
  6
Continuous
 62
     7
100
AcDbLine
 10
-106.5730725806461
 20
5.98314516129061
 30
0.0
 11
-113.7530725806461
 21
4.40314516129063
 31
0.0
  0
LINE
  5
A4
330
32
100
AcDbEntity
  8
1
  6
Continuous
 62
     7
100
AcDbLine
 10
-113.7530725806461
 20
4.40314516129063
 30
0.0
 11
-121.7530725806461
 21
2.65314516129063
 31
0.0
  0
LINE
  5
A5
330
32
100
AcDbEntity
  8
1
  6
Continuous
 62
     7
100
AcDbLine
 10
-121.7530725806461
 20
2.65314516129063
 30
0.0
 11
-130.3530725806461
 21
0.75314516129062
 31
0.0
  0
LINE
  5
A6
330
32
100
AcDbEntity
  8
1
  6
Continuous
 62
     7
100
AcDbLine
 10
-130.3530725806461
 20
0.75314516129062
 30
0.0
 11
-131.2030725806461
 21
0.63314516129062
 31
0.0
  0
LINE
  5
A7
330
32
100
AcDbEntity
  8
1
  6
Continuous
 62
     7
100
AcDbLine
 10
-145.2530725806461
 20
-0.34685483870937
 30
0.0
 11
-145.2730725806461
 21
-0.34685483870937
 31
0.0
  0
LINE
  5
A8
330
32
100
AcDbEntity
  8
1
  6
Continuous
 62
     7
100
AcDbLine
 10
-145.2730725806461
 20
-0.34685483870937
 30
0.0
 11
-145.9730725806461
 21
0.03314516129062
 31
0.0
  0
LINE
  5
A9
330
32
100
AcDbEntity
  8
1
  6
Continuous
 62
     7
100
AcDbLine
 10
-145.9730725806461
 20
0.03314516129062
 30
0.0
 11
-146.6230725806461
 21
0.53314516129062
 31
0.0
  0
LINE
  5
AA
330
32
100
AcDbEntity
  8
1
  6
Continuous
 62
     7
100
AcDbLine
 10
-146.6230725806461
 20
0.53314516129062
 30
0.0
 11
-147.1230725806461
 21
1.18314516129063
 31
0.0
  0
LINE
  5
AB
330
32
100
AcDbEntity
  8
1
  6
Continuous
 62
     7
100
AcDbLine
 10
-147.1230725806461
 20
1.18314516129063
 30
0.0
 11
-147.5030725806461
 21
1.88314516129062
 31
0.0
  0
LINE
  5
AC
330
32
100
AcDbEntity
  8
1
  6
Continuous
 62
     7
100
AcDbLine
 10
-147.5030725806461
 20
1.88314516129062
 30
0.0
 11
-147.7730725806461
 21
3.33314516129061
 31
0.0
  0
LINE
  5
AD
330
32
100
AcDbEntity
  8
1
  6
Continuous
 62
     7
100
AcDbLine
 10
-74.2730725806461
 20
-1.46685483870938
 30
0.0
 11
-74.2730725806461
 21
-49.6968548387094
 31
0.0
  0
LINE
  5
AE
330
32
100
AcDbEntity
  8
1
  6
Continuous
 62
     7
100
AcDbLine
 10
-74.2730725806461
 20
-49.6968548387094
 30
0.0
 11
-74.2730725806461
 21
-52.1968548387094
 31
0.0
  0
LINE
  5
AF
330
32
100
AcDbEntity
  8
1
  6
Continuous
 62
     7
100
AcDbLine
 10
-74.2730725806461
 20
-52.1968548387094
 30
0.0
 11
-74.2730725806461
 21
-54.51685483870939
 31
0.0
  0
LINE
  5
B0
330
32
100
AcDbEntity
  8
1
  6
Continuous
 62
     7
100
AcDbLine
 10
-74.2730725806461
 20
-54.51685483870939
 30
0.0
 11
-74.2730725806461
 21
-56.71685483870938
 31
0.0
  0
LINE
  5
B1
330
32
100
AcDbEntity
  8
1
  6
Continuous
 62
     7
100
AcDbLine
 10
-74.2730725806461
 20
-56.71685483870938
 30
0.0
 11
-74.2730725806461
 21
-58.74685483870938
 31
0.0
  0
LINE
  5
B2
330
32
100
AcDbEntity
  8
1
  6
Continuous
 62
     7
100
AcDbLine
 10
-74.2730725806461
 20
-58.74685483870938
 30
0.0
 11
-74.2730725806461
 21
-60.59685483870938
 31
0.0
  0
LINE
  5
B3
330
32
100
AcDbEntity
  8
1
  6
Continuous
 62
     7
100
AcDbLine
 10
-74.2730725806461
 20
9.40314516129063
 30
0.0
 11
-74.2730725806461
 21
7.5531451612906
 31
0.0
  0
LINE
  5
B4
330
32
100
AcDbEntity
  8
1
  6
Continuous
 62
     7
100
AcDbLine
 10
-74.2730725806461
 20
7.5531451612906
 30
0.0
 11
-74.2730725806461
 21
5.53314516129062
 31
0.0
  0
LINE
  5
B5
330
32
100
AcDbEntity
  8
1
  6
Continuous
 62
     7
100
AcDbLine
 10
-74.2730725806461
 20
5.53314516129062
 30
0.0
 11
-74.2730725806461
 21
3.35314516129062
 31
0.0
  0
LINE
  5
B6
330
32
100
AcDbEntity
  8
1
  6
Continuous
 62
     7
100
AcDbLine
 10
-74.2730725806461
 20
3.35314516129062
 30
0.0
 11
-74.2730725806461
 21
1.00314516129062
 31
0.0
  0
LINE
  5
B7
330
32
100
AcDbEntity
  8
1
  6
Continuous
 62
     7
100
AcDbLine
 10
-74.2730725806461
 20
1.00314516129062
 30
0.0
 11
-74.2730725806461
 21
-1.46685483870938
 31
0.0
  0
LINE
  5
B8
330
32
100
AcDbEntity
  8
1
  6
Continuous
 62
     7
100
AcDbLine
 10
-74.2730725806461
 20
-1.46685483870938
 30
0.0
 11
-74.5530725806461
 21
-1.39685483870938
 31
0.0
  0
LINE
  5
B9
330
32
100
AcDbEntity
  8
1
  6
Continuous
 62
     7
100
AcDbLine
 10
-74.5530725806461
 20
-1.39685483870938
 30
0.0
 11
-74.7730725806461
 21
-1.31685483870937
 31
0.0
  0
LINE
  5
BA
330
32
100
AcDbEntity
  8
1
  6
Continuous
 62
     7
100
AcDbLine
 10
-74.7730725806461
 20
-49.84685483870938
 30
0.0
 11
-74.7730725806461
 21
-1.31685483870937
 31
0.0
  0
LINE
  5
BB
330
32
100
AcDbEntity
  8
1
  6
Continuous
 62
     7
100
AcDbLine
 10
-74.2730725806461
 20
-49.6968548387094
 30
0.0
 11
-74.5530725806461
 21
-49.79685483870939
 31
0.0
  0
LINE
  5
BC
330
32
100
AcDbEntity
  8
1
  6
Continuous
 62
     7
100
AcDbLine
 10
-74.5530725806461
 20
-49.79685483870939
 30
0.0
 11
-74.7730725806461
 21
-49.84685483870938
 31
0.0
  0
LINE
  5
BD
330
32
100
AcDbEntity
  8
1
  6
Continuous
 62
     7
100
AcDbLine
 10
-74.7730725806461
 20
-61.09685483870938
 30
0.0
 11
-74.50307258064609
 21
-60.8168548387094
 31
0.0
  0
LINE
  5
BE
330
32
100
AcDbEntity
  8
1
  6
Continuous
 62
     7
100
AcDbLine
 10
-74.50307258064609
 20
-60.8168548387094
 30
0.0
 11
-74.2730725806461
 21
-60.59685483870938
 31
0.0
  0
LINE
  5
BF
330
32
100
AcDbEntity
  8
1
  6
Continuous
 62
     7
100
AcDbLine
 10
-74.7730725806461
 20
-61.09685483870938
 30
0.0
 11
-74.7730725806461
 21
-59.1968548387094
 31
0.0
  0
LINE
  5
C0
330
32
100
AcDbEntity
  8
1
  6
Continuous
 62
     7
100
AcDbLine
 10
-74.7730725806461
 20
-59.1968548387094
 30
0.0
 11
-74.7730725806461
 21
-57.09685483870938
 31
0.0
  0
LINE
  5
C1
330
32
100
AcDbEntity
  8
1
  6
Continuous
 62
     7
100
AcDbLine
 10
-74.7730725806461
 20
-57.09685483870938
 30
0.0
 11
-74.7730725806461
 21
-54.84685483870938
 31
0.0
  0
LINE
  5
C2
330
32
100
AcDbEntity
  8
1
  6
Continuous
 62
     7
100
AcDbLine
 10
-74.7730725806461
 20
-54.84685483870938
 30
0.0
 11
-74.7730725806461
 21
-52.41685483870937
 31
0.0
  0
LINE
  5
C3
330
32
100
AcDbEntity
  8
1
  6
Continuous
 62
     7
100
AcDbLine
 10
-74.7730725806461
 20
-52.41685483870937
 30
0.0
 11
-74.7730725806461
 21
-49.84685483870938
 31
0.0
  0
LINE
  5
C4
330
32
100
AcDbEntity
  8
1
  6
Continuous
 62
     7
100
AcDbLine
 10
-74.2730725806461
 20
9.40314516129063
 30
0.0
 11
-74.5530725806461
 21
9.68314516129063
 31
0.0
  0
LINE
  5
C5
330
32
100
AcDbEntity
  8
1
  6
Continuous
 62
     7
100
AcDbLine
 10
-74.5530725806461
 20
9.68314516129063
 30
0.0
 11
-74.7730725806461
 21
9.90314516129063
 31
0.0
  0
LINE
  5
C6
330
32
100
AcDbEntity
  8
1
  6
Continuous
 62
     7
100
AcDbLine
 10
-74.7730725806461
 20
-1.31685483870937
 30
0.0
 11
-74.7730725806461
 21
1.25314516129062
 31
0.0
  0
LINE
  5
C7
330
32
100
AcDbEntity
  8
1
  6
Continuous
 62
     7
100
AcDbLine
 10
-74.7730725806461
 20
1.25314516129062
 30
0.0
 11
-74.7730725806461
 21
3.65314516129063
 31
0.0
  0
LINE
  5
C8
330
32
100
AcDbEntity
  8
1
  6
Continuous
 62
     7
100
AcDbLine
 10
-74.7730725806461
 20
3.65314516129063
 30
0.0
 11
-74.7730725806461
 21
5.93314516129063
 31
0.0
  0
LINE
  5
C9
330
32
100
AcDbEntity
  8
1
  6
Continuous
 62
     7
100
AcDbLine
 10
-74.7730725806461
 20
5.93314516129063
 30
0.0
 11
-74.7730725806461
 21
8.00314516129062
 31
0.0
  0
LINE
  5
CA
330
32
100
AcDbEntity
  8
1
  6
Continuous
 62
     7
100
AcDbLine
 10
-74.7730725806461
 20
8.00314516129062
 30
0.0
 11
-74.7730725806461
 21
9.90314516129063
 31
0.0
  0
LINE
  5
CB
330
32
100
AcDbEntity
  8
1
  6
Continuous
 62
     7
100
AcDbLine
 10
-74.7730725806461
 20
-49.84685483870938
 30
0.0
 11
-85.9030725806461
 21
-49.84685483870938
 31
0.0
  0
LINE
  5
CC
330
32
100
AcDbEntity
  8
1
  6
Continuous
 62
     7
100
AcDbLine
 10
-74.7730725806461
 20
-1.31685483870937
 30
0.0
 11
-85.9030725806461
 21
-1.31685483870937
 31
0.0
  0
LINE
  5
CD
330
32
100
AcDbEntity
  8
1
  6
Continuous
 62
     7
100
AcDbLine
 10
-85.9030725806461
 20
-1.31685483870937
 30
0.0
 11
-86.1530725806461
 21
-1.31685483870937
 31
0.0
  0
LINE
  5
CE
330
32
100
AcDbEntity
  8
1
  6
Continuous
 62
     7
100
AcDbLine
 10
-86.1530725806461
 20
-1.31685483870937
 30
0.0
 11
-86.32307258064608
 21
-1.34685483870937
 31
0.0
  0
LINE
  5
CF
330
32
100
AcDbEntity
  8
1
  6
Continuous
 62
     7
100
AcDbLine
 10
-86.32307258064608
 20
-49.84685483870938
 30
0.0
 11
-86.10307258064609
 21
-49.84685483870938
 31
0.0
  0
LINE
  5
D0
330
32
100
AcDbEntity
  8
1
  6
Continuous
 62
     7
100
AcDbLine
 10
-86.10307258064609
 20
-49.84685483870938
 30
0.0
 11
-85.9030725806461
 21
-49.84685483870938
 31
0.0
  0
LINE
  5
D1
330
32
100
AcDbEntity
  8
1
  6
Continuous
 62
     7
100
AcDbLine
 10
-74.7730725806461
 20
-61.09685483870938
 30
0.0
 11
-85.9030725806461
 21
-61.09685483870938
 31
0.0
  0
LINE
  5
D2
330
32
100
AcDbEntity
  8
1
  6
Continuous
 62
     7
100
AcDbLine
 10
-74.7730725806461
 20
9.90314516129063
 30
0.0
 11
-85.9030725806461
 21
9.90314516129063
 31
0.0
  0
LINE
  5
D3
330
32
100
AcDbEntity
  8
1
  6
Continuous
 62
     7
100
AcDbLine
 10
-85.9030725806461
 20
-61.09685483870938
 30
0.0
 11
-86.1530725806461
 21
-61.09685483870938
 31
0.0
  0
LINE
  5
D4
330
32
100
AcDbEntity
  8
1
  6
Continuous
 62
     7
100
AcDbLine
 10
-86.1530725806461
 20
-61.09685483870938
 30
0.0
 11
-86.32307258064608
 21
-61.09685483870938
 31
0.0
  0
LINE
  5
D5
330
32
100
AcDbEntity
  8
1
  6
Continuous
 62
     7
100
AcDbLine
 10
-86.32307258064608
 20
-61.09685483870938
 30
0.0
 11
-86.45307258064611
 21
-61.09685483870938
 31
0.0
  0
LINE
  5
D6
330
32
100
AcDbEntity
  8
1
  6
Continuous
 62
     7
100
AcDbLine
 10
-86.45307258064611
 20
-61.09685483870938
 30
0.0
 11
-86.57307258064608
 21
-61.09685483870938
 31
0.0
  0
LINE
  5
D7
330
32
100
AcDbEntity
  8
1
  6
Continuous
 62
     7
100
AcDbLine
 10
-86.57307258064608
 20
-61.09685483870938
 30
0.0
 11
-86.6530725806461
 21
-61.09685483870938
 31
0.0
  0
LINE
  5
D8
330
32
100
AcDbEntity
  8
1
  6
Continuous
 62
     7
100
AcDbLine
 10
-86.6530725806461
 20
-61.09685483870938
 30
0.0
 11
-86.75307258064609
 21
-61.09685483870938
 31
0.0
  0
LINE
  5
D9
330
32
100
AcDbEntity
  8
1
  6
Continuous
 62
     7
100
AcDbLine
 10
-86.75307258064609
 20
-61.09685483870938
 30
0.0
 11
-86.82307258064608
 21
-61.09685483870938
 31
0.0
  0
LINE
  5
DA
330
32
100
AcDbEntity
  8
1
  6
Continuous
 62
     7
100
AcDbLine
 10
-86.82307258064608
 20
-61.09685483870938
 30
0.0
 11
-86.9030725806461
 21
-61.09685483870938
 31
0.0
  0
LINE
  5
DB
330
32
100
AcDbEntity
  8
1
  6
Continuous
 62
     7
100
AcDbLine
 10
-86.9030725806461
 20
-61.09685483870938
 30
0.0
 11
-86.97307258064609
 21
-61.09685483870938
 31
0.0
  0
LINE
  5
DC
330
32
100
AcDbEntity
  8
1
  6
Continuous
 62
     7
100
AcDbLine
 10
-86.97307258064609
 20
-61.09685483870938
 30
0.0
 11
-87.3730725806461
 21
-61.09685483870938
 31
0.0
  0
LINE
  5
DD
330
32
100
AcDbEntity
  8
1
  6
Continuous
 62
     7
100
AcDbLine
 10
-87.3730725806461
 20
-61.09685483870938
 30
0.0
 11
-87.72307258064609
 21
-61.09685483870938
 31
0.0
  0
LINE
  5
DE
330
32
100
AcDbEntity
  8
1
  6
Continuous
 62
     7
100
AcDbLine
 10
-87.72307258064609
 20
-61.09685483870938
 30
0.0
 11
-88.1230725806461
 21
-61.09685483870938
 31
0.0
  0
LINE
  5
DF
330
32
100
AcDbEntity
  8
1
  6
Continuous
 62
     7
100
AcDbLine
 10
-87.1230725806461
 20
9.90314516129063
 30
0.0
 11
-87.0230725806461
 21
9.90314516129063
 31
0.0
  0
LINE
  5
E0
330
32
100
AcDbEntity
  8
1
  6
Continuous
 62
     7
100
AcDbLine
 10
-87.0230725806461
 20
9.90314516129063
 30
0.0
 11
-86.82307258064608
 21
9.90314516129063
 31
0.0
  0
LINE
  5
E1
330
32
100
AcDbEntity
  8
1
  6
Continuous
 62
     7
100
AcDbLine
 10
-86.82307258064608
 20
9.90314516129063
 30
0.0
 11
-86.72307258064609
 21
9.90314516129063
 31
0.0
  0
LINE
  5
E2
330
32
100
AcDbEntity
  8
1
  6
Continuous
 62
     7
100
AcDbLine
 10
-86.72307258064609
 20
9.90314516129063
 30
0.0
 11
-86.60307258064609
 21
9.90314516129063
 31
0.0
  0
LINE
  5
E3
330
32
100
AcDbEntity
  8
1
  6
Continuous
 62
     7
100
AcDbLine
 10
-86.60307258064609
 20
9.90314516129063
 30
0.0
 11
-86.47307258064609
 21
9.90314516129063
 31
0.0
  0
LINE
  5
E4
330
32
100
AcDbEntity
  8
1
  6
Continuous
 62
     7
100
AcDbLine
 10
-86.47307258064609
 20
9.90314516129063
 30
0.0
 11
-86.32307258064608
 21
9.90314516129063
 31
0.0
  0
LINE
  5
E5
330
32
100
AcDbEntity
  8
1
  6
Continuous
 62
     7
100
AcDbLine
 10
-86.32307258064608
 20
9.90314516129063
 30
0.0
 11
-86.10307258064609
 21
9.90314516129063
 31
0.0
  0
LINE
  5
E6
330
32
100
AcDbEntity
  8
1
  6
Continuous
 62
     7
100
AcDbLine
 10
-86.10307258064609
 20
9.90314516129063
 30
0.0
 11
-85.9030725806461
 21
9.90314516129063
 31
0.0
  0
LINE
  5
E7
330
32
100
AcDbEntity
  8
1
  6
Continuous
 62
     7
100
AcDbLine
 10
-86.32307258064608
 20
-1.34685483870937
 30
0.0
 11
-87.57307258064608
 21
-1.41685483870939
 31
0.0
  0
LINE
  5
E8
330
32
100
AcDbEntity
  8
1
  6
Continuous
 62
     7
100
AcDbLine
 10
-87.57307258064608
 20
-1.41685483870939
 30
0.0
 11
-88.82307258064608
 21
-1.54685483870939
 31
0.0
  0
LINE
  5
E9
330
32
100
AcDbEntity
  8
1
  6
Continuous
 62
     7
100
AcDbLine
 10
-88.82307258064608
 20
-1.54685483870939
 30
0.0
 11
-91.1230725806461
 21
-1.86685483870938
 31
0.0
  0
LINE
  5
EA
330
32
100
AcDbEntity
  8
1
  6
Continuous
 62
     7
100
AcDbLine
 10
-86.32307258064608
 20
-49.84685483870938
 30
0.0
 11
-87.57307258064608
 21
-49.76685483870939
 31
0.0
  0
LINE
  5
EB
330
32
100
AcDbEntity
  8
1
  6
Continuous
 62
     7
100
AcDbLine
 10
-87.57307258064608
 20
-49.76685483870939
 30
0.0
 11
-88.82307258064608
 21
-49.64685483870939
 31
0.0
  0
LINE
  5
EC
330
32
100
AcDbEntity
  8
1
  6
Continuous
 62
     7
100
AcDbLine
 10
-88.82307258064608
 20
-49.64685483870939
 30
0.0
 11
-91.1230725806461
 21
-49.3168548387094
 31
0.0
  0
LINE
  5
ED
330
32
100
AcDbEntity
  8
1
  6
Continuous
 62
     7
100
AcDbLine
 10
-91.1230725806461
 20
-1.86685483870938
 30
0.0
 11
-91.45307258064611
 21
-1.91685483870939
 31
0.0
  0
LINE
  5
EE
330
32
100
AcDbEntity
  8
1
  6
Continuous
 62
     7
100
AcDbLine
 10
-86.32307258064608
 20
9.90314516129063
 30
0.0
 11
-87.57307258064608
 21
9.85314516129062
 31
0.0
  0
LINE
  5
EF
330
32
100
AcDbEntity
  8
1
  6
Continuous
 62
     7
100
AcDbLine
 10
-87.57307258064608
 20
9.85314516129062
 30
0.0
 11
-88.82307258064608
 21
9.70314516129061
 31
0.0
  0
LINE
  5
F0
330
32
100
AcDbEntity
  8
1
  6
Continuous
 62
     7
100
AcDbLine
 10
-88.82307258064608
 20
9.70314516129061
 30
0.0
 11
-91.1230725806461
 21
9.13314516129062
 31
0.0
  0
LINE
  5
F1
330
32
100
AcDbEntity
  8
1
  6
Continuous
 62
     7
100
AcDbLine
 10
-91.45307258064611
 20
9.03314516129062
 30
0.0
 11
-91.1230725806461
 21
9.13314516129062
 31
0.0
  0
LINE
  5
F2
330
32
100
AcDbEntity
  8
1
  6
Continuous
 62
     7
100
AcDbLine
 10
-91.1230725806461
 20
-60.3168548387094
 30
0.0
 11
-91.45307258064611
 21
-60.21685483870938
 31
0.0
  0
LINE
  5
F3
330
32
100
AcDbEntity
  8
1
  6
Continuous
 62
     7
100
AcDbLine
 10
-86.32307258064608
 20
-61.09685483870938
 30
0.0
 11
-87.57307258064608
 21
-61.04685483870939
 31
0.0
  0
LINE
  5
F4
330
32
100
AcDbEntity
  8
1
  6
Continuous
 62
     7
100
AcDbLine
 10
-87.57307258064608
 20
-61.04685483870939
 30
0.0
 11
-88.82307258064608
 21
-60.89685483870939
 31
0.0
  0
LINE
  5
F5
330
32
100
AcDbEntity
  8
1
  6
Continuous
 62
     7
100
AcDbLine
 10
-88.82307258064608
 20
-60.89685483870939
 30
0.0
 11
-91.1230725806461
 21
-60.3168548387094
 31
0.0
  0
LINE
  5
F6
330
32
100
AcDbEntity
  8
1
  6
Continuous
 62
     7
100
AcDbLine
 10
-91.45307258064611
 20
-49.24685483870938
 30
0.0
 11
-91.1230725806461
 21
-49.3168548387094
 31
0.0
  0
LINE
  5
F7
330
32
100
AcDbEntity
  8
1
  6
Continuous
 62
     7
100
AcDbLine
 10
-88.1230725806461
 20
-61.09685483870938
 30
0.0
 11
-88.4230725806461
 21
-61.09685483870938
 31
0.0
  0
LINE
  5
F8
330
32
100
AcDbEntity
  8
1
  6
Continuous
 62
     7
100
AcDbLine
 10
-88.4230725806461
 20
-61.09685483870938
 30
0.0
 11
-88.7730725806461
 21
-61.0668548387094
 31
0.0
  0
LINE
  5
F9
330
32
100
AcDbEntity
  8
1
  6
Continuous
 62
     7
100
AcDbLine
 10
-88.7730725806461
 20
-61.0668548387094
 30
0.0
 11
-89.4230725806461
 21
-61.01685483870939
 31
0.0
  0
LINE
  5
FA
330
32
100
AcDbEntity
  8
1
  6
Continuous
 62
     7
100
AcDbLine
 10
-88.60307258064609
 20
-61.01685483870939
 30
0.0
 11
-88.3730725806461
 21
-61.0668548387094
 31
0.0
  0
LINE
  5
FB
330
32
100
AcDbEntity
  8
1
  6
Continuous
 62
     7
100
AcDbLine
 10
-88.3730725806461
 20
-61.0668548387094
 30
0.0
 11
-88.1230725806461
 21
-61.09685483870938
 31
0.0
  0
LINE
  5
FC
330
32
100
AcDbEntity
  8
1
  6
Continuous
 62
     7
100
AcDbLine
 10
-91.45307258064611
 20
-1.91685483870939
 30
0.0
 11
-129.9230725806461
 21
-10.59685483870937
 31
0.0
  0
LINE
  5
FD
330
32
100
AcDbEntity
  8
1
  6
Continuous
 62
     7
100
AcDbLine
 10
-129.9230725806461
 20
-40.59685483870938
 30
0.0
 11
-91.45307258064611
 21
-49.24685483870938
 31
0.0
  0
LINE
  5
FE
330
32
100
AcDbEntity
  8
1
  6
Continuous
 62
     7
100
AcDbLine
 10
-91.45307258064611
 20
9.03314516129062
 30
0.0
 11
-129.9230725806461
 21
-3.64685483870938
 31
0.0
  0
LINE
  5
FF
330
32
100
AcDbEntity
  8
1
  6
Continuous
 62
     7
100
AcDbLine
 10
-91.45307258064611
 20
-60.21685483870938
 30
0.0
 11
-129.9230725806461
 21
-47.54685483870939
 31
0.0
  0
LINE
  5
100
330
32
100
AcDbEntity
  8
1
  6
Continuous
 62
     7
100
AcDbLine
 10
-89.4230725806461
 20
-61.01685483870939
 30
0.0
 11
-90.50307258064609
 21
-60.86685483870939
 31
0.0
  0
LINE
  5
101
330
32
100
AcDbEntity
  8
1
  6
Continuous
 62
     7
100
AcDbLine
 10
-90.50307258064609
 20
-60.86685483870939
 30
0.0
 11
-91.75307258064609
 21
-60.6968548387094
 31
0.0
  0
LINE
  5
102
330
32
100
AcDbEntity
  8
1
  6
Continuous
 62
     7
100
AcDbLine
 10
-91.75307258064609
 20
-60.6968548387094
 30
0.0
 11
-93.0230725806461
 21
-60.54685483870939
 31
0.0
  0
LINE
  5
103
330
32
100
AcDbEntity
  8
1
  6
Continuous
 62
     7
100
AcDbLine
 10
-93.0230725806461
 20
-60.54685483870939
 30
0.0
 11
-94.2730725806461
 21
-60.36685483870939
 31
0.0
  0
LINE
  5
104
330
32
100
AcDbEntity
  8
1
  6
Continuous
 62
     7
100
AcDbLine
 10
-94.2730725806461
 20
-60.36685483870939
 30
0.0
 11
-95.47307258064609
 21
-60.21685483870938
 31
0.0
  0
LINE
  5
105
330
32
100
AcDbEntity
  8
1
  6
Continuous
 62
     7
100
AcDbLine
 10
-95.47307258064609
 20
-60.21685483870938
 30
0.0
 11
-96.8730725806461
 21
-60.04685483870939
 31
0.0
  0
LINE
  5
106
330
32
100
AcDbEntity
  8
1
  6
Continuous
 62
     7
100
AcDbLine
 10
-96.8730725806461
 20
-60.04685483870939
 30
0.0
 11
-98.1530725806461
 21
-59.86685483870939
 31
0.0
  0
LINE
  5
107
330
32
100
AcDbEntity
  8
1
  6
Continuous
 62
     7
100
AcDbLine
 10
-98.1530725806461
 20
-59.86685483870939
 30
0.0
 11
-99.8030725806461
 21
-59.66685483870937
 31
0.0
  0
LINE
  5
108
330
32
100
AcDbEntity
  8
1
  6
Continuous
 62
     7
100
AcDbLine
 10
-99.8030725806461
 20
-59.66685483870937
 30
0.0
 11
-101.3730725806461
 21
-59.46685483870938
 31
0.0
  0
LINE
  5
109
330
32
100
AcDbEntity
  8
1
  6
Continuous
 62
     7
100
AcDbLine
 10
-101.3730725806461
 20
-59.46685483870938
 30
0.0
 11
-103.0030725806461
 21
-59.24685483870938
 31
0.0
  0
LINE
  5
10A
330
32
100
AcDbEntity
  8
1
  6
Continuous
 62
     7
100
AcDbLine
 10
-103.0030725806461
 20
-59.24685483870938
 30
0.0
 11
-104.3730725806461
 21
-59.0668548387094
 31
0.0
  0
LINE
  5
10B
330
32
100
AcDbEntity
  8
1
  6
Continuous
 62
     7
100
AcDbLine
 10
-104.3730725806461
 20
-59.0668548387094
 30
0.0
 11
-108.8730725806461
 21
-58.49685483870938
 31
0.0
  0
LINE
  5
10C
330
32
100
AcDbEntity
  8
1
  6
Continuous
 62
     7
100
AcDbLine
 10
-108.8730725806461
 20
-58.49685483870938
 30
0.0
 11
-113.4530725806461
 21
-57.89685483870939
 31
0.0
  0
LINE
  5
10D
330
32
100
AcDbEntity
  8
1
  6
Continuous
 62
     7
100
AcDbLine
 10
-113.4530725806461
 20
-57.89685483870939
 30
0.0
 11
-118.0230725806461
 21
-57.3168548387094
 31
0.0
  0
LINE
  5
10E
330
32
100
AcDbEntity
  8
1
  6
Continuous
 62
     7
100
AcDbLine
 10
-118.0230725806461
 20
-57.3168548387094
 30
0.0
 11
-122.6030725806461
 21
-56.71685483870938
 31
0.0
  0
LINE
  5
10F
330
32
100
AcDbEntity
  8
1
  6
Continuous
 62
     7
100
AcDbLine
 10
-122.6030725806461
 20
-56.71685483870938
 30
0.0
 11
-127.1530725806461
 21
-56.11685483870939
 31
0.0
  0
LINE
  5
110
330
32
100
AcDbEntity
  8
1
  6
Continuous
 62
     7
100
AcDbLine
 10
-90.5530725806461
 20
-60.66685483870937
 30
0.0
 11
-90.60307258064609
 21
-60.66685483870937
 31
0.0
  0
LINE
  5
111
330
32
100
AcDbEntity
  8
1
  6
Continuous
 62
     7
100
AcDbLine
 10
-90.60307258064609
 20
-60.66685483870937
 30
0.0
 11
-90.6730725806461
 21
-60.6968548387094
 31
0.0
  0
LINE
  5
112
330
32
100
AcDbEntity
  8
1
  6
Continuous
 62
     7
100
AcDbLine
 10
-129.9230725806461
 20
-40.59685483870938
 30
0.0
 11
-130.7530725806461
 21
-40.41685483870937
 31
0.0
  0
LINE
  5
113
330
32
100
AcDbEntity
  8
1
  6
Continuous
 62
     7
100
AcDbLine
 10
-130.7530725806461
 20
-40.41685483870937
 30
0.0
 11
-131.7030725806461
 21
-40.3168548387094
 31
0.0
  0
LINE
  5
114
330
32
100
AcDbEntity
  8
1
  6
Continuous
 62
     7
100
AcDbLine
 10
-129.9230725806461
 20
-10.59685483870937
 30
0.0
 11
-130.7530725806461
 21
-10.74685483870938
 31
0.0
  0
LINE
  5
115
330
32
100
AcDbEntity
  8
1
  6
Continuous
 62
     7
100
AcDbLine
 10
-130.7530725806461
 20
-10.74685483870938
 30
0.0
 11
-131.7030725806461
 21
-10.84685483870937
 31
0.0
  0
LINE
  5
116
330
32
100
AcDbEntity
  8
1
  6
Continuous
 62
     7
100
AcDbLine
 10
-129.9230725806461
 20
-3.64685483870938
 30
0.0
 11
-130.7530725806461
 21
-3.84685483870937
 31
0.0
  0
LINE
  5
117
330
32
100
AcDbEntity
  8
1
  6
Continuous
 62
     7
100
AcDbLine
 10
-130.7530725806461
 20
-3.84685483870937
 30
0.0
 11
-131.7030725806461
 21
-3.94685483870939
 31
0.0
  0
LINE
  5
118
330
32
100
AcDbEntity
  8
1
  6
Continuous
 62
     7
100
AcDbLine
 10
-104.4030725806461
 20
-57.0668548387094
 30
0.0
 11
-104.4530725806461
 21
-57.26685483870939
 31
0.0
  0
LINE
  5
119
330
32
100
AcDbEntity
  8
1
  6
Continuous
 62
     7
100
AcDbLine
 10
-104.4530725806461
 20
-57.26685483870939
 30
0.0
 11
-104.5530725806461
 21
-57.6968548387094
 31
0.0
  0
LINE
  5
11A
330
32
100
AcDbEntity
  8
1
  6
Continuous
 62
     7
100
AcDbLine
 10
-129.9230725806461
 20
-47.54685483870939
 30
0.0
 11
-130.7530725806461
 21
-47.34685483870938
 31
0.0
  0
LINE
  5
11B
330
32
100
AcDbEntity
  8
1
  6
Continuous
 62
     7
100
AcDbLine
 10
-130.7530725806461
 20
-47.34685483870938
 30
0.0
 11
-131.7030725806461
 21
-47.21685483870938
 31
0.0
  0
LINE
  5
11C
330
32
100
AcDbEntity
  8
1
  6
Continuous
 62
     7
100
AcDbLine
 10
-90.6730725806461
 20
-60.6968548387094
 30
0.0
 11
-90.60307258064609
 21
-60.8168548387094
 31
0.0
  0
LINE
  5
11D
330
32
100
AcDbEntity
  8
1
  6
Continuous
 62
     7
100
AcDbLine
 10
-90.60307258064609
 20
-60.8168548387094
 30
0.0
 11
-90.50307258064609
 21
-60.86685483870939
 31
0.0
  0
LINE
  5
11E
330
32
100
AcDbEntity
  8
1
  6
Continuous
 62
     7
100
AcDbLine
 10
-127.1530725806461
 20
-56.11685483870939
 30
0.0
 11
-127.3030725806461
 21
-56.11685483870939
 31
0.0
  0
LINE
  5
11F
330
32
100
AcDbEntity
  8
1
  6
Continuous
 62
     7
100
AcDbLine
 10
-127.3030725806461
 20
-56.11685483870939
 30
0.0
 11
-127.4730725806461
 21
-56.09685483870938
 31
0.0
  0
LINE
  5
120
330
32
100
AcDbEntity
  8
1
  6
Continuous
 62
     7
100
AcDbLine
 10
-127.4730725806461
 20
-56.09685483870938
 30
0.0
 11
-127.6030725806461
 21
-56.09685483870938
 31
0.0
  0
LINE
  5
121
330
32
100
AcDbEntity
  8
1
  6
Continuous
 62
     7
100
AcDbLine
 10
-127.6030725806461
 20
-56.09685483870938
 30
0.0
 11
-128.0730725806461
 21
-56.09685483870938
 31
0.0
  0
LINE
  5
122
330
32
100
AcDbEntity
  8
1
  6
Continuous
 62
     7
100
AcDbLine
 10
-128.0730725806461
 20
-56.11685483870939
 30
0.0
 11
-129.1230725806461
 21
-56.3168548387094
 31
0.0
  0
LINE
  5
123
330
32
100
AcDbEntity
  8
1
  6
Continuous
 62
     7
100
AcDbLine
 10
-129.1230725806461
 20
-56.3168548387094
 30
0.0
 11
-130.1230725806461
 21
-56.71685483870938
 31
0.0
  0
LINE
  5
124
330
32
100
AcDbEntity
  8
1
  6
Continuous
 62
     7
100
AcDbLine
 10
-130.1230725806461
 20
-56.71685483870938
 30
0.0
 11
-131.0030725806461
 21
-57.3168548387094
 31
0.0
  0
LINE
  5
125
330
32
100
AcDbEntity
  8
1
  6
Continuous
 62
     7
100
AcDbLine
 10
-131.0030725806461
 20
-57.3168548387094
 30
0.0
 11
-131.7530725806461
 21
-58.09685483870938
 31
0.0
  0
LINE
  5
126
330
32
100
AcDbEntity
  8
1
  6
Continuous
 62
     7
100
AcDbLine
 10
-131.7530725806461
 20
-58.09685483870938
 30
0.0
 11
-132.3030725806461
 21
-59.01685483870939
 31
0.0
  0
LINE
  5
127
330
32
100
AcDbEntity
  8
1
  6
Continuous
 62
     7
100
AcDbLine
 10
-132.3030725806461
 20
-59.01685483870939
 30
0.0
 11
-132.6230725806461
 21
-60.01685483870939
 31
0.0
  0
LINE
  5
128
330
32
100
AcDbEntity
  8
1
  6
Continuous
 62
     7
100
AcDbLine
 10
-132.6230725806461
 20
-60.01685483870939
 30
0.0
 11
-132.7530725806461
 21
-61.09685483870938
 31
0.0
  0
LINE
  5
129
330
32
100
AcDbEntity
  8
1
  6
Continuous
 62
     7
100
AcDbLine
 10
-126.7230725806461
 20
-52.46685483870938
 30
0.0
 11
-126.8530725806461
 21
-53.41685483870937
 31
0.0
  0
LINE
  5
12A
330
32
100
AcDbEntity
  8
1
  6
Continuous
 62
     7
100
AcDbLine
 10
-126.8530725806461
 20
-53.41685483870937
 30
0.0
 11
-126.9530725806461
 21
-54.3168548387094
 31
0.0
  0
LINE
  5
12B
330
32
100
AcDbEntity
  8
1
  6
Continuous
 62
     7
100
AcDbLine
 10
-126.9530725806461
 20
-54.3168548387094
 30
0.0
 11
-127.0530725806461
 21
-55.0668548387094
 31
0.0
  0
LINE
  5
12C
330
32
100
AcDbEntity
  8
1
  6
Continuous
 62
     7
100
AcDbLine
 10
-127.0530725806461
 20
-55.0668548387094
 30
0.0
 11
-127.1030725806461
 21
-55.64685483870939
 31
0.0
  0
LINE
  5
12D
330
32
100
AcDbEntity
  8
1
  6
Continuous
 62
     7
100
AcDbLine
 10
-127.1030725806461
 20
-55.64685483870939
 30
0.0
 11
-127.1530725806461
 21
-56.01685483870939
 31
0.0
  0
LINE
  5
12E
330
32
100
AcDbEntity
  8
1
  6
Continuous
 62
     7
100
AcDbLine
 10
-127.1530725806461
 20
-56.01685483870939
 30
0.0
 11
-127.1530725806461
 21
-56.11685483870939
 31
0.0
  0
LINE
  5
12F
330
32
100
AcDbEntity
  8
1
  6
Continuous
 62
     7
100
AcDbLine
 10
-104.5530725806461
 20
-57.6968548387094
 30
0.0
 11
-104.5530725806461
 21
-58.4468548387094
 31
0.0
  0
LINE
  5
130
330
32
100
AcDbEntity
  8
1
  6
Continuous
 62
     7
100
AcDbLine
 10
-104.5530725806461
 20
-58.4468548387094
 30
0.0
 11
-104.5030725806461
 21
-58.89685483870939
 31
0.0
  0
LINE
  5
131
330
32
100
AcDbEntity
  8
1
  6
Continuous
 62
     7
100
AcDbLine
 10
-104.5030725806461
 20
-58.89685483870939
 30
0.0
 11
-104.3730725806461
 21
-59.0668548387094
 31
0.0
  0
LINE
  5
132
330
32
100
AcDbEntity
  8
1
  6
Continuous
 62
     7
100
AcDbLine
 10
-131.6530725806461
 20
-49.26685483870939
 30
0.0
 11
-131.4730725806461
 21
-49.29685483870939
 31
0.0
  0
LINE
  5
133
330
32
100
AcDbEntity
  8
1
  6
Continuous
 62
     7
100
AcDbLine
 10
-147.1230725806461
 20
-2.14685483870938
 30
0.0
 11
-147.2730725806461
 21
-2.26685483870939
 31
0.0
  0
LINE
  5
134
330
32
100
AcDbEntity
  8
1
  6
Continuous
 62
     7
100
AcDbLine
 10
-147.2730725806461
 20
-2.26685483870939
 30
0.0
 11
-147.3730725806461
 21
-2.34685483870937
 31
0.0
  0
LINE
  5
135
330
32
100
AcDbEntity
  8
1
  6
Continuous
 62
     7
100
AcDbLine
 10
-147.3730725806461
 20
-2.34685483870937
 30
0.0
 11
-147.5030725806461
 21
-2.44685483870939
 31
0.0
  0
LINE
  5
136
330
32
100
AcDbEntity
  8
1
  6
Continuous
 62
     7
100
AcDbLine
 10
-147.5030725806461
 20
-2.44685483870939
 30
0.0
 11
-147.6030725806461
 21
-2.54685483870939
 31
0.0
  0
LINE
  5
137
330
32
100
AcDbEntity
  8
1
  6
Continuous
 62
     7
100
AcDbLine
 10
-147.6030725806461
 20
-2.54685483870939
 30
0.0
 11
-147.6730725806461
 21
-2.61685483870938
 31
0.0
  0
LINE
  5
138
330
32
100
AcDbEntity
  8
1
  6
Continuous
 62
     7
100
AcDbLine
 10
-147.6730725806461
 20
-2.61685483870938
 30
0.0
 11
-147.7530725806461
 21
-2.69685483870939
 31
0.0
  0
LINE
  5
139
330
32
100
AcDbEntity
  8
1
  6
Continuous
 62
     7
100
AcDbLine
 10
-147.7530725806461
 20
-2.69685483870939
 30
0.0
 11
-147.7730725806461
 21
-2.79685483870939
 31
0.0
  0
LINE
  5
13A
330
32
100
AcDbEntity
  8
1
  6
Continuous
 62
     7
100
AcDbLine
 10
-147.7730725806461
 20
-22.29685483870939
 30
0.0
 11
-147.7730725806461
 21
-20.01685483870939
 31
0.0
  0
LINE
  5
13B
330
32
100
AcDbEntity
  8
1
  6
Continuous
 62
     7
100
AcDbLine
 10
-147.7730725806461
 20
-20.01685483870939
 30
0.0
 11
-147.7730725806461
 21
-17.79685483870939
 31
0.0
  0
LINE
  5
13C
330
32
100
AcDbEntity
  8
1
  6
Continuous
 62
     7
100
AcDbLine
 10
-147.7730725806461
 20
-17.79685483870939
 30
0.0
 11
-147.7730725806461
 21
-15.64685483870938
 31
0.0
  0
LINE
  5
13D
330
32
100
AcDbEntity
  8
1
  6
Continuous
 62
     7
100
AcDbLine
 10
-147.7730725806461
 20
-15.64685483870938
 30
0.0
 11
-147.7730725806461
 21
-13.56685483870937
 31
0.0
  0
LINE
  5
13E
330
32
100
AcDbEntity
  8
1
  6
Continuous
 62
     7
100
AcDbLine
 10
-147.7730725806461
 20
-13.56685483870937
 30
0.0
 11
-147.7730725806461
 21
-11.59685483870937
 31
0.0
  0
LINE
  5
13F
330
32
100
AcDbEntity
  8
1
  6
Continuous
 62
     7
100
AcDbLine
 10
-147.7730725806461
 20
-11.59685483870937
 30
0.0
 11
-147.7730725806461
 21
-9.74685483870938
 31
0.0
  0
LINE
  5
140
330
32
100
AcDbEntity
  8
1
  6
Continuous
 62
     7
100
AcDbLine
 10
-147.7730725806461
 20
-9.74685483870938
 30
0.0
 11
-147.7730725806461
 21
-8.04685483870939
 31
0.0
  0
LINE
  5
141
330
32
100
AcDbEntity
  8
1
  6
Continuous
 62
     7
100
AcDbLine
 10
-147.7730725806461
 20
-8.04685483870939
 30
0.0
 11
-147.7730725806461
 21
-6.46685483870938
 31
0.0
  0
LINE
  5
142
330
32
100
AcDbEntity
  8
1
  6
Continuous
 62
     7
100
AcDbLine
 10
-147.7730725806461
 20
-6.46685483870938
 30
0.0
 11
-147.7730725806461
 21
-5.06685483870937
 31
0.0
  0
LINE
  5
143
330
32
100
AcDbEntity
  8
1
  6
Continuous
 62
     7
100
AcDbLine
 10
-147.7730725806461
 20
-5.06685483870937
 30
0.0
 11
-147.7730725806461
 21
-3.84685483870937
 31
0.0
  0
LINE
  5
144
330
32
100
AcDbEntity
  8
1
  6
Continuous
 62
     7
100
AcDbLine
 10
-147.7730725806461
 20
-3.84685483870937
 30
0.0
 11
-147.7730725806461
 21
-2.79685483870939
 31
0.0
  0
LINE
  5
145
330
32
100
AcDbEntity
  8
1
  6
Continuous
 62
     7
100
AcDbLine
 10
-128.3230725806461
 20
-52.09685483870938
 30
0.0
 11
-128.2530725806461
 21
-53.14685483870939
 31
0.0
  0
LINE
  5
146
330
32
100
AcDbEntity
  8
1
  6
Continuous
 62
     7
100
AcDbLine
 10
-128.2530725806461
 20
-53.14685483870939
 30
0.0
 11
-128.2030725806461
 21
-54.09685483870938
 31
0.0
  0
LINE
  5
147
330
32
100
AcDbEntity
  8
1
  6
Continuous
 62
     7
100
AcDbLine
 10
-128.2030725806461
 20
-54.09685483870938
 30
0.0
 11
-128.1530725806461
 21
-54.91685483870937
 31
0.0
  0
LINE
  5
148
330
32
100
AcDbEntity
  8
1
  6
Continuous
 62
     7
100
AcDbLine
 10
-128.1530725806461
 20
-54.91685483870937
 30
0.0
 11
-128.1030725806461
 21
-55.5668548387094
 31
0.0
  0
LINE
  5
149
330
32
100
AcDbEntity
  8
1
  6
Continuous
 62
     7
100
AcDbLine
 10
-128.1030725806461
 20
-55.5668548387094
 30
0.0
 11
-128.0730725806461
 21
-55.96685483870938
 31
0.0
  0
LINE
  5
14A
330
32
100
AcDbEntity
  8
1
  6
Continuous
 62
     7
100
AcDbLine
 10
-128.0730725806461
 20
-55.96685483870938
 30
0.0
 11
-128.0730725806461
 21
-56.09685483870938
 31
0.0
  0
LINE
  5
14B
330
32
100
AcDbEntity
  8
1
  6
Continuous
 62
     7
100
AcDbLine
 10
-132.7730725806461
 20
-54.59685483870938
 30
0.0
 11
-132.7730725806461
 21
-62.59685483870938
 31
0.0
  0
LINE
  5
14C
330
32
100
AcDbEntity
  8
1
  6
Continuous
 62
     7
100
AcDbLine
 10
-136.6230725806461
 20
-51.59685483870938
 30
0.0
 11
-136.2030725806461
 21
-51.91685483870937
 31
0.0
  0
LINE
  5
14D
330
32
100
AcDbEntity
  8
1
  6
Continuous
 62
     7
100
AcDbLine
 10
-136.2030725806461
 20
-51.91685483870937
 30
0.0
 11
-135.8530725806461
 21
-52.21685483870938
 31
0.0
  0
LINE
  5
14E
330
32
100
AcDbEntity
  8
1
  6
Continuous
 62
     7
100
AcDbLine
 10
-147.8730725806461
 20
-22.51685483870939
 30
0.0
 11
-147.8230725806461
 21
-22.46685483870938
 31
0.0
  0
LINE
  5
14F
330
32
100
AcDbEntity
  8
1
  6
Continuous
 62
     7
100
AcDbLine
 10
-147.8230725806461
 20
-22.46685483870938
 30
0.0
 11
-147.8030725806461
 21
-22.39685483870938
 31
0.0
  0
LINE
  5
150
330
32
100
AcDbEntity
  8
1
  6
Continuous
 62
     7
100
AcDbLine
 10
-147.8030725806461
 20
-22.39685483870938
 30
0.0
 11
-147.7730725806461
 21
-22.29685483870939
 31
0.0
  0
LINE
  5
151
330
32
100
AcDbEntity
  8
1
  6
Continuous
 62
     7
100
AcDbLine
 10
-147.8730725806461
 20
-2.84685483870937
 30
0.0
 11
-148.6230725806461
 21
-2.44685483870939
 31
0.0
  0
LINE
  5
152
330
32
100
AcDbEntity
  8
1
  6
Continuous
 62
     7
100
AcDbLine
 10
-148.6230725806461
 20
-2.44685483870939
 30
0.0
 11
-149.3230725806461
 21
-1.81685483870937
 31
0.0
  0
LINE
  5
153
330
32
100
AcDbEntity
  8
1
  6
Continuous
 62
     7
100
AcDbLine
 10
-149.3230725806461
 20
-1.81685483870937
 30
0.0
 11
-149.9230725806461
 21
-1.04685483870939
 31
0.0
  0
LINE
  5
154
330
32
100
AcDbEntity
  8
1
  6
Continuous
 62
     7
100
AcDbLine
 10
-149.9230725806461
 20
-1.04685483870939
 30
0.0
 11
-150.4030725806461
 21
-0.14685483870938
 31
0.0
  0
LINE
  5
155
330
32
100
AcDbEntity
  8
1
  6
Continuous
 62
     7
100
AcDbLine
 10
-150.4030725806461
 20
-0.14685483870938
 30
0.0
 11
-150.7030725806461
 21
0.8031451612906
 31
0.0
  0
LINE
  5
156
330
32
100
AcDbEntity
  8
1
  6
Continuous
 62
     7
100
AcDbLine
 10
-145.1730725806461
 20
-0.39685483870938
 30
0.0
 11
-145.2230725806461
 21
-0.49685483870938
 31
0.0
  0
LINE
  5
157
330
32
100
AcDbEntity
  8
1
  6
Continuous
 62
     7
100
AcDbLine
 10
-145.2230725806461
 20
-0.49685483870938
 30
0.0
 11
-145.3230725806461
 21
-0.61685483870938
 31
0.0
  0
LINE
  5
158
330
32
100
AcDbEntity
  8
1
  6
Continuous
 62
     7
100
AcDbLine
 10
-145.3230725806461
 20
-0.61685483870938
 30
0.0
 11
-145.5030725806461
 21
-0.79685483870939
 31
0.0
  0
LINE
  5
159
330
32
100
AcDbEntity
  8
1
  6
Continuous
 62
     7
100
AcDbLine
 10
-145.5030725806461
 20
-0.79685483870939
 30
0.0
 11
-145.7230725806461
 21
-1.01685483870939
 31
0.0
  0
LINE
  5
15A
330
32
100
AcDbEntity
  8
1
  6
Continuous
 62
     7
100
AcDbLine
 10
-145.7230725806461
 20
-1.01685483870939
 30
0.0
 11
-146.3730725806461
 21
-1.54685483870939
 31
0.0
  0
LINE
  5
15B
330
32
100
AcDbEntity
  8
1
  6
Continuous
 62
     7
100
AcDbLine
 10
-146.3730725806461
 20
-1.54685483870939
 30
0.0
 11
-147.1230725806461
 21
-2.14685483870938
 31
0.0
  0
LINE
  5
15C
330
32
100
AcDbEntity
  8
1
  6
Continuous
 62
     7
100
AcDbLine
 10
-145.2230725806461
 20
-0.36685483870938
 30
0.0
 11
-145.2030725806461
 21
-0.36685483870938
 31
0.0
  0
LINE
  5
15D
330
32
100
AcDbEntity
  8
1
  6
Continuous
 62
     7
100
AcDbLine
 10
-145.2030725806461
 20
-0.36685483870938
 30
0.0
 11
-145.1730725806461
 21
-0.39685483870938
 31
0.0
  0
LINE
  5
15E
330
32
100
AcDbEntity
  8
1
  6
Continuous
 62
     7
100
AcDbLine
 10
-147.8730725806461
 20
-22.51685483870939
 30
0.0
 11
-148.5530725806461
 21
-23.01685483870939
 31
0.0
  0
LINE
  5
15F
330
32
100
AcDbEntity
  8
1
  6
Continuous
 62
     7
100
AcDbLine
 10
-148.5530725806461
 20
-23.01685483870939
 30
0.0
 11
-148.7730725806461
 21
-23.16685483870939
 31
0.0
  0
LINE
  5
160
330
32
100
AcDbEntity
  8
1
  6
Continuous
 62
     7
100
AcDbLine
 10
-148.7730725806461
 20
-23.16685483870939
 30
0.0
 11
-148.9730725806461
 21
-23.31685483870937
 31
0.0
  0
LINE
  5
161
330
32
100
AcDbEntity
  8
1
  6
Continuous
 62
     7
100
AcDbLine
 10
-148.9730725806461
 20
-23.31685483870937
 30
0.0
 11
-149.2030725806461
 21
-23.46685483870938
 31
0.0
  0
LINE
  5
162
330
32
100
AcDbEntity
  8
1
  6
Continuous
 62
     7
100
AcDbLine
 10
-149.2030725806461
 20
-23.46685483870938
 30
0.0
 11
-149.7230725806461
 21
-23.79685483870939
 31
0.0
  0
LINE
  5
163
330
32
100
AcDbEntity
  8
1
  6
Continuous
 62
     7
100
AcDbLine
 10
-149.7230725806461
 20
-23.79685483870939
 30
0.0
 11
-150.3030725806461
 21
-24.14685483870938
 31
0.0
  0
LINE
  5
164
330
32
100
AcDbEntity
  8
1
  6
Continuous
 62
     7
100
AcDbLine
 10
-135.8530725806461
 20
-52.21685483870938
 30
0.0
 11
-135.7030725806461
 21
-52.39685483870939
 31
0.0
  0
LINE
  5
165
330
32
100
AcDbEntity
  8
1
  6
Continuous
 62
     7
100
AcDbLine
 10
-135.7030725806461
 20
-52.39685483870939
 30
0.0
 11
-135.3730725806461
 21
-52.84685483870938
 31
0.0
  0
LINE
  5
166
330
32
100
AcDbEntity
  8
1
  6
Continuous
 62
     7
100
AcDbLine
 10
-135.3730725806461
 20
-52.84685483870938
 30
0.0
 11
-135.1530725806461
 21
-53.0668548387094
 31
0.0
  0
LINE
  5
167
330
32
100
AcDbEntity
  8
1
  6
Continuous
 62
     7
100
AcDbLine
 10
-135.1530725806461
 20
-53.0668548387094
 30
0.0
 11
-134.6030725806461
 21
-53.0668548387094
 31
0.0
  0
LINE
  5
168
330
32
100
AcDbEntity
  8
1
  6
Continuous
 62
     7
100
AcDbLine
 10
-134.6030725806461
 20
-53.0668548387094
 30
0.0
 11
-134.0230725806461
 21
-53.0668548387094
 31
0.0
  0
LINE
  5
169
330
32
100
AcDbEntity
  8
1
  6
Continuous
 62
     7
100
AcDbLine
 10
-134.7730725806461
 20
-53.59685483870938
 30
0.0
 11
-134.2730725806461
 21
-53.59685483870938
 31
0.0
  0
LINE
  5
16A
330
32
100
AcDbEntity
  8
1
  6
Continuous
 62
     7
100
AcDbLine
 10
-134.2730725806461
 20
-53.59685483870938
 30
0.0
 11
-133.9230725806461
 21
-53.59685483870938
 31
0.0
  0
LINE
  5
16B
330
32
100
AcDbEntity
  8
1
  6
Continuous
 62
     7
100
AcDbLine
 10
-133.9230725806461
 20
-53.59685483870938
 30
0.0
 11
-133.7730725806461
 21
-53.59685483870938
 31
0.0
  0
LINE
  5
16C
330
32
100
AcDbEntity
  8
1
  6
Continuous
 62
     7
100
AcDbLine
 10
-159.2230725806461
 20
-53.59685483870938
 30
0.0
 11
-134.7730725806461
 21
-53.59685483870938
 31
0.0
  0
LINE
  5
16D
330
32
100
AcDbEntity
  8
1
  6
Continuous
 62
     7
100
AcDbLine
 10
-135.1530725806461
 20
-53.0668548387094
 30
0.0
 11
-134.6530725806461
 21
-53.39685483870939
 31
0.0
  0
LINE
  5
16E
330
32
100
AcDbEntity
  8
1
  6
Continuous
 62
     7
100
AcDbLine
 10
-134.6530725806461
 20
-53.39685483870939
 30
0.0
 11
-134.1730725806461
 21
-53.54685483870939
 31
0.0
  0
LINE
  5
16F
330
32
100
AcDbEntity
  8
1
  6
Continuous
 62
     7
100
AcDbLine
 10
-134.1730725806461
 20
-53.54685483870939
 30
0.0
 11
-134.0230725806461
 21
-53.5668548387094
 31
0.0
  0
LINE
  5
170
330
32
100
AcDbEntity
  8
1
  6
Continuous
 62
     7
100
AcDbLine
 10
-132.7730725806461
 20
-54.59685483870938
 30
0.0
 11
-132.9030725806461
 21
-54.09685483870938
 31
0.0
  0
LINE
  5
171
330
32
100
AcDbEntity
  8
1
  6
Continuous
 62
     7
100
AcDbLine
 10
-132.9030725806461
 20
-54.09685483870938
 30
0.0
 11
-133.2730725806461
 21
-53.71685483870938
 31
0.0
  0
LINE
  5
172
330
32
100
AcDbEntity
  8
1
  6
Continuous
 62
     7
100
AcDbLine
 10
-133.2730725806461
 20
-53.71685483870938
 30
0.0
 11
-133.7730725806461
 21
-53.59685483870938
 31
0.0
  0
LINE
  5
173
330
32
100
AcDbEntity
  8
1
  6
Continuous
 62
     7
100
AcDbLine
 10
-132.7730725806461
 20
-62.59685483870938
 30
0.0
 11
-132.9230725806461
 21
-62.59685483870938
 31
0.0
  0
LINE
  5
174
330
32
100
AcDbEntity
  8
1
  6
Continuous
 62
     7
100
AcDbLine
 10
-132.9230725806461
 20
-62.59685483870938
 30
0.0
 11
-133.3730725806461
 21
-62.59685483870938
 31
0.0
  0
LINE
  5
175
330
32
100
AcDbEntity
  8
1
  6
Continuous
 62
     7
100
AcDbLine
 10
-133.3730725806461
 20
-62.59685483870938
 30
0.0
 11
-134.0230725806461
 21
-62.59685483870938
 31
0.0
  0
LINE
  5
176
330
32
100
AcDbEntity
  8
1
  6
Continuous
 62
     7
100
AcDbLine
 10
-134.0230725806461
 20
-62.59685483870938
 30
0.0
 11
-134.7730725806461
 21
-62.59685483870938
 31
0.0
  0
LINE
  5
177
330
32
100
AcDbEntity
  8
1
  6
Continuous
 62
     7
100
AcDbLine
 10
-134.7730725806461
 20
-62.59685483870938
 30
0.0
 11
-220.7730725806461
 21
-62.59685483870938
 31
0.0
  0
LINE
  5
178
330
32
100
AcDbEntity
  8
1
  6
Continuous
 62
     7
100
AcDbLine
 10
-220.7730725806461
 20
-62.59685483870938
 30
0.0
 11
-221.5530725806461
 21
-62.59685483870938
 31
0.0
  0
LINE
  5
179
330
32
100
AcDbEntity
  8
1
  6
Continuous
 62
     7
100
AcDbLine
 10
-221.5530725806461
 20
-62.59685483870938
 30
0.0
 11
-222.2030725806461
 21
-62.59685483870938
 31
0.0
  0
LINE
  5
17A
330
32
100
AcDbEntity
  8
1
  6
Continuous
 62
     7
100
AcDbLine
 10
-222.2030725806461
 20
-62.59685483870938
 30
0.0
 11
-222.6230725806461
 21
-62.59685483870938
 31
0.0
  0
LINE
  5
17B
330
32
100
AcDbEntity
  8
1
  6
Continuous
 62
     7
100
AcDbLine
 10
-222.6230725806461
 20
-62.59685483870938
 30
0.0
 11
-222.7730725806461
 21
-62.59685483870938
 31
0.0
  0
LINE
  5
17C
330
32
100
AcDbEntity
  8
1
  6
Continuous
 62
     7
100
AcDbLine
 10
-147.7730725806461
 20
5.40314516129063
 30
0.0
 11
-147.7730725806461
 21
3.33314516129061
 31
0.0
  0
LINE
  5
17D
330
32
100
AcDbEntity
  8
1
  6
Continuous
 62
     7
100
AcDbLine
 10
-159.2230725806461
 20
-53.59685483870938
 30
0.0
 11
-196.3530725806461
 21
-53.59685483870938
 31
0.0
  0
LINE
  5
17E
330
32
100
AcDbEntity
  8
1
  6
Continuous
 62
     7
100
AcDbLine
 10
-220.7730725806461
 20
-53.59685483870938
 30
0.0
 11
-196.3530725806461
 21
-53.59685483870938
 31
0.0
  0
LINE
  5
17F
330
32
100
AcDbEntity
  8
1
  6
Continuous
 62
     7
100
AcDbLine
 10
-222.7730725806461
 20
-62.59685483870938
 30
0.0
 11
-222.7730725806461
 21
-54.59685483870938
 31
0.0
  0
LINE
  5
180
330
32
100
AcDbEntity
  8
1
  6
Continuous
 62
     7
100
AcDbLine
 10
-219.7730725806461
 20
-51.59685483870938
 30
0.0
 11
-219.7730725806461
 21
-49.21685483870938
 31
0.0
  0
LINE
  5
181
330
32
100
AcDbEntity
  8
1
  6
Continuous
 62
     7
100
AcDbLine
 10
-219.7730725806461
 20
-49.21685483870938
 30
0.0
 11
-219.7730725806461
 21
-47.8168548387094
 31
0.0
  0
LINE
  5
182
330
32
100
AcDbEntity
  8
1
  6
Continuous
 62
     7
100
AcDbLine
 10
-219.7730725806461
 20
-47.8168548387094
 30
0.0
 11
-219.7730725806461
 21
-46.26685483870939
 31
0.0
  0
LINE
  5
183
330
32
100
AcDbEntity
  8
1
  6
Continuous
 62
     7
100
AcDbLine
 10
-219.7730725806461
 20
-46.26685483870939
 30
0.0
 11
-219.7730725806461
 21
-44.71685483870938
 31
0.0
  0
LINE
  5
184
330
32
100
AcDbEntity
  8
1
  6
Continuous
 62
     7
100
AcDbLine
 10
-219.7730725806461
 20
-44.71685483870938
 30
0.0
 11
-219.7730725806461
 21
-43.16685483870937
 31
0.0
  0
LINE
  5
185
330
32
100
AcDbEntity
  8
1
  6
Continuous
 62
     7
100
AcDbLine
 10
-219.7730725806461
 20
-43.16685483870937
 30
0.0
 11
-219.7730725806461
 21
-41.66685483870937
 31
0.0
  0
LINE
  5
186
330
32
100
AcDbEntity
  8
1
  6
Continuous
 62
     7
100
AcDbLine
 10
-219.7730725806461
 20
-41.66685483870937
 30
0.0
 11
-219.7730725806461
 21
-40.21685483870938
 31
0.0
  0
LINE
  5
187
330
32
100
AcDbEntity
  8
1
  6
Continuous
 62
     7
100
AcDbLine
 10
-219.7730725806461
 20
-40.21685483870938
 30
0.0
 11
-219.7730725806461
 21
-39.3168548387094
 31
0.0
  0
LINE
  5
188
330
32
100
AcDbEntity
  8
1
  6
Continuous
 62
     7
100
AcDbLine
 10
-219.7730725806461
 20
-39.3168548387094
 30
0.0
 11
-219.7730725806461
 21
-38.36685483870939
 31
0.0
  0
LINE
  5
189
330
32
100
AcDbEntity
  8
1
  6
Continuous
 62
     7
100
AcDbLine
 10
-219.7730725806461
 20
-38.36685483870939
 30
0.0
 11
-219.7730725806461
 21
-36.66685483870937
 31
0.0
  0
LINE
  5
18A
330
32
100
AcDbEntity
  8
1
  6
Continuous
 62
     7
100
AcDbLine
 10
-219.7730725806461
 20
-36.66685483870937
 30
0.0
 11
-219.7730725806461
 21
-34.84685483870938
 31
0.0
  0
LINE
  5
18B
330
32
100
AcDbEntity
  8
1
  6
Continuous
 62
     7
100
AcDbLine
 10
-219.7730725806461
 20
-34.84685483870938
 30
0.0
 11
-219.7730725806461
 21
-32.9468548387094
 31
0.0
  0
LINE
  5
18C
330
32
100
AcDbEntity
  8
1
  6
Continuous
 62
     7
100
AcDbLine
 10
-219.7730725806461
 20
-32.9468548387094
 30
0.0
 11
-219.7730725806461
 21
-30.9468548387094
 31
0.0
  0
LINE
  5
18D
330
32
100
AcDbEntity
  8
1
  6
Continuous
 62
     7
100
AcDbLine
 10
-219.7730725806461
 20
-30.9468548387094
 30
0.0
 11
-219.7730725806461
 21
-28.91685483870937
 31
0.0
  0
LINE
  5
18E
330
32
100
AcDbEntity
  8
1
  6
Continuous
 62
     7
100
AcDbLine
 10
-219.7730725806461
 20
-28.91685483870937
 30
0.0
 11
-219.7730725806461
 21
-26.84685483870937
 31
0.0
  0
LINE
  5
18F
330
32
100
AcDbEntity
  8
1
  6
Continuous
 62
     7
100
AcDbLine
 10
-219.7730725806461
 20
-26.84685483870937
 30
0.0
 11
-219.7730725806461
 21
-24.74685483870938
 31
0.0
  0
LINE
  5
190
330
32
100
AcDbEntity
  8
1
  6
Continuous
 62
     7
100
AcDbLine
 10
-219.7730725806461
 20
-24.74685483870938
 30
0.0
 11
-219.7730725806461
 21
-22.66685483870939
 31
0.0
  0
LINE
  5
191
330
32
100
AcDbEntity
  8
1
  6
Continuous
 62
     7
100
AcDbLine
 10
-219.7730725806461
 20
-22.66685483870939
 30
0.0
 11
-219.7730725806461
 21
-20.61685483870938
 31
0.0
  0
LINE
  5
192
330
32
100
AcDbEntity
  8
1
  6
Continuous
 62
     7
100
AcDbLine
 10
-219.7730725806461
 20
-20.61685483870938
 30
0.0
 11
-219.7730725806461
 21
-18.61685483870938
 31
0.0
  0
LINE
  5
193
330
32
100
AcDbEntity
  8
1
  6
Continuous
 62
     7
100
AcDbLine
 10
-219.7730725806461
 20
-18.61685483870938
 30
0.0
 11
-219.7730725806461
 21
-16.6968548387094
 31
0.0
  0
LINE
  5
194
330
32
100
AcDbEntity
  8
1
  6
Continuous
 62
     7
100
AcDbLine
 10
-219.7730725806461
 20
-16.6968548387094
 30
0.0
 11
-219.7730725806461
 21
-14.86685483870938
 31
0.0
  0
LINE
  5
195
330
32
100
AcDbEntity
  8
1
  6
Continuous
 62
     7
100
AcDbLine
 10
-219.7730725806461
 20
-14.86685483870938
 30
0.0
 11
-219.7730725806461
 21
-13.14685483870938
 31
0.0
  0
LINE
  5
196
330
32
100
AcDbEntity
  8
1
  6
Continuous
 62
     7
100
AcDbLine
 10
-219.7730725806461
 20
-13.14685483870938
 30
0.0
 11
-219.7730725806461
 21
-11.54685483870939
 31
0.0
  0
LINE
  5
197
330
32
100
AcDbEntity
  8
1
  6
Continuous
 62
     7
100
AcDbLine
 10
-219.7730725806461
 20
-11.54685483870939
 30
0.0
 11
-219.7730725806461
 21
-10.09685483870937
 31
0.0
  0
LINE
  5
198
330
32
100
AcDbEntity
  8
1
  6
Continuous
 62
     7
100
AcDbLine
 10
-219.7730725806461
 20
-10.09685483870937
 30
0.0
 11
-219.7730725806461
 21
-8.81685483870937
 31
0.0
  0
LINE
  5
199
330
32
100
AcDbEntity
  8
1
  6
Continuous
 62
     7
100
AcDbLine
 10
-219.7730725806461
 20
-8.81685483870937
 30
0.0
 11
-219.7730725806461
 21
-7.6968548387094
 31
0.0
  0
LINE
  5
19A
330
32
100
AcDbEntity
  8
1
  6
Continuous
 62
     7
100
AcDbLine
 10
-219.7730725806461
 20
-7.6968548387094
 30
0.0
 11
-219.7730725806461
 21
-6.76685483870939
 31
0.0
  0
LINE
  5
19B
330
32
100
AcDbEntity
  8
1
  6
Continuous
 62
     7
100
AcDbLine
 10
-219.7730725806461
 20
-6.76685483870939
 30
0.0
 11
-219.7730725806461
 21
-6.04685483870939
 31
0.0
  0
LINE
  5
19C
330
32
100
AcDbEntity
  8
1
  6
Continuous
 62
     7
100
AcDbLine
 10
-219.7730725806461
 20
-6.04685483870939
 30
0.0
 11
-219.7730725806461
 21
-5.51685483870939
 31
0.0
  0
LINE
  5
19D
330
32
100
AcDbEntity
  8
1
  6
Continuous
 62
     7
100
AcDbLine
 10
-219.7730725806461
 20
-5.51685483870939
 30
0.0
 11
-219.7730725806461
 21
-5.1968548387094
 31
0.0
  0
LINE
  5
19E
330
32
100
AcDbEntity
  8
1
  6
Continuous
 62
     7
100
AcDbLine
 10
-219.7730725806461
 20
-5.1968548387094
 30
0.0
 11
-219.7730725806461
 21
-5.09685483870937
 31
0.0
  0
LINE
  5
19F
330
32
100
AcDbEntity
  8
1
  6
Continuous
 62
     7
100
AcDbLine
 10
-147.7730725806461
 20
5.40314516129063
 30
0.0
 11
-147.9030725806461
 21
6.53314516129062
 31
0.0
  0
LINE
  5
1A0
330
32
100
AcDbEntity
  8
1
  6
Continuous
 62
     7
100
AcDbLine
 10
-147.9030725806461
 20
6.53314516129062
 30
0.0
 11
-148.2730725806461
 21
7.58314516129061
 31
0.0
  0
LINE
  5
1A1
330
32
100
AcDbEntity
  8
1
  6
Continuous
 62
     7
100
AcDbLine
 10
-148.2730725806461
 20
7.58314516129061
 30
0.0
 11
-148.8730725806461
 21
8.53314516129062
 31
0.0
  0
LINE
  5
1A2
330
32
100
AcDbEntity
  8
1
  6
Continuous
 62
     7
100
AcDbLine
 10
-148.8730725806461
 20
8.53314516129062
 30
0.0
 11
-149.6530725806461
 21
9.3031451612906
 31
0.0
  0
LINE
  5
1A3
330
32
100
AcDbEntity
  8
1
  6
Continuous
 62
     7
100
AcDbLine
 10
-149.6530725806461
 20
9.3031451612906
 30
0.0
 11
-150.6030725806461
 21
9.90314516129063
 31
0.0
  0
LINE
  5
1A4
330
32
100
AcDbEntity
  8
1
  6
Continuous
 62
     7
100
AcDbLine
 10
-150.6030725806461
 20
9.90314516129063
 30
0.0
 11
-151.6530725806461
 21
10.28314516129062
 31
0.0
  0
LINE
  5
1A5
330
32
100
AcDbEntity
  8
1
  6
Continuous
 62
     7
100
AcDbLine
 10
-151.6530725806461
 20
10.28314516129062
 30
0.0
 11
-152.7730725806461
 21
10.40314516129063
 31
0.0
  0
LINE
  5
1A6
330
32
100
AcDbEntity
  8
1
  6
Continuous
 62
     7
100
AcDbLine
 10
-154.2530725806461
 20
10.40314516129063
 30
0.0
 11
-153.4530725806461
 21
10.40314516129063
 31
0.0
  0
LINE
  5
1A7
330
32
100
AcDbEntity
  8
1
  6
Continuous
 62
     7
100
AcDbLine
 10
-153.4530725806461
 20
10.40314516129063
 30
0.0
 11
-152.9530725806461
 21
10.40314516129063
 31
0.0
  0
LINE
  5
1A8
330
32
100
AcDbEntity
  8
1
  6
Continuous
 62
     7
100
AcDbLine
 10
-152.9530725806461
 20
10.40314516129063
 30
0.0
 11
-152.7730725806461
 21
10.40314516129063
 31
0.0
  0
LINE
  5
1A9
330
32
100
AcDbEntity
  8
1
  6
Continuous
 62
     7
100
AcDbLine
 10
-221.7730725806461
 20
-53.59685483870938
 30
0.0
 11
-221.6530725806461
 21
-53.59685483870938
 31
0.0
  0
LINE
  5
1AA
330
32
100
AcDbEntity
  8
1
  6
Continuous
 62
     7
100
AcDbLine
 10
-221.6530725806461
 20
-53.59685483870938
 30
0.0
 11
-221.2730725806461
 21
-53.59685483870938
 31
0.0
  0
LINE
  5
1AB
330
32
100
AcDbEntity
  8
1
  6
Continuous
 62
     7
100
AcDbLine
 10
-221.2730725806461
 20
-53.59685483870938
 30
0.0
 11
-220.7730725806461
 21
-53.59685483870938
 31
0.0
  0
LINE
  5
1AC
330
32
100
AcDbEntity
  8
1
  6
Continuous
 62
     7
100
AcDbLine
 10
-221.7730725806461
 20
-53.59685483870938
 30
0.0
 11
-222.2730725806461
 21
-53.71685483870938
 31
0.0
  0
LINE
  5
1AD
330
32
100
AcDbEntity
  8
1
  6
Continuous
 62
     7
100
AcDbLine
 10
-222.2730725806461
 20
-53.71685483870938
 30
0.0
 11
-222.6530725806461
 21
-54.09685483870938
 31
0.0
  0
LINE
  5
1AE
330
32
100
AcDbEntity
  8
1
  6
Continuous
 62
     7
100
AcDbLine
 10
-222.6530725806461
 20
-54.09685483870938
 30
0.0
 11
-222.7730725806461
 21
-54.59685483870938
 31
0.0
  0
LINE
  5
1AF
330
32
100
AcDbEntity
  8
1
  6
Continuous
 62
     7
100
AcDbLine
 10
-219.7730725806461
 20
-38.36685483870939
 30
0.0
 11
-219.6230725806461
 21
-38.84685483870938
 31
0.0
  0
LINE
  5
1B0
330
32
100
AcDbEntity
  8
1
  6
Continuous
 62
     7
100
AcDbLine
 10
-219.6230725806461
 20
-38.84685483870938
 30
0.0
 11
-219.2030725806461
 21
-39.24685483870938
 31
0.0
  0
LINE
  5
1B1
330
32
100
AcDbEntity
  8
1
  6
Continuous
 62
     7
100
AcDbLine
 10
-219.2030725806461
 20
-39.24685483870938
 30
0.0
 11
-218.5530725806461
 21
-39.51685483870939
 31
0.0
  0
LINE
  5
1B2
330
32
100
AcDbEntity
  8
1
  6
Continuous
 62
     7
100
AcDbLine
 10
-219.7230725806461
 20
-48.51685483870939
 30
0.0
 11
-219.7730725806461
 21
-49.21685483870938
 31
0.0
  0
LINE
  5
1B3
330
32
100
AcDbEntity
  8
1
  6
Continuous
 62
     7
100
AcDbLine
 10
-219.7730725806461
 20
-40.21685483870938
 30
0.0
 11
-219.6730725806461
 21
-40.5668548387094
 31
0.0
  0
LINE
  5
1B4
330
32
100
AcDbEntity
  8
1
  6
Continuous
 62
     7
100
AcDbLine
 10
-219.6730725806461
 20
-40.5668548387094
 30
0.0
 11
-219.3530725806461
 21
-40.89685483870939
 31
0.0
  0
LINE
  5
1B5
330
32
100
AcDbEntity
  8
1
  6
Continuous
 62
     7
100
AcDbLine
 10
-219.3530725806461
 20
-40.89685483870939
 30
0.0
 11
-218.8730725806461
 21
-41.14685483870939
 31
0.0
  0
LINE
  5
1B6
330
32
100
AcDbEntity
  8
1
  6
Continuous
 62
     7
100
AcDbLine
 10
-218.8730725806461
 20
-41.14685483870939
 30
0.0
 11
-218.2530725806461
 21
-41.26685483870939
 31
0.0
  0
LINE
  5
1B7
330
32
100
AcDbEntity
  8
1
  6
Continuous
 62
     7
100
AcDbLine
 10
-221.7730725806461
 20
-53.59685483870938
 30
0.0
 11
-221.0030725806461
 21
-53.4468548387094
 31
0.0
  0
LINE
  5
1B8
330
32
100
AcDbEntity
  8
1
  6
Continuous
 62
     7
100
AcDbLine
 10
-221.0030725806461
 20
-53.4468548387094
 30
0.0
 11
-220.3530725806461
 21
-53.01685483870939
 31
0.0
  0
LINE
  5
1B9
330
32
100
AcDbEntity
  8
1
  6
Continuous
 62
     7
100
AcDbLine
 10
-220.3530725806461
 20
-53.01685483870939
 30
0.0
 11
-219.9230725806461
 21
-52.36685483870939
 31
0.0
  0
LINE
  5
1BA
330
32
100
AcDbEntity
  8
1
  6
Continuous
 62
     7
100
AcDbLine
 10
-219.9230725806461
 20
-52.36685483870939
 30
0.0
 11
-219.7730725806461
 21
-51.59685483870938
 31
0.0
  0
LINE
  5
1BB
330
32
100
AcDbEntity
  8
1
  6
Continuous
 62
     7
100
AcDbLine
 10
-219.5730725806461
 20
-47.96685483870938
 30
0.0
 11
-219.7230725806461
 21
-48.59685483870938
 31
0.0
  0
LINE
  5
1BC
330
32
100
AcDbEntity
  8
1
  6
Continuous
 62
     7
100
AcDbLine
 10
-219.7230725806461
 20
-48.59685483870938
 30
0.0
 11
-219.7730725806461
 21
-49.21685483870938
 31
0.0
  0
LINE
  5
1BD
330
32
100
AcDbEntity
  8
1
  6
Continuous
 62
     7
100
AcDbLine
 10
-163.1230725806461
 20
10.40314516129063
 30
0.0
 11
-162.7730725806461
 21
10.40314516129062
 31
0.0
  0
LINE
  5
1BE
330
32
100
AcDbEntity
  8
1
  6
Continuous
 62
     7
100
AcDbLine
 10
-166.6730725806461
 20
10.40314516129063
 30
0.0
 11
-165.3730725806461
 21
10.40314516129063
 31
0.0
  0
LINE
  5
1BF
330
32
100
AcDbEntity
  8
1
  6
Continuous
 62
     7
100
AcDbLine
 10
-165.3730725806461
 20
10.40314516129063
 30
0.0
 11
-164.1730725806461
 21
10.40314516129063
 31
0.0
  0
LINE
  5
1C0
330
32
100
AcDbEntity
  8
1
  6
Continuous
 62
     7
100
AcDbLine
 10
-164.1730725806461
 20
10.40314516129063
 30
0.0
 11
-163.1230725806461
 21
10.40314516129063
 31
0.0
  0
LINE
  5
1C1
330
32
100
AcDbEntity
  8
1
  6
Continuous
 62
     7
100
AcDbLine
 10
-201.3230725806461
 20
10.40314516129063
 30
0.0
 11
-192.6730725806461
 21
10.40314516129063
 31
0.0
  0
LINE
  5
1C2
330
32
100
AcDbEntity
  8
1
  6
Continuous
 62
     7
100
AcDbLine
 10
-192.4230725806461
 20
10.40314516129063
 30
0.0
 11
-191.4030725806461
 21
10.40314516129063
 31
0.0
  0
LINE
  5
1C3
330
32
100
AcDbEntity
  8
1
  6
Continuous
 62
     7
100
AcDbLine
 10
-191.4030725806461
 20
10.40314516129063
 30
0.0
 11
-190.1730725806461
 21
10.40314516129063
 31
0.0
  0
LINE
  5
1C4
330
32
100
AcDbEntity
  8
1
  6
Continuous
 62
     7
100
AcDbLine
 10
-190.1730725806461
 20
10.40314516129063
 30
0.0
 11
-188.9030725806461
 21
10.40314516129063
 31
0.0
  0
LINE
  5
1C5
330
32
100
AcDbEntity
  8
1
  6
Continuous
 62
     7
100
AcDbLine
 10
-188.9030725806461
 20
10.40314516129063
 30
0.0
 11
-166.6730725806461
 21
10.40314516129063
 31
0.0
  0
LINE
  5
1C6
330
32
100
AcDbEntity
  8
1
  6
Continuous
 62
     7
100
AcDbLine
 10
-202.7730725806461
 20
10.40314516129063
 30
0.0
 11
-202.6030725806461
 21
10.40314516129063
 31
0.0
  0
LINE
  5
1C7
330
32
100
AcDbEntity
  8
1
  6
Continuous
 62
     7
100
AcDbLine
 10
-202.6030725806461
 20
10.40314516129063
 30
0.0
 11
-202.1030725806461
 21
10.40314516129063
 31
0.0
  0
LINE
  5
1C8
330
32
100
AcDbEntity
  8
1
  6
Continuous
 62
     7
100
AcDbLine
 10
-202.1030725806461
 20
10.40314516129063
 30
0.0
 11
-201.3230725806461
 21
10.40314516129063
 31
0.0
  0
LINE
  5
1C9
330
32
100
AcDbEntity
  8
1
  6
Continuous
 62
     7
100
AcDbLine
 10
-202.7730725806461
 20
10.40314516129063
 30
0.0
 11
-203.9030725806461
 21
10.28314516129062
 31
0.0
  0
LINE
  5
1CA
330
32
100
AcDbEntity
  8
1
  6
Continuous
 62
     7
100
AcDbLine
 10
-203.9030725806461
 20
10.28314516129062
 30
0.0
 11
-204.9530725806461
 21
9.90314516129063
 31
0.0
  0
LINE
  5
1CB
330
32
100
AcDbEntity
  8
1
  6
Continuous
 62
     7
100
AcDbLine
 10
-204.9530725806461
 20
9.90314516129063
 30
0.0
 11
-205.9030725806461
 21
9.3031451612906
 31
0.0
  0
LINE
  5
1CC
330
32
100
AcDbEntity
  8
1
  6
Continuous
 62
     7
100
AcDbLine
 10
-205.9030725806461
 20
9.3031451612906
 30
0.0
 11
-206.6730725806461
 21
8.53314516129062
 31
0.0
  0
LINE
  5
1CD
330
32
100
AcDbEntity
  8
1
  6
Continuous
 62
     7
100
AcDbLine
 10
-206.6730725806461
 20
8.53314516129062
 30
0.0
 11
-207.2730725806461
 21
7.58314516129061
 31
0.0
  0
LINE
  5
1CE
330
32
100
AcDbEntity
  8
1
  6
Continuous
 62
     7
100
AcDbLine
 10
-207.2730725806461
 20
7.58314516129061
 30
0.0
 11
-207.6530725806461
 21
6.53314516129062
 31
0.0
  0
LINE
  5
1CF
330
32
100
AcDbEntity
  8
1
  6
Continuous
 62
     7
100
AcDbLine
 10
-207.6530725806461
 20
6.53314516129062
 30
0.0
 11
-207.7730725806461
 21
5.40314516129063
 31
0.0
  0
LINE
  5
1D0
330
32
100
AcDbEntity
  8
1
  6
Continuous
 62
     7
100
AcDbLine
 10
-207.7730725806461
 20
-0.16685483870939
 30
0.0
 11
-207.7730725806461
 21
5.40314516129063
 31
0.0
  0
LINE
  5
1D1
330
32
100
AcDbEntity
  8
1
  6
Continuous
 62
     7
100
AcDbLine
 10
-133.2730725806461
 20
-75.59685483870938
 30
0.0
 11
-133.3730725806461
 21
-75.59685483870938
 31
0.0
  0
LINE
  5
1D2
330
32
100
AcDbEntity
  8
1
  6
Continuous
 62
     7
100
AcDbLine
 10
-133.3730725806461
 20
-75.59685483870938
 30
0.0
 11
-133.7030725806461
 21
-75.59685483870938
 31
0.0
  0
LINE
  5
1D3
330
32
100
AcDbEntity
  8
1
  6
Continuous
 62
     7
100
AcDbLine
 10
-133.7030725806461
 20
-75.59685483870938
 30
0.0
 11
-134.2030725806461
 21
-75.59685483870938
 31
0.0
  0
LINE
  5
1D4
330
32
100
AcDbEntity
  8
1
  6
Continuous
 62
     7
100
AcDbLine
 10
-134.2030725806461
 20
-75.59685483870938
 30
0.0
 11
-134.9230725806461
 21
-75.59685483870938
 31
0.0
  0
LINE
  5
1D5
330
32
100
AcDbEntity
  8
1
  6
Continuous
 62
     7
100
AcDbLine
 10
-134.9230725806461
 20
-75.59685483870938
 30
0.0
 11
-135.8530725806461
 21
-75.59685483870938
 31
0.0
  0
LINE
  5
1D6
330
32
100
AcDbEntity
  8
1
  6
Continuous
 62
     7
100
AcDbLine
 10
-135.8530725806461
 20
-75.59685483870938
 30
0.0
 11
-136.9730725806461
 21
-75.59685483870938
 31
0.0
  0
LINE
  5
1D7
330
32
100
AcDbEntity
  8
1
  6
Continuous
 62
     7
100
AcDbLine
 10
-136.9730725806461
 20
-75.59685483870938
 30
0.0
 11
-138.2730725806461
 21
-75.59685483870938
 31
0.0
  0
LINE
  5
1D8
330
32
100
AcDbEntity
  8
1
  6
Continuous
 62
     7
100
AcDbLine
 10
-138.2730725806461
 20
-75.59685483870938
 30
0.0
 11
-139.7530725806461
 21
-75.59685483870938
 31
0.0
  0
LINE
  5
1D9
330
32
100
AcDbEntity
  8
1
  6
Continuous
 62
     7
100
AcDbLine
 10
-139.7530725806461
 20
-75.59685483870938
 30
0.0
 11
-141.4230725806461
 21
-75.59685483870938
 31
0.0
  0
LINE
  5
1DA
330
32
100
AcDbEntity
  8
1
  6
Continuous
 62
     7
100
AcDbLine
 10
-141.4230725806461
 20
-75.59685483870938
 30
0.0
 11
-143.2530725806461
 21
-75.59685483870938
 31
0.0
  0
LINE
  5
1DB
330
32
100
AcDbEntity
  8
1
  6
Continuous
 62
     7
100
AcDbLine
 10
-143.2530725806461
 20
-75.59685483870938
 30
0.0
 11
-145.2530725806461
 21
-75.59685483870938
 31
0.0
  0
LINE
  5
1DC
330
32
100
AcDbEntity
  8
1
  6
Continuous
 62
     7
100
AcDbLine
 10
-145.2530725806461
 20
-75.59685483870938
 30
0.0
 11
-147.4030725806461
 21
-75.59685483870938
 31
0.0
  0
LINE
  5
1DD
330
32
100
AcDbEntity
  8
1
  6
Continuous
 62
     7
100
AcDbLine
 10
-147.4030725806461
 20
-75.59685483870938
 30
0.0
 11
-149.7030725806461
 21
-75.59685483870938
 31
0.0
  0
LINE
  5
1DE
330
32
100
AcDbEntity
  8
1
  6
Continuous
 62
     7
100
AcDbLine
 10
-149.7030725806461
 20
-75.59685483870938
 30
0.0
 11
-152.1230725806461
 21
-75.59685483870938
 31
0.0
  0
LINE
  5
1DF
330
32
100
AcDbEntity
  8
1
  6
Continuous
 62
     7
100
AcDbLine
 10
-152.1230725806461
 20
-75.59685483870938
 30
0.0
 11
-154.6530725806461
 21
-75.59685483870938
 31
0.0
  0
LINE
  5
1E0
330
32
100
AcDbEntity
  8
1
  6
Continuous
 62
     7
100
AcDbLine
 10
-154.6530725806461
 20
-75.59685483870938
 30
0.0
 11
-157.3030725806461
 21
-75.59685483870938
 31
0.0
  0
LINE
  5
1E1
330
32
100
AcDbEntity
  8
1
  6
Continuous
 62
     7
100
AcDbLine
 10
-157.3030725806461
 20
-75.59685483870938
 30
0.0
 11
-160.0530725806461
 21
-75.59685483870938
 31
0.0
  0
LINE
  5
1E2
330
32
100
AcDbEntity
  8
1
  6
Continuous
 62
     7
100
AcDbLine
 10
-160.0530725806461
 20
-75.59685483870938
 30
0.0
 11
-162.8730725806461
 21
-75.59685483870938
 31
0.0
  0
LINE
  5
1E3
330
32
100
AcDbEntity
  8
1
  6
Continuous
 62
     7
100
AcDbLine
 10
-162.8730725806461
 20
-75.59685483870938
 30
0.0
 11
-165.7730725806461
 21
-75.59685483870938
 31
0.0
  0
LINE
  5
1E4
330
32
100
AcDbEntity
  8
1
  6
Continuous
 62
     7
100
AcDbLine
 10
-165.7730725806461
 20
-75.59685483870938
 30
0.0
 11
-168.7230725806461
 21
-75.59685483870938
 31
0.0
  0
LINE
  5
1E5
330
32
100
AcDbEntity
  8
1
  6
Continuous
 62
     7
100
AcDbLine
 10
-168.7230725806461
 20
-75.59685483870938
 30
0.0
 11
-171.7230725806461
 21
-75.59685483870938
 31
0.0
  0
LINE
  5
1E6
330
32
100
AcDbEntity
  8
1
  6
Continuous
 62
     7
100
AcDbLine
 10
-171.7230725806461
 20
-75.59685483870938
 30
0.0
 11
-174.7530725806461
 21
-75.59685483870938
 31
0.0
  0
LINE
  5
1E7
330
32
100
AcDbEntity
  8
1
  6
Continuous
 62
     7
100
AcDbLine
 10
-174.7530725806461
 20
-75.59685483870938
 30
0.0
 11
-177.7730725806461
 21
-75.59685483870938
 31
0.0
  0
LINE
  5
1E8
330
32
100
AcDbEntity
  8
1
  6
Continuous
 62
     7
100
AcDbLine
 10
-177.7730725806461
 20
-75.59685483870938
 30
0.0
 11
-180.8230725806461
 21
-75.59685483870938
 31
0.0
  0
LINE
  5
1E9
330
32
100
AcDbEntity
  8
1
  6
Continuous
 62
     7
100
AcDbLine
 10
-180.8230725806461
 20
-75.59685483870938
 30
0.0
 11
-183.8530725806461
 21
-75.59685483870938
 31
0.0
  0
LINE
  5
1EA
330
32
100
AcDbEntity
  8
1
  6
Continuous
 62
     7
100
AcDbLine
 10
-183.8530725806461
 20
-75.59685483870938
 30
0.0
 11
-186.8230725806461
 21
-75.59685483870938
 31
0.0
  0
LINE
  5
1EB
330
32
100
AcDbEntity
  8
1
  6
Continuous
 62
     7
100
AcDbLine
 10
-186.8230725806461
 20
-75.59685483870938
 30
0.0
 11
-189.7730725806461
 21
-75.59685483870938
 31
0.0
  0
LINE
  5
1EC
330
32
100
AcDbEntity
  8
1
  6
Continuous
 62
     7
100
AcDbLine
 10
-189.7730725806461
 20
-75.59685483870938
 30
0.0
 11
-192.6730725806461
 21
-75.59685483870938
 31
0.0
  0
LINE
  5
1ED
330
32
100
AcDbEntity
  8
1
  6
Continuous
 62
     7
100
AcDbLine
 10
-192.6730725806461
 20
-75.59685483870938
 30
0.0
 11
-195.5030725806461
 21
-75.59685483870938
 31
0.0
  0
LINE
  5
1EE
330
32
100
AcDbEntity
  8
1
  6
Continuous
 62
     7
100
AcDbLine
 10
-195.5030725806461
 20
-75.59685483870938
 30
0.0
 11
-198.2530725806461
 21
-75.59685483870938
 31
0.0
  0
LINE
  5
1EF
330
32
100
AcDbEntity
  8
1
  6
Continuous
 62
     7
100
AcDbLine
 10
-198.2530725806461
 20
-75.59685483870938
 30
0.0
 11
-200.9030725806461
 21
-75.59685483870938
 31
0.0
  0
LINE
  5
1F0
330
32
100
AcDbEntity
  8
1
  6
Continuous
 62
     7
100
AcDbLine
 10
-200.9030725806461
 20
-75.59685483870938
 30
0.0
 11
-203.4530725806461
 21
-75.59685483870938
 31
0.0
  0
LINE
  5
1F1
330
32
100
AcDbEntity
  8
1
  6
Continuous
 62
     7
100
AcDbLine
 10
-203.4530725806461
 20
-75.59685483870938
 30
0.0
 11
-205.8730725806461
 21
-75.59685483870938
 31
0.0
  0
LINE
  5
1F2
330
32
100
AcDbEntity
  8
1
  6
Continuous
 62
     7
100
AcDbLine
 10
-205.8730725806461
 20
-75.59685483870938
 30
0.0
 11
-208.1530725806461
 21
-75.59685483870938
 31
0.0
  0
LINE
  5
1F3
330
32
100
AcDbEntity
  8
1
  6
Continuous
 62
     7
100
AcDbLine
 10
-208.1530725806461
 20
-75.59685483870938
 30
0.0
 11
-210.3030725806461
 21
-75.59685483870938
 31
0.0
  0
LINE
  5
1F4
330
32
100
AcDbEntity
  8
1
  6
Continuous
 62
     7
100
AcDbLine
 10
-210.3030725806461
 20
-75.59685483870938
 30
0.0
 11
-212.3030725806461
 21
-75.59685483870938
 31
0.0
  0
LINE
  5
1F5
330
32
100
AcDbEntity
  8
1
  6
Continuous
 62
     7
100
AcDbLine
 10
-212.3030725806461
 20
-75.59685483870938
 30
0.0
 11
-214.1230725806461
 21
-75.59685483870938
 31
0.0
  0
LINE
  5
1F6
330
32
100
AcDbEntity
  8
1
  6
Continuous
 62
     7
100
AcDbLine
 10
-214.1230725806461
 20
-75.59685483870938
 30
0.0
 11
-215.8030725806461
 21
-75.59685483870938
 31
0.0
  0
LINE
  5
1F7
330
32
100
AcDbEntity
  8
1
  6
Continuous
 62
     7
100
AcDbLine
 10
-215.8030725806461
 20
-75.59685483870938
 30
0.0
 11
-217.3030725806461
 21
-75.59685483870938
 31
0.0
  0
LINE
  5
1F8
330
32
100
AcDbEntity
  8
1
  6
Continuous
 62
     7
100
AcDbLine
 10
-217.3030725806461
 20
-75.59685483870938
 30
0.0
 11
-218.6030725806461
 21
-75.59685483870938
 31
0.0
  0
LINE
  5
1F9
330
32
100
AcDbEntity
  8
1
  6
Continuous
 62
     7
100
AcDbLine
 10
-218.6030725806461
 20
-75.59685483870938
 30
0.0
 11
-219.7030725806461
 21
-75.59685483870938
 31
0.0
  0
LINE
  5
1FA
330
32
100
AcDbEntity
  8
1
  6
Continuous
 62
     7
100
AcDbLine
 10
-219.7030725806461
 20
-75.59685483870938
 30
0.0
 11
-220.6230725806461
 21
-75.59685483870938
 31
0.0
  0
LINE
  5
1FB
330
32
100
AcDbEntity
  8
1
  6
Continuous
 62
     7
100
AcDbLine
 10
-220.6230725806461
 20
-75.59685483870938
 30
0.0
 11
-221.3530725806461
 21
-75.59685483870938
 31
0.0
  0
LINE
  5
1FC
330
32
100
AcDbEntity
  8
1
  6
Continuous
 62
     7
100
AcDbLine
 10
-221.3530725806461
 20
-75.59685483870938
 30
0.0
 11
-221.8730725806461
 21
-75.59685483870938
 31
0.0
  0
LINE
  5
1FD
330
32
100
AcDbEntity
  8
1
  6
Continuous
 62
     7
100
AcDbLine
 10
-221.8730725806461
 20
-75.59685483870938
 30
0.0
 11
-222.1730725806461
 21
-75.59685483870938
 31
0.0
  0
LINE
  5
1FE
330
32
100
AcDbEntity
  8
1
  6
Continuous
 62
     7
100
AcDbLine
 10
-222.1730725806461
 20
-75.59685483870938
 30
0.0
 11
-222.2730725806461
 21
-75.59685483870938
 31
0.0
  0
LINE
  5
1FF
330
32
100
AcDbEntity
  8
1
  6
Continuous
 62
     7
100
AcDbLine
 10
-162.7730725806461
 20
-77.59685483870938
 30
0.0
 11
-162.9030725806461
 21
-77.59685483870938
 31
0.0
  0
LINE
  5
200
330
32
100
AcDbEntity
  8
1
  6
Continuous
 62
     7
100
AcDbLine
 10
-162.9030725806461
 20
-77.59685483870938
 30
0.0
 11
-163.2230725806461
 21
-77.59685483870938
 31
0.0
  0
LINE
  5
201
330
32
100
AcDbEntity
  8
1
  6
Continuous
 62
     7
100
AcDbLine
 10
-163.2230725806461
 20
-77.59685483870938
 30
0.0
 11
-163.7530725806461
 21
-77.59685483870938
 31
0.0
  0
LINE
  5
202
330
32
100
AcDbEntity
  8
1
  6
Continuous
 62
     7
100
AcDbLine
 10
-163.7530725806461
 20
-77.59685483870938
 30
0.0
 11
-164.5030725806461
 21
-77.59685483870938
 31
0.0
  0
LINE
  5
203
330
32
100
AcDbEntity
  8
1
  6
Continuous
 62
     7
100
AcDbLine
 10
-164.5030725806461
 20
-77.59685483870938
 30
0.0
 11
-165.4230725806461
 21
-77.59685483870938
 31
0.0
  0
LINE
  5
204
330
32
100
AcDbEntity
  8
1
  6
Continuous
 62
     7
100
AcDbLine
 10
-165.4230725806461
 20
-77.59685483870938
 30
0.0
 11
-166.5530725806461
 21
-77.59685483870938
 31
0.0
  0
LINE
  5
205
330
32
100
AcDbEntity
  8
1
  6
Continuous
 62
     7
100
AcDbLine
 10
-166.5530725806461
 20
-77.59685483870938
 30
0.0
 11
-167.8230725806461
 21
-77.59685483870938
 31
0.0
  0
LINE
  5
206
330
32
100
AcDbEntity
  8
1
  6
Continuous
 62
     7
100
AcDbLine
 10
-167.8230725806461
 20
-77.59685483870938
 30
0.0
 11
-169.2530725806461
 21
-77.59685483870938
 31
0.0
  0
LINE
  5
207
330
32
100
AcDbEntity
  8
1
  6
Continuous
 62
     7
100
AcDbLine
 10
-169.2530725806461
 20
-77.59685483870938
 30
0.0
 11
-170.8030725806461
 21
-77.59685483870938
 31
0.0
  0
LINE
  5
208
330
32
100
AcDbEntity
  8
1
  6
Continuous
 62
     7
100
AcDbLine
 10
-170.8030725806461
 20
-77.59685483870938
 30
0.0
 11
-172.4530725806461
 21
-77.59685483870938
 31
0.0
  0
LINE
  5
209
330
32
100
AcDbEntity
  8
1
  6
Continuous
 62
     7
100
AcDbLine
 10
-172.4530725806461
 20
-77.59685483870938
 30
0.0
 11
-174.2030725806461
 21
-77.59685483870938
 31
0.0
  0
LINE
  5
20A
330
32
100
AcDbEntity
  8
1
  6
Continuous
 62
     7
100
AcDbLine
 10
-174.2030725806461
 20
-77.59685483870938
 30
0.0
 11
-175.9730725806461
 21
-77.59685483870938
 31
0.0
  0
LINE
  5
20B
330
32
100
AcDbEntity
  8
1
  6
Continuous
 62
     7
100
AcDbLine
 10
-175.9730725806461
 20
-77.59685483870938
 30
0.0
 11
-177.7730725806461
 21
-77.59685483870938
 31
0.0
  0
LINE
  5
20C
330
32
100
AcDbEntity
  8
1
  6
Continuous
 62
     7
100
AcDbLine
 10
-177.7730725806461
 20
-77.59685483870938
 30
0.0
 11
-179.6030725806461
 21
-77.59685483870938
 31
0.0
  0
LINE
  5
20D
330
32
100
AcDbEntity
  8
1
  6
Continuous
 62
     7
100
AcDbLine
 10
-179.6030725806461
 20
-77.59685483870938
 30
0.0
 11
-181.3730725806461
 21
-77.59685483870938
 31
0.0
  0
LINE
  5
20E
330
32
100
AcDbEntity
  8
1
  6
Continuous
 62
     7
100
AcDbLine
 10
-181.3730725806461
 20
-77.59685483870938
 30
0.0
 11
-183.1030725806461
 21
-77.59685483870938
 31
0.0
  0
LINE
  5
20F
330
32
100
AcDbEntity
  8
1
  6
Continuous
 62
     7
100
AcDbLine
 10
-183.1030725806461
 20
-77.59685483870938
 30
0.0
 11
-184.7530725806461
 21
-77.59685483870938
 31
0.0
  0
LINE
  5
210
330
32
100
AcDbEntity
  8
1
  6
Continuous
 62
     7
100
AcDbLine
 10
-184.7530725806461
 20
-77.59685483870938
 30
0.0
 11
-186.3030725806461
 21
-77.59685483870938
 31
0.0
  0
LINE
  5
211
330
32
100
AcDbEntity
  8
1
  6
Continuous
 62
     7
100
AcDbLine
 10
-186.3030725806461
 20
-77.59685483870938
 30
0.0
 11
-187.7230725806461
 21
-77.59685483870938
 31
0.0
  0
LINE
  5
212
330
32
100
AcDbEntity
  8
1
  6
Continuous
 62
     7
100
AcDbLine
 10
-187.7230725806461
 20
-77.59685483870938
 30
0.0
 11
-189.0030725806461
 21
-77.59685483870938
 31
0.0
  0
LINE
  5
213
330
32
100
AcDbEntity
  8
1
  6
Continuous
 62
     7
100
AcDbLine
 10
-189.0030725806461
 20
-77.59685483870938
 30
0.0
 11
-190.1230725806461
 21
-77.59685483870938
 31
0.0
  0
LINE
  5
214
330
32
100
AcDbEntity
  8
1
  6
Continuous
 62
     7
100
AcDbLine
 10
-190.1230725806461
 20
-77.59685483870938
 30
0.0
 11
-191.0530725806461
 21
-77.59685483870938
 31
0.0
  0
LINE
  5
215
330
32
100
AcDbEntity
  8
1
  6
Continuous
 62
     7
100
AcDbLine
 10
-191.0530725806461
 20
-77.59685483870938
 30
0.0
 11
-191.8030725806461
 21
-77.59685483870938
 31
0.0
  0
LINE
  5
216
330
32
100
AcDbEntity
  8
1
  6
Continuous
 62
     7
100
AcDbLine
 10
-191.8030725806461
 20
-77.59685483870938
 30
0.0
 11
-192.3530725806461
 21
-77.59685483870938
 31
0.0
  0
LINE
  5
217
330
32
100
AcDbEntity
  8
1
  6
Continuous
 62
     7
100
AcDbLine
 10
-192.3530725806461
 20
-77.59685483870938
 30
0.0
 11
-192.6730725806461
 21
-77.59685483870938
 31
0.0
  0
LINE
  5
218
330
32
100
AcDbEntity
  8
1
  6
Continuous
 62
     7
100
AcDbLine
 10
-192.6730725806461
 20
-77.59685483870938
 30
0.0
 11
-192.7730725806461
 21
-77.59685483870938
 31
0.0
  0
LINE
  5
219
330
32
100
AcDbEntity
  8
1
  6
Continuous
 62
     7
100
AcDbLine
 10
-167.7730725806461
 20
-112.5968548387094
 30
0.0
 11
-167.8730725806461
 21
-112.5968548387094
 31
0.0
  0
LINE
  5
21A
330
32
100
AcDbEntity
  8
1
  6
Continuous
 62
     7
100
AcDbLine
 10
-167.8730725806461
 20
-112.5968548387094
 30
0.0
 11
-168.1730725806461
 21
-112.5968548387094
 31
0.0
  0
LINE
  5
21B
330
32
100
AcDbEntity
  8
1
  6
Continuous
 62
     7
100
AcDbLine
 10
-168.1730725806461
 20
-112.5968548387094
 30
0.0
 11
-168.6730725806461
 21
-112.5968548387094
 31
0.0
  0
LINE
  5
21C
330
32
100
AcDbEntity
  8
1
  6
Continuous
 62
     7
100
AcDbLine
 10
-168.6730725806461
 20
-112.5968548387094
 30
0.0
 11
-169.3730725806461
 21
-112.5968548387094
 31
0.0
  0
LINE
  5
21D
330
32
100
AcDbEntity
  8
1
  6
Continuous
 62
     7
100
AcDbLine
 10
-169.3730725806461
 20
-112.5968548387094
 30
0.0
 11
-170.2230725806461
 21
-112.5968548387094
 31
0.0
  0
LINE
  5
21E
330
32
100
AcDbEntity
  8
1
  6
Continuous
 62
     7
100
AcDbLine
 10
-170.2230725806461
 20
-112.5968548387094
 30
0.0
 11
-171.2230725806461
 21
-112.5968548387094
 31
0.0
  0
LINE
  5
21F
330
32
100
AcDbEntity
  8
1
  6
Continuous
 62
     7
100
AcDbLine
 10
-171.2230725806461
 20
-112.5968548387094
 30
0.0
 11
-172.3730725806461
 21
-112.5968548387094
 31
0.0
  0
LINE
  5
220
330
32
100
AcDbEntity
  8
1
  6
Continuous
 62
     7
100
AcDbLine
 10
-172.3730725806461
 20
-112.5968548387094
 30
0.0
 11
-173.6230725806461
 21
-112.5968548387094
 31
0.0
  0
LINE
  5
221
330
32
100
AcDbEntity
  8
1
  6
Continuous
 62
     7
100
AcDbLine
 10
-173.6230725806461
 20
-112.5968548387094
 30
0.0
 11
-174.9730725806461
 21
-112.5968548387094
 31
0.0
  0
LINE
  5
222
330
32
100
AcDbEntity
  8
1
  6
Continuous
 62
     7
100
AcDbLine
 10
-174.9730725806461
 20
-112.5968548387094
 30
0.0
 11
-176.3530725806461
 21
-112.5968548387094
 31
0.0
  0
LINE
  5
223
330
32
100
AcDbEntity
  8
1
  6
Continuous
 62
     7
100
AcDbLine
 10
-176.3530725806461
 20
-112.5968548387094
 30
0.0
 11
-177.7730725806461
 21
-112.5968548387094
 31
0.0
  0
LINE
  5
224
330
32
100
AcDbEntity
  8
1
  6
Continuous
 62
     7
100
AcDbLine
 10
-177.7730725806461
 20
-112.5968548387094
 30
0.0
 11
-179.2030725806461
 21
-112.5968548387094
 31
0.0
  0
LINE
  5
225
330
32
100
AcDbEntity
  8
1
  6
Continuous
 62
     7
100
AcDbLine
 10
-179.2030725806461
 20
-112.5968548387094
 30
0.0
 11
-180.6030725806461
 21
-112.5968548387094
 31
0.0
  0
LINE
  5
226
330
32
100
AcDbEntity
  8
1
  6
Continuous
 62
     7
100
AcDbLine
 10
-180.6030725806461
 20
-112.5968548387094
 30
0.0
 11
-181.9230725806461
 21
-112.5968548387094
 31
0.0
  0
LINE
  5
227
330
32
100
AcDbEntity
  8
1
  6
Continuous
 62
     7
100
AcDbLine
 10
-181.9230725806461
 20
-112.5968548387094
 30
0.0
 11
-183.1730725806461
 21
-112.5968548387094
 31
0.0
  0
LINE
  5
228
330
32
100
AcDbEntity
  8
1
  6
Continuous
 62
     7
100
AcDbLine
 10
-183.1730725806461
 20
-112.5968548387094
 30
0.0
 11
-184.3230725806461
 21
-112.5968548387094
 31
0.0
  0
LINE
  5
229
330
32
100
AcDbEntity
  8
1
  6
Continuous
 62
     7
100
AcDbLine
 10
-184.3230725806461
 20
-112.5968548387094
 30
0.0
 11
-185.3230725806461
 21
-112.5968548387094
 31
0.0
  0
LINE
  5
22A
330
32
100
AcDbEntity
  8
1
  6
Continuous
 62
     7
100
AcDbLine
 10
-185.3230725806461
 20
-112.5968548387094
 30
0.0
 11
-186.2030725806461
 21
-112.5968548387094
 31
0.0
  0
LINE
  5
22B
330
32
100
AcDbEntity
  8
1
  6
Continuous
 62
     7
100
AcDbLine
 10
-186.2030725806461
 20
-112.5968548387094
 30
0.0
 11
-186.8730725806461
 21
-112.5968548387094
 31
0.0
  0
LINE
  5
22C
330
32
100
AcDbEntity
  8
1
  6
Continuous
 62
     7
100
AcDbLine
 10
-186.8730725806461
 20
-112.5968548387094
 30
0.0
 11
-187.3730725806461
 21
-112.5968548387094
 31
0.0
  0
LINE
  5
22D
330
32
100
AcDbEntity
  8
1
  6
Continuous
 62
     7
100
AcDbLine
 10
-187.3730725806461
 20
-112.5968548387094
 30
0.0
 11
-187.6730725806461
 21
-112.5968548387094
 31
0.0
  0
LINE
  5
22E
330
32
100
AcDbEntity
  8
1
  6
Continuous
 62
     7
100
AcDbLine
 10
-187.6730725806461
 20
-112.5968548387094
 30
0.0
 11
-187.7730725806461
 21
-112.5968548387094
 31
0.0
  0
LINE
  5
22F
330
32
100
AcDbEntity
  8
1
  6
Continuous
 62
     7
100
AcDbLine
 10
-74.28307258064609
 20
9.41314516129062
 30
0.0
 11
-74.28307258064609
 21
7.56314516129062
 31
0.0
  0
LINE
  5
230
330
32
100
AcDbEntity
  8
1
  6
Continuous
 62
     7
100
AcDbLine
 10
-74.28307258064609
 20
7.56314516129062
 30
0.0
 11
-74.28307258064609
 21
5.53314516129062
 31
0.0
  0
LINE
  5
231
330
32
100
AcDbEntity
  8
1
  6
Continuous
 62
     7
100
AcDbLine
 10
-74.28307258064609
 20
5.53314516129062
 30
0.0
 11
-74.28307258064609
 21
3.36314516129061
 31
0.0
  0
LINE
  5
232
330
32
100
AcDbEntity
  8
1
  6
Continuous
 62
     7
100
AcDbLine
 10
-74.28307258064609
 20
3.36314516129061
 30
0.0
 11
-74.28307258064609
 21
1.01314516129061
 31
0.0
  0
LINE
  5
233
330
32
100
AcDbEntity
  8
1
  6
Continuous
 62
     7
100
AcDbLine
 10
-74.28307258064609
 20
1.01314516129061
 30
0.0
 11
-74.28307258064609
 21
-52.18685483870938
 31
0.0
  0
LINE
  5
234
330
32
100
AcDbEntity
  8
1
  6
Continuous
 62
     7
100
AcDbLine
 10
-74.28307258064609
 20
-52.18685483870938
 30
0.0
 11
-74.28307258064609
 21
-54.51685483870939
 31
0.0
  0
LINE
  5
235
330
32
100
AcDbEntity
  8
1
  6
Continuous
 62
     7
100
AcDbLine
 10
-74.28307258064609
 20
-54.51685483870939
 30
0.0
 11
-74.28307258064609
 21
-56.71685483870938
 31
0.0
  0
LINE
  5
236
330
32
100
AcDbEntity
  8
1
  6
Continuous
 62
     7
100
AcDbLine
 10
-74.28307258064609
 20
-56.71685483870938
 30
0.0
 11
-74.28307258064609
 21
-58.73685483870939
 31
0.0
  0
LINE
  5
237
330
32
100
AcDbEntity
  8
1
  6
Continuous
 62
     7
100
AcDbLine
 10
-74.28307258064609
 20
-58.73685483870939
 30
0.0
 11
-74.28307258064609
 21
-60.58685483870939
 31
0.0
  0
LINE
  5
238
330
32
100
AcDbEntity
  8
1
  6
DOT_CENTER
 62
     2
100
AcDbLine
 10
-177.7730725806461
 20
45.124906637459
 30
0.0
 11
-177.7730725806461
 21
-114.5968548387094
 31
0.0
  0
LINE
  5
239
330
32
100
AcDbEntity
  8
1
  6
DOT_CENTER
 62
     2
100
AcDbLine
 10
-72.7730725806461
 20
-25.59685483870938
 30
0.0
 11
-225.255015194054
 21
-25.59685483870937
 31
0.0
  0
LINE
  5
23A
330
32
100
AcDbEntity
  8
1
  6
Continuous
 62
     7
100
AcDbLine
 10
144.7169274193539
 20
-58.73685483870939
 30
0.0
 11
144.7169274193539
 21
-60.58685483870939
 31
0.0
  0
LINE
  5
23B
330
32
100
AcDbEntity
  8
1
  6
Continuous
 62
     7
100
AcDbLine
 10
144.7169274193539
 20
-56.71685483870938
 30
0.0
 11
144.7169274193539
 21
-58.73685483870939
 31
0.0
  0
LINE
  5
23C
330
32
100
AcDbEntity
  8
1
  6
Continuous
 62
     7
100
AcDbLine
 10
144.7169274193539
 20
-54.51685483870939
 30
0.0
 11
144.7169274193539
 21
-56.71685483870938
 31
0.0
  0
LINE
  5
23D
330
32
100
AcDbEntity
  8
1
  6
Continuous
 62
     7
100
AcDbLine
 10
144.7169274193539
 20
-52.18685483870938
 30
0.0
 11
144.7169274193539
 21
-54.51685483870939
 31
0.0
  0
LINE
  5
23E
330
32
100
AcDbEntity
  8
1
  6
Continuous
 62
     7
100
AcDbLine
 10
144.7169274193539
 20
1.01314516129061
 30
0.0
 11
144.7169274193539
 21
-52.18685483870938
 31
0.0
  0
LINE
  5
23F
330
32
100
AcDbEntity
  8
1
  6
Continuous
 62
     7
100
AcDbLine
 10
144.7169274193539
 20
3.36314516129061
 30
0.0
 11
144.7169274193539
 21
1.01314516129061
 31
0.0
  0
LINE
  5
240
330
32
100
AcDbEntity
  8
1
  6
Continuous
 62
     7
100
AcDbLine
 10
144.7169274193539
 20
5.53314516129062
 30
0.0
 11
144.7169274193539
 21
3.36314516129061
 31
0.0
  0
LINE
  5
241
330
32
100
AcDbEntity
  8
1
  6
Continuous
 62
     7
100
AcDbLine
 10
144.7169274193539
 20
7.56314516129062
 30
0.0
 11
144.7169274193539
 21
5.53314516129062
 31
0.0
  0
LINE
  5
242
330
32
100
AcDbEntity
  8
1
  6
Continuous
 62
     7
100
AcDbLine
 10
144.7169274193539
 20
9.41314516129062
 30
0.0
 11
144.7169274193539
 21
7.56314516129062
 31
0.0
  0
LINE
  5
243
330
32
100
AcDbEntity
  8
1
  6
Continuous
 62
     7
100
AcDbLine
 10
26.32692741935389
 20
-77.59685483870938
 30
0.0
 11
26.2269274193539
 21
-77.59685483870938
 31
0.0
  0
LINE
  5
244
330
32
100
AcDbEntity
  8
1
  6
Continuous
 62
     7
100
AcDbLine
 10
26.64692741935389
 20
-77.59685483870938
 30
0.0
 11
26.32692741935389
 21
-77.59685483870938
 31
0.0
  0
LINE
  5
245
330
32
100
AcDbEntity
  8
1
  6
Continuous
 62
     7
100
AcDbLine
 10
27.1969274193539
 20
-77.59685483870938
 30
0.0
 11
26.64692741935389
 21
-77.59685483870938
 31
0.0
  0
LINE
  5
246
330
32
100
AcDbEntity
  8
1
  6
Continuous
 62
     7
100
AcDbLine
 10
27.9469274193539
 20
-77.59685483870938
 30
0.0
 11
27.1969274193539
 21
-77.59685483870938
 31
0.0
  0
LINE
  5
247
330
32
100
AcDbEntity
  8
1
  6
Continuous
 62
     7
100
AcDbLine
 10
28.87692741935391
 20
-77.59685483870938
 30
0.0
 11
27.9469274193539
 21
-77.59685483870938
 31
0.0
  0
LINE
  5
248
330
32
100
AcDbEntity
  8
1
  6
Continuous
 62
     7
100
AcDbLine
 10
29.99692741935391
 20
-77.59685483870938
 30
0.0
 11
28.87692741935391
 21
-77.59685483870938
 31
0.0
  0
LINE
  5
249
330
32
100
AcDbEntity
  8
1
  6
Continuous
 62
     7
100
AcDbLine
 10
31.27692741935391
 20
-77.59685483870938
 30
0.0
 11
31.2269274193539
 21
-77.59685483870938
 31
0.0
  0
LINE
  5
24A
330
32
100
AcDbEntity
  8
1
  6
Continuous
 62
     7
100
AcDbLine
 10
32.6969274193539
 20
-77.59685483870938
 30
0.0
 11
31.27692741935391
 21
-77.59685483870938
 31
0.0
  0
LINE
  5
24B
330
32
100
AcDbEntity
  8
1
  6
Continuous
 62
     7
100
AcDbLine
 10
34.24692741935391
 20
-77.59685483870938
 30
0.0
 11
32.6969274193539
 21
-77.59685483870938
 31
0.0
  0
LINE
  5
24C
330
32
100
AcDbEntity
  8
1
  6
Continuous
 62
     7
100
AcDbLine
 10
35.89692741935389
 20
-77.59685483870938
 30
0.0
 11
34.24692741935391
 21
-77.59685483870938
 31
0.0
  0
LINE
  5
24D
330
32
100
AcDbEntity
  8
1
  6
Continuous
 62
     7
100
AcDbLine
 10
37.62692741935391
 20
-77.59685483870938
 30
0.0
 11
35.89692741935389
 21
-77.59685483870938
 31
0.0
  0
LINE
  5
24E
330
32
100
AcDbEntity
  8
1
  6
Continuous
 62
     7
100
AcDbLine
 10
39.39692741935389
 20
-77.59685483870938
 30
0.0
 11
37.62692741935391
 21
-77.59685483870938
 31
0.0
  0
LINE
  5
24F
330
32
100
AcDbEntity
  8
1
  6
Continuous
 62
     7
100
AcDbLine
 10
41.2269274193539
 20
-77.59685483870938
 30
0.0
 11
39.39692741935389
 21
-77.59685483870938
 31
0.0
  0
LINE
  5
250
330
32
100
AcDbEntity
  8
1
  6
Continuous
 62
     7
100
AcDbLine
 10
43.02692741935391
 20
-77.59685483870938
 30
0.0
 11
41.2269274193539
 21
-77.59685483870938
 31
0.0
  0
LINE
  5
251
330
32
100
AcDbEntity
  8
1
  6
Continuous
 62
     7
100
AcDbLine
 10
44.79692741935389
 20
-77.59685483870938
 30
0.0
 11
43.02692741935391
 21
-77.59685483870938
 31
0.0
  0
LINE
  5
252
330
32
100
AcDbEntity
  8
1
  6
Continuous
 62
     7
100
AcDbLine
 10
46.54692741935389
 20
-77.59685483870938
 30
0.0
 11
44.79692741935389
 21
-77.59685483870938
 31
0.0
  0
LINE
  5
253
330
32
100
AcDbEntity
  8
1
  6
Continuous
 62
     7
100
AcDbLine
 10
48.1969274193539
 20
-77.59685483870938
 30
0.0
 11
46.54692741935389
 21
-77.59685483870938
 31
0.0
  0
LINE
  5
254
330
32
100
AcDbEntity
  8
1
  6
Continuous
 62
     7
100
AcDbLine
 10
49.74692741935391
 20
-77.59685483870938
 30
0.0
 11
48.1969274193539
 21
-77.59685483870938
 31
0.0
  0
LINE
  5
255
330
32
100
AcDbEntity
  8
1
  6
Continuous
 62
     7
100
AcDbLine
 10
51.17692741935389
 20
-77.59685483870938
 30
0.0
 11
49.74692741935391
 21
-77.59685483870938
 31
0.0
  0
LINE
  5
256
330
32
100
AcDbEntity
  8
1
  6
Continuous
 62
     7
100
AcDbLine
 10
52.4469274193539
 20
-77.59685483870938
 30
0.0
 11
51.2269274193539
 21
-77.59685483870938
 31
0.0
  0
LINE
  5
257
330
32
100
AcDbEntity
  8
1
  6
Continuous
 62
     7
100
AcDbLine
 10
53.57692741935389
 20
-77.59685483870938
 30
0.0
 11
52.4469274193539
 21
-77.59685483870938
 31
0.0
  0
LINE
  5
258
330
32
100
AcDbEntity
  8
1
  6
Continuous
 62
     7
100
AcDbLine
 10
54.49692741935391
 20
-77.59685483870938
 30
0.0
 11
53.57692741935389
 21
-77.59685483870938
 31
0.0
  0
LINE
  5
259
330
32
100
AcDbEntity
  8
1
  6
Continuous
 62
     7
100
AcDbLine
 10
55.24692741935391
 20
-77.59685483870938
 30
0.0
 11
54.49692741935391
 21
-77.59685483870938
 31
0.0
  0
LINE
  5
25A
330
32
100
AcDbEntity
  8
1
  6
Continuous
 62
     7
100
AcDbLine
 10
55.77692741935391
 20
-77.59685483870938
 30
0.0
 11
55.24692741935391
 21
-77.59685483870938
 31
0.0
  0
LINE
  5
25B
330
32
100
AcDbEntity
  8
1
  6
Continuous
 62
     7
100
AcDbLine
 10
56.0969274193539
 20
-77.59685483870938
 30
0.0
 11
55.77692741935391
 21
-77.59685483870938
 31
0.0
  0
LINE
  5
25C
330
32
100
AcDbEntity
  8
1
  6
Continuous
 62
     7
100
AcDbLine
 10
56.2269274193539
 20
-77.59685483870938
 30
0.0
 11
56.0969274193539
 21
-77.59685483870938
 31
0.0
  0
LINE
  5
25D
330
32
100
AcDbEntity
  8
1
  6
Continuous
 62
     7
100
AcDbLine
 10
-3.17307258064611
 20
-75.59685483870938
 30
0.0
 11
-3.2730725806461
 21
-75.59685483870938
 31
0.0
  0
LINE
  5
25E
330
32
100
AcDbEntity
  8
1
  6
Continuous
 62
     7
100
AcDbLine
 10
-2.87307258064609
 20
-75.59685483870938
 30
0.0
 11
-3.17307258064611
 21
-75.59685483870938
 31
0.0
  0
LINE
  5
25F
330
32
100
AcDbEntity
  8
1
  6
Continuous
 62
     7
100
AcDbLine
 10
-2.35307258064611
 20
-75.59685483870938
 30
0.0
 11
-2.87307258064609
 21
-75.59685483870938
 31
0.0
  0
LINE
  5
260
330
32
100
AcDbEntity
  8
1
  6
Continuous
 62
     7
100
AcDbLine
 10
-1.6230725806461
 20
-75.59685483870938
 30
0.0
 11
-2.35307258064611
 21
-75.59685483870938
 31
0.0
  0
LINE
  5
261
330
32
100
AcDbEntity
  8
1
  6
Continuous
 62
     7
100
AcDbLine
 10
-0.70307258064611
 20
-75.59685483870938
 30
0.0
 11
-1.6230725806461
 21
-75.59685483870938
 31
0.0
  0
LINE
  5
262
330
32
100
AcDbEntity
  8
1
  6
Continuous
 62
     7
100
AcDbLine
 10
0.39692741935389
 20
-75.59685483870938
 30
0.0
 11
-0.70307258064611
 21
-75.59685483870938
 31
0.0
  0
LINE
  5
263
330
32
100
AcDbEntity
  8
1
  6
Continuous
 62
     7
100
AcDbLine
 10
1.6969274193539
 20
-75.59685483870938
 30
0.0
 11
0.39692741935389
 21
-75.59685483870938
 31
0.0
  0
LINE
  5
264
330
32
100
AcDbEntity
  8
1
  6
Continuous
 62
     7
100
AcDbLine
 10
3.1969274193539
 20
-75.59685483870938
 30
0.0
 11
1.6969274193539
 21
-75.59685483870938
 31
0.0
  0
LINE
  5
265
330
32
100
AcDbEntity
  8
1
  6
Continuous
 62
     7
100
AcDbLine
 10
4.8769274193539
 20
-75.59685483870938
 30
0.0
 11
3.1969274193539
 21
-75.59685483870938
 31
0.0
  0
LINE
  5
266
330
32
100
AcDbEntity
  8
1
  6
Continuous
 62
     7
100
AcDbLine
 10
6.6969274193539
 20
-75.59685483870938
 30
0.0
 11
4.8769274193539
 21
-75.59685483870938
 31
0.0
  0
LINE
  5
267
330
32
100
AcDbEntity
  8
1
  6
Continuous
 62
     7
100
AcDbLine
 10
8.6969274193539
 20
-75.59685483870938
 30
0.0
 11
6.6969274193539
 21
-75.59685483870938
 31
0.0
  0
LINE
  5
268
330
32
100
AcDbEntity
  8
1
  6
Continuous
 62
     7
100
AcDbLine
 10
10.8469274193539
 20
-75.59685483870938
 30
0.0
 11
8.6969274193539
 21
-75.59685483870938
 31
0.0
  0
LINE
  5
269
330
32
100
AcDbEntity
  8
1
  6
Continuous
 62
     7
100
AcDbLine
 10
13.12692741935391
 20
-75.59685483870938
 30
0.0
 11
10.8469274193539
 21
-75.59685483870938
 31
0.0
  0
LINE
  5
26A
330
32
100
AcDbEntity
  8
1
  6
Continuous
 62
     7
100
AcDbLine
 10
15.54692741935389
 20
-75.59685483870938
 30
0.0
 11
13.12692741935391
 21
-75.59685483870938
 31
0.0
  0
LINE
  5
26B
330
32
100
AcDbEntity
  8
1
  6
Continuous
 62
     7
100
AcDbLine
 10
18.0969274193539
 20
-75.59685483870938
 30
0.0
 11
15.54692741935389
 21
-75.59685483870938
 31
0.0
  0
LINE
  5
26C
330
32
100
AcDbEntity
  8
1
  6
Continuous
 62
     7
100
AcDbLine
 10
20.74692741935391
 20
-75.59685483870938
 30
0.0
 11
18.0969274193539
 21
-75.59685483870938
 31
0.0
  0
LINE
  5
26D
330
32
100
AcDbEntity
  8
1
  6
Continuous
 62
     7
100
AcDbLine
 10
23.49692741935391
 20
-75.59685483870938
 30
0.0
 11
20.74692741935391
 21
-75.59685483870938
 31
0.0
  0
LINE
  5
26E
330
32
100
AcDbEntity
  8
1
  6
Continuous
 62
     7
100
AcDbLine
 10
26.32692741935389
 20
-75.59685483870938
 30
0.0
 11
23.49692741935391
 21
-75.59685483870938
 31
0.0
  0
LINE
  5
26F
330
32
100
AcDbEntity
  8
1
  6
Continuous
 62
     7
100
AcDbLine
 10
29.2269274193539
 20
-75.59685483870938
 30
0.0
 11
26.32692741935389
 21
-75.59685483870938
 31
0.0
  0
LINE
  5
270
330
32
100
AcDbEntity
  8
1
  6
Continuous
 62
     7
100
AcDbLine
 10
32.17692741935389
 20
-75.59685483870938
 30
0.0
 11
31.2269274193539
 21
-75.59685483870938
 31
0.0
  0
LINE
  5
271
330
32
100
AcDbEntity
  8
1
  6
Continuous
 62
     7
100
AcDbLine
 10
35.14692741935389
 20
-75.59685483870938
 30
0.0
 11
32.17692741935389
 21
-75.59685483870938
 31
0.0
  0
LINE
  5
272
330
32
100
AcDbEntity
  8
1
  6
Continuous
 62
     7
100
AcDbLine
 10
38.17692741935389
 20
-75.59685483870938
 30
0.0
 11
35.14692741935389
 21
-75.59685483870938
 31
0.0
  0
LINE
  5
273
330
32
100
AcDbEntity
  8
1
  6
Continuous
 62
     7
100
AcDbLine
 10
41.2269274193539
 20
-75.59685483870938
 30
0.0
 11
38.17692741935389
 21
-75.59685483870938
 31
0.0
  0
LINE
  5
274
330
32
100
AcDbEntity
  8
1
  6
Continuous
 62
     7
100
AcDbLine
 10
44.24692741935391
 20
-75.59685483870938
 30
0.0
 11
41.2269274193539
 21
-75.59685483870938
 31
0.0
  0
LINE
  5
275
330
32
100
AcDbEntity
  8
1
  6
Continuous
 62
     7
100
AcDbLine
 10
47.27692741935391
 20
-75.59685483870938
 30
0.0
 11
44.24692741935391
 21
-75.59685483870938
 31
0.0
  0
LINE
  5
276
330
32
100
AcDbEntity
  8
1
  6
Continuous
 62
     7
100
AcDbLine
 10
50.27692741935391
 20
-75.59685483870938
 30
0.0
 11
47.27692741935391
 21
-75.59685483870938
 31
0.0
  0
LINE
  5
277
330
32
100
AcDbEntity
  8
1
  6
Continuous
 62
     7
100
AcDbLine
 10
53.2269274193539
 20
-75.59685483870938
 30
0.0
 11
51.2269274193539
 21
-75.59685483870938
 31
0.0
  0
LINE
  5
278
330
32
100
AcDbEntity
  8
1
  6
Continuous
 62
     7
100
AcDbLine
 10
56.12692741935391
 20
-75.59685483870938
 30
0.0
 11
53.2269274193539
 21
-75.59685483870938
 31
0.0
  0
LINE
  5
279
330
32
100
AcDbEntity
  8
1
  6
Continuous
 62
     7
100
AcDbLine
 10
58.9469274193539
 20
-75.59685483870938
 30
0.0
 11
56.12692741935391
 21
-75.59685483870938
 31
0.0
  0
LINE
  5
27A
330
32
100
AcDbEntity
  8
1
  6
Continuous
 62
     7
100
AcDbLine
 10
61.6969274193539
 20
-75.59685483870938
 30
0.0
 11
58.9469274193539
 21
-75.59685483870938
 31
0.0
  0
LINE
  5
27B
330
32
100
AcDbEntity
  8
1
  6
Continuous
 62
     7
100
AcDbLine
 10
64.3469274193539
 20
-75.59685483870938
 30
0.0
 11
61.6969274193539
 21
-75.59685483870938
 31
0.0
  0
LINE
  5
27C
330
32
100
AcDbEntity
  8
1
  6
Continuous
 62
     7
100
AcDbLine
 10
66.8769274193539
 20
-75.59685483870938
 30
0.0
 11
64.3469274193539
 21
-75.59685483870938
 31
0.0
  0
LINE
  5
27D
330
32
100
AcDbEntity
  8
1
  6
Continuous
 62
     7
100
AcDbLine
 10
69.29692741935389
 20
-75.59685483870938
 30
0.0
 11
66.8769274193539
 21
-75.59685483870938
 31
0.0
  0
LINE
  5
27E
330
32
100
AcDbEntity
  8
1
  6
Continuous
 62
     7
100
AcDbLine
 10
71.5969274193539
 20
-75.59685483870938
 30
0.0
 11
69.29692741935389
 21
-75.59685483870938
 31
0.0
  0
LINE
  5
27F
330
32
100
AcDbEntity
  8
1
  6
Continuous
 62
     7
100
AcDbLine
 10
73.74692741935391
 20
-75.59685483870938
 30
0.0
 11
71.5969274193539
 21
-75.59685483870938
 31
0.0
  0
LINE
  5
280
330
32
100
AcDbEntity
  8
1
  6
Continuous
 62
     7
100
AcDbLine
 10
75.74692741935391
 20
-75.59685483870938
 30
0.0
 11
73.74692741935391
 21
-75.59685483870938
 31
0.0
  0
LINE
  5
281
330
32
100
AcDbEntity
  8
1
  6
Continuous
 62
     7
100
AcDbLine
 10
77.5769274193539
 20
-75.59685483870938
 30
0.0
 11
75.74692741935391
 21
-75.59685483870938
 31
0.0
  0
LINE
  5
282
330
32
100
AcDbEntity
  8
1
  6
Continuous
 62
     7
100
AcDbLine
 10
79.24692741935391
 20
-75.59685483870938
 30
0.0
 11
77.5769274193539
 21
-75.59685483870938
 31
0.0
  0
LINE
  5
283
330
32
100
AcDbEntity
  8
1
  6
Continuous
 62
     7
100
AcDbLine
 10
80.7269274193539
 20
-75.59685483870938
 30
0.0
 11
79.24692741935391
 21
-75.59685483870938
 31
0.0
  0
LINE
  5
284
330
32
100
AcDbEntity
  8
1
  6
Continuous
 62
     7
100
AcDbLine
 10
82.02692741935391
 20
-75.59685483870938
 30
0.0
 11
80.7269274193539
 21
-75.59685483870938
 31
0.0
  0
LINE
  5
285
330
32
100
AcDbEntity
  8
1
  6
Continuous
 62
     7
100
AcDbLine
 10
83.14692741935389
 20
-75.59685483870938
 30
0.0
 11
82.02692741935391
 21
-75.59685483870938
 31
0.0
  0
LINE
  5
286
330
32
100
AcDbEntity
  8
1
  6
Continuous
 62
     7
100
AcDbLine
 10
84.0769274193539
 20
-75.59685483870938
 30
0.0
 11
83.14692741935389
 21
-75.59685483870938
 31
0.0
  0
LINE
  5
287
330
32
100
AcDbEntity
  8
1
  6
Continuous
 62
     7
100
AcDbLine
 10
84.79692741935389
 20
-75.59685483870938
 30
0.0
 11
84.0769274193539
 21
-75.59685483870938
 31
0.0
  0
LINE
  5
288
330
32
100
AcDbEntity
  8
1
  6
Continuous
 62
     7
100
AcDbLine
 10
85.29692741935389
 20
-75.59685483870938
 30
0.0
 11
84.79692741935389
 21
-75.59685483870938
 31
0.0
  0
LINE
  5
289
330
32
100
AcDbEntity
  8
1
  6
Continuous
 62
     7
100
AcDbLine
 10
85.6269274193539
 20
-75.59685483870938
 30
0.0
 11
85.29692741935389
 21
-75.59685483870938
 31
0.0
  0
LINE
  5
28A
330
32
100
AcDbEntity
  8
1
  6
Continuous
 62
     7
100
AcDbLine
 10
85.7269274193539
 20
-75.59685483870938
 30
0.0
 11
85.6269274193539
 21
-75.59685483870938
 31
0.0
  0
LINE
  5
28B
330
32
100
AcDbEntity
  8
1
  6
Continuous
 62
     7
100
AcDbLine
 10
11.2269274193539
 20
-0.16685483870939
 30
0.0
 11
11.2269274193539
 21
5.40314516129063
 31
0.0
  0
LINE
  5
28C
330
32
100
AcDbEntity
  8
1
  6
Continuous
 62
     7
100
AcDbLine
 10
11.3469274193539
 20
6.53314516129062
 30
0.0
 11
11.2269274193539
 21
5.40314516129063
 31
0.0
  0
LINE
  5
28D
330
32
100
AcDbEntity
  8
1
  6
Continuous
 62
     7
100
AcDbLine
 10
11.7269274193539
 20
7.58314516129061
 30
0.0
 11
11.3469274193539
 21
6.53314516129062
 31
0.0
  0
LINE
  5
28E
330
32
100
AcDbEntity
  8
1
  6
Continuous
 62
     7
100
AcDbLine
 10
12.32692741935389
 20
8.53314516129062
 30
0.0
 11
11.7269274193539
 21
7.58314516129061
 31
0.0
  0
LINE
  5
28F
330
32
100
AcDbEntity
  8
1
  6
Continuous
 62
     7
100
AcDbLine
 10
13.0969274193539
 20
9.3031451612906
 30
0.0
 11
12.32692741935389
 21
8.53314516129062
 31
0.0
  0
LINE
  5
290
330
32
100
AcDbEntity
  8
1
  6
Continuous
 62
     7
100
AcDbLine
 10
14.04692741935389
 20
9.90314516129063
 30
0.0
 11
13.0969274193539
 21
9.3031451612906
 31
0.0
  0
LINE
  5
291
330
32
100
AcDbEntity
  8
1
  6
Continuous
 62
     7
100
AcDbLine
 10
15.0969274193539
 20
10.28314516129062
 30
0.0
 11
14.04692741935389
 21
9.90314516129063
 31
0.0
  0
LINE
  5
292
330
32
100
AcDbEntity
  8
1
  6
Continuous
 62
     7
100
AcDbLine
 10
16.2269274193539
 20
10.40314516129063
 30
0.0
 11
15.0969274193539
 21
10.28314516129062
 31
0.0
  0
LINE
  5
293
330
32
100
AcDbEntity
  8
1
  6
Continuous
 62
     7
100
AcDbLine
 10
16.89692741935389
 20
10.40314516129063
 30
0.0
 11
17.67692741935389
 21
10.40314516129063
 31
0.0
  0
LINE
  5
294
330
32
100
AcDbEntity
  8
1
  6
Continuous
 62
     7
100
AcDbLine
 10
16.39692741935389
 20
10.40314516129063
 30
0.0
 11
16.89692741935389
 21
10.40314516129063
 31
0.0
  0
LINE
  5
295
330
32
100
AcDbEntity
  8
1
  6
Continuous
 62
     7
100
AcDbLine
 10
16.2269274193539
 20
10.40314516129063
 30
0.0
 11
16.39692741935389
 21
10.40314516129063
 31
0.0
  0
LINE
  5
296
330
32
100
AcDbEntity
  8
1
  6
Continuous
 62
     7
100
AcDbLine
 10
30.0969274193539
 20
10.40314516129063
 30
0.0
 11
31.2269274193539
 21
10.40314516129062
 31
0.0
  0
LINE
  5
297
330
32
100
AcDbEntity
  8
1
  6
Continuous
 62
     7
100
AcDbLine
 10
28.82692741935389
 20
10.40314516129063
 30
0.0
 11
30.0969274193539
 21
10.40314516129063
 31
0.0
  0
LINE
  5
298
330
32
100
AcDbEntity
  8
1
  6
Continuous
 62
     7
100
AcDbLine
 10
27.5969274193539
 20
10.40314516129063
 30
0.0
 11
28.82692741935389
 21
10.40314516129063
 31
0.0
  0
LINE
  5
299
330
32
100
AcDbEntity
  8
1
  6
Continuous
 62
     7
100
AcDbLine
 10
26.57692741935389
 20
10.40314516129063
 30
0.0
 11
27.5969274193539
 21
10.40314516129063
 31
0.0
  0
LINE
  5
29A
330
32
100
AcDbEntity
  8
1
  6
Continuous
 62
     7
100
AcDbLine
 10
17.67692741935389
 20
10.40314516129063
 30
0.0
 11
26.2269274193539
 21
10.40314516129062
 31
0.0
  0
LINE
  5
29B
330
32
100
AcDbEntity
  8
1
  6
Continuous
 62
     7
100
AcDbLine
 10
54.82692741935389
 20
10.40314516129063
 30
0.0
 11
55.87692741935391
 21
10.40314516129063
 31
0.0
  0
LINE
  5
29C
330
32
100
AcDbEntity
  8
1
  6
Continuous
 62
     7
100
AcDbLine
 10
53.62692741935391
 20
10.40314516129063
 30
0.0
 11
54.82692741935389
 21
10.40314516129063
 31
0.0
  0
LINE
  5
29D
330
32
100
AcDbEntity
  8
1
  6
Continuous
 62
     7
100
AcDbLine
 10
52.32692741935389
 20
10.40314516129063
 30
0.0
 11
53.62692741935391
 21
10.40314516129063
 31
0.0
  0
LINE
  5
29E
330
32
100
AcDbEntity
  8
1
  6
Continuous
 62
     7
100
AcDbLine
 10
55.87692741935391
 20
10.40314516129063
 30
0.0
 11
56.2269274193539
 21
10.40314516129062
 31
0.0
  0
LINE
  5
29F
330
32
100
AcDbEntity
  8
1
  6
Continuous
 62
     7
100
AcDbLine
 10
-0.72307258064609
 20
-48.59685483870938
 30
0.0
 11
-0.7730725806461
 21
-49.21685483870938
 31
0.0
  0
LINE
  5
2A0
330
32
100
AcDbEntity
  8
1
  6
Continuous
 62
     7
100
AcDbLine
 10
-0.57307258064611
 20
-47.96685483870938
 30
0.0
 11
-0.72307258064609
 21
-48.59685483870938
 31
0.0
  0
LINE
  5
2A1
330
32
100
AcDbEntity
  8
1
  6
Continuous
 62
     7
100
AcDbLine
 10
-0.92307258064611
 20
-52.36685483870939
 30
0.0
 11
-0.7730725806461
 21
-51.59685483870938
 31
0.0
  0
LINE
  5
2A2
330
32
100
AcDbEntity
  8
1
  6
Continuous
 62
     7
100
AcDbLine
 10
-1.35307258064611
 20
-53.01685483870939
 30
0.0
 11
-0.92307258064611
 21
-52.36685483870939
 31
0.0
  0
LINE
  5
2A3
330
32
100
AcDbEntity
  8
1
  6
Continuous
 62
     7
100
AcDbLine
 10
-2.00307258064609
 20
-53.4468548387094
 30
0.0
 11
-1.35307258064611
 21
-53.01685483870939
 31
0.0
  0
LINE
  5
2A4
330
32
100
AcDbEntity
  8
1
  6
Continuous
 62
     7
100
AcDbLine
 10
-2.7730725806461
 20
-53.59685483870938
 30
0.0
 11
-2.00307258064609
 21
-53.4468548387094
 31
0.0
  0
LINE
  5
2A5
330
32
100
AcDbEntity
  8
1
  6
Continuous
 62
     7
100
AcDbLine
 10
0.1269274193539
 20
-41.14685483870939
 30
0.0
 11
0.74692741935391
 21
-41.26685483870939
 31
0.0
  0
LINE
  5
2A6
330
32
100
AcDbEntity
  8
1
  6
Continuous
 62
     7
100
AcDbLine
 10
-0.35307258064611
 20
-40.89685483870939
 30
0.0
 11
0.1269274193539
 21
-41.14685483870939
 31
0.0
  0
LINE
  5
2A7
330
32
100
AcDbEntity
  8
1
  6
Continuous
 62
     7
100
AcDbLine
 10
-0.67307258064611
 20
-40.5668548387094
 30
0.0
 11
-0.35307258064611
 21
-40.89685483870939
 31
0.0
  0
LINE
  5
2A8
330
32
100
AcDbEntity
  8
1
  6
Continuous
 62
     7
100
AcDbLine
 10
-0.7730725806461
 20
-40.21685483870938
 30
0.0
 11
-0.67307258064611
 21
-40.5668548387094
 31
0.0
  0
LINE
  5
2A9
330
32
100
AcDbEntity
  8
1
  6
Continuous
 62
     7
100
AcDbLine
 10
-0.72307258064609
 20
-48.51685483870939
 30
0.0
 11
-0.7730725806461
 21
-49.21685483870938
 31
0.0
  0
LINE
  5
2AA
330
32
100
AcDbEntity
  8
1
  6
Continuous
 62
     7
100
AcDbLine
 10
-0.20307258064611
 20
-39.24685483870938
 30
0.0
 11
0.4469274193539
 21
-39.51685483870939
 31
0.0
  0
LINE
  5
2AB
330
32
100
AcDbEntity
  8
1
  6
Continuous
 62
     7
100
AcDbLine
 10
-0.6230725806461
 20
-38.84685483870938
 30
0.0
 11
-0.20307258064611
 21
-39.24685483870938
 31
0.0
  0
LINE
  5
2AC
330
32
100
AcDbEntity
  8
1
  6
Continuous
 62
     7
100
AcDbLine
 10
-0.7730725806461
 20
-38.36685483870939
 30
0.0
 11
-0.6230725806461
 21
-38.84685483870938
 31
0.0
  0
LINE
  5
2AD
330
32
100
AcDbEntity
  8
1
  6
Continuous
 62
     7
100
AcDbLine
 10
-3.6530725806461
 20
-54.09685483870938
 30
0.0
 11
-3.7730725806461
 21
-54.59685483870938
 31
0.0
  0
LINE
  5
2AE
330
32
100
AcDbEntity
  8
1
  6
Continuous
 62
     7
100
AcDbLine
 10
-3.2730725806461
 20
-53.71685483870938
 30
0.0
 11
-3.6530725806461
 21
-54.09685483870938
 31
0.0
  0
LINE
  5
2AF
330
32
100
AcDbEntity
  8
1
  6
Continuous
 62
     7
100
AcDbLine
 10
-2.7730725806461
 20
-53.59685483870938
 30
0.0
 11
-3.2730725806461
 21
-53.71685483870938
 31
0.0
  0
LINE
  5
2B0
330
32
100
AcDbEntity
  8
1
  6
Continuous
 62
     7
100
AcDbLine
 10
-2.2730725806461
 20
-53.59685483870938
 30
0.0
 11
-1.7730725806461
 21
-53.59685483870938
 31
0.0
  0
LINE
  5
2B1
330
32
100
AcDbEntity
  8
1
  6
Continuous
 62
     7
100
AcDbLine
 10
-2.6530725806461
 20
-53.59685483870938
 30
0.0
 11
-2.2730725806461
 21
-53.59685483870938
 31
0.0
  0
LINE
  5
2B2
330
32
100
AcDbEntity
  8
1
  6
Continuous
 62
     7
100
AcDbLine
 10
-2.7730725806461
 20
-53.59685483870938
 30
0.0
 11
-2.6530725806461
 21
-53.59685483870938
 31
0.0
  0
LINE
  5
2B3
330
32
100
AcDbEntity
  8
1
  6
Continuous
 62
     7
100
AcDbLine
 10
66.04692741935389
 20
10.40314516129063
 30
0.0
 11
66.2269274193539
 21
10.40314516129063
 31
0.0
  0
LINE
  5
2B4
330
32
100
AcDbEntity
  8
1
  6
Continuous
 62
     7
100
AcDbLine
 10
65.54692741935389
 20
10.40314516129063
 30
0.0
 11
66.04692741935389
 21
10.40314516129063
 31
0.0
  0
LINE
  5
2B5
330
32
100
AcDbEntity
  8
1
  6
Continuous
 62
     7
100
AcDbLine
 10
64.74692741935391
 20
10.40314516129063
 30
0.0
 11
65.54692741935389
 21
10.40314516129063
 31
0.0
  0
LINE
  5
2B6
330
32
100
AcDbEntity
  8
1
  6
Continuous
 62
     7
100
AcDbLine
 10
67.3469274193539
 20
10.28314516129062
 30
0.0
 11
66.2269274193539
 21
10.40314516129063
 31
0.0
  0
LINE
  5
2B7
330
32
100
AcDbEntity
  8
1
  6
Continuous
 62
     7
100
AcDbLine
 10
68.39692741935389
 20
9.90314516129063
 30
0.0
 11
67.3469274193539
 21
10.28314516129062
 31
0.0
  0
LINE
  5
2B8
330
32
100
AcDbEntity
  8
1
  6
Continuous
 62
     7
100
AcDbLine
 10
69.3469274193539
 20
9.3031451612906
 30
0.0
 11
68.39692741935389
 21
9.90314516129063
 31
0.0
  0
LINE
  5
2B9
330
32
100
AcDbEntity
  8
1
  6
Continuous
 62
     7
100
AcDbLine
 10
70.1269274193539
 20
8.53314516129062
 30
0.0
 11
69.3469274193539
 21
9.3031451612906
 31
0.0
  0
LINE
  5
2BA
330
32
100
AcDbEntity
  8
1
  6
Continuous
 62
     7
100
AcDbLine
 10
70.7269274193539
 20
7.58314516129061
 30
0.0
 11
70.1269274193539
 21
8.53314516129062
 31
0.0
  0
LINE
  5
2BB
330
32
100
AcDbEntity
  8
1
  6
Continuous
 62
     7
100
AcDbLine
 10
71.0969274193539
 20
6.53314516129062
 30
0.0
 11
70.7269274193539
 21
7.58314516129061
 31
0.0
  0
LINE
  5
2BC
330
32
100
AcDbEntity
  8
1
  6
Continuous
 62
     7
100
AcDbLine
 10
71.2269274193539
 20
5.40314516129063
 30
0.0
 11
71.0969274193539
 21
6.53314516129062
 31
0.0
  0
LINE
  5
2BD
330
32
100
AcDbEntity
  8
1
  6
Continuous
 62
     7
100
AcDbLine
 10
-0.7730725806461
 20
-5.1968548387094
 30
0.0
 11
-0.7730725806461
 21
-5.09685483870937
 31
0.0
  0
LINE
  5
2BE
330
32
100
AcDbEntity
  8
1
  6
Continuous
 62
     7
100
AcDbLine
 10
-0.7730725806461
 20
-5.51685483870939
 30
0.0
 11
-0.7730725806461
 21
-5.1968548387094
 31
0.0
  0
LINE
  5
2BF
330
32
100
AcDbEntity
  8
1
  6
Continuous
 62
     7
100
AcDbLine
 10
-0.7730725806461
 20
-6.04685483870939
 30
0.0
 11
-0.7730725806461
 21
-5.51685483870939
 31
0.0
  0
LINE
  5
2C0
330
32
100
AcDbEntity
  8
1
  6
Continuous
 62
     7
100
AcDbLine
 10
-0.7730725806461
 20
-6.76685483870939
 30
0.0
 11
-0.7730725806461
 21
-6.04685483870939
 31
0.0
  0
LINE
  5
2C1
330
32
100
AcDbEntity
  8
1
  6
Continuous
 62
     7
100
AcDbLine
 10
-0.7730725806461
 20
-7.6968548387094
 30
0.0
 11
-0.7730725806461
 21
-6.76685483870939
 31
0.0
  0
LINE
  5
2C2
330
32
100
AcDbEntity
  8
1
  6
Continuous
 62
     7
100
AcDbLine
 10
-0.7730725806461
 20
-8.81685483870937
 30
0.0
 11
-0.7730725806461
 21
-7.6968548387094
 31
0.0
  0
LINE
  5
2C3
330
32
100
AcDbEntity
  8
1
  6
Continuous
 62
     7
100
AcDbLine
 10
-0.7730725806461
 20
-10.09685483870937
 30
0.0
 11
-0.7730725806461
 21
-8.81685483870937
 31
0.0
  0
LINE
  5
2C4
330
32
100
AcDbEntity
  8
1
  6
Continuous
 62
     7
100
AcDbLine
 10
-0.7730725806461
 20
-11.54685483870939
 30
0.0
 11
-0.7730725806461
 21
-10.09685483870937
 31
0.0
  0
LINE
  5
2C5
330
32
100
AcDbEntity
  8
1
  6
Continuous
 62
     7
100
AcDbLine
 10
-0.7730725806461
 20
-13.14685483870938
 30
0.0
 11
-0.7730725806461
 21
-11.54685483870939
 31
0.0
  0
LINE
  5
2C6
330
32
100
AcDbEntity
  8
1
  6
Continuous
 62
     7
100
AcDbLine
 10
-0.7730725806461
 20
-14.86685483870938
 30
0.0
 11
-0.7730725806461
 21
-13.14685483870938
 31
0.0
  0
LINE
  5
2C7
330
32
100
AcDbEntity
  8
1
  6
Continuous
 62
     7
100
AcDbLine
 10
-0.7730725806461
 20
-16.6968548387094
 30
0.0
 11
-0.7730725806461
 21
-14.86685483870938
 31
0.0
  0
LINE
  5
2C8
330
32
100
AcDbEntity
  8
1
  6
Continuous
 62
     7
100
AcDbLine
 10
-0.7730725806461
 20
-18.61685483870938
 30
0.0
 11
-0.7730725806461
 21
-16.6968548387094
 31
0.0
  0
LINE
  5
2C9
330
32
100
AcDbEntity
  8
1
  6
Continuous
 62
     7
100
AcDbLine
 10
-0.7730725806461
 20
-20.61685483870938
 30
0.0
 11
-0.7730725806461
 21
-18.61685483870938
 31
0.0
  0
LINE
  5
2CA
330
32
100
AcDbEntity
  8
1
  6
Continuous
 62
     7
100
AcDbLine
 10
-0.7730725806461
 20
-22.66685483870939
 30
0.0
 11
-0.7730725806461
 21
-20.61685483870938
 31
0.0
  0
LINE
  5
2CB
330
32
100
AcDbEntity
  8
1
  6
Continuous
 62
     7
100
AcDbLine
 10
-0.7730725806461
 20
-24.74685483870938
 30
0.0
 11
-0.7730725806461
 21
-22.66685483870939
 31
0.0
  0
LINE
  5
2CC
330
32
100
AcDbEntity
  8
1
  6
Continuous
 62
     7
100
AcDbLine
 10
-0.7730725806461
 20
-26.84685483870937
 30
0.0
 11
-0.7730725806461
 21
-24.74685483870938
 31
0.0
  0
LINE
  5
2CD
330
32
100
AcDbEntity
  8
1
  6
Continuous
 62
     7
100
AcDbLine
 10
-0.7730725806461
 20
-28.91685483870937
 30
0.0
 11
-0.7730725806461
 21
-26.84685483870937
 31
0.0
  0
LINE
  5
2CE
330
32
100
AcDbEntity
  8
1
  6
Continuous
 62
     7
100
AcDbLine
 10
-0.7730725806461
 20
-30.9468548387094
 30
0.0
 11
-0.7730725806461
 21
-28.91685483870937
 31
0.0
  0
LINE
  5
2CF
330
32
100
AcDbEntity
  8
1
  6
Continuous
 62
     7
100
AcDbLine
 10
-0.7730725806461
 20
-32.9468548387094
 30
0.0
 11
-0.7730725806461
 21
-30.9468548387094
 31
0.0
  0
LINE
  5
2D0
330
32
100
AcDbEntity
  8
1
  6
Continuous
 62
     7
100
AcDbLine
 10
-0.7730725806461
 20
-34.84685483870938
 30
0.0
 11
-0.7730725806461
 21
-32.9468548387094
 31
0.0
  0
LINE
  5
2D1
330
32
100
AcDbEntity
  8
1
  6
Continuous
 62
     7
100
AcDbLine
 10
-0.7730725806461
 20
-36.66685483870937
 30
0.0
 11
-0.7730725806461
 21
-34.84685483870938
 31
0.0
  0
LINE
  5
2D2
330
32
100
AcDbEntity
  8
1
  6
Continuous
 62
     7
100
AcDbLine
 10
-0.7730725806461
 20
-38.36685483870939
 30
0.0
 11
-0.7730725806461
 21
-36.66685483870937
 31
0.0
  0
LINE
  5
2D3
330
32
100
AcDbEntity
  8
1
  6
Continuous
 62
     7
100
AcDbLine
 10
-0.7730725806461
 20
-39.3168548387094
 30
0.0
 11
-0.7730725806461
 21
-38.36685483870939
 31
0.0
  0
LINE
  5
2D4
330
32
100
AcDbEntity
  8
1
  6
Continuous
 62
     7
100
AcDbLine
 10
-0.7730725806461
 20
-40.21685483870938
 30
0.0
 11
-0.7730725806461
 21
-39.3168548387094
 31
0.0
  0
LINE
  5
2D5
330
32
100
AcDbEntity
  8
1
  6
Continuous
 62
     7
100
AcDbLine
 10
-0.7730725806461
 20
-41.66685483870937
 30
0.0
 11
-0.7730725806461
 21
-40.21685483870938
 31
0.0
  0
LINE
  5
2D6
330
32
100
AcDbEntity
  8
1
  6
Continuous
 62
     7
100
AcDbLine
 10
-0.7730725806461
 20
-43.16685483870937
 30
0.0
 11
-0.7730725806461
 21
-41.66685483870937
 31
0.0
  0
LINE
  5
2D7
330
32
100
AcDbEntity
  8
1
  6
Continuous
 62
     7
100
AcDbLine
 10
-0.7730725806461
 20
-44.71685483870938
 30
0.0
 11
-0.7730725806461
 21
-43.16685483870937
 31
0.0
  0
LINE
  5
2D8
330
32
100
AcDbEntity
  8
1
  6
Continuous
 62
     7
100
AcDbLine
 10
-0.7730725806461
 20
-46.26685483870939
 30
0.0
 11
-0.7730725806461
 21
-44.71685483870938
 31
0.0
  0
LINE
  5
2D9
330
32
100
AcDbEntity
  8
1
  6
Continuous
 62
     7
100
AcDbLine
 10
-0.7730725806461
 20
-47.8168548387094
 30
0.0
 11
-0.7730725806461
 21
-46.26685483870939
 31
0.0
  0
LINE
  5
2DA
330
32
100
AcDbEntity
  8
1
  6
Continuous
 62
     7
100
AcDbLine
 10
-0.7730725806461
 20
-49.21685483870938
 30
0.0
 11
-0.7730725806461
 21
-47.8168548387094
 31
0.0
  0
LINE
  5
2DB
330
32
100
AcDbEntity
  8
1
  6
Continuous
 62
     7
100
AcDbLine
 10
-0.7730725806461
 20
-51.59685483870938
 30
0.0
 11
-0.7730725806461
 21
-49.21685483870938
 31
0.0
  0
LINE
  5
2DC
330
32
100
AcDbEntity
  8
1
  6
Continuous
 62
     7
100
AcDbLine
 10
-3.7730725806461
 20
-62.59685483870938
 30
0.0
 11
-3.7730725806461
 21
-54.59685483870938
 31
0.0
  0
LINE
  5
2DD
330
32
100
AcDbEntity
  8
1
  6
Continuous
 62
     7
100
AcDbLine
 10
-1.7730725806461
 20
-53.59685483870938
 30
0.0
 11
22.64692741935389
 21
-53.59685483870938
 31
0.0
  0
LINE
  5
2DE
330
32
100
AcDbEntity
  8
1
  6
Continuous
 62
     7
100
AcDbLine
 10
59.77692741935391
 20
-53.59685483870938
 30
0.0
 11
22.64692741935389
 21
-53.59685483870938
 31
0.0
  0
LINE
  5
2DF
330
32
100
AcDbEntity
  8
1
  6
Continuous
 62
     7
100
AcDbLine
 10
71.2269274193539
 20
5.40314516129063
 30
0.0
 11
71.2269274193539
 21
3.33314516129061
 31
0.0
  0
LINE
  5
2E0
330
32
100
AcDbEntity
  8
1
  6
Continuous
 62
     7
100
AcDbLine
 10
-3.62307258064609
 20
-62.59685483870938
 30
0.0
 11
-3.7730725806461
 21
-62.59685483870938
 31
0.0
  0
LINE
  5
2E1
330
32
100
AcDbEntity
  8
1
  6
Continuous
 62
     7
100
AcDbLine
 10
-3.20307258064611
 20
-62.59685483870938
 30
0.0
 11
-3.62307258064609
 21
-62.59685483870938
 31
0.0
  0
LINE
  5
2E2
330
32
100
AcDbEntity
  8
1
  6
Continuous
 62
     7
100
AcDbLine
 10
-2.5530725806461
 20
-62.59685483870938
 30
0.0
 11
-3.20307258064611
 21
-62.59685483870938
 31
0.0
  0
LINE
  5
2E3
330
32
100
AcDbEntity
  8
1
  6
Continuous
 62
     7
100
AcDbLine
 10
-1.7730725806461
 20
-62.59685483870938
 30
0.0
 11
-2.5530725806461
 21
-62.59685483870938
 31
0.0
  0
LINE
  5
2E4
330
32
100
AcDbEntity
  8
1
  6
Continuous
 62
     7
100
AcDbLine
 10
84.2269274193539
 20
-62.59685483870938
 30
0.0
 11
-1.7730725806461
 21
-62.59685483870938
 31
0.0
  0
LINE
  5
2E5
330
32
100
AcDbEntity
  8
1
  6
Continuous
 62
     7
100
AcDbLine
 10
84.9769274193539
 20
-62.59685483870938
 30
0.0
 11
84.2269274193539
 21
-62.59685483870938
 31
0.0
  0
LINE
  5
2E6
330
32
100
AcDbEntity
  8
1
  6
Continuous
 62
     7
100
AcDbLine
 10
85.6269274193539
 20
-62.59685483870938
 30
0.0
 11
84.9769274193539
 21
-62.59685483870938
 31
0.0
  0
LINE
  5
2E7
330
32
100
AcDbEntity
  8
1
  6
Continuous
 62
     7
100
AcDbLine
 10
86.0769274193539
 20
-62.59685483870938
 30
0.0
 11
85.6269274193539
 21
-62.59685483870938
 31
0.0
  0
LINE
  5
2E8
330
32
100
AcDbEntity
  8
1
  6
Continuous
 62
     7
100
AcDbLine
 10
86.2269274193539
 20
-62.59685483870938
 30
0.0
 11
86.0769274193539
 21
-62.59685483870938
 31
0.0
  0
LINE
  5
2E9
330
32
100
AcDbEntity
  8
1
  6
Continuous
 62
     7
100
AcDbLine
 10
85.7269274193539
 20
-53.71685483870938
 30
0.0
 11
85.2269274193539
 21
-53.59685483870938
 31
0.0
  0
LINE
  5
2EA
330
32
100
AcDbEntity
  8
1
  6
Continuous
 62
     7
100
AcDbLine
 10
86.0969274193539
 20
-54.09685483870938
 30
0.0
 11
85.7269274193539
 21
-53.71685483870938
 31
0.0
  0
LINE
  5
2EB
330
32
100
AcDbEntity
  8
1
  6
Continuous
 62
     7
100
AcDbLine
 10
86.2269274193539
 20
-54.59685483870938
 30
0.0
 11
86.0969274193539
 21
-54.09685483870938
 31
0.0
  0
LINE
  5
2EC
330
32
100
AcDbEntity
  8
1
  6
Continuous
 62
     7
100
AcDbLine
 10
84.8269274193539
 20
-53.54685483870939
 30
0.0
 11
84.9769274193539
 21
-53.5668548387094
 31
0.0
  0
LINE
  5
2ED
330
32
100
AcDbEntity
  8
1
  6
Continuous
 62
     7
100
AcDbLine
 10
84.3469274193539
 20
-53.39685483870939
 30
0.0
 11
84.8269274193539
 21
-53.54685483870939
 31
0.0
  0
LINE
  5
2EE
330
32
100
AcDbEntity
  8
1
  6
Continuous
 62
     7
100
AcDbLine
 10
83.8469274193539
 20
-53.0668548387094
 30
0.0
 11
84.3469274193539
 21
-53.39685483870939
 31
0.0
  0
LINE
  5
2EF
330
32
100
AcDbEntity
  8
1
  6
Continuous
 62
     7
100
AcDbLine
 10
59.77692741935391
 20
-53.59685483870938
 30
0.0
 11
84.2269274193539
 21
-53.59685483870938
 31
0.0
  0
LINE
  5
2F0
330
32
100
AcDbEntity
  8
1
  6
Continuous
 62
     7
100
AcDbLine
 10
85.0769274193539
 20
-53.59685483870938
 30
0.0
 11
85.2269274193539
 21
-53.59685483870938
 31
0.0
  0
LINE
  5
2F1
330
32
100
AcDbEntity
  8
1
  6
Continuous
 62
     7
100
AcDbLine
 10
84.7269274193539
 20
-53.59685483870938
 30
0.0
 11
85.0769274193539
 21
-53.59685483870938
 31
0.0
  0
LINE
  5
2F2
330
32
100
AcDbEntity
  8
1
  6
Continuous
 62
     7
100
AcDbLine
 10
84.2269274193539
 20
-53.59685483870938
 30
0.0
 11
84.7269274193539
 21
-53.59685483870938
 31
0.0
  0
LINE
  5
2F3
330
32
100
AcDbEntity
  8
1
  6
Continuous
 62
     7
100
AcDbLine
 10
84.39692741935389
 20
-53.0668548387094
 30
0.0
 11
84.9769274193539
 21
-53.0668548387094
 31
0.0
  0
LINE
  5
2F4
330
32
100
AcDbEntity
  8
1
  6
Continuous
 62
     7
100
AcDbLine
 10
83.8469274193539
 20
-53.0668548387094
 30
0.0
 11
84.39692741935389
 21
-53.0668548387094
 31
0.0
  0
LINE
  5
2F5
330
32
100
AcDbEntity
  8
1
  6
Continuous
 62
     7
100
AcDbLine
 10
83.6269274193539
 20
-52.84685483870938
 30
0.0
 11
83.8469274193539
 21
-53.0668548387094
 31
0.0
  0
LINE
  5
2F6
330
32
100
AcDbEntity
  8
1
  6
Continuous
 62
     7
100
AcDbLine
 10
83.29692741935389
 20
-52.39685483870939
 30
0.0
 11
83.6269274193539
 21
-52.84685483870938
 31
0.0
  0
LINE
  5
2F7
330
32
100
AcDbEntity
  8
1
  6
Continuous
 62
     7
100
AcDbLine
 10
83.14692741935389
 20
-52.21685483870938
 30
0.0
 11
83.29692741935389
 21
-52.39685483870939
 31
0.0
  0
LINE
  5
2F8
330
32
100
AcDbEntity
  8
1
  6
Continuous
 62
     7
100
AcDbLine
 10
69.27692741935391
 20
-23.79685483870939
 30
0.0
 11
68.6969274193539
 21
-24.14685483870938
 31
0.0
  0
LINE
  5
2F9
330
32
100
AcDbEntity
  8
1
  6
Continuous
 62
     7
100
AcDbLine
 10
69.79692741935389
 20
-23.46685483870938
 30
0.0
 11
69.27692741935391
 21
-23.79685483870939
 31
0.0
  0
LINE
  5
2FA
330
32
100
AcDbEntity
  8
1
  6
Continuous
 62
     7
100
AcDbLine
 10
70.02692741935391
 20
-23.31685483870937
 30
0.0
 11
69.79692741935389
 21
-23.46685483870938
 31
0.0
  0
LINE
  5
2FB
330
32
100
AcDbEntity
  8
1
  6
Continuous
 62
     7
100
AcDbLine
 10
70.2269274193539
 20
-23.16685483870939
 30
0.0
 11
70.02692741935391
 21
-23.31685483870937
 31
0.0
  0
LINE
  5
2FC
330
32
100
AcDbEntity
  8
1
  6
Continuous
 62
     7
100
AcDbLine
 10
70.4469274193539
 20
-23.01685483870939
 30
0.0
 11
70.2269274193539
 21
-23.16685483870939
 31
0.0
  0
LINE
  5
2FD
330
32
100
AcDbEntity
  8
1
  6
Continuous
 62
     7
100
AcDbLine
 10
71.1269274193539
 20
-22.51685483870939
 30
0.0
 11
70.4469274193539
 21
-23.01685483870939
 31
0.0
  0
LINE
  5
2FE
330
32
100
AcDbEntity
  8
1
  6
Continuous
 62
     7
100
AcDbLine
 10
73.79692741935389
 20
-0.36685483870938
 30
0.0
 11
73.8269274193539
 21
-0.39685483870938
 31
0.0
  0
LINE
  5
2FF
330
32
100
AcDbEntity
  8
1
  6
Continuous
 62
     7
100
AcDbLine
 10
73.77692741935391
 20
-0.36685483870938
 30
0.0
 11
73.79692741935389
 21
-0.36685483870938
 31
0.0
  0
LINE
  5
300
330
32
100
AcDbEntity
  8
1
  6
Continuous
 62
     7
100
AcDbLine
 10
72.6269274193539
 20
-1.54685483870939
 30
0.0
 11
71.8769274193539
 21
-2.14685483870938
 31
0.0
  0
LINE
  5
301
330
32
100
AcDbEntity
  8
1
  6
Continuous
 62
     7
100
AcDbLine
 10
73.27692741935391
 20
-1.01685483870939
 30
0.0
 11
72.6269274193539
 21
-1.54685483870939
 31
0.0
  0
LINE
  5
302
330
32
100
AcDbEntity
  8
1
  6
Continuous
 62
     7
100
AcDbLine
 10
73.49692741935391
 20
-0.79685483870939
 30
0.0
 11
73.27692741935391
 21
-1.01685483870939
 31
0.0
  0
LINE
  5
303
330
32
100
AcDbEntity
  8
1
  6
Continuous
 62
     7
100
AcDbLine
 10
73.67692741935389
 20
-0.61685483870938
 30
0.0
 11
73.49692741935391
 21
-0.79685483870939
 31
0.0
  0
LINE
  5
304
330
32
100
AcDbEntity
  8
1
  6
Continuous
 62
     7
100
AcDbLine
 10
73.77692741935391
 20
-0.49685483870938
 30
0.0
 11
73.67692741935389
 21
-0.61685483870938
 31
0.0
  0
LINE
  5
305
330
32
100
AcDbEntity
  8
1
  6
Continuous
 62
     7
100
AcDbLine
 10
73.8269274193539
 20
-0.39685483870938
 30
0.0
 11
73.77692741935391
 21
-0.49685483870938
 31
0.0
  0
LINE
  5
306
330
32
100
AcDbEntity
  8
1
  6
Continuous
 62
     7
100
AcDbLine
 10
68.5969274193539
 20
-0.14685483870938
 30
0.0
 11
68.29692741935389
 21
0.8031451612906
 31
0.0
  0
LINE
  5
307
330
32
100
AcDbEntity
  8
1
  6
Continuous
 62
     7
100
AcDbLine
 10
69.0769274193539
 20
-1.04685483870939
 30
0.0
 11
68.5969274193539
 21
-0.14685483870938
 31
0.0
  0
LINE
  5
308
330
32
100
AcDbEntity
  8
1
  6
Continuous
 62
     7
100
AcDbLine
 10
69.67692741935389
 20
-1.81685483870937
 30
0.0
 11
69.0769274193539
 21
-1.04685483870939
 31
0.0
  0
LINE
  5
309
330
32
100
AcDbEntity
  8
1
  6
Continuous
 62
     7
100
AcDbLine
 10
70.3769274193539
 20
-2.44685483870939
 30
0.0
 11
69.67692741935389
 21
-1.81685483870937
 31
0.0
  0
LINE
  5
30A
330
32
100
AcDbEntity
  8
1
  6
Continuous
 62
     7
100
AcDbLine
 10
71.1269274193539
 20
-2.84685483870937
 30
0.0
 11
70.3769274193539
 21
-2.44685483870939
 31
0.0
  0
LINE
  5
30B
330
32
100
AcDbEntity
  8
1
  6
Continuous
 62
     7
100
AcDbLine
 10
71.1969274193539
 20
-22.39685483870938
 30
0.0
 11
71.2269274193539
 21
-22.29685483870939
 31
0.0
  0
LINE
  5
30C
330
32
100
AcDbEntity
  8
1
  6
Continuous
 62
     7
100
AcDbLine
 10
71.17692741935389
 20
-22.46685483870938
 30
0.0
 11
71.1969274193539
 21
-22.39685483870938
 31
0.0
  0
LINE
  5
30D
330
32
100
AcDbEntity
  8
1
  6
Continuous
 62
     7
100
AcDbLine
 10
71.1269274193539
 20
-22.51685483870939
 30
0.0
 11
71.17692741935389
 21
-22.46685483870938
 31
0.0
  0
LINE
  5
30E
330
32
100
AcDbEntity
  8
1
  6
Continuous
 62
     7
100
AcDbLine
 10
82.79692741935389
 20
-51.91685483870937
 30
0.0
 11
83.14692741935389
 21
-52.21685483870938
 31
0.0
  0
LINE
  5
30F
330
32
100
AcDbEntity
  8
1
  6
Continuous
 62
     7
100
AcDbLine
 10
82.3769274193539
 20
-51.59685483870938
 30
0.0
 11
82.79692741935389
 21
-51.91685483870937
 31
0.0
  0
LINE
  5
310
330
32
100
AcDbEntity
  8
1
  6
Continuous
 62
     7
100
AcDbLine
 10
86.2269274193539
 20
-54.59685483870938
 30
0.0
 11
86.2269274193539
 21
-62.59685483870938
 31
0.0
  0
LINE
  5
311
330
32
100
AcDbEntity
  8
1
  6
Continuous
 62
     7
100
AcDbLine
 10
90.92692741935389
 20
-55.96685483870938
 30
0.0
 11
90.92692741935389
 21
-56.09685483870938
 31
0.0
  0
LINE
  5
312
330
32
100
AcDbEntity
  8
1
  6
Continuous
 62
     7
100
AcDbLine
 10
90.89692741935389
 20
-55.5668548387094
 30
0.0
 11
90.92692741935389
 21
-55.96685483870938
 31
0.0
  0
LINE
  5
313
330
32
100
AcDbEntity
  8
1
  6
Continuous
 62
     7
100
AcDbLine
 10
90.8469274193539
 20
-54.91685483870937
 30
0.0
 11
90.89692741935389
 21
-55.5668548387094
 31
0.0
  0
LINE
  5
314
330
32
100
AcDbEntity
  8
1
  6
Continuous
 62
     7
100
AcDbLine
 10
90.79692741935389
 20
-54.09685483870938
 30
0.0
 11
90.8469274193539
 21
-54.91685483870937
 31
0.0
  0
LINE
  5
315
330
32
100
AcDbEntity
  8
1
  6
Continuous
 62
     7
100
AcDbLine
 10
90.74692741935391
 20
-53.14685483870939
 30
0.0
 11
90.79692741935389
 21
-54.09685483870938
 31
0.0
  0
LINE
  5
316
330
32
100
AcDbEntity
  8
1
  6
Continuous
 62
     7
100
AcDbLine
 10
90.67692741935389
 20
-52.09685483870938
 30
0.0
 11
90.74692741935391
 21
-53.14685483870939
 31
0.0
  0
LINE
  5
317
330
32
100
AcDbEntity
  8
1
  6
Continuous
 62
     7
100
AcDbLine
 10
71.2269274193539
 20
-3.84685483870937
 30
0.0
 11
71.2269274193539
 21
-2.79685483870939
 31
0.0
  0
LINE
  5
318
330
32
100
AcDbEntity
  8
1
  6
Continuous
 62
     7
100
AcDbLine
 10
71.2269274193539
 20
-5.06685483870937
 30
0.0
 11
71.2269274193539
 21
-3.84685483870937
 31
0.0
  0
LINE
  5
319
330
32
100
AcDbEntity
  8
1
  6
Continuous
 62
     7
100
AcDbLine
 10
71.2269274193539
 20
-6.46685483870938
 30
0.0
 11
71.2269274193539
 21
-5.06685483870937
 31
0.0
  0
LINE
  5
31A
330
32
100
AcDbEntity
  8
1
  6
Continuous
 62
     7
100
AcDbLine
 10
71.2269274193539
 20
-8.04685483870939
 30
0.0
 11
71.2269274193539
 21
-6.46685483870938
 31
0.0
  0
LINE
  5
31B
330
32
100
AcDbEntity
  8
1
  6
Continuous
 62
     7
100
AcDbLine
 10
71.2269274193539
 20
-9.74685483870938
 30
0.0
 11
71.2269274193539
 21
-8.04685483870939
 31
0.0
  0
LINE
  5
31C
330
32
100
AcDbEntity
  8
1
  6
Continuous
 62
     7
100
AcDbLine
 10
71.2269274193539
 20
-11.59685483870937
 30
0.0
 11
71.2269274193539
 21
-9.74685483870938
 31
0.0
  0
LINE
  5
31D
330
32
100
AcDbEntity
  8
1
  6
Continuous
 62
     7
100
AcDbLine
 10
71.2269274193539
 20
-13.56685483870937
 30
0.0
 11
71.2269274193539
 21
-11.59685483870937
 31
0.0
  0
LINE
  5
31E
330
32
100
AcDbEntity
  8
1
  6
Continuous
 62
     7
100
AcDbLine
 10
71.2269274193539
 20
-15.64685483870938
 30
0.0
 11
71.2269274193539
 21
-13.56685483870937
 31
0.0
  0
LINE
  5
31F
330
32
100
AcDbEntity
  8
1
  6
Continuous
 62
     7
100
AcDbLine
 10
71.2269274193539
 20
-17.79685483870939
 30
0.0
 11
71.2269274193539
 21
-15.64685483870938
 31
0.0
  0
LINE
  5
320
330
32
100
AcDbEntity
  8
1
  6
Continuous
 62
     7
100
AcDbLine
 10
71.2269274193539
 20
-20.01685483870939
 30
0.0
 11
71.2269274193539
 21
-17.79685483870939
 31
0.0
  0
LINE
  5
321
330
32
100
AcDbEntity
  8
1
  6
Continuous
 62
     7
100
AcDbLine
 10
71.2269274193539
 20
-22.29685483870939
 30
0.0
 11
71.2269274193539
 21
-20.01685483870939
 31
0.0
  0
LINE
  5
322
330
32
100
AcDbEntity
  8
1
  6
Continuous
 62
     7
100
AcDbLine
 10
71.24692741935391
 20
-2.69685483870939
 30
0.0
 11
71.2269274193539
 21
-2.79685483870939
 31
0.0
  0
LINE
  5
323
330
32
100
AcDbEntity
  8
1
  6
Continuous
 62
     7
100
AcDbLine
 10
71.3269274193539
 20
-2.61685483870938
 30
0.0
 11
71.24692741935391
 21
-2.69685483870939
 31
0.0
  0
LINE
  5
324
330
32
100
AcDbEntity
  8
1
  6
Continuous
 62
     7
100
AcDbLine
 10
71.39692741935389
 20
-2.54685483870939
 30
0.0
 11
71.3269274193539
 21
-2.61685483870938
 31
0.0
  0
LINE
  5
325
330
32
100
AcDbEntity
  8
1
  6
Continuous
 62
     7
100
AcDbLine
 10
71.49692741935391
 20
-2.44685483870939
 30
0.0
 11
71.39692741935389
 21
-2.54685483870939
 31
0.0
  0
LINE
  5
326
330
32
100
AcDbEntity
  8
1
  6
Continuous
 62
     7
100
AcDbLine
 10
71.6269274193539
 20
-2.34685483870937
 30
0.0
 11
71.49692741935391
 21
-2.44685483870939
 31
0.0
  0
LINE
  5
327
330
32
100
AcDbEntity
  8
1
  6
Continuous
 62
     7
100
AcDbLine
 10
71.7269274193539
 20
-2.26685483870939
 30
0.0
 11
71.6269274193539
 21
-2.34685483870937
 31
0.0
  0
LINE
  5
328
330
32
100
AcDbEntity
  8
1
  6
Continuous
 62
     7
100
AcDbLine
 10
71.8769274193539
 20
-2.14685483870938
 30
0.0
 11
71.7269274193539
 21
-2.26685483870939
 31
0.0
  0
LINE
  5
329
330
32
100
AcDbEntity
  8
1
  6
Continuous
 62
     7
100
AcDbLine
 10
87.3469274193539
 20
-49.26685483870939
 30
0.0
 11
87.52692741935391
 21
-49.29685483870939
 31
0.0
  0
LINE
  5
32A
330
32
100
AcDbEntity
  8
1
  6
Continuous
 62
     7
100
AcDbLine
 10
114.4969274193539
 20
-58.89685483870939
 30
0.0
 11
114.6269274193539
 21
-59.0668548387094
 31
0.0
  0
LINE
  5
32B
330
32
100
AcDbEntity
  8
1
  6
Continuous
 62
     7
100
AcDbLine
 10
114.4469274193539
 20
-58.4468548387094
 30
0.0
 11
114.4969274193539
 21
-58.89685483870939
 31
0.0
  0
LINE
  5
32C
330
32
100
AcDbEntity
  8
1
  6
Continuous
 62
     7
100
AcDbLine
 10
114.4469274193539
 20
-57.6968548387094
 30
0.0
 11
114.4469274193539
 21
-58.4468548387094
 31
0.0
  0
LINE
  5
32D
330
32
100
AcDbEntity
  8
1
  6
Continuous
 62
     7
100
AcDbLine
 10
91.8469274193539
 20
-56.01685483870939
 30
0.0
 11
91.8469274193539
 21
-56.11685483870939
 31
0.0
  0
LINE
  5
32E
330
32
100
AcDbEntity
  8
1
  6
Continuous
 62
     7
100
AcDbLine
 10
91.8969274193539
 20
-55.64685483870939
 30
0.0
 11
91.8469274193539
 21
-56.01685483870939
 31
0.0
  0
LINE
  5
32F
330
32
100
AcDbEntity
  8
1
  6
Continuous
 62
     7
100
AcDbLine
 10
91.9469274193539
 20
-55.0668548387094
 30
0.0
 11
91.8969274193539
 21
-55.64685483870939
 31
0.0
  0
LINE
  5
330
330
32
100
AcDbEntity
  8
1
  6
Continuous
 62
     7
100
AcDbLine
 10
92.0469274193539
 20
-54.3168548387094
 30
0.0
 11
91.9469274193539
 21
-55.0668548387094
 31
0.0
  0
LINE
  5
331
330
32
100
AcDbEntity
  8
1
  6
Continuous
 62
     7
100
AcDbLine
 10
92.1469274193539
 20
-53.41685483870937
 30
0.0
 11
92.0469274193539
 21
-54.3168548387094
 31
0.0
  0
LINE
  5
332
330
32
100
AcDbEntity
  8
1
  6
Continuous
 62
     7
100
AcDbLine
 10
92.2769274193539
 20
-52.46685483870938
 30
0.0
 11
92.1469274193539
 21
-53.41685483870937
 31
0.0
  0
LINE
  5
333
330
32
100
AcDbEntity
  8
1
  6
Continuous
 62
     7
100
AcDbLine
 10
86.3769274193539
 20
-60.01685483870939
 30
0.0
 11
86.24692741935391
 21
-61.09685483870938
 31
0.0
  0
LINE
  5
334
330
32
100
AcDbEntity
  8
1
  6
Continuous
 62
     7
100
AcDbLine
 10
86.6969274193539
 20
-59.01685483870939
 30
0.0
 11
86.3769274193539
 21
-60.01685483870939
 31
0.0
  0
LINE
  5
335
330
32
100
AcDbEntity
  8
1
  6
Continuous
 62
     7
100
AcDbLine
 10
87.24692741935391
 20
-58.09685483870938
 30
0.0
 11
86.6969274193539
 21
-59.01685483870939
 31
0.0
  0
LINE
  5
336
330
32
100
AcDbEntity
  8
1
  6
Continuous
 62
     7
100
AcDbLine
 10
87.99692741935391
 20
-57.3168548387094
 30
0.0
 11
87.24692741935391
 21
-58.09685483870938
 31
0.0
  0
LINE
  5
337
330
32
100
AcDbEntity
  8
1
  6
Continuous
 62
     7
100
AcDbLine
 10
88.8769274193539
 20
-56.71685483870938
 30
0.0
 11
87.99692741935391
 21
-57.3168548387094
 31
0.0
  0
LINE
  5
338
330
32
100
AcDbEntity
  8
1
  6
Continuous
 62
     7
100
AcDbLine
 10
89.8769274193539
 20
-56.3168548387094
 30
0.0
 11
88.8769274193539
 21
-56.71685483870938
 31
0.0
  0
LINE
  5
339
330
32
100
AcDbEntity
  8
1
  6
Continuous
 62
     7
100
AcDbLine
 10
90.92692741935389
 20
-56.11685483870939
 30
0.0
 11
89.8769274193539
 21
-56.3168548387094
 31
0.0
  0
LINE
  5
33A
330
32
100
AcDbEntity
  8
1
  6
Continuous
 62
     7
100
AcDbLine
 10
91.3969274193539
 20
-56.09685483870938
 30
0.0
 11
90.92692741935389
 21
-56.09685483870938
 31
0.0
  0
LINE
  5
33B
330
32
100
AcDbEntity
  8
1
  6
Continuous
 62
     7
100
AcDbLine
 10
91.5269274193539
 20
-56.09685483870938
 30
0.0
 11
91.3969274193539
 21
-56.09685483870938
 31
0.0
  0
LINE
  5
33C
330
32
100
AcDbEntity
  8
1
  6
Continuous
 62
     7
100
AcDbLine
 10
91.6969274193539
 20
-56.11685483870939
 30
0.0
 11
91.5269274193539
 21
-56.09685483870938
 31
0.0
  0
LINE
  5
33D
330
32
100
AcDbEntity
  8
1
  6
Continuous
 62
     7
100
AcDbLine
 10
91.8469274193539
 20
-56.11685483870939
 30
0.0
 11
91.6969274193539
 21
-56.11685483870939
 31
0.0
  0
LINE
  5
33E
330
32
100
AcDbEntity
  8
1
  6
Continuous
 62
     7
100
AcDbLine
 10
128.3969274193539
 20
-60.8168548387094
 30
0.0
 11
128.4969274193539
 21
-60.86685483870939
 31
0.0
  0
LINE
  5
33F
330
32
100
AcDbEntity
  8
1
  6
Continuous
 62
     7
100
AcDbLine
 10
128.3269274193539
 20
-60.6968548387094
 30
0.0
 11
128.3969274193539
 21
-60.8168548387094
 31
0.0
  0
LINE
  5
340
330
32
100
AcDbEntity
  8
1
  6
Continuous
 62
     7
100
AcDbLine
 10
88.24692741935391
 20
-47.34685483870938
 30
0.0
 11
87.29692741935389
 21
-47.21685483870938
 31
0.0
  0
LINE
  5
341
330
32
100
AcDbEntity
  8
1
  6
Continuous
 62
     7
100
AcDbLine
 10
89.0769274193539
 20
-47.54685483870939
 30
0.0
 11
88.24692741935391
 21
-47.34685483870938
 31
0.0
  0
LINE
  5
342
330
32
100
AcDbEntity
  8
1
  6
Continuous
 62
     7
100
AcDbLine
 10
114.5469274193539
 20
-57.26685483870939
 30
0.0
 11
114.4469274193539
 21
-57.6968548387094
 31
0.0
  0
LINE
  5
343
330
32
100
AcDbEntity
  8
1
  6
Continuous
 62
     7
100
AcDbLine
 10
114.5969274193539
 20
-57.0668548387094
 30
0.0
 11
114.5469274193539
 21
-57.26685483870939
 31
0.0
  0
LINE
  5
344
330
32
100
AcDbEntity
  8
1
  6
Continuous
 62
     7
100
AcDbLine
 10
88.24692741935391
 20
-3.84685483870937
 30
0.0
 11
87.29692741935389
 21
-3.94685483870939
 31
0.0
  0
LINE
  5
345
330
32
100
AcDbEntity
  8
1
  6
Continuous
 62
     7
100
AcDbLine
 10
89.0769274193539
 20
-3.64685483870938
 30
0.0
 11
88.24692741935391
 21
-3.84685483870937
 31
0.0
  0
LINE
  5
346
330
32
100
AcDbEntity
  8
1
  6
Continuous
 62
     7
100
AcDbLine
 10
88.24692741935391
 20
-10.74685483870938
 30
0.0
 11
87.29692741935389
 21
-10.84685483870937
 31
0.0
  0
LINE
  5
347
330
32
100
AcDbEntity
  8
1
  6
Continuous
 62
     7
100
AcDbLine
 10
89.0769274193539
 20
-10.59685483870937
 30
0.0
 11
88.24692741935391
 21
-10.74685483870938
 31
0.0
  0
LINE
  5
348
330
32
100
AcDbEntity
  8
1
  6
Continuous
 62
     7
100
AcDbLine
 10
88.24692741935391
 20
-40.41685483870937
 30
0.0
 11
87.29692741935389
 21
-40.3168548387094
 31
0.0
  0
LINE
  5
349
330
32
100
AcDbEntity
  8
1
  6
Continuous
 62
     7
100
AcDbLine
 10
89.0769274193539
 20
-40.59685483870938
 30
0.0
 11
88.24692741935391
 21
-40.41685483870937
 31
0.0
  0
LINE
  5
34A
330
32
100
AcDbEntity
  8
1
  6
Continuous
 62
     7
100
AcDbLine
 10
128.3969274193539
 20
-60.66685483870937
 30
0.0
 11
128.3269274193539
 21
-60.6968548387094
 31
0.0
  0
LINE
  5
34B
330
32
100
AcDbEntity
  8
1
  6
Continuous
 62
     7
100
AcDbLine
 10
128.4469274193539
 20
-60.66685483870937
 30
0.0
 11
128.3969274193539
 21
-60.66685483870937
 31
0.0
  0
LINE
  5
34C
330
32
100
AcDbEntity
  8
1
  6
Continuous
 62
     7
100
AcDbLine
 10
96.3969274193539
 20
-56.71685483870938
 30
0.0
 11
91.8469274193539
 21
-56.11685483870939
 31
0.0
  0
LINE
  5
34D
330
32
100
AcDbEntity
  8
1
  6
Continuous
 62
     7
100
AcDbLine
 10
100.9769274193539
 20
-57.3168548387094
 30
0.0
 11
96.3969274193539
 21
-56.71685483870938
 31
0.0
  0
LINE
  5
34E
330
32
100
AcDbEntity
  8
1
  6
Continuous
 62
     7
100
AcDbLine
 10
105.5469274193539
 20
-57.89685483870939
 30
0.0
 11
100.9769274193539
 21
-57.3168548387094
 31
0.0
  0
LINE
  5
34F
330
32
100
AcDbEntity
  8
1
  6
Continuous
 62
     7
100
AcDbLine
 10
110.1269274193539
 20
-58.49685483870938
 30
0.0
 11
105.5469274193539
 21
-57.89685483870939
 31
0.0
  0
LINE
  5
350
330
32
100
AcDbEntity
  8
1
  6
Continuous
 62
     7
100
AcDbLine
 10
114.6269274193539
 20
-59.0668548387094
 30
0.0
 11
110.1269274193539
 21
-58.49685483870938
 31
0.0
  0
LINE
  5
351
330
32
100
AcDbEntity
  8
1
  6
Continuous
 62
     7
100
AcDbLine
 10
115.9969274193539
 20
-59.24685483870938
 30
0.0
 11
114.6269274193539
 21
-59.0668548387094
 31
0.0
  0
LINE
  5
352
330
32
100
AcDbEntity
  8
1
  6
Continuous
 62
     7
100
AcDbLine
 10
117.6269274193539
 20
-59.46685483870938
 30
0.0
 11
115.9969274193539
 21
-59.24685483870938
 31
0.0
  0
LINE
  5
353
330
32
100
AcDbEntity
  8
1
  6
Continuous
 62
     7
100
AcDbLine
 10
119.1969274193539
 20
-59.66685483870937
 30
0.0
 11
117.6269274193539
 21
-59.46685483870938
 31
0.0
  0
LINE
  5
354
330
32
100
AcDbEntity
  8
1
  6
Continuous
 62
     7
100
AcDbLine
 10
120.8469274193539
 20
-59.86685483870939
 30
0.0
 11
119.1969274193539
 21
-59.66685483870937
 31
0.0
  0
LINE
  5
355
330
32
100
AcDbEntity
  8
1
  6
Continuous
 62
     7
100
AcDbLine
 10
122.1269274193539
 20
-60.04685483870939
 30
0.0
 11
120.8469274193539
 21
-59.86685483870939
 31
0.0
  0
LINE
  5
356
330
32
100
AcDbEntity
  8
1
  6
Continuous
 62
     7
100
AcDbLine
 10
123.5269274193539
 20
-60.21685483870938
 30
0.0
 11
122.1269274193539
 21
-60.04685483870939
 31
0.0
  0
LINE
  5
357
330
32
100
AcDbEntity
  8
1
  6
Continuous
 62
     7
100
AcDbLine
 10
124.7269274193539
 20
-60.36685483870939
 30
0.0
 11
123.5269274193539
 21
-60.21685483870938
 31
0.0
  0
LINE
  5
358
330
32
100
AcDbEntity
  8
1
  6
Continuous
 62
     7
100
AcDbLine
 10
125.9769274193539
 20
-60.54685483870939
 30
0.0
 11
124.7269274193539
 21
-60.36685483870939
 31
0.0
  0
LINE
  5
359
330
32
100
AcDbEntity
  8
1
  6
Continuous
 62
     7
100
AcDbLine
 10
127.2469274193539
 20
-60.6968548387094
 30
0.0
 11
125.9769274193539
 21
-60.54685483870939
 31
0.0
  0
LINE
  5
35A
330
32
100
AcDbEntity
  8
1
  6
Continuous
 62
     7
100
AcDbLine
 10
128.4969274193539
 20
-60.86685483870939
 30
0.0
 11
127.2469274193539
 21
-60.6968548387094
 31
0.0
  0
LINE
  5
35B
330
32
100
AcDbEntity
  8
1
  6
Continuous
 62
     7
100
AcDbLine
 10
129.5769274193539
 20
-61.01685483870939
 30
0.0
 11
128.4969274193539
 21
-60.86685483870939
 31
0.0
  0
LINE
  5
35C
330
32
100
AcDbEntity
  8
1
  6
Continuous
 62
     7
100
AcDbLine
 10
127.5469274193539
 20
-60.21685483870938
 30
0.0
 11
89.0769274193539
 21
-47.54685483870939
 31
0.0
  0
LINE
  5
35D
330
32
100
AcDbEntity
  8
1
  6
Continuous
 62
     7
100
AcDbLine
 10
127.5469274193539
 20
9.03314516129062
 30
0.0
 11
89.0769274193539
 21
-3.64685483870938
 31
0.0
  0
LINE
  5
35E
330
32
100
AcDbEntity
  8
1
  6
Continuous
 62
     7
100
AcDbLine
 10
89.0769274193539
 20
-40.59685483870938
 30
0.0
 11
127.5469274193539
 21
-49.24685483870938
 31
0.0
  0
LINE
  5
35F
330
32
100
AcDbEntity
  8
1
  6
Continuous
 62
     7
100
AcDbLine
 10
127.5469274193539
 20
-1.91685483870939
 30
0.0
 11
89.0769274193539
 21
-10.59685483870937
 31
0.0
  0
LINE
  5
360
330
32
100
AcDbEntity
  8
1
  6
Continuous
 62
     7
100
AcDbLine
 10
130.6269274193539
 20
-61.0668548387094
 30
0.0
 11
130.8769274193539
 21
-61.09685483870938
 31
0.0
  0
LINE
  5
361
330
32
100
AcDbEntity
  8
1
  6
Continuous
 62
     7
100
AcDbLine
 10
130.3969274193539
 20
-61.01685483870939
 30
0.0
 11
130.6269274193539
 21
-61.0668548387094
 31
0.0
  0
LINE
  5
362
330
32
100
AcDbEntity
  8
1
  6
Continuous
 62
     7
100
AcDbLine
 10
130.2269274193539
 20
-61.0668548387094
 30
0.0
 11
129.5769274193539
 21
-61.01685483870939
 31
0.0
  0
LINE
  5
363
330
32
100
AcDbEntity
  8
1
  6
Continuous
 62
     7
100
AcDbLine
 10
130.5769274193539
 20
-61.09685483870938
 30
0.0
 11
130.2269274193539
 21
-61.0668548387094
 31
0.0
  0
LINE
  5
364
330
32
100
AcDbEntity
  8
1
  6
Continuous
 62
     7
100
AcDbLine
 10
130.8769274193539
 20
-61.09685483870938
 30
0.0
 11
130.5769274193539
 21
-61.09685483870938
 31
0.0
  0
LINE
  5
365
330
32
100
AcDbEntity
  8
1
  6
Continuous
 62
     7
100
AcDbLine
 10
127.5469274193539
 20
-49.24685483870938
 30
0.0
 11
127.8769274193539
 21
-49.3168548387094
 31
0.0
  0
LINE
  5
366
330
32
100
AcDbEntity
  8
1
  6
Continuous
 62
     7
100
AcDbLine
 10
130.1769274193539
 20
-60.89685483870939
 30
0.0
 11
127.8769274193539
 21
-60.3168548387094
 31
0.0
  0
LINE
  5
367
330
32
100
AcDbEntity
  8
1
  6
Continuous
 62
     7
100
AcDbLine
 10
131.4269274193539
 20
-61.04685483870939
 30
0.0
 11
130.1769274193539
 21
-60.89685483870939
 31
0.0
  0
LINE
  5
368
330
32
100
AcDbEntity
  8
1
  6
Continuous
 62
     7
100
AcDbLine
 10
132.6769274193539
 20
-61.09685483870938
 30
0.0
 11
131.4269274193539
 21
-61.04685483870939
 31
0.0
  0
LINE
  5
369
330
32
100
AcDbEntity
  8
1
  6
Continuous
 62
     7
100
AcDbLine
 10
127.8769274193539
 20
-60.3168548387094
 30
0.0
 11
127.5469274193539
 21
-60.21685483870938
 31
0.0
  0
LINE
  5
36A
330
32
100
AcDbEntity
  8
1
  6
Continuous
 62
     7
100
AcDbLine
 10
127.5469274193539
 20
9.03314516129062
 30
0.0
 11
127.8769274193539
 21
9.13314516129062
 31
0.0
  0
LINE
  5
36B
330
32
100
AcDbEntity
  8
1
  6
Continuous
 62
     7
100
AcDbLine
 10
130.1769274193539
 20
9.70314516129061
 30
0.0
 11
127.8769274193539
 21
9.13314516129062
 31
0.0
  0
LINE
  5
36C
330
32
100
AcDbEntity
  8
1
  6
Continuous
 62
     7
100
AcDbLine
 10
131.4269274193539
 20
9.85314516129062
 30
0.0
 11
130.1769274193539
 21
9.70314516129061
 31
0.0
  0
LINE
  5
36D
330
32
100
AcDbEntity
  8
1
  6
Continuous
 62
     7
100
AcDbLine
 10
132.6769274193539
 20
9.90314516129063
 30
0.0
 11
131.4269274193539
 21
9.85314516129062
 31
0.0
  0
LINE
  5
36E
330
32
100
AcDbEntity
  8
1
  6
Continuous
 62
     7
100
AcDbLine
 10
127.8769274193539
 20
-1.86685483870938
 30
0.0
 11
127.5469274193539
 21
-1.91685483870939
 31
0.0
  0
LINE
  5
36F
330
32
100
AcDbEntity
  8
1
  6
Continuous
 62
     7
100
AcDbLine
 10
130.1769274193539
 20
-49.64685483870939
 30
0.0
 11
127.8769274193539
 21
-49.3168548387094
 31
0.0
  0
LINE
  5
370
330
32
100
AcDbEntity
  8
1
  6
Continuous
 62
     7
100
AcDbLine
 10
131.4269274193539
 20
-49.76685483870939
 30
0.0
 11
130.1769274193539
 21
-49.64685483870939
 31
0.0
  0
LINE
  5
371
330
32
100
AcDbEntity
  8
1
  6
Continuous
 62
     7
100
AcDbLine
 10
132.6769274193539
 20
-49.84685483870938
 30
0.0
 11
131.4269274193539
 21
-49.76685483870939
 31
0.0
  0
LINE
  5
372
330
32
100
AcDbEntity
  8
1
  6
Continuous
 62
     7
100
AcDbLine
 10
130.1769274193539
 20
-1.54685483870939
 30
0.0
 11
127.8769274193539
 21
-1.86685483870938
 31
0.0
  0
LINE
  5
373
330
32
100
AcDbEntity
  8
1
  6
Continuous
 62
     7
100
AcDbLine
 10
131.4269274193539
 20
-1.41685483870939
 30
0.0
 11
130.1769274193539
 21
-1.54685483870939
 31
0.0
  0
LINE
  5
374
330
32
100
AcDbEntity
  8
1
  6
Continuous
 62
     7
100
AcDbLine
 10
132.6769274193539
 20
-1.34685483870937
 30
0.0
 11
131.4269274193539
 21
-1.41685483870939
 31
0.0
  0
LINE
  5
375
330
32
100
AcDbEntity
  8
1
  6
Continuous
 62
     7
100
AcDbLine
 10
132.8969274193539
 20
9.90314516129063
 30
0.0
 11
133.0969274193539
 21
9.90314516129063
 31
0.0
  0
LINE
  5
376
330
32
100
AcDbEntity
  8
1
  6
Continuous
 62
     7
100
AcDbLine
 10
132.6769274193539
 20
9.90314516129063
 30
0.0
 11
132.8969274193539
 21
9.90314516129063
 31
0.0
  0
LINE
  5
377
330
32
100
AcDbEntity
  8
1
  6
Continuous
 62
     7
100
AcDbLine
 10
132.5269274193539
 20
9.90314516129063
 30
0.0
 11
132.6769274193539
 21
9.90314516129063
 31
0.0
  0
LINE
  5
378
330
32
100
AcDbEntity
  8
1
  6
Continuous
 62
     7
100
AcDbLine
 10
132.3969274193539
 20
9.90314516129063
 30
0.0
 11
132.5269274193539
 21
9.90314516129063
 31
0.0
  0
LINE
  5
379
330
32
100
AcDbEntity
  8
1
  6
Continuous
 62
     7
100
AcDbLine
 10
132.2769274193539
 20
9.90314516129063
 30
0.0
 11
132.3969274193539
 21
9.90314516129063
 31
0.0
  0
LINE
  5
37A
330
32
100
AcDbEntity
  8
1
  6
Continuous
 62
     7
100
AcDbLine
 10
132.1769274193539
 20
9.90314516129063
 30
0.0
 11
132.2769274193539
 21
9.90314516129063
 31
0.0
  0
LINE
  5
37B
330
32
100
AcDbEntity
  8
1
  6
Continuous
 62
     7
100
AcDbLine
 10
131.9769274193539
 20
9.90314516129063
 30
0.0
 11
132.1769274193539
 21
9.90314516129063
 31
0.0
  0
LINE
  5
37C
330
32
100
AcDbEntity
  8
1
  6
Continuous
 62
     7
100
AcDbLine
 10
131.8769274193539
 20
9.90314516129063
 30
0.0
 11
131.9769274193539
 21
9.90314516129063
 31
0.0
  0
LINE
  5
37D
330
32
100
AcDbEntity
  8
1
  6
Continuous
 62
     7
100
AcDbLine
 10
131.2769274193539
 20
-61.09685483870938
 30
0.0
 11
130.8769274193539
 21
-61.09685483870938
 31
0.0
  0
LINE
  5
37E
330
32
100
AcDbEntity
  8
1
  6
Continuous
 62
     7
100
AcDbLine
 10
131.6269274193539
 20
-61.09685483870938
 30
0.0
 11
131.2769274193539
 21
-61.09685483870938
 31
0.0
  0
LINE
  5
37F
330
32
100
AcDbEntity
  8
1
  6
Continuous
 62
     7
100
AcDbLine
 10
132.0269274193539
 20
-61.09685483870938
 30
0.0
 11
131.6269274193539
 21
-61.09685483870938
 31
0.0
  0
LINE
  5
380
330
32
100
AcDbEntity
  8
1
  6
Continuous
 62
     7
100
AcDbLine
 10
132.0969274193539
 20
-61.09685483870938
 30
0.0
 11
132.0269274193539
 21
-61.09685483870938
 31
0.0
  0
LINE
  5
381
330
32
100
AcDbEntity
  8
1
  6
Continuous
 62
     7
100
AcDbLine
 10
132.1769274193539
 20
-61.09685483870938
 30
0.0
 11
132.0969274193539
 21
-61.09685483870938
 31
0.0
  0
LINE
  5
382
330
32
100
AcDbEntity
  8
1
  6
Continuous
 62
     7
100
AcDbLine
 10
132.2469274193539
 20
-61.09685483870938
 30
0.0
 11
132.1769274193539
 21
-61.09685483870938
 31
0.0
  0
LINE
  5
383
330
32
100
AcDbEntity
  8
1
  6
Continuous
 62
     7
100
AcDbLine
 10
132.3469274193539
 20
-61.09685483870938
 30
0.0
 11
132.2469274193539
 21
-61.09685483870938
 31
0.0
  0
LINE
  5
384
330
32
100
AcDbEntity
  8
1
  6
Continuous
 62
     7
100
AcDbLine
 10
132.4269274193539
 20
-61.09685483870938
 30
0.0
 11
132.3469274193539
 21
-61.09685483870938
 31
0.0
  0
LINE
  5
385
330
32
100
AcDbEntity
  8
1
  6
Continuous
 62
     7
100
AcDbLine
 10
132.5469274193539
 20
-61.09685483870938
 30
0.0
 11
132.4269274193539
 21
-61.09685483870938
 31
0.0
  0
LINE
  5
386
330
32
100
AcDbEntity
  8
1
  6
Continuous
 62
     7
100
AcDbLine
 10
132.6769274193539
 20
-61.09685483870938
 30
0.0
 11
132.5469274193539
 21
-61.09685483870938
 31
0.0
  0
LINE
  5
387
330
32
100
AcDbEntity
  8
1
  6
Continuous
 62
     7
100
AcDbLine
 10
132.8469274193539
 20
-61.09685483870938
 30
0.0
 11
132.6769274193539
 21
-61.09685483870938
 31
0.0
  0
LINE
  5
388
330
32
100
AcDbEntity
  8
1
  6
Continuous
 62
     7
100
AcDbLine
 10
133.0969274193539
 20
-61.09685483870938
 30
0.0
 11
132.8469274193539
 21
-61.09685483870938
 31
0.0
  0
LINE
  5
389
330
32
100
AcDbEntity
  8
1
  6
Continuous
 62
     7
100
AcDbLine
 10
144.2269274193539
 20
9.90314516129063
 30
0.0
 11
133.0969274193539
 21
9.90314516129063
 31
0.0
  0
LINE
  5
38A
330
32
100
AcDbEntity
  8
1
  6
Continuous
 62
     7
100
AcDbLine
 10
144.2269274193539
 20
-61.09685483870938
 30
0.0
 11
133.0969274193539
 21
-61.09685483870938
 31
0.0
  0
LINE
  5
38B
330
32
100
AcDbEntity
  8
1
  6
Continuous
 62
     7
100
AcDbLine
 10
132.8969274193539
 20
-49.84685483870938
 30
0.0
 11
133.0969274193539
 21
-49.84685483870938
 31
0.0
  0
LINE
  5
38C
330
32
100
AcDbEntity
  8
1
  6
Continuous
 62
     7
100
AcDbLine
 10
132.6769274193539
 20
-49.84685483870938
 30
0.0
 11
132.8969274193539
 21
-49.84685483870938
 31
0.0
  0
LINE
  5
38D
330
32
100
AcDbEntity
  8
1
  6
Continuous
 62
     7
100
AcDbLine
 10
132.8469274193539
 20
-1.31685483870937
 30
0.0
 11
132.6769274193539
 21
-1.34685483870937
 31
0.0
  0
LINE
  5
38E
330
32
100
AcDbEntity
  8
1
  6
Continuous
 62
     7
100
AcDbLine
 10
133.0969274193539
 20
-1.31685483870937
 30
0.0
 11
132.8469274193539
 21
-1.31685483870937
 31
0.0
  0
LINE
  5
38F
330
32
100
AcDbEntity
  8
1
  6
Continuous
 62
     7
100
AcDbLine
 10
144.2269274193539
 20
-1.31685483870937
 30
0.0
 11
133.0969274193539
 21
-1.31685483870937
 31
0.0
  0
LINE
  5
390
330
32
100
AcDbEntity
  8
1
  6
Continuous
 62
     7
100
AcDbLine
 10
144.2269274193539
 20
-49.84685483870938
 30
0.0
 11
133.0969274193539
 21
-49.84685483870938
 31
0.0
  0
LINE
  5
391
330
32
100
AcDbEntity
  8
1
  6
Continuous
 62
     7
100
AcDbLine
 10
144.2269274193539
 20
8.00314516129062
 30
0.0
 11
144.2269274193539
 21
9.90314516129063
 31
0.0
  0
LINE
  5
392
330
32
100
AcDbEntity
  8
1
  6
Continuous
 62
     7
100
AcDbLine
 10
144.2269274193539
 20
5.93314516129063
 30
0.0
 11
144.2269274193539
 21
8.00314516129062
 31
0.0
  0
LINE
  5
393
330
32
100
AcDbEntity
  8
1
  6
Continuous
 62
     7
100
AcDbLine
 10
144.2269274193539
 20
3.65314516129063
 30
0.0
 11
144.2269274193539
 21
5.93314516129063
 31
0.0
  0
LINE
  5
394
330
32
100
AcDbEntity
  8
1
  6
Continuous
 62
     7
100
AcDbLine
 10
144.2269274193539
 20
1.25314516129062
 30
0.0
 11
144.2269274193539
 21
3.65314516129063
 31
0.0
  0
LINE
  5
395
330
32
100
AcDbEntity
  8
1
  6
Continuous
 62
     7
100
AcDbLine
 10
144.2269274193539
 20
-1.31685483870937
 30
0.0
 11
144.2269274193539
 21
1.25314516129062
 31
0.0
  0
LINE
  5
396
330
32
100
AcDbEntity
  8
1
  6
Continuous
 62
     7
100
AcDbLine
 10
144.4469274193539
 20
9.68314516129063
 30
0.0
 11
144.2269274193539
 21
9.90314516129063
 31
0.0
  0
LINE
  5
397
330
32
100
AcDbEntity
  8
1
  6
Continuous
 62
     7
100
AcDbLine
 10
144.7269274193539
 20
9.40314516129063
 30
0.0
 11
144.4469274193539
 21
9.68314516129063
 31
0.0
  0
LINE
  5
398
330
32
100
AcDbEntity
  8
1
  6
Continuous
 62
     7
100
AcDbLine
 10
144.2269274193539
 20
-52.41685483870937
 30
0.0
 11
144.2269274193539
 21
-49.84685483870938
 31
0.0
  0
LINE
  5
399
330
32
100
AcDbEntity
  8
1
  6
Continuous
 62
     7
100
AcDbLine
 10
144.2269274193539
 20
-54.84685483870938
 30
0.0
 11
144.2269274193539
 21
-52.41685483870937
 31
0.0
  0
LINE
  5
39A
330
32
100
AcDbEntity
  8
1
  6
Continuous
 62
     7
100
AcDbLine
 10
144.2269274193539
 20
-57.09685483870938
 30
0.0
 11
144.2269274193539
 21
-54.84685483870938
 31
0.0
  0
LINE
  5
39B
330
32
100
AcDbEntity
  8
1
  6
Continuous
 62
     7
100
AcDbLine
 10
144.2269274193539
 20
-59.1968548387094
 30
0.0
 11
144.2269274193539
 21
-57.09685483870938
 31
0.0
  0
LINE
  5
39C
330
32
100
AcDbEntity
  8
1
  6
Continuous
 62
     7
100
AcDbLine
 10
144.2269274193539
 20
-61.09685483870938
 30
0.0
 11
144.2269274193539
 21
-59.1968548387094
 31
0.0
  0
LINE
  5
39D
330
32
100
AcDbEntity
  8
1
  6
Continuous
 62
     7
100
AcDbLine
 10
144.4969274193539
 20
-60.8168548387094
 30
0.0
 11
144.7269274193539
 21
-60.59685483870938
 31
0.0
  0
LINE
  5
39E
330
32
100
AcDbEntity
  8
1
  6
Continuous
 62
     7
100
AcDbLine
 10
144.2269274193539
 20
-61.09685483870938
 30
0.0
 11
144.4969274193539
 21
-60.8168548387094
 31
0.0
  0
LINE
  5
39F
330
32
100
AcDbEntity
  8
1
  6
Continuous
 62
     7
100
AcDbLine
 10
144.4469274193539
 20
-49.79685483870939
 30
0.0
 11
144.2269274193539
 21
-49.84685483870938
 31
0.0
  0
LINE
  5
3A0
330
32
100
AcDbEntity
  8
1
  6
Continuous
 62
     7
100
AcDbLine
 10
144.7269274193539
 20
-49.6968548387094
 30
0.0
 11
144.4469274193539
 21
-49.79685483870939
 31
0.0
  0
LINE
  5
3A1
330
32
100
AcDbEntity
  8
1
  6
Continuous
 62
     7
100
AcDbLine
 10
144.2269274193539
 20
-49.84685483870938
 30
0.0
 11
144.2269274193539
 21
-1.31685483870937
 31
0.0
  0
LINE
  5
3A2
330
32
100
AcDbEntity
  8
1
  6
Continuous
 62
     7
100
AcDbLine
 10
144.4469274193539
 20
-1.39685483870938
 30
0.0
 11
144.2269274193539
 21
-1.31685483870937
 31
0.0
  0
LINE
  5
3A3
330
32
100
AcDbEntity
  8
1
  6
Continuous
 62
     7
100
AcDbLine
 10
144.7269274193539
 20
-1.46685483870938
 30
0.0
 11
144.4469274193539
 21
-1.39685483870938
 31
0.0
  0
LINE
  5
3A4
330
32
100
AcDbEntity
  8
1
  6
Continuous
 62
     7
100
AcDbLine
 10
144.7269274193539
 20
1.00314516129062
 30
0.0
 11
144.7269274193539
 21
-1.46685483870938
 31
0.0
  0
LINE
  5
3A5
330
32
100
AcDbEntity
  8
1
  6
Continuous
 62
     7
100
AcDbLine
 10
144.7269274193539
 20
3.35314516129062
 30
0.0
 11
144.7269274193539
 21
1.00314516129062
 31
0.0
  0
LINE
  5
3A6
330
32
100
AcDbEntity
  8
1
  6
Continuous
 62
     7
100
AcDbLine
 10
144.7269274193539
 20
5.53314516129062
 30
0.0
 11
144.7269274193539
 21
3.35314516129062
 31
0.0
  0
LINE
  5
3A7
330
32
100
AcDbEntity
  8
1
  6
Continuous
 62
     7
100
AcDbLine
 10
144.7269274193539
 20
7.5531451612906
 30
0.0
 11
144.7269274193539
 21
5.53314516129062
 31
0.0
  0
LINE
  5
3A8
330
32
100
AcDbEntity
  8
1
  6
Continuous
 62
     7
100
AcDbLine
 10
144.7269274193539
 20
9.40314516129063
 30
0.0
 11
144.7269274193539
 21
7.5531451612906
 31
0.0
  0
LINE
  5
3A9
330
32
100
AcDbEntity
  8
1
  6
Continuous
 62
     7
100
AcDbLine
 10
144.7269274193539
 20
-58.74685483870938
 30
0.0
 11
144.7269274193539
 21
-60.59685483870938
 31
0.0
  0
LINE
  5
3AA
330
32
100
AcDbEntity
  8
1
  6
Continuous
 62
     7
100
AcDbLine
 10
144.7269274193539
 20
-56.71685483870938
 30
0.0
 11
144.7269274193539
 21
-58.74685483870938
 31
0.0
  0
LINE
  5
3AB
330
32
100
AcDbEntity
  8
1
  6
Continuous
 62
     7
100
AcDbLine
 10
144.7269274193539
 20
-54.51685483870939
 30
0.0
 11
144.7269274193539
 21
-56.71685483870938
 31
0.0
  0
LINE
  5
3AC
330
32
100
AcDbEntity
  8
1
  6
Continuous
 62
     7
100
AcDbLine
 10
144.7269274193539
 20
-52.1968548387094
 30
0.0
 11
144.7269274193539
 21
-54.51685483870939
 31
0.0
  0
LINE
  5
3AD
330
32
100
AcDbEntity
  8
1
  6
Continuous
 62
     7
100
AcDbLine
 10
144.7269274193539
 20
-49.6968548387094
 30
0.0
 11
144.7269274193539
 21
-52.1968548387094
 31
0.0
  0
LINE
  5
3AE
330
32
100
AcDbEntity
  8
1
  6
Continuous
 62
     7
100
AcDbLine
 10
144.7269274193539
 20
-1.46685483870938
 30
0.0
 11
144.7269274193539
 21
-49.6968548387094
 31
0.0
  0
LINE
  5
3AF
330
32
100
AcDbEntity
  8
1
  6
Continuous
 62
     7
100
AcDbLine
 10
71.49692741935391
 20
1.88314516129062
 30
0.0
 11
71.2269274193539
 21
3.33314516129061
 31
0.0
  0
LINE
  5
3B0
330
32
100
AcDbEntity
  8
1
  6
Continuous
 62
     7
100
AcDbLine
 10
71.8769274193539
 20
1.18314516129063
 30
0.0
 11
71.49692741935391
 21
1.88314516129062
 31
0.0
  0
LINE
  5
3B1
330
32
100
AcDbEntity
  8
1
  6
Continuous
 62
     7
100
AcDbLine
 10
72.3769274193539
 20
0.53314516129062
 30
0.0
 11
71.8769274193539
 21
1.18314516129063
 31
0.0
  0
LINE
  5
3B2
330
32
100
AcDbEntity
  8
1
  6
Continuous
 62
     7
100
AcDbLine
 10
73.02692741935391
 20
0.03314516129062
 30
0.0
 11
72.3769274193539
 21
0.53314516129062
 31
0.0
  0
LINE
  5
3B3
330
32
100
AcDbEntity
  8
1
  6
Continuous
 62
     7
100
AcDbLine
 10
73.7269274193539
 20
-0.34685483870937
 30
0.0
 11
73.02692741935391
 21
0.03314516129062
 31
0.0
  0
LINE
  5
3B4
330
32
100
AcDbEntity
  8
1
  6
Continuous
 62
     7
100
AcDbLine
 10
73.74692741935391
 20
-0.34685483870937
 30
0.0
 11
73.7269274193539
 21
-0.34685483870937
 31
0.0
  0
LINE
  5
3B5
330
32
100
AcDbEntity
  8
1
  6
Continuous
 62
     7
100
AcDbLine
 10
88.64692741935389
 20
0.75314516129062
 30
0.0
 11
87.79692741935389
 21
0.63314516129062
 31
0.0
  0
LINE
  5
3B6
330
32
100
AcDbEntity
  8
1
  6
Continuous
 62
     7
100
AcDbLine
 10
97.2469274193539
 20
2.65314516129063
 30
0.0
 11
88.64692741935389
 21
0.75314516129062
 31
0.0
  0
LINE
  5
3B7
330
32
100
AcDbEntity
  8
1
  6
Continuous
 62
     7
100
AcDbLine
 10
105.2469274193539
 20
4.40314516129063
 30
0.0
 11
97.2469274193539
 21
2.65314516129063
 31
0.0
  0
LINE
  5
3B8
330
32
100
AcDbEntity
  8
1
  6
Continuous
 62
     7
100
AcDbLine
 10
112.4269274193539
 20
5.98314516129061
 30
0.0
 11
105.2469274193539
 21
4.40314516129063
 31
0.0
  0
LINE
  5
3B9
330
32
100
AcDbEntity
  8
1
  6
Continuous
 62
     7
100
AcDbLine
 10
118.7469274193539
 20
7.38314516129062
 30
0.0
 11
112.4269274193539
 21
5.98314516129061
 31
0.0
  0
LINE
  5
3BA
330
32
100
AcDbEntity
  8
1
  6
Continuous
 62
     7
100
AcDbLine
 10
124.2269274193539
 20
8.58314516129061
 30
0.0
 11
118.7469274193539
 21
7.38314516129062
 31
0.0
  0
LINE
  5
3BB
330
32
100
AcDbEntity
  8
1
  6
Continuous
 62
     7
100
AcDbLine
 10
128.5269274193539
 20
9.53314516129062
 30
0.0
 11
124.2269274193539
 21
8.58314516129061
 31
0.0
  0
LINE
  5
3BC
330
32
100
AcDbEntity
  8
1
  6
Continuous
 62
     7
100
AcDbLine
 10
131.8769274193539
 20
9.90314516129063
 30
0.0
 11
128.5969274193539
 21
9.5531451612906
 31
0.0
  0
LINE
  5
3BD
330
32
100
AcDbEntity
  8
1
  6
Continuous
 62
     7
100
AcDbLine
 10
73.92692741935389
 20
-0.31685483870937
 30
0.0
 11
74.4469274193539
 21
-0.34685483870937
 31
0.0
  0
LINE
  5
3BE
330
32
100
AcDbEntity
  8
1
  6
Continuous
 62
     7
100
AcDbLine
 10
73.42692741935389
 20
-0.24685483870938
 30
0.0
 11
73.92692741935389
 21
-0.31685483870937
 31
0.0
  0
LINE
  5
3BF
330
32
100
AcDbEntity
  8
1
  6
Continuous
 62
     7
100
AcDbLine
 10
11.0969274193539
 20
-0.86685483870938
 30
0.0
 11
11.1969274193539
 21
-0.09685483870937
 31
0.0
  0
LINE
  5
3C0
330
32
100
AcDbEntity
  8
1
  6
Continuous
 62
     7
100
AcDbLine
 10
10.79692741935389
 20
-1.59685483870937
 30
0.0
 11
11.0969274193539
 21
-0.86685483870938
 31
0.0
  0
LINE
  5
3C1
330
32
100
AcDbEntity
  8
1
  6
Continuous
 62
     7
100
AcDbLine
 10
10.32692741935389
 20
-2.19685483870939
 30
0.0
 11
10.79692741935389
 21
-1.59685483870937
 31
0.0
  0
LINE
  5
3C2
330
32
100
AcDbEntity
  8
1
  6
Continuous
 62
     7
100
AcDbLine
 10
9.6969274193539
 20
-2.66685483870939
 30
0.0
 11
10.32692741935389
 21
-2.19685483870939
 31
0.0
  0
LINE
  5
3C3
330
32
100
AcDbEntity
  8
1
  6
Continuous
 62
     7
100
AcDbLine
 10
8.99692741935391
 20
-2.96685483870938
 30
0.0
 11
9.6969274193539
 21
-2.66685483870939
 31
0.0
  0
LINE
  5
3C4
330
32
100
AcDbEntity
  8
1
  6
Continuous
 62
     7
100
AcDbLine
 10
8.2269274193539
 20
-3.06685483870937
 30
0.0
 11
8.99692741935391
 21
-2.96685483870938
 31
0.0
  0
LINE
  5
3C5
330
32
100
AcDbEntity
  8
1
  6
Continuous
 62
     7
100
AcDbLine
 10
-0.6230725806461
 20
-4.31685483870937
 30
0.0
 11
-0.7730725806461
 21
-5.09685483870937
 31
0.0
  0
LINE
  5
3C6
330
32
100
AcDbEntity
  8
1
  6
Continuous
 62
     7
100
AcDbLine
 10
-0.20307258064611
 20
-3.66685483870939
 30
0.0
 11
-0.6230725806461
 21
-4.31685483870937
 31
0.0
  0
LINE
  5
3C7
330
32
100
AcDbEntity
  8
1
  6
Continuous
 62
     7
100
AcDbLine
 10
0.4469274193539
 20
-3.24685483870938
 30
0.0
 11
-0.20307258064611
 21
-3.66685483870939
 31
0.0
  0
LINE
  5
3C8
330
32
100
AcDbEntity
  8
1
  6
Continuous
 62
     7
100
AcDbLine
 10
1.2269274193539
 20
-3.09685483870937
 30
0.0
 11
0.4469274193539
 21
-3.24685483870938
 31
0.0
  0
LINE
  5
3C9
330
32
100
AcDbEntity
  8
1
  6
Continuous
 62
     7
100
AcDbLine
 10
26.2269274193539
 20
-75.59685483870938
 30
0.0
 11
26.2269274193539
 21
-77.59685483870938
 31
0.0
  0
LINE
  5
3CA
330
32
100
AcDbEntity
  8
1
  6
Continuous
 62
     7
100
AcDbLine
 10
56.2269274193539
 20
-77.59685483870938
 30
0.0
 11
56.2269274193539
 21
-75.59685483870938
 31
0.0
  0
LINE
  5
3CB
330
32
100
AcDbEntity
  8
1
  6
Continuous
 62
     7
100
AcDbLine
 10
8.2269274193539
 20
-3.09685483870937
 30
0.0
 11
1.2269274193539
 21
-3.09685483870937
 31
0.0
  0
LINE
  5
3CC
330
32
100
AcDbEntity
  8
1
  6
Continuous
 62
     7
100
AcDbLine
 10
87.79692741935389
 20
0.63314516129062
 30
0.0
 11
74.4469274193539
 21
-0.34685483870937
 31
0.0
  0
LINE
  5
3CD
330
32
100
AcDbEntity
  8
1
  6
Continuous
 62
     7
100
AcDbLine
 10
-3.2730725806461
 20
-62.58685483870939
 30
0.0
 11
-3.2730725806461
 21
-75.58685483870939
 31
0.0
  0
LINE
  5
3CE
330
32
100
AcDbEntity
  8
1
  6
Continuous
 62
     7
100
AcDbLine
 10
85.7269274193539
 20
-75.58685483870939
 30
0.0
 11
85.7269274193539
 21
-62.58685483870939
 31
0.0
  0
LINE
  5
3CF
330
32
100
AcDbEntity
  8
1
  6
DOT_CENTER
 62
     2
100
AcDbLine
 10
146.2269274193539
 20
-25.59685483870938
 30
0.0
 11
-6.25501519405401
 21
-25.59685483870937
 31
0.0
  0
ARC
  5
3D0
330
32
100
AcDbEntity
  8
1
  6
Continuous
 62
     7
100
AcDbCircle
 10
-177.7730725806461
 20
16.90314516129066
 30
0.0
 40
3.00000000000003
100
AcDbArc
 50
-90.0
 51
-0.00000000000054
  0
ARC
  5
3D1
330
32
100
AcDbEntity
  8
1
  6
Continuous
 62
     7
100
AcDbCircle
 10
-177.7730725806461
 20
16.90314516129066
 30
0.0
 40
3.0
100
AcDbArc
 50
-179.9999999999995
 51
-90.0
  0
ARC
  5
3D2
330
32
100
AcDbEntity
  8
1
  6
Continuous
 62
     7
100
AcDbCircle
 10
-177.7730725806462
 20
42.90314516129049
 30
0.0
 40
3.000000000000142
100
AcDbArc
 50
89.99999999999837
 51
179.9999999999973
  0
ARC
  5
3D3
330
32
100
AcDbEntity
  8
1
  6
Continuous
 62
     7
100
AcDbCircle
 10
-177.7730725806462
 20
42.90314516129049
 30
0.0
 40
3.000000000000085
100
AcDbArc
 50
0.00000000000271
 51
89.99999999999837
  0
ARC
  5
3D4
330
32
100
AcDbEntity
  8
1
  6
Continuous
 62
     7
100
AcDbCircle
 10
-177.7730725806453
 20
-82.0968548387086
 30
0.0
 40
2.999999999999204
100
AcDbArc
 50
-0.00000000001547
 51
90.0000000000152
  0
ARC
  5
3D5
330
32
100
AcDbEntity
  8
1
  6
Continuous
 62
     7
100
AcDbCircle
 10
-177.7730725806452
 20
-82.09685483871033
 30
0.0
 40
3.000000000000924
100
AcDbArc
 50
90.00000000001738
 51
179.9999999999824
  0
ARC
  5
3D6
330
32
100
AcDbEntity
  8
1
  6
Continuous
 62
     7
100
AcDbCircle
 10
-177.7730725806461
 20
-108.0968548387094
 30
0.0
 40
3.0
100
AcDbArc
 50
180.0
 51
-90.0
  0
ARC
  5
3D7
330
32
100
AcDbEntity
  8
1
  6
Continuous
 62
     7
100
AcDbCircle
 10
-177.7730725806473
 20
-108.0968548387082
 30
0.0
 40
3.000000000001208
100
AcDbArc
 50
-89.9999999999772
 51
-0.00000000002307
  0
ENDBLK
  5
34
330
32
100
AcDbEntity
  8
0
100
AcDbBlockEnd
  0
BLOCK
  5
3E3
330
3DA
100
AcDbEntity
  8
0
100
AcDbBlockBegin
  2
*D2
 70
     1
 71
     0
 10
0.0
 20
0.0
 30
0.0
  3
*D2
  1

  0
LINE
  5
3DB
330
3DA
100
AcDbEntity
  8
1
  6
Continuous
 62
     2
100
AcDbLine
 10
-143.263638010908
 20
47.40314516129062
 30
0.0
 11
-143.263638010908
 21
64.9387495248938
 31
0.0
  0
LINE
  5
3DC
330
3DA
100
AcDbEntity
  8
1
  6
Continuous
 62
     2
100
AcDbLine
 10
-143.263638010908
 20
45.90314516129062
 30
0.0
 11
-143.263638010908
 21
47.40314516129062
 31
0.0
  0
LINE
  5
3DD
330
3DA
100
AcDbEntity
  8
1
  6
Continuous
 62
     2
100
AcDbLine
 10
-143.263638010908
 20
31.90314516129063
 30
0.0
 11
-143.263638010908
 21
45.90314516129062
 31
0.0
  0
LINE
  5
3DE
330
3DA
100
AcDbEntity
  8
1
  6
Continuous
 62
     2
100
AcDbLine
 10
-177.7730725806461
 20
45.90314516129062
 30
0.0
 11
-141.263638010908
 21
45.90314516129062
 31
0.0
  0
LINE
  5
3DF
330
3DA
100
AcDbEntity
  8
1
  6
Continuous
 62
     2
100
AcDbLine
 10
-187.7730725806461
 20
47.40314516129062
 30
0.0
 11
-141.263638010908
 21
47.40314516129062
 31
0.0
  0
SOLID
  5
3E0
330
3DA
100
AcDbEntity
  8
1
 62
     2
100
AcDbTrace
 10
-142.3420705277962
 20
38.90314516129062
 30
0.0
 11
-144.1852054940198
 21
38.90314516129062
 31
0.0
 12
-143.263638010908
 22
45.90314516129062
 32
0.0
 13
-143.263638010908
 23
45.90314516129062
 33
0.0
  0
SOLID
  5
3E1
330
3DA
100
AcDbEntity
  8
1
 62
     2
100
AcDbTrace
 10
-144.1852054940198
 20
54.40314516129062
 30
0.0
 11
-142.3420705277962
 21
54.40314516129062
 31
0.0
 12
-143.263638010908
 22
47.40314516129062
 32
0.0
 13
-143.263638010908
 23
47.40314516129062
 33
0.0
  0
MTEXT
  5
3E2
330
3DA
100
AcDbEntity
  8
1
 62
     3
100
AcDbMText
 10
-147.263638010908
 20
56.39874952489379
 30
0.0
 40
7.0
 41
0.0
 71
     7
 72
     1
  1
1.5
  7
CONVERTER_11
 11
0.0
 21
1.0
 31
0.0
 73
     1
 44
0.60024009603842
  0
ENDBLK
  5
3E4
330
3DA
100
AcDbEntity
  8
0
100
AcDbBlockEnd
  0
BLOCK
  5
3EE
330
3E7
100
AcDbEntity
  8
0
100
AcDbBlockBegin
  2
*D3
 70
     1
 71
     0
 10
0.0
 20
0.0
 30
0.0
  3
*D3
  1

  0
LINE
  5
3E8
330
3E7
100
AcDbEntity
  8
1
  6
Continuous
 62
     2
100
AcDbLine
 10
-143.263638010908
 20
13.90314516129063
 30
0.0
 11
-143.263638010908
 21
45.90314516129063
 31
0.0
  0
LINE
  5
3E9
330
3E7
100
AcDbEntity
  8
1
  6
Continuous
 62
     2
100
AcDbLine
 10
-177.7730725806461
 20
13.90314516129063
 30
0.0
 11
-141.263638010908
 21
13.90314516129063
 31
0.0
  0
LINE
  5
3EA
330
3E7
100
AcDbEntity
  8
1
  6
Continuous
 62
     2
100
AcDbLine
 10
-177.7730725806461
 20
45.90314516129063
 30
0.0
 11
-141.263638010908
 21
45.90314516129063
 31
0.0
  0
SOLID
  5
3EB
330
3E7
100
AcDbEntity
  8
1
 62
     2
100
AcDbTrace
 10
-144.1852054940198
 20
20.90314516129063
 30
0.0
 11
-142.3420705277962
 21
20.90314516129063
 31
0.0
 12
-143.263638010908
 22
13.90314516129063
 32
0.0
 13
-143.263638010908
 23
13.90314516129063
 33
0.0
  0
SOLID
  5
3EC
330
3E7
100
AcDbEntity
  8
1
 62
     2
100
AcDbTrace
 10
-142.3420705277962
 20
38.90314516129063
 30
0.0
 11
-144.1852054940198
 21
38.90314516129063
 31
0.0
 12
-143.263638010908
 22
45.90314516129063
 32
0.0
 13
-143.263638010908
 23
45.90314516129063
 33
0.0
  0
MTEXT
  5
3ED
330
3E7
100
AcDbEntity
  8
1
 62
     3
100
AcDbMText
 10
-147.263638010908
 20
26.0617436117482
 30
0.0
 40
7.0
 41
0.0
 71
     7
 72
     1
  1
32
  7
CONVERTER_11
 11
0.0
 21
1.0
 31
0.0
 73
     1
 44
0.60024009603842
  0
ENDBLK
  5
3EF
330
3E7
100
AcDbEntity
  8
0
100
AcDbBlockEnd
  0
BLOCK
  5
3F9
330
3F2
100
AcDbEntity
  8
0
100
AcDbBlockBegin
  2
*D4
 70
     1
 71
     0
 10
0.0
 20
0.0
 30
0.0
  3
*D4
  1

  0
LINE
  5
3F3
330
3F2
100
AcDbEntity
  8
1
  6
Continuous
 62
     2
100
AcDbLine
 10
-99.674165530825
 20
12.40314516129062
 30
0.0
 11
-99.674165530825
 21
47.40314516129063
 31
0.0
  0
LINE
  5
3F4
330
3F2
100
AcDbEntity
  8
1
  6
Continuous
 62
     2
100
AcDbLine
 10
-167.7730725806461
 20
12.40314516129062
 30
0.0
 11
-97.674165530825
 21
12.40314516129062
 31
0.0
  0
LINE
  5
3F5
330
3F2
100
AcDbEntity
  8
1
  6
Continuous
 62
     2
100
AcDbLine
 10
-167.7730725806461
 20
47.40314516129063
 30
0.0
 11
-97.674165530825
 21
47.40314516129063
 31
0.0
  0
SOLID
  5
3F6
330
3F2
100
AcDbEntity
  8
1
 62
     2
100
AcDbTrace
 10
-100.5957330139368
 20
19.40314516129062
 30
0.0
 11
-98.75259804771322
 21
19.40314516129062
 31
0.0
 12
-99.674165530825
 22
12.40314516129062
 32
0.0
 13
-99.674165530825
 23
12.40314516129062
 33
0.0
  0
SOLID
  5
3F7
330
3F2
100
AcDbEntity
  8
1
 62
     2
100
AcDbTrace
 10
-98.75259804771322
 20
40.40314516129063
 30
0.0
 11
-100.5957330139368
 21
40.40314516129063
 31
0.0
 12
-99.674165530825
 22
47.40314516129063
 32
0.0
 13
-99.674165530825
 23
47.40314516129063
 33
0.0
  0
MTEXT
  5
3F8
330
3F2
100
AcDbEntity
  8
1
 62
     3
100
AcDbMText
 10
-103.674165530825
 20
24.6914934864434
 30
0.0
 40
7.0
 41
0.0
 71
     7
 72
     1
  1
35
  7
CONVERTER_11
 11
0.0
 21
1.0
 31
0.0
 73
     1
 44
0.60024009603842
  0
ENDBLK
  5
3FA
330
3F2
100
AcDbEntity
  8
0
100
AcDbBlockEnd
  0
BLOCK
  5
406
330
3FD
100
AcDbEntity
  8
0
100
AcDbBlockBegin
  2
*D5
 70
     1
 71
     0
 10
0.0
 20
0.0
 30
0.0
  3
*D5
  1

  0
LINE
  5
3FE
330
3FD
100
AcDbEntity
  8
1
  6
Continuous
 62
     2
100
AcDbLine
 10
-119.981602568593
 20
12.40314516129063
 30
0.0
 11
-119.981602568593
 21
26.40314516129063
 31
0.0
  0
LINE
  5
3FF
330
3FD
100
AcDbEntity
  8
1
  6
Continuous
 62
     2
100
AcDbLine
 10
-119.981602568593
 20
10.40314516129062
 30
0.0
 11
-119.981602568593
 21
12.40314516129063
 31
0.0
  0
LINE
  5
400
330
3FD
100
AcDbEntity
  8
1
  6
Continuous
 62
     2
100
AcDbLine
 10
-119.981602568593
 20
-3.59685483870938
 30
0.0
 11
-119.981602568593
 21
10.40314516129062
 31
0.0
  0
LINE
  5
401
330
3FD
100
AcDbEntity
  8
1
  6
Continuous
 62
     2
100
AcDbLine
 10
-162.7730725806461
 20
10.40314516129062
 30
0.0
 11
-117.981602568593
 21
10.40314516129062
 31
0.0
  0
LINE
  5
402
330
3FD
100
AcDbEntity
  8
1
  6
Continuous
 62
     2
100
AcDbLine
 10
-162.7730725806461
 20
12.40314516129063
 30
0.0
 11
-117.981602568593
 21
12.40314516129063
 31
0.0
  0
SOLID
  5
403
330
3FD
100
AcDbEntity
  8
1
 62
     2
100
AcDbTrace
 10
-119.0600350854812
 20
3.40314516129062
 30
0.0
 11
-120.9031700517048
 21
3.40314516129062
 31
0.0
 12
-119.981602568593
 22
10.40314516129062
 32
0.0
 13
-119.981602568593
 23
10.40314516129062
 33
0.0
  0
SOLID
  5
404
330
3FD
100
AcDbEntity
  8
1
 62
     2
100
AcDbTrace
 10
-120.9031700517048
 20
19.40314516129063
 30
0.0
 11
-119.0600350854812
 21
19.40314516129063
 31
0.0
 12
-119.981602568593
 22
12.40314516129063
 32
0.0
 13
-119.981602568593
 23
12.40314516129063
 33
0.0
  0
MTEXT
  5
405
330
3FD
100
AcDbEntity
  8
1
 62
     3
100
AcDbMText
 10
-123.981602568593
 20
8.8692922910402
 30
0.0
 40
7.0
 41
0.0
 71
     7
 72
     1
  1
2
  7
CONVERTER_11
 11
0.0
 21
1.0
 31
0.0
 73
     1
 44
0.60024009603842
  0
ENDBLK
  5
407
330
3FD
100
AcDbEntity
  8
0
100
AcDbBlockEnd
  0
BLOCK
  5
413
330
40A
100
AcDbEntity
  8
0
100
AcDbBlockBegin
  2
*D6
 70
     1
 71
     0
 10
0.0
 20
0.0
 30
0.0
  3
*D6
  1

  0
LINE
  5
40B
330
40A
100
AcDbEntity
  8
1
  6
Continuous
 62
     2
100
AcDbLine
 10
-174.7730725806461
 20
29.252436855902
 30
0.0
 11
-160.7730725806461
 21
29.252436855902
 31
0.0
  0
LINE
  5
40C
330
40A
100
AcDbEntity
  8
1
  6
Continuous
 62
     2
100
AcDbLine
 10
-180.7730725806461
 20
29.252436855902
 30
0.0
 11
-174.7730725806461
 21
29.252436855902
 31
0.0
  0
LINE
  5
40D
330
40A
100
AcDbEntity
  8
1
  6
Continuous
 62
     2
100
AcDbLine
 10
-202.857946657267
 20
29.252436855902
 30
0.0
 11
-180.7730725806461
 21
29.252436855902
 31
0.0
  0
LINE
  5
40E
330
40A
100
AcDbEntity
  8
1
  6
Continuous
 62
     2
100
AcDbLine
 10
-180.7730725806461
 20
42.90314516129063
 30
0.0
 11
-180.7730725806461
 21
27.252436855902
 31
0.0
  0
LINE
  5
40F
330
40A
100
AcDbEntity
  8
1
  6
Continuous
 62
     2
100
AcDbLine
 10
-174.7730725806461
 20
42.90314516129063
 30
0.0
 11
-174.7730725806461
 21
27.252436855902
 31
0.0
  0
SOLID
  5
410
330
40A
100
AcDbEntity
  8
1
 62
     2
100
AcDbTrace
 10
-187.7730725806461
 20
28.33086937279023
 30
0.0
 11
-187.7730725806461
 21
30.17400433901377
 31
0.0
 12
-180.7730725806461
 22
29.252436855902
 32
0.0
 13
-180.7730725806461
 23
29.252436855902
 33
0.0
  0
SOLID
  5
411
330
40A
100
AcDbEntity
  8
1
 62
     2
100
AcDbTrace
 10
-167.7730725806461
 20
30.17400433901377
 30
0.0
 11
-167.7730725806461
 21
28.33086937279023
 31
0.0
 12
-174.7730725806461
 22
29.252436855902
 32
0.0
 13
-174.7730725806461
 23
29.252436855902
 33
0.0
  0
MTEXT
  5
412
330
40A
100
AcDbEntity
  8
1
 62
     3
100
AcDbMText
 10
-202.857946657267
 20
33.252436855902
 30
0.0
 40
7.0
 41
0.0
 71
     7
 72
     1
  1
6
  7
CONVERTER_11
 11
0.9999999999970621
 21
2.424068405545307E-6
 31
0.0
 73
     1
 44
0.60024009603842
  0
ENDBLK
  5
414
330
40A
100
AcDbEntity
  8
0
100
AcDbBlockEnd
  0
BLOCK
  5
420
330
417
100
AcDbEntity
  8
0
100
AcDbBlockBegin
  2
*D7
 70
     1
 71
     0
 10
0.0
 20
0.0
 30
0.0
  3
*D7
  1

  0
LINE
  5
418
330
417
100
AcDbEntity
  8
1
  6
Continuous
 62
     2
100
AcDbLine
 10
-174.7730725806461
 20
-96.762368282175
 30
0.0
 11
-160.7730725806461
 21
-96.762368282175
 31
0.0
  0
LINE
  5
419
330
417
100
AcDbEntity
  8
1
  6
Continuous
 62
     2
100
AcDbLine
 10
-180.7730725806461
 20
-96.762368282175
 30
0.0
 11
-174.7730725806461
 21
-96.762368282175
 31
0.0
  0
LINE
  5
41A
330
417
100
AcDbEntity
  8
1
  6
Continuous
 62
     2
100
AcDbLine
 10
-197.98712018775
 20
-96.762368282175
 30
0.0
 11
-180.7730725806461
 21
-96.762368282175
 31
0.0
  0
LINE
  5
41B
330
417
100
AcDbEntity
  8
1
  6
Continuous
 62
     2
100
AcDbLine
 10
-180.7730725806461
 20
-108.0968548387094
 30
0.0
 11
-180.7730725806461
 21
-94.762368282175
 31
0.0
  0
LINE
  5
41C
330
417
100
AcDbEntity
  8
1
  6
Continuous
 62
     2
100
AcDbLine
 10
-174.7730725806461
 20
-108.0968548387094
 30
0.0
 11
-174.7730725806461
 21
-94.762368282175
 31
0.0
  0
SOLID
  5
41D
330
417
100
AcDbEntity
  8
1
 62
     2
100
AcDbTrace
 10
-187.7730725806461
 20
-97.68393576528678
 30
0.0
 11
-187.7730725806461
 21
-95.84080079906323
 31
0.0
 12
-180.7730725806461
 22
-96.762368282175
 32
0.0
 13
-180.7730725806461
 23
-96.762368282175
 33
0.0
  0
SOLID
  5
41E
330
417
100
AcDbEntity
  8
1
 62
     2
100
AcDbTrace
 10
-167.7730725806461
 20
-95.84080079906323
 30
0.0
 11
-167.7730725806461
 21
-97.68393576528678
 31
0.0
 12
-174.7730725806461
 22
-96.762368282175
 32
0.0
 13
-174.7730725806461
 23
-96.762368282175
 33
0.0
  0
MTEXT
  5
41F
330
417
100
AcDbEntity
  8
1
 62
     3
100
AcDbMText
 10
-197.98712018775
 20
-92.762368282175
 30
0.0
 40
7.0
 41
0.0
 71
     7
 72
     1
  1
6
  7
CONVERTER_11
 11
0.9999999999970621
 21
2.424068405545307E-6
 31
0.0
 73
     1
 44
0.60024009603842
  0
ENDBLK
  5
421
330
417
100
AcDbEntity
  8
0
100
AcDbBlockEnd
  0
BLOCK
  5
42B
330
424
100
AcDbEntity
  8
0
100
AcDbBlockBegin
  2
*D8
 70
     1
 71
     0
 10
0.0
 20
0.0
 30
0.0
  3
*D8
  1

  0
LINE
  5
425
330
424
100
AcDbEntity
  8
1
  6
Continuous
 62
     2
100
AcDbLine
 10
-143.738768114598
 20
-111.0968548387094
 30
0.0
 11
-143.738768114598
 21
-79.0968548387094
 31
0.0
  0
LINE
  5
426
330
424
100
AcDbEntity
  8
1
  6
Continuous
 62
     2
100
AcDbLine
 10
-177.7730725806461
 20
-111.0968548387094
 30
0.0
 11
-141.738768114598
 21
-111.0968548387094
 31
0.0
  0
LINE
  5
427
330
424
100
AcDbEntity
  8
1
  6
Continuous
 62
     2
100
AcDbLine
 10
-177.7730725806461
 20
-79.0968548387094
 30
0.0
 11
-141.738768114598
 21
-79.0968548387094
 31
0.0
  0
SOLID
  5
428
330
424
100
AcDbEntity
  8
1
 62
     2
100
AcDbTrace
 10
-144.6603355977098
 20
-104.0968548387094
 30
0.0
 11
-142.8172006314862
 21
-104.0968548387094
 31
0.0
 12
-143.738768114598
 22
-111.0968548387094
 32
0.0
 13
-143.738768114598
 23
-111.0968548387094
 33
0.0
  0
SOLID
  5
429
330
424
100
AcDbEntity
  8
1
 62
     2
100
AcDbTrace
 10
-142.8172006314862
 20
-86.0968548387094
 30
0.0
 11
-144.6603355977098
 21
-86.0968548387094
 31
0.0
 12
-143.738768114598
 22
-79.0968548387094
 32
0.0
 13
-143.738768114598
 23
-79.0968548387094
 33
0.0
  0
MTEXT
  5
42A
330
424
100
AcDbEntity
  8
1
 62
     3
100
AcDbMText
 10
-147.738768114598
 20
-99.98541924013121
 30
0.0
 40
7.0
 41
0.0
 71
     7
 72
     1
  1
32
  7
CONVERTER_11
 11
0.0
 21
1.0
 31
0.0
 73
     1
 44
0.60024009603842
  0
ENDBLK
  5
42C
330
424
100
AcDbEntity
  8
0
100
AcDbBlockEnd
  0
BLOCK
  5
438
330
42F
100
AcDbEntity
  8
0
100
AcDbBlockBegin
  2
*D9
 70
     1
 71
     0
 10
0.0
 20
0.0
 30
0.0
  3
*D9
  1

  0
LINE
  5
430
330
42F
100
AcDbEntity
  8
1
  6
Continuous
 62
     2
100
AcDbLine
 10
-143.738768114598
 20
-111.0968548387094
 30
0.0
 11
-143.738768114598
 21
-97.0968548387094
 31
0.0
  0
LINE
  5
431
330
42F
100
AcDbEntity
  8
1
  6
Continuous
 62
     2
100
AcDbLine
 10
-143.738768114598
 20
-112.5968548387094
 30
0.0
 11
-143.738768114598
 21
-111.0968548387094
 31
0.0
  0
LINE
  5
432
330
42F
100
AcDbEntity
  8
1
  6
Continuous
 62
     2
100
AcDbLine
 10
-143.738768114598
 20
-131.48466476483
 30
0.0
 11
-143.738768114598
 21
-112.5968548387094
 31
0.0
  0
LINE
  5
433
330
42F
100
AcDbEntity
  8
1
  6
Continuous
 62
     2
100
AcDbLine
 10
-177.7730725806461
 20
-112.5968548387094
 30
0.0
 11
-141.738768114598
 21
-112.5968548387094
 31
0.0
  0
LINE
  5
434
330
42F
100
AcDbEntity
  8
1
  6
Continuous
 62
     2
100
AcDbLine
 10
-177.7730725806461
 20
-111.0968548387094
 30
0.0
 11
-141.738768114598
 21
-111.0968548387094
 31
0.0
  0
SOLID
  5
435
330
42F
100
AcDbEntity
  8
1
 62
     2
100
AcDbTrace
 10
-142.8172006314862
 20
-119.5968548387094
 30
0.0
 11
-144.6603355977098
 21
-119.5968548387094
 31
0.0
 12
-143.738768114598
 22
-112.5968548387094
 32
0.0
 13
-143.738768114598
 23
-112.5968548387094
 33
0.0
  0
SOLID
  5
436
330
42F
100
AcDbEntity
  8
1
 62
     2
100
AcDbTrace
 10
-144.6603355977098
 20
-104.0968548387094
 30
0.0
 11
-142.8172006314862
 21
-104.0968548387094
 31
0.0
 12
-143.738768114598
 22
-111.0968548387094
 32
0.0
 13
-143.738768114598
 23
-111.0968548387094
 33
0.0
  0
MTEXT
  5
437
330
42F
100
AcDbEntity
  8
1
 62
     3
100
AcDbMText
 10
-147.738768114598
 20
-131.48466476483
 30
0.0
 40
7.0
 41
0.0
 71
     7
 72
     1
  1
1.5
  7
CONVERTER_11
 11
0.0
 21
1.0
 31
0.0
 73
     1
 44
0.60024009603842
  0
ENDBLK
  5
439
330
42F
100
AcDbEntity
  8
0
100
AcDbBlockEnd
  0
BLOCK
  5
445
330
43C
100
AcDbEntity
  8
0
100
AcDbBlockBegin
  2
*D10
 70
     1
 71
     0
 10
0.0
 20
0.0
 30
0.0
  3
*D10
  1

  0
LINE
  5
43D
330
43C
100
AcDbEntity
  8
1
  6
Continuous
 62
     2
100
AcDbLine
 10
-116.706209497986
 20
-75.59685483870938
 30
0.0
 11
-116.706209497986
 21
-61.59685483870938
 31
0.0
  0
LINE
  5
43E
330
43C
100
AcDbEntity
  8
1
  6
Continuous
 62
     2
100
AcDbLine
 10
-116.706209497986
 20
-77.59685483870938
 30
0.0
 11
-116.706209497986
 21
-75.59685483870938
 31
0.0
  0
LINE
  5
43F
330
43C
100
AcDbEntity
  8
1
  6
Continuous
 62
     2
100
AcDbLine
 10
-116.706209497986
 20
-91.59685483870938
 30
0.0
 11
-116.706209497986
 21
-77.59685483870938
 31
0.0
  0
LINE
  5
440
330
43C
100
AcDbEntity
  8
1
  6
Continuous
 62
     2
100
AcDbLine
 10
-172.4530725806461
 20
-77.59685483870938
 30
0.0
 11
-114.706209497986
 21
-77.59685483870938
 31
0.0
  0
LINE
  5
441
330
43C
100
AcDbEntity
  8
1
  6
Continuous
 62
     2
100
AcDbLine
 10
-162.8730725806461
 20
-75.59685483870938
 30
0.0
 11
-114.706209497986
 21
-75.59685483870938
 31
0.0
  0
SOLID
  5
442
330
43C
100
AcDbEntity
  8
1
 62
     2
100
AcDbTrace
 10
-115.7846420148742
 20
-84.59685483870938
 30
0.0
 11
-117.6277769810978
 21
-84.59685483870938
 31
0.0
 12
-116.706209497986
 22
-77.59685483870938
 32
0.0
 13
-116.706209497986
 23
-77.59685483870938
 33
0.0
  0
SOLID
  5
443
330
43C
100
AcDbEntity
  8
1
 62
     2
100
AcDbTrace
 10
-117.6277769810978
 20
-68.59685483870938
 30
0.0
 11
-115.7846420148742
 21
-68.59685483870938
 31
0.0
 12
-116.706209497986
 22
-75.59685483870938
 32
0.0
 13
-116.706209497986
 23
-75.59685483870938
 33
0.0
  0
MTEXT
  5
444
330
43C
100
AcDbEntity
  8
1
 62
     3
100
AcDbMText
 10
-120.706209497986
 20
-72.36045586003151
 30
0.0
 40
7.0
 41
0.0
 71
     7
 72
     1
  1
2
  7
CONVERTER_11
 11
0.0
 21
1.0
 31
0.0
 73
     1
 44
0.60024009603842
  0
ENDBLK
  5
446
330
43C
100
AcDbEntity
  8
0
100
AcDbBlockEnd
  0
BLOCK
  5
450
330
449
100
AcDbEntity
  8
0
100
AcDbBlockBegin
  2
*D11
 70
     1
 71
     0
 10
0.0
 20
0.0
 30
0.0
  3
*D11
  1

  0
LINE
  5
44A
330
449
100
AcDbEntity
  8
1
  6
Continuous
 62
     2
100
AcDbLine
 10
-98.364008302582
 20
-112.5968548387094
 30
0.0
 11
-98.364008302582
 21
-77.59685483870938
 31
0.0
  0
LINE
  5
44B
330
449
100
AcDbEntity
  8
1
  6
Continuous
 62
     2
100
AcDbLine
 10
-172.3730725806461
 20
-112.5968548387094
 30
0.0
 11
-96.364008302582
 21
-112.5968548387094
 31
0.0
  0
LINE
  5
44C
330
449
100
AcDbEntity
  8
1
  6
Continuous
 62
     2
100
AcDbLine
 10
-170.8030725806461
 20
-77.59685483870938
 30
0.0
 11
-96.364008302582
 21
-77.59685483870938
 31
0.0
  0
SOLID
  5
44D
330
449
100
AcDbEntity
  8
1
 62
     2
100
AcDbTrace
 10
-99.28557578569377
 20
-105.5968548387094
 30
0.0
 11
-97.44244081947022
 21
-105.5968548387094
 31
0.0
 12
-98.364008302582
 22
-112.5968548387094
 32
0.0
 13
-98.364008302582
 23
-112.5968548387094
 33
0.0
  0
SOLID
  5
44E
330
449
100
AcDbEntity
  8
1
 62
     2
100
AcDbTrace
 10
-97.44244081947022
 20
-84.59685483870938
 30
0.0
 11
-99.28557578569377
 21
-84.59685483870938
 31
0.0
 12
-98.364008302582
 22
-77.59685483870938
 32
0.0
 13
-98.364008302582
 23
-77.59685483870938
 33
0.0
  0
MTEXT
  5
44F
330
449
100
AcDbEntity
  8
1
 62
     3
100
AcDbMText
 10
-102.364008302582
 20
-98.79082527546791
 30
0.0
 40
7.0
 41
0.0
 71
     7
 72
     1
  1
35
  7
CONVERTER_11
 11
0.0
 21
1.0
 31
0.0
 73
     1
 44
0.60024009603842
  0
ENDBLK
  5
451
330
449
100
AcDbEntity
  8
0
100
AcDbBlockEnd
  0
BLOCK
  5
45C
330
454
100
AcDbEntity
  8
0
100
AcDbBlockBegin
  2
*D12
 70
     1
 71
     0
 10
0.0
 20
0.0
 30
0.0
  3
*D12
  1

  0
LINE
  5
455
330
454
100
AcDbEntity
  8
1
  6
Continuous
 62
     2
100
AcDbLine
 10
-187.7730725806461
 20
59.27374964079701
 30
0.0
 11
-167.7730725806461
 21
59.27374964079701
 31
0.0
  0
LINE
  5
456
330
454
100
AcDbEntity
  8
1
  6
Continuous
 62
     2
100
AcDbLine
 10
-220.891350719665
 20
59.27374964079701
 30
0.0
 11
-187.7730725806461
 21
59.27374964079701
 31
0.0
  0
LINE
  5
457
330
454
100
AcDbEntity
  8
1
  6
Continuous
 62
     2
100
AcDbLine
 10
-187.7730725806461
 20
47.40314516129062
 30
0.0
 11
-187.7730725806461
 21
61.27374964079701
 31
0.0
  0
LINE
  5
458
330
454
100
AcDbEntity
  8
1
  6
Continuous
 62
     2
100
AcDbLine
 10
-167.7730725806461
 20
47.40314516129062
 30
0.0
 11
-167.7730725806461
 21
61.27374964079701
 31
0.0
  0
SOLID
  5
459
330
454
100
AcDbEntity
  8
1
 62
     2
100
AcDbTrace
 10
-180.7730725806461
 20
60.19531712390878
 30
0.0
 11
-180.7730725806461
 21
58.35218215768523
 31
0.0
 12
-187.7730725806461
 22
59.27374964079701
 32
0.0
 13
-187.7730725806461
 23
59.27374964079701
 33
0.0
  0
SOLID
  5
45A
330
454
100
AcDbEntity
  8
1
 62
     2
100
AcDbTrace
 10
-174.7730725806461
 20
58.35218215768523
 30
0.0
 11
-174.7730725806461
 21
60.19531712390878
 31
0.0
 12
-167.7730725806461
 22
59.27374964079701
 32
0.0
 13
-167.7730725806461
 23
59.27374964079701
 33
0.0
  0
MTEXT
  5
45B
330
454
100
AcDbEntity
  8
1
 62
     3
100
AcDbMText
 10
-224.9513507196313
 20
65.02372181249171
 30
0.0
 40
7.0
 41
0.0
 71
     7
 72
     1
  1
\C3;{\Fgdt;n}\C3;\C3;20\C2;\H4.2;\S^ k6;
  7
CONVERTER_11
 11
0.9999999999970621
 21
2.424068405545307E-6
 31
0.0
 73
     1
 44
0.60024009603842
  0
ENDBLK
  5
45D
330
454
100
AcDbEntity
  8
0
100
AcDbBlockEnd
  0
BLOCK
  5
468
330
460
100
AcDbEntity
  8
0
100
AcDbBlockBegin
  2
*D13
 70
     1
 71
     0
 10
0.0
 20
0.0
 30
0.0
  3
*D13
  1

  0
LINE
  5
461
330
460
100
AcDbEntity
  8
1
  6
Continuous
 62
     2
100
AcDbLine
 10
-187.7730725806461
 20
-130.04396984033
 30
0.0
 11
-167.7730725806461
 21
-130.04396984033
 31
0.0
  0
LINE
  5
462
330
460
100
AcDbEntity
  8
1
  6
Continuous
 62
     2
100
AcDbLine
 10
-218.9261148773
 20
-130.04396984033
 30
0.0
 11
-187.7730725806461
 21
-130.04396984033
 31
0.0
  0
LINE
  5
463
330
460
100
AcDbEntity
  8
1
  6
Continuous
 62
     2
100
AcDbLine
 10
-187.7730725806461
 20
-112.5968548387094
 30
0.0
 11
-187.7730725806461
 21
-132.04396984033
 31
0.0
  0
LINE
  5
464
330
460
100
AcDbEntity
  8
1
  6
Continuous
 62
     2
100
AcDbLine
 10
-167.7730725806461
 20
-112.5968548387094
 30
0.0
 11
-167.7730725806461
 21
-132.04396984033
 31
0.0
  0
SOLID
  5
465
330
460
100
AcDbEntity
  8
1
 62
     2
100
AcDbTrace
 10
-180.7730725806461
 20
-129.1224023572182
 30
0.0
 11
-180.7730725806461
 21
-130.9655373234418
 31
0.0
 12
-187.7730725806461
 22
-130.04396984033
 32
0.0
 13
-187.7730725806461
 23
-130.04396984033
 33
0.0
  0
SOLID
  5
466
330
460
100
AcDbEntity
  8
1
 62
     2
100
AcDbTrace
 10
-174.7730725806461
 20
-130.9655373234418
 30
0.0
 11
-174.7730725806461
 21
-129.1224023572182
 31
0.0
 12
-167.7730725806461
 22
-130.04396984033
 32
0.0
 13
-167.7730725806461
 23
-130.04396984033
 33
0.0
  0
MTEXT
  5
467
330
460
100
AcDbEntity
  8
1
 62
     3
100
AcDbMText
 10
-222.9861148772663
 20
-124.2939976686353
 30
0.0
 40
7.0
 41
0.0
 71
     7
 72
     1
  1
\C3;{\Fgdt;n}\C3;\C3;20\C2;\H4.2;\S^ k6;
  7
CONVERTER_11
 11
0.9999999999970621
 21
2.424068405545307E-6
 31
0.0
 73
     1
 44
0.60024009603842
  0
ENDBLK
  5
469
330
460
100
AcDbEntity
  8
0
100
AcDbBlockEnd
  0
BLOCK
  5
473
330
46C
100
AcDbEntity
  8
0
100
AcDbBlockBegin
  2
*D14
 70
     1
 71
     0
 10
0.0
 20
0.0
 30
0.0
  3
*D14
  1

  0
LINE
  5
46D
330
46C
100
AcDbEntity
  8
1
  6
Continuous
 62
     2
100
AcDbLine
 10
11.9486188779975
 20
18.90314516129062
 30
0.0
 11
11.9486188779975
 21
38.90314516129062
 31
0.0
  0
LINE
  5
46E
330
46C
100
AcDbEntity
  8
1
  6
Continuous
 62
     2
100
AcDbLine
 10
29.2269274193539
 20
18.90314516129062
 30
0.0
 11
9.9486188779975
 21
18.90314516129062
 31
0.0
  0
LINE
  5
46F
330
46C
100
AcDbEntity
  8
1
  6
Continuous
 62
     2
100
AcDbLine
 10
31.2269274193539
 20
38.90314516129062
 30
0.0
 11
9.9486188779975
 21
38.90314516129062
 31
0.0
  0
SOLID
  5
470
330
46C
100
AcDbEntity
  8
1
 62
     2
100
AcDbTrace
 10
11.02705139488573
 20
25.90314516129062
 30
0.0
 11
12.87018636110927
 21
25.90314516129062
 31
0.0
 12
11.9486188779975
 22
18.90314516129062
 32
0.0
 13
11.9486188779975
 23
18.90314516129062
 33
0.0
  0
SOLID
  5
471
330
46C
100
AcDbEntity
  8
1
 62
     2
100
AcDbTrace
 10
12.87018636110927
 20
31.90314516129062
 30
0.0
 11
11.02705139488573
 21
31.90314516129062
 31
0.0
 12
11.9486188779975
 22
38.90314516129062
 32
0.0
 13
11.9486188779975
 23
38.90314516129062
 33
0.0
  0
MTEXT
  5
472
330
46C
100
AcDbEntity
  8
1
 62
     3
100
AcDbMText
 10
7.9486188779975
 20
24.5821772911877
 30
0.0
 40
7.0
 41
0.0
 71
     7
 72
     1
  1
20
  7
CONVERTER_11
 11
0.0
 21
1.0
 31
0.0
 73
     1
 44
0.60024009603842
  0
ENDBLK
  5
474
330
46C
100
AcDbEntity
  8
0
100
AcDbBlockEnd
  0
BLOCK
  5
47E
330
477
100
AcDbEntity
  8
0
100
AcDbBlockBegin
  2
*D15
 70
     1
 71
     0
 10
0.0
 20
0.0
 30
0.0
  3
*D15
  1

  0
LINE
  5
478
330
477
100
AcDbEntity
  8
1
  6
Continuous
 62
     2
100
AcDbLine
 10
-13.4252581427235
 20
-25.59685483870937
 30
0.0
 11
-13.4252581427235
 21
38.90314516129062
 31
0.0
  0
LINE
  5
479
330
477
100
AcDbEntity
  8
1
  6
Continuous
 62
     2
100
AcDbLine
 10
-6.25501519405401
 20
-25.59685483870937
 30
0.0
 11
-15.4252581427235
 21
-25.59685483870937
 31
0.0
  0
LINE
  5
47A
330
477
100
AcDbEntity
  8
1
  6
Continuous
 62
     2
100
AcDbLine
 10
31.2269274193539
 20
38.90314516129062
 30
0.0
 11
-15.4252581427235
 21
38.90314516129062
 31
0.0
  0
SOLID
  5
47B
330
477
100
AcDbEntity
  8
1
 62
     2
100
AcDbTrace
 10
-14.34682562583527
 20
-18.59685483870937
 30
0.0
 11
-12.50369065961173
 21
-18.59685483870937
 31
0.0
 12
-13.4252581427235
 22
-25.59685483870937
 32
0.0
 13
-13.4252581427235
 23
-25.59685483870937
 33
0.0
  0
SOLID
  5
47C
330
477
100
AcDbEntity
  8
1
 62
     2
100
AcDbTrace
 10
-12.50369065961173
 20
31.90314516129062
 30
0.0
 11
-14.34682562583527
 21
31.90314516129062
 31
0.0
 12
-13.4252581427235
 22
38.90314516129062
 32
0.0
 13
-13.4252581427235
 23
38.90314516129062
 33
0.0
  0
MTEXT
  5
47D
330
477
100
AcDbEntity
  8
1
 62
     3
100
AcDbMText
 10
-17.4252581427235
 20
15.0352605094067
 30
0.0
 40
7.0
 41
0.0
 71
     7
 72
     1
  1
64.5
  7
CONVERTER_11
 11
0.0
 21
1.0
 31
0.0
 73
     1
 44
0.60024009603842
  0
ENDBLK
  5
47F
330
477
100
AcDbEntity
  8
0
100
AcDbBlockEnd
  0
BLOCK
  5
48B
330
482
100
AcDbEntity
  8
0
100
AcDbBlockBegin
  2
*D16
 70
     1
 71
     0
 10
0.0
 20
0.0
 30
0.0
  3
*D16
  1

  0
LINE
  5
483
330
482
100
AcDbEntity
  8
1
  6
Continuous
 62
     2
100
AcDbLine
 10
-14.1049155629214
 20
-53.59685483870938
 30
0.0
 11
-14.1049155629214
 21
-39.59685483870938
 31
0.0
  0
LINE
  5
484
330
482
100
AcDbEntity
  8
1
  6
Continuous
 62
     2
100
AcDbLine
 10
-14.1049155629214
 20
-62.59685483870938
 30
0.0
 11
-14.1049155629214
 21
-53.59685483870938
 31
0.0
  0
LINE
  5
485
330
482
100
AcDbEntity
  8
1
  6
Continuous
 62
     2
100
AcDbLine
 10
-14.1049155629214
 20
-76.59685483870939
 30
0.0
 11
-14.1049155629214
 21
-62.59685483870938
 31
0.0
  0
LINE
  5
486
330
482
100
AcDbEntity
  8
1
  6
Continuous
 62
     2
100
AcDbLine
 10
-1.7730725806461
 20
-62.59685483870938
 30
0.0
 11
-16.1049155629214
 21
-62.59685483870938
 31
0.0
  0
LINE
  5
487
330
482
100
AcDbEntity
  8
1
  6
Continuous
 62
     2
100
AcDbLine
 10
-1.7730725806461
 20
-53.59685483870938
 30
0.0
 11
-16.1049155629214
 21
-53.59685483870938
 31
0.0
  0
SOLID
  5
488
330
482
100
AcDbEntity
  8
1
 62
     2
100
AcDbTrace
 10
-13.18334807980963
 20
-69.59685483870938
 30
0.0
 11
-15.02648304603317
 21
-69.59685483870938
 31
0.0
 12
-14.1049155629214
 22
-62.59685483870938
 32
0.0
 13
-14.1049155629214
 23
-62.59685483870938
 33
0.0
  0
SOLID
  5
489
330
482
100
AcDbEntity
  8
1
 62
     2
100
AcDbTrace
 10
-15.02648304603317
 20
-46.59685483870938
 30
0.0
 11
-13.18334807980963
 21
-46.59685483870938
 31
0.0
 12
-14.1049155629214
 22
-53.59685483870938
 32
0.0
 13
-14.1049155629214
 23
-53.59685483870938
 33
0.0
  0
MTEXT
  5
48A
330
482
100
AcDbEntity
  8
1
 62
     3
100
AcDbMText
 10
-18.1049155629214
 20
-46.9804815103818
 30
0.0
 40
7.0
 41
0.0
 71
     7
 72
     1
  1
9
  7
CONVERTER_11
 11
0.0
 21
1.0
 31
0.0
 73
     1
 44
0.60024009603842
  0
ENDBLK
  5
48C
330
482
100
AcDbEntity
  8
0
100
AcDbBlockEnd
  0
BLOCK
  5
496
330
48F
100
AcDbEntity
  8
0
100
AcDbBlockBegin
  2
*D17
 70
     1
 71
     0
 10
0.0
 20
0.0
 30
0.0
  3
*D17
  1

  0
LINE
  5
490
330
48F
100
AcDbEntity
  8
1
  6
Continuous
 62
     2
100
AcDbLine
 10
-36.080505482653
 20
-62.59685483870938
 30
0.0
 11
-36.080505482653
 21
10.40314516129063
 31
0.0
  0
LINE
  5
491
330
48F
100
AcDbEntity
  8
1
  6
Continuous
 62
     2
100
AcDbLine
 10
-1.7730725806461
 20
-62.59685483870938
 30
0.0
 11
-38.080505482653
 21
-62.59685483870938
 31
0.0
  0
LINE
  5
492
330
48F
100
AcDbEntity
  8
1
  6
Continuous
 62
     2
100
AcDbLine
 10
17.67692741935389
 20
10.40314516129063
 30
0.0
 11
-38.080505482653
 21
10.40314516129063
 31
0.0
  0
SOLID
  5
493
330
48F
100
AcDbEntity
  8
1
 62
     2
100
AcDbTrace
 10
-37.00207296576477
 20
-55.59685483870938
 30
0.0
 11
-35.15893799954123
 21
-55.59685483870938
 31
0.0
 12
-36.080505482653
 22
-62.59685483870938
 32
0.0
 13
-36.080505482653
 23
-62.59685483870938
 33
0.0
  0
SOLID
  5
494
330
48F
100
AcDbEntity
  8
1
 62
     2
100
AcDbTrace
 10
-35.15893799954124
 20
3.40314516129063
 30
0.0
 11
-37.00207296576477
 21
3.40314516129063
 31
0.0
 12
-36.080505482653
 22
10.40314516129063
 32
0.0
 13
-36.080505482653
 23
10.40314516129063
 33
0.0
  0
MTEXT
  5
495
330
48F
100
AcDbEntity
  8
1
 62
     3
100
AcDbMText
 10
-40.080505482653
 20
-26.3921292236537
 30
0.0
 40
7.0
 41
0.0
 71
     7
 72
     1
  1
73
  7
CONVERTER_11
 11
0.0
 21
1.0
 31
0.0
 73
     1
 44
0.60024009603842
  0
ENDBLK
  5
497
330
48F
100
AcDbEntity
  8
0
100
AcDbBlockEnd
  0
BLOCK
  5
4A3
330
49A
100
AcDbEntity
  8
0
100
AcDbBlockBegin
  2
*D18
 70
     1
 71
     0
 10
0.0
 20
0.0
 30
0.0
  3
*D18
  1

  0
LINE
  5
49B
330
49A
100
AcDbEntity
  8
1
  6
Continuous
 62
     2
100
AcDbLine
 10
-36.080505482653
 20
-62.59685483870938
 30
0.0
 11
-36.080505482653
 21
-48.59685483870938
 31
0.0
  0
LINE
  5
49C
330
49A
100
AcDbEntity
  8
1
  6
Continuous
 62
     2
100
AcDbLine
 10
-36.080505482653
 20
-75.59685483870938
 30
0.0
 11
-36.080505482653
 21
-62.59685483870938
 31
0.0
  0
LINE
  5
49D
330
49A
100
AcDbEntity
  8
1
  6
Continuous
 62
     2
100
AcDbLine
 10
-36.080505482653
 20
-89.59685483870938
 30
0.0
 11
-36.080505482653
 21
-75.59685483870938
 31
0.0
  0
LINE
  5
49E
330
49A
100
AcDbEntity
  8
1
  6
Continuous
 62
     2
100
AcDbLine
 10
-0.7030725806461
 20
-75.59685483870938
 30
0.0
 11
-38.080505482653
 21
-75.59685483870938
 31
0.0
  0
LINE
  5
49F
330
49A
100
AcDbEntity
  8
1
  6
Continuous
 62
     2
100
AcDbLine
 10
-1.7730725806461
 20
-62.59685483870938
 30
0.0
 11
-38.080505482653
 21
-62.59685483870938
 31
0.0
  0
SOLID
  5
4A0
330
49A
100
AcDbEntity
  8
1
 62
     2
100
AcDbTrace
 10
-35.15893799954124
 20
-82.59685483870938
 30
0.0
 11
-37.00207296576477
 21
-82.59685483870938
 31
0.0
 12
-36.080505482653
 22
-75.59685483870938
 32
0.0
 13
-36.080505482653
 23
-75.59685483870938
 33
0.0
  0
SOLID
  5
4A1
330
49A
100
AcDbEntity
  8
1
 62
     2
100
AcDbTrace
 10
-37.00207296576477
 20
-55.59685483870938
 30
0.0
 11
-35.15893799954123
 21
-55.59685483870938
 31
0.0
 12
-36.080505482653
 22
-62.59685483870938
 32
0.0
 13
-36.080505482653
 23
-62.59685483870938
 33
0.0
  0
MTEXT
  5
4A2
330
49A
100
AcDbEntity
  8
1
 62
     3
100
AcDbMText
 10
-40.080505482653
 20
-72.9015961641064
 30
0.0
 40
7.0
 41
0.0
 71
     7
 72
     1
  1
13
  7
CONVERTER_11
 11
0.0
 21
1.0
 31
0.0
 73
     1
 44
0.60024009603842
  0
ENDBLK
  5
4A4
330
49A
100
AcDbEntity
  8
0
100
AcDbBlockEnd
  0
BLOCK
  5
4AF
330
4A7
100
AcDbEntity
  8
0
100
AcDbBlockBegin
  2
*D19
 70
     1
 71
     0
 10
0.0
 20
0.0
 30
0.0
  3
*D19
  1

  0
LINE
  5
4A8
330
4A7
100
AcDbEntity
  8
1
  6
Continuous
 62
     2
100
AcDbLine
 10
51.2269274193539
 20
-101.0903643843628
 30
0.0
 11
80.6801719953975
 21
-101.0903643843628
 31
0.0
  0
LINE
  5
4A9
330
4A7
100
AcDbEntity
  8
1
  6
Continuous
 62
     2
100
AcDbLine
 10
31.2269274193539
 20
-101.0903643843628
 30
0.0
 11
51.2269274193539
 21
-101.0903643843628
 31
0.0
  0
LINE
  5
4AA
330
4A7
100
AcDbEntity
  8
1
  6
Continuous
 62
     2
100
AcDbLine
 10
31.2269274193539
 20
-75.59685483870938
 30
0.0
 11
31.2269274193539
 21
-103.0903643843628
 31
0.0
  0
LINE
  5
4AB
330
4A7
100
AcDbEntity
  8
1
  6
Continuous
 62
     2
100
AcDbLine
 10
51.2269274193539
 20
-75.59685483870938
 30
0.0
 11
51.2269274193539
 21
-103.0903643843628
 31
0.0
  0
SOLID
  5
4AC
330
4A7
100
AcDbEntity
  8
1
 62
     2
100
AcDbTrace
 10
38.2269274193539
 20
-100.168796901251
 30
0.0
 11
38.2269274193539
 21
-102.0119318674746
 31
0.0
 12
31.2269274193539
 22
-101.0903643843628
 32
0.0
 13
31.2269274193539
 23
-101.0903643843628
 33
0.0
  0
SOLID
  5
4AD
330
4A7
100
AcDbEntity
  8
1
 62
     2
100
AcDbTrace
 10
44.2269274193539
 20
-102.0119318674746
 30
0.0
 11
44.2269274193539
 21
-100.168796901251
 31
0.0
 12
51.2269274193539
 22
-101.0903643843628
 32
0.0
 13
51.2269274193539
 23
-101.0903643843628
 33
0.0
  0
MTEXT
  5
4AE
330
4A7
100
AcDbEntity
  8
1
 62
     3
100
AcDbMText
 10
51.92417199543123
 20
-95.34039221266809
 30
0.0
 40
7.0
 41
0.0
 71
     7
 72
     1
  1
\C3;{\Fgdt;n}\C3;\C3;20\C2;\H4.2;\SH7^ ;
  7
CONVERTER_11
 11
0.9999999999970621
 21
2.424068405545307E-6
 31
0.0
 73
     1
 44
0.60024009603842
  0
ENDBLK
  5
4B0
330
4A7
100
AcDbEntity
  8
0
100
AcDbBlockEnd
  0
BLOCK
  5
4BB
330
4B3
100
AcDbEntity
  8
0
100
AcDbBlockBegin
  2
*D20
 70
     1
 71
     0
 10
0.0
 20
0.0
 30
0.0
  3
*D20
  1

  0
LINE
  5
4B4
330
4B3
100
AcDbEntity
  8
1
  6
Continuous
 62
     2
100
AcDbLine
 10
51.2269274193539
 20
50.1927213373721
 30
0.0
 11
83.0317225506577
 21
50.1927213373721
 31
0.0
  0
LINE
  5
4B5
330
4B3
100
AcDbEntity
  8
1
  6
Continuous
 62
     2
100
AcDbLine
 10
31.2269274193539
 20
50.1927213373721
 30
0.0
 11
51.2269274193539
 21
50.1927213373721
 31
0.0
  0
LINE
  5
4B6
330
4B3
100
AcDbEntity
  8
1
  6
Continuous
 62
     2
100
AcDbLine
 10
31.2269274193539
 20
38.90314516129062
 30
0.0
 11
31.2269274193539
 21
52.1927213373721
 31
0.0
  0
LINE
  5
4B7
330
4B3
100
AcDbEntity
  8
1
  6
Continuous
 62
     2
100
AcDbLine
 10
51.2269274193539
 20
38.90314516129062
 30
0.0
 11
51.2269274193539
 21
52.1927213373721
 31
0.0
  0
SOLID
  5
4B8
330
4B3
100
AcDbEntity
  8
1
 62
     2
100
AcDbTrace
 10
38.2269274193539
 20
51.11428882048387
 30
0.0
 11
38.2269274193539
 21
49.27115385426033
 31
0.0
 12
31.2269274193539
 22
50.1927213373721
 32
0.0
 13
31.2269274193539
 23
50.1927213373721
 33
0.0
  0
SOLID
  5
4B9
330
4B3
100
AcDbEntity
  8
1
 62
     2
100
AcDbTrace
 10
44.2269274193539
 20
49.27115385426033
 30
0.0
 11
44.2269274193539
 21
51.11428882048387
 31
0.0
 12
51.2269274193539
 22
50.1927213373721
 32
0.0
 13
51.2269274193539
 23
50.1927213373721
 33
0.0
  0
MTEXT
  5
4BA
330
4B3
100
AcDbEntity
  8
1
 62
     3
100
AcDbMText
 10
54.27572255069144
 20
55.94269350906681
 30
0.0
 40
7.0
 41
0.0
 71
     7
 72
     1
  1
\C3;{\Fgdt;n}\C3;\C3;20\C2;\H4.2;\SH7^ ;
  7
CONVERTER_11
 11
0.9999999999970621
 21
2.424068405545307E-6
 31
0.0
 73
     1
 44
0.60024009603842
  0
ENDBLK
  5
4BC
330
4B3
100
AcDbEntity
  8
0
100
AcDbBlockEnd
  0
BLOCK
  5
4C6
330
4BF
100
AcDbEntity
  8
0
100
AcDbBlockBegin
  2
*D21
 70
     1
 71
     0
 10
0.0
 20
0.0
 30
0.0
  3
*D21
  1

  0
LINE
  5
4C0
330
4BF
100
AcDbEntity
  8
1
  6
Continuous
 62
     2
100
AcDbLine
 10
29.2269274193539
 20
68.2212755943664
 30
0.0
 11
53.2269274193539
 21
68.2212755943664
 31
0.0
  0
LINE
  5
4C1
330
4BF
100
AcDbEntity
  8
1
  6
Continuous
 62
     2
100
AcDbLine
 10
29.2269274193539
 20
36.90314516129062
 30
0.0
 11
29.2269274193539
 21
70.2212755943664
 31
0.0
  0
LINE
  5
4C2
330
4BF
100
AcDbEntity
  8
1
  6
Continuous
 62
     2
100
AcDbLine
 10
53.2269274193539
 20
36.90314516129062
 30
0.0
 11
53.2269274193539
 21
70.2212755943664
 31
0.0
  0
SOLID
  5
4C3
330
4BF
100
AcDbEntity
  8
1
 62
     2
100
AcDbTrace
 10
36.2269274193539
 20
69.14284307747818
 30
0.0
 11
36.2269274193539
 21
67.29970811125463
 31
0.0
 12
29.2269274193539
 22
68.2212755943664
 32
0.0
 13
29.2269274193539
 23
68.2212755943664
 33
0.0
  0
SOLID
  5
4C4
330
4BF
100
AcDbEntity
  8
1
 62
     2
100
AcDbTrace
 10
46.2269274193539
 20
67.29970811125463
 30
0.0
 11
46.2269274193539
 21
69.14284307747818
 31
0.0
 12
53.2269274193539
 22
68.2212755943664
 32
0.0
 13
53.2269274193539
 23
68.2212755943664
 33
0.0
  0
MTEXT
  5
4C5
330
4BF
100
AcDbEntity
  8
1
 62
     3
100
AcDbMText
 10
25.42269891242533
 20
73.97124776606111
 30
0.0
 40
7.0
 41
0.0
 71
     7
 72
     1
  1
\C3;{\Fgdt;n}\C3;\C3;24\C2;\H4.2;\S^ f7;
  7
CONVERTER_11
 11
0.9999999999970621
 21
2.424068405545307E-6
 31
0.0
 73
     1
 44
0.60024009603842
  0
ENDBLK
  5
4C7
330
4BF
100
AcDbEntity
  8
0
100
AcDbBlockEnd
  0
BLOCK
  5
4D3
330
4CA
100
AcDbEntity
  8
0
100
AcDbBlockBegin
  2
*D22
 70
     1
 71
     0
 10
0.0
 20
0.0
 30
0.0
  3
*D22
  1

  0
LINE
  5
4CB
330
4CA
100
AcDbEntity
  8
1
  6
Continuous
 62
     2
100
AcDbLine
 10
-234.0523310679
 20
-76.59685483870938
 30
0.0
 11
-234.0523310679
 21
-62.59685483870938
 31
0.0
  0
LINE
  5
4CC
330
4CA
100
AcDbEntity
  8
1
  6
Continuous
 62
     2
100
AcDbLine
 10
-234.0523310679
 20
-62.59685483870938
 30
0.0
 11
-234.0523310679
 21
-53.59685483870938
 31
0.0
  0
LINE
  5
4CD
330
4CA
100
AcDbEntity
  8
1
  6
Continuous
 62
     2
100
AcDbLine
 10
-234.0523310679
 20
-53.59685483870938
 30
0.0
 11
-234.0523310679
 21
-39.59685483870938
 31
0.0
  0
LINE
  5
4CE
330
4CA
100
AcDbEntity
  8
1
  6
Continuous
 62
     2
100
AcDbLine
 10
-220.7730725806461
 20
-53.59685483870938
 30
0.0
 11
-236.0523310679
 21
-53.59685483870938
 31
0.0
  0
LINE
  5
4CF
330
4CA
100
AcDbEntity
  8
1
  6
Continuous
 62
     2
100
AcDbLine
 10
-220.7730725806461
 20
-62.59685483870938
 30
0.0
 11
-236.0523310679
 21
-62.59685483870938
 31
0.0
  0
SOLID
  5
4D0
330
4CA
100
AcDbEntity
  8
1
 62
     2
100
AcDbTrace
 10
-233.1307635847882
 20
-69.59685483870938
 30
0.0
 11
-234.9738985510118
 21
-69.59685483870938
 31
0.0
 12
-234.0523310679
 22
-62.59685483870938
 32
0.0
 13
-234.0523310679
 23
-62.59685483870938
 33
0.0
  0
SOLID
  5
4D1
330
4CA
100
AcDbEntity
  8
1
 62
     2
100
AcDbTrace
 10
-234.9738985510118
 20
-46.59685483870938
 30
0.0
 11
-233.1307635847882
 21
-46.59685483870938
 31
0.0
 12
-234.0523310679
 22
-53.59685483870938
 32
0.0
 13
-234.0523310679
 23
-53.59685483870938
 33
0.0
  0
MTEXT
  5
4D2
330
4CA
100
AcDbEntity
  8
1
 62
     3
100
AcDbMText
 10
-238.0523310679
 20
-59.42628324174059
 30
0.0
 40
7.0
 41
0.0
 71
     7
 72
     1
  1
9
  7
CONVERTER_11
 11
0.0
 21
1.0
 31
0.0
 73
     1
 44
0.60024009603842
  0
ENDBLK
  5
4D4
330
4CA
100
AcDbEntity
  8
0
100
AcDbBlockEnd
  0
BLOCK
  5
4E0
330
4D7
100
AcDbEntity
  8
0
100
AcDbBlockBegin
  2
*D23
 70
     1
 71
     0
 10
0.0
 20
0.0
 30
0.0
  3
*D23
  1

  0
LINE
  5
4D8
330
4D7
100
AcDbEntity
  8
1
  6
Continuous
 62
     2
100
AcDbLine
 10
-284.956534526211
 20
-89.59685483870938
 30
0.0
 11
-284.956534526211
 21
-75.59685483870938
 31
0.0
  0
LINE
  5
4D9
330
4D7
100
AcDbEntity
  8
1
  6
Continuous
 62
     2
100
AcDbLine
 10
-284.956534526211
 20
-75.59685483870938
 30
0.0
 11
-284.956534526211
 21
-62.59685483870938
 31
0.0
  0
LINE
  5
4DA
330
4D7
100
AcDbEntity
  8
1
  6
Continuous
 62
     2
100
AcDbLine
 10
-284.956534526211
 20
-62.59685483870938
 30
0.0
 11
-284.956534526211
 21
-48.59685483870938
 31
0.0
  0
LINE
  5
4DB
330
4D7
100
AcDbEntity
  8
1
  6
Continuous
 62
     2
100
AcDbLine
 10
-220.7730725806461
 20
-62.59685483870938
 30
0.0
 11
-286.956534526211
 21
-62.59685483870938
 31
0.0
  0
LINE
  5
4DC
330
4D7
100
AcDbEntity
  8
1
  6
Continuous
 62
     2
100
AcDbLine
 10
-220.6230725806461
 20
-75.59685483870938
 30
0.0
 11
-286.956534526211
 21
-75.59685483870938
 31
0.0
  0
SOLID
  5
4DD
330
4D7
100
AcDbEntity
  8
1
 62
     2
100
AcDbTrace
 10
-284.0349670430992
 20
-82.59685483870938
 30
0.0
 11
-285.8781020093227
 21
-82.59685483870938
 31
0.0
 12
-284.956534526211
 22
-75.59685483870938
 32
0.0
 13
-284.956534526211
 23
-75.59685483870938
 33
0.0
  0
SOLID
  5
4DE
330
4D7
100
AcDbEntity
  8
1
 62
     2
100
AcDbTrace
 10
-285.8781020093227
 20
-55.59685483870938
 30
0.0
 11
-284.0349670430992
 21
-55.59685483870938
 31
0.0
 12
-284.956534526211
 22
-62.59685483870938
 32
0.0
 13
-284.956534526211
 23
-62.59685483870938
 33
0.0
  0
MTEXT
  5
4DF
330
4D7
100
AcDbEntity
  8
1
 62
     3
100
AcDbMText
 10
-288.956534526211
 20
-73.43933599440719
 30
0.0
 40
7.0
 41
0.0
 71
     7
 72
     1
  1
13
  7
CONVERTER_11
 11
0.0
 21
1.0
 31
0.0
 73
     1
 44
0.60024009603842
  0
ENDBLK
  5
4E1
330
4D7
100
AcDbEntity
  8
0
100
AcDbBlockEnd
  0
BLOCK
  5
4EB
330
4E4
100
AcDbEntity
  8
0
100
AcDbBlockBegin
  2
*D24
 70
     1
 71
     0
 10
0.0
 20
0.0
 30
0.0
  3
*D24
  1

  0
LINE
  5
4E5
330
4E4
100
AcDbEntity
  8
1
  6
Continuous
 62
     2
100
AcDbLine
 10
-285.085652803072
 20
-62.59685483870938
 30
0.0
 11
-285.085652803072
 21
10.40314516129062
 31
0.0
  0
LINE
  5
4E6
330
4E4
100
AcDbEntity
  8
1
  6
Continuous
 62
     2
100
AcDbLine
 10
-166.6730725806461
 20
10.40314516129062
 30
0.0
 11
-287.085652803072
 21
10.40314516129062
 31
0.0
  0
LINE
  5
4E7
330
4E4
100
AcDbEntity
  8
1
  6
Continuous
 62
     2
100
AcDbLine
 10
-220.7730725806461
 20
-62.59685483870938
 30
0.0
 11
-287.085652803072
 21
-62.59685483870938
 31
0.0
  0
SOLID
  5
4E8
330
4E4
100
AcDbEntity
  8
1
 62
     2
100
AcDbTrace
 10
-286.0072202861837
 20
-55.59685483870938
 30
0.0
 11
-284.1640853199602
 21
-55.59685483870938
 31
0.0
 12
-285.085652803072
 22
-62.59685483870938
 32
0.0
 13
-285.085652803072
 23
-62.59685483870938
 33
0.0
  0
SOLID
  5
4E9
330
4E4
100
AcDbEntity
  8
1
 62
     2
100
AcDbTrace
 10
-284.1640853199602
 20
3.40314516129062
 30
0.0
 11
-286.0072202861837
 21
3.40314516129062
 31
0.0
 12
-285.085652803072
 22
10.40314516129062
 32
0.0
 13
-285.085652803072
 23
10.40314516129062
 33
0.0
  0
MTEXT
  5
4EA
330
4E4
100
AcDbEntity
  8
1
 62
     3
100
AcDbMText
 10
-289.085652803072
 20
-30.47573483838459
 30
0.0
 40
7.0
 41
0.0
 71
     7
 72
     1
  1
73
  7
CONVERTER_11
 11
0.0
 21
1.0
 31
0.0
 73
     1
 44
0.60024009603842
  0
ENDBLK
  5
4EC
330
4E4
100
AcDbEntity
  8
0
100
AcDbBlockEnd
  0
ENDSEC
  0
SECTION
  2
ENTITIES
  0
INSERT
  5
35
330
1F
100
AcDbEntity
  8
0
100
AcDbBlockReference
  2
TOP
 10
-271.6530725806461
 20
-140.9664999999998
 30
0.0
  0
MTEXT
  5
3D9
330
1F
100
AcDbEntity
  8
1
 62
     3
100
AcDbMText
 10
110.957849702021
 20
-116.869251951609
 30
0.0
 40
7.0
 41
0.0
 71
     5
 72
     1
  1
K3015
  7
CONVERTER_11
 73
     1
 44
1.32052821128451
  0
DIMENSION
  5
3E6
330
1F
100
AcDbEntity
  8
1
100
AcDbDimension
  2
*D2
 10
-143.263638010908
 20
45.90314516129062
 30
0.0
 11
-150.763638010908
 21
60.6687495248938
 31
0.0
 70
    32
  1
<>
 71
     5
 42
-1.0
 53
90.0
  3
ME10_DIM_10
100
AcDbAlignedDimension
 13
-187.7730725806461
 23
47.40314516129063
 33
0.0
 14
-177.7730725806461
 24
45.90314516129063
 34
0.0
 50
90.0
100
AcDbRotatedDimension
  0
DIMENSION
  5
3F1
330
1F
100
AcDbEntity
  8
1
100
AcDbDimension
  2
*D3
 10
-143.263638010908
 20
13.90314516129063
 30
0.0
 11
-150.763638010908
 21
30.2617436117482
 31
0.0
 70
    32
  1
<>
 71
     5
 42
-1.0
 53
90.0
  3
ME10_DIM_11
100
AcDbAlignedDimension
 13
-177.7730725806461
 23
45.90314516129063
 33
0.0
 14
-177.7730725806461
 24
13.90314516129063
 34
0.0
 50
90.0
100
AcDbRotatedDimension
  0
DIMENSION
  5
3FC
330
1F
100
AcDbEntity
  8
1
100
AcDbDimension
  2
*D4
 10
-99.674165530825
 20
12.40314516129062
 30
0.0
 11
-107.174165530825
 21
28.8914934864434
 31
0.0
 70
    32
  1
<>
 71
     5
 42
-1.0
 53
90.0
  3
ME10_DIM_12
100
AcDbAlignedDimension
 13
-167.7730725806461
 23
47.40314516129063
 33
0.0
 14
-167.7730725806461
 24
12.40314516129062
 34
0.0
 50
90.0
100
AcDbRotatedDimension
  0
DIMENSION
  5
409
330
1F
100
AcDbEntity
  8
1
100
AcDbDimension
  2
*D5
 10
-119.981602568593
 20
10.40314516129062
 30
0.0
 11
-127.481602568593
 21
10.5492922910402
 31
0.0
 70
    32
  1
<>
 71
     5
 42
-1.0
 53
90.0
  3
ME10_DIM_13
100
AcDbAlignedDimension
 13
-162.7730725806461
 23
12.40314516129063
 33
0.0
 14
-162.7730725806461
 24
10.40314516129062
 34
0.0
 50
90.0
100
AcDbRotatedDimension
  0
DIMENSION
  5
416
330
1F
100
AcDbEntity
  8
1
100
AcDbDimension
  2
*D6
 10
-180.7730725806461
 20
29.252436855902
 30
0.0
 11
-201.177946657267
 21
36.752436855902
 31
0.0
 70
    32
  1
<>
 71
     5
 42
-1.0
 53
0.00013888888889
  3
ME10_DIM_14
100
AcDbAlignedDimension
 13
-174.7730725806461
 23
42.90314516129063
 33
0.0
 14
-180.7730725806461
 24
42.90314516129063
 34
0.0
100
AcDbRotatedDimension
  0
DIMENSION
  5
423
330
1F
100
AcDbEntity
  8
1
100
AcDbDimension
  2
*D7
 10
-180.7730725806461
 20
-96.762368282175
 30
0.0
 11
-196.30712018775
 21
-89.262368282175
 31
0.0
 70
    32
  1
<>
 71
     5
 42
-1.0
 53
0.00013888888889
  3
ME10_DIM_15
100
AcDbAlignedDimension
 13
-174.7730725806461
 23
-108.0968548387094
 33
0.0
 14
-180.7730725806461
 24
-108.0968548387094
 34
0.0
100
AcDbRotatedDimension
  0
DIMENSION
  5
42E
330
1F
100
AcDbEntity
  8
1
100
AcDbDimension
  2
*D8
 10
-143.738768114598
 20
-111.0968548387094
 30
0.0
 11
-151.238768114598
 21
-95.7854192401312
 31
0.0
 70
    32
  1
<>
 71
     5
 42
-1.0
 53
90.0
  3
ME10_DIM_16
100
AcDbAlignedDimension
 13
-177.7730725806461
 23
-79.0968548387094
 33
0.0
 14
-177.7730725806461
 24
-111.0968548387094
 34
0.0
 50
90.0
100
AcDbRotatedDimension
  0
DIMENSION
  5
43B
330
1F
100
AcDbEntity
  8
1
100
AcDbDimension
  2
*D9
 10
-143.738768114598
 20
-112.5968548387094
 30
0.0
 11
-151.238768114598
 21
-127.21466476483
 31
0.0
 70
    32
  1
<>
 71
     5
 42
-1.0
 53
90.0
  3
ME10_DIM_17
100
AcDbAlignedDimension
 13
-177.7730725806461
 23
-111.0968548387094
 33
0.0
 14
-177.7730725806461
 24
-112.5968548387094
 34
0.0
 50
90.0
100
AcDbRotatedDimension
  0
DIMENSION
  5
448
330
1F
100
AcDbEntity
  8
1
100
AcDbDimension
  2
*D10
 10
-116.706209497986
 20
-77.59685483870938
 30
0.0
 11
-124.206209497986
 21
-70.6804558600315
 31
0.0
 70
    32
  1
<>
 71
     5
 42
-1.0
 53
90.0
  3
ME10_DIM_18
100
AcDbAlignedDimension
 13
-162.8730725806461
 23
-75.59685483870938
 33
0.0
 14
-172.4530725806461
 24
-77.59685483870938
 34
0.0
 50
90.0
100
AcDbRotatedDimension
  0
DIMENSION
  5
453
330
1F
100
AcDbEntity
  8
1
100
AcDbDimension
  2
*D11
 10
-98.364008302582
 20
-112.5968548387094
 30
0.0
 11
-105.864008302582
 21
-94.5908252754679
 31
0.0
 70
    32
  1
<>
 71
     5
 42
-1.0
 53
90.0
  3
ME10_DIM_19
100
AcDbAlignedDimension
 13
-170.8030725806461
 23
-77.59685483870938
 33
0.0
 14
-172.3730725806461
 24
-112.5968548387094
 34
0.0
 50
90.0
100
AcDbRotatedDimension
  0
DIMENSION
  5
45F
330
1F
100
AcDbEntity
  8
1
100
AcDbDimension
  2
*D12
 10
-187.7730725806461
 20
59.27374964079701
 30
0.0
 11
-208.711350719665
 21
68.523749640797
 31
0.0
 70
    32
  1
<>
 71
     5
 42
-1.0
 53
0.00013888888889
  3
ME10_DIM_20
100
AcDbAlignedDimension
 13
-167.7730725806461
 23
47.40314516129063
 33
0.0
 14
-187.7730725806461
 24
47.40314516129063
 34
0.0
100
AcDbRotatedDimension
  0
DIMENSION
  5
46B
330
1F
100
AcDbEntity
  8
1
100
AcDbDimension
  2
*D13
 10
-187.7730725806461
 20
-130.04396984033
 30
0.0
 11
-206.7461148773
 21
-120.79396984033
 31
0.0
 70
    32
  1
<>
 71
     5
 42
-1.0
 53
0.00013888888889
  3
ME10_DIM_21
100
AcDbAlignedDimension
 13
-167.7730725806461
 23
-112.5968548387094
 33
0.0
 14
-187.7730725806461
 24
-112.5968548387094
 34
0.0
100
AcDbRotatedDimension
  0
DIMENSION
  5
476
330
1F
100
AcDbEntity
  8
1
100
AcDbDimension
  2
*D14
 10
11.9486188779975
 20
18.90314516129062
 30
0.0
 11
4.4486188779975
 21
28.7821772911877
 31
0.0
 70
    32
  1
<>
 71
     5
 42
-1.0
 53
90.0
  3
ME10_DIM_22
100
AcDbAlignedDimension
 13
31.2269274193539
 23
38.90314516129062
 33
0.0
 14
29.2269274193539
 24
18.90314516129062
 34
0.0
 50
90.0
100
AcDbRotatedDimension
  0
DIMENSION
  5
481
330
1F
100
AcDbEntity
  8
1
100
AcDbDimension
  2
*D15
 10
-13.4252581427235
 20
-25.59685483870937
 30
0.0
 11
-20.9252581427235
 21
22.6652605094067
 31
0.0
 70
    32
  1
<>
 71
     5
 42
-1.0
 53
90.0
  3
ME10_DIM_23
100
AcDbAlignedDimension
 13
31.2269274193539
 23
38.90314516129062
 33
0.0
 14
-6.25501519405401
 24
-25.59685483870937
 34
0.0
 50
90.0
100
AcDbRotatedDimension
  0
DIMENSION
  5
48E
330
1F
100
AcDbEntity
  8
1
100
AcDbDimension
  2
*D16
 10
-14.1049155629214
 20
-62.59685483870938
 30
0.0
 11
-21.6049155629214
 21
-45.3004815103818
 31
0.0
 70
    32
  1
<>
 71
     5
 42
-1.0
 53
90.0
  3
ME10_DIM_24
100
AcDbAlignedDimension
 13
-1.7730725806461
 23
-53.59685483870938
 33
0.0
 14
-1.7730725806461
 24
-62.59685483870938
 34
0.0
 50
90.0
100
AcDbRotatedDimension
  0
DIMENSION
  5
499
330
1F
100
AcDbEntity
  8
1
100
AcDbDimension
  2
*D17
 10
-36.080505482653
 20
-62.59685483870938
 30
0.0
 11
-43.580505482653
 21
-22.1921292236537
 31
0.0
 70
    32
  1
<>
 71
     5
 42
-1.0
 53
90.0
  3
ME10_DIM_25
100
AcDbAlignedDimension
 13
17.67692741935389
 23
10.40314516129063
 33
0.0
 14
-1.7730725806461
 24
-62.59685483870938
 34
0.0
 50
90.0
100
AcDbRotatedDimension
  0
DIMENSION
  5
4A6
330
1F
100
AcDbEntity
  8
1
100
AcDbDimension
  2
*D18
 10
-36.080505482653
 20
-75.59685483870938
 30
0.0
 11
-43.580505482653
 21
-69.5415961641064
 31
0.0
 70
    32
  1
<>
 71
     5
 42
-1.0
 53
90.0
  3
ME10_DIM_26
100
AcDbAlignedDimension
 13
-1.7730725806461
 23
-62.59685483870938
 33
0.0
 14
-0.70307258064611
 24
-75.59685483870938
 34
0.0
 50
90.0
100
AcDbRotatedDimension
  0
DIMENSION
  5
4B2
330
1F
100
AcDbEntity
  8
1
100
AcDbDimension
  2
*D19
 10
31.2269274193539
 20
-101.0903643843628
 30
0.0
 11
68.3321719953975
 21
-91.8403643843628
 31
0.0
 70
    32
  1
<>
 71
     5
 42
-1.0
 53
0.00013888888889
  3
ME10_DIM_27
100
AcDbAlignedDimension
 13
51.2269274193539
 23
-75.59685483870938
 33
0.0
 14
31.2269274193539
 24
-75.59685483870938
 34
0.0
100
AcDbRotatedDimension
  0
DIMENSION
  5
4BE
330
1F
100
AcDbEntity
  8
1
100
AcDbDimension
  2
*D20
 10
31.2269274193539
 20
50.1927213373721
 30
0.0
 11
70.6837225506577
 21
59.4427213373721
 31
0.0
 70
    32
  1
<>
 71
     5
 42
-1.0
 53
0.00013888888889
  3
ME10_DIM_28
100
AcDbAlignedDimension
 13
51.2269274193539
 23
38.90314516129062
 33
0.0
 14
31.2269274193539
 24
38.90314516129062
 34
0.0
100
AcDbRotatedDimension
  0
DIMENSION
  5
4C9
330
1F
100
AcDbEntity
  8
1
100
AcDbDimension
  2
*D21
 10
29.2269274193539
 20
68.2212755943664
 30
0.0
 11
41.1586989123916
 21
77.4712755943664
 31
0.0
 70
    32
  1
<>
 71
     5
 42
-1.0
 53
0.00013888888889
  3
ME10_DIM_29
100
AcDbAlignedDimension
 13
53.2269274193539
 23
36.90314516129062
 33
0.0
 14
29.2269274193539
 24
36.90314516129062
 34
0.0
100
AcDbRotatedDimension
  0
DIMENSION
  5
4D6
330
1F
100
AcDbEntity
  8
1
100
AcDbDimension
  2
*D22
 10
-234.0523310679
 20
-62.59685483870938
 30
0.0
 11
-241.5523310679
 21
-57.74628324174059
 31
0.0
 70
    32
  1
<>
 71
     5
 42
-1.0
 53
90.0
  3
ME10_DIM_30
100
AcDbAlignedDimension
 13
-220.7730725806461
 23
-53.59685483870938
 33
0.0
 14
-220.7730725806461
 24
-62.59685483870938
 34
0.0
 50
90.0
100
AcDbRotatedDimension
  0
DIMENSION
  5
4E3
330
1F
100
AcDbEntity
  8
1
100
AcDbDimension
  2
*D23
 10
-284.956534526211
 20
-75.59685483870938
 30
0.0
 11
-292.456534526211
 21
-70.07933599440719
 31
0.0
 70
    32
  1
<>
 71
     5
 42
-1.0
 53
90.0
  3
ME10_DIM_31
100
AcDbAlignedDimension
 13
-220.7730725806461
 23
-62.59685483870938
 33
0.0
 14
-220.6230725806461
 24
-75.59685483870938
 34
0.0
 50
90.0
100
AcDbRotatedDimension
  0
DIMENSION
  5
4EE
330
1F
100
AcDbEntity
  8
1
100
AcDbDimension
  2
*D24
 10
-285.085652803072
 20
-62.59685483870938
 30
0.0
 11
-292.585652803072
 21
-26.27573483838459
 31
0.0
 70
    32
  1
<>
 71
     5
 42
-1.0
 53
90.0
  3
ME10_DIM_32
100
AcDbAlignedDimension
 13
-166.6730725806461
 23
10.40314516129063
 33
0.0
 14
-220.7730725806461
 24
-62.59685483870938
 34
0.0
 50
90.0
100
AcDbRotatedDimension
  0
ENDSEC
  0
SECTION
  2
OBJECTS
  0
DICTIONARY
  5
C
330
0
100
AcDbDictionary
281
     1
  3
ACAD_GROUP
350
D
  3
ACAD_LAYOUT
350
1A
  3
ACAD_MLINESTYLE
350
17
  3
ACAD_PLOTSETTINGS
350
19
  3
ACAD_PLOTSTYLENAME
350
E
  0
DICTIONARY
  5
D
102
{ACAD_REACTORS
330
C
102
}
330
C
100
AcDbDictionary
281
     1
  0
DICTIONARY
  5
1A
102
{ACAD_REACTORS
330
C
102
}
330
C
100
AcDbDictionary
281
     1
  3
Layout1
350
1E
  3
Layout2
350
26
  3
Model
350
22
  0
DICTIONARY
  5
17
102
{ACAD_REACTORS
330
C
102
}
330
C
100
AcDbDictionary
281
     1
  3
Standard
350
18
  0
DICTIONARY
  5
19
102
{ACAD_REACTORS
330
C
102
}
330
C
100
AcDbDictionary
281
     1
  0
ACDBDICTIONARYWDFLT
  5
E
102
{ACAD_REACTORS
330
C
102
}
330
C
100
AcDbDictionary
281
     1
  3
Normal
350
F
100
AcDbDictionaryWithDefault
340
F
  0
LAYOUT
  5
1E
102
{ACAD_REACTORS
330
1A
102
}
330
1A
100
AcDbPlotSettings
  1

  2

  4

  6

 40
0.0
 41
0.0
 42
0.0
 43
0.0
 44
0.0
 45
0.0
 46
0.0
 47
0.0
 48
0.0
 49
0.0
140
0.0
141
0.0
142
1.0
143
1.0
 70
   688
 72
     0
 73
     0
 74
     5
  7

 75
    16
 76
     0
 77
     2
 78
   300
147
1.0
148
0.0
149
0.0
100
AcDbLayout
  1
Layout1
 70
     1
 71
     1
 10
0.0
 20
0.0
 11
0.0
 21
0.0
 12
0.0
 22
0.0
 32
0.0
 14
0.0
 24
0.0
 34
0.0
 15
0.0
 25
0.0
 35
0.0
146
0.0
 13
0.0
 23
0.0
 33
0.0
 16
1.0
 26
0.0
 36
0.0
 17
0.0
 27
1.0
 37
0.0
 76
     0
330
1B
  0
LAYOUT
  5
26
102
{ACAD_REACTORS
330
1A
102
}
330
1A
100
AcDbPlotSettings
  1

  2

  4

  6

 40
0.0
 41
0.0
 42
0.0
 43
0.0
 44
0.0
 45
0.0
 46
0.0
 47
0.0
 48
0.0
 49
0.0
140
0.0
141
0.0
142
1.0
143
1.0
 70
   688
 72
     0
 73
     0
 74
     5
  7

 75
    16
 76
     0
 77
     2
 78
   300
147
1.0
148
0.0
149
0.0
100
AcDbLayout
  1
Layout2
 70
     1
 71
     2
 10
0.0
 20
0.0
 11
0.0
 21
0.0
 12
0.0
 22
0.0
 32
0.0
 14
0.0
 24
0.0
 34
0.0
 15
0.0
 25
0.0
 35
0.0
146
0.0
 13
0.0
 23
0.0
 33
0.0
 16
1.0
 26
0.0
 36
0.0
 17
0.0
 27
1.0
 37
0.0
 76
     0
330
23
  0
LAYOUT
  5
22
102
{ACAD_REACTORS
330
1A
102
}
330
1A
100
AcDbPlotSettings
  1

  2

  4

  6

 40
0.0
 41
0.0
 42
0.0
 43
0.0
 44
0.0
 45
0.0
 46
0.0
 47
0.0
 48
0.0
 49
0.0
140
0.0
141
0.0
142
1.0
143
1.0
 70
  1712
 72
     0
 73
     0
 74
     0
  7

 75
     0
 76
     0
 77
     2
 78
   300
147
1.0
148
0.0
149
0.0
100
AcDbLayout
  1
Model
 70
     1
 71
     0
 10
0.0
 20
0.0
 11
0.0
 21
0.0
 12
0.0
 22
0.0
 32
0.0
 14
-296.085652803072
 24
-132.04396984033
 34
0.0
 15
146.2269274193539
 25
82.7212755943664
 35
0.0
146
0.0
 13
0.0
 23
0.0
 33
0.0
 16
1.0
 26
0.0
 36
0.0
 17
0.0
 27
1.0
 37
0.0
 76
     0
330
1F
  0
MLINESTYLE
  5
18
102
{ACAD_REACTORS
330
17
102
}
330
17
100
AcDbMlineStyle
  2
Standard
 70
     0
  3

 62
   256
 51
90.0
 52
90.0
 71
     2
 49
0.5
 62
   256
  6
BYLAYER
 49
-0.5
 62
   256
  6
BYLAYER
  0
ACDBPLACEHOLDER
  5
F
102
{ACAD_REACTORS
330
E
102
}
330
E
  0
ENDSEC
  0
EOF
