  0
SECTION
  2
HEADER
  9
$ACADVER
  1
AC1018
  9
$ACADMAINTVER
 70
     0
  9
$DWGCODEPAGE
  3
ANSI_1252
  9
$INSBASE
 10
0.0
 20
0.0
 30
0.0
  9
$EXTMIN
 10
-397.760000000002
 20
-334.357404409496
 30
0.0
  9
$EXTMAX
 10
410.0
 20
234.642595590504
 30
0.0
  9
$LIMMIN
 10
0.0
 20
0.0
  9
$LIMMAX
 10
12.0
 20
9.0
  9
$ORTHOMODE
 70
     0
  9
$REGENMODE
 70
     1
  9
$FILLMODE
 70
     1
  9
$QTEXTMODE
 70
     0
  9
$MIRRTEXT
 70
     1
  9
$LTSCALE
 40
1.0
  9
$ATTMODE
 70
     1
  9
$TEXTSIZE
 40
0.2
  9
$TRACEWID
 40
0.05
  9
$TEXTSTYLE
  7
Standard
  9
$CLAYER
  8
0
  9
$CELTYPE
  6
ByLayer
  9
$CECOLOR
 62
   256
  9
$CELTSCALE
 40
1.0
  9
$DISPSILH
 70
     0
  9
$DIMSCALE
 40
1.0
  9
$DIMASZ
 40
0.18
  9
$DIMEXO
 40
0.0625
  9
$DIMDLI
 40
0.38
  9
$DIMRND
 40
0.0
  9
$DIMDLE
 40
0.0
  9
$DIMEXE
 40
0.18
  9
$DIMTP
 40
0.0
  9
$DIMTM
 40
0.0
  9
$DIMTXT
 40
0.18
  9
$DIMCEN
 40
0.09
  9
$DIMTSZ
 40
0.0
  9
$DIMTOL
 70
     0
  9
$DIMLIM
 70
     0
  9
$DIMTIH
 70
     1
  9
$DIMTOH
 70
     1
  9
$DIMSE1
 70
     0
  9
$DIMSE2
 70
     0
  9
$DIMTAD
 70
     0
  9
$DIMZIN
 70
     0
  9
$DIMBLK
  1

  9
$DIMASO
 70
     1
  9
$DIMSHO
 70
     1
  9
$DIMPOST
  1

  9
$DIMAPOST
  1

  9
$DIMALT
 70
     0
  9
$DIMALTD
 70
     2
  9
$DIMALTF
 40
25.4
  9
$DIMLFAC
 40
1.0
  9
$DIMTOFL
 70
     0
  9
$DIMTVP
 40
0.0
  9
$DIMTIX
 70
     0
  9
$DIMSOXD
 70
     0
  9
$DIMSAH
 70
     0
  9
$DIMBLK1
  1

  9
$DIMBLK2
  1

  9
$DIMSTYLE
  2
Standard
  9
$DIMCLRD
 70
     0
  9
$DIMCLRE
 70
     0
  9
$DIMCLRT
 70
     0
  9
$DIMTFAC
 40
1.0
  9
$DIMGAP
 40
0.09
  9
$DIMJUST
 70
     0
  9
$DIMSD1
 70
     0
  9
$DIMSD2
 70
     0
  9
$DIMTOLJ
 70
     1
  9
$DIMTZIN
 70
     0
  9
$DIMALTZ
 70
     0
  9
$DIMALTTZ
 70
     0
  9
$DIMUPT
 70
     0
  9
$DIMDEC
 70
     4
  9
$DIMTDEC
 70
     4
  9
$DIMALTU
 70
     2
  9
$DIMALTTD
 70
     2
  9
$DIMTXSTY
  7
Standard
  9
$DIMAUNIT
 70
     0
  9
$DIMADEC
 70
     0
  9
$DIMALTRND
 40
0.0
  9
$DIMAZIN
 70
     0
  9
$DIMDSEP
 70
    46
  9
$DIMATFIT
 70
     3
  9
$DIMFRAC
 70
     0
  9
$DIMLDRBLK
  1

  9
$DIMLUNIT
 70
     2
  9
$DIMLWD
 70
    -2
  9
$DIMLWE
 70
    -2
  9
$DIMTMOVE
 70
     0
  9
$LUNITS
 70
     2
  9
$LUPREC
 70
     4
  9
$SKETCHINC
 40
0.1
  9
$FILLETRAD
 40
0.5
  9
$AUNITS
 70
     0
  9
$AUPREC
 70
     0
  9
$MENU
  1
.
  9
$ELEVATION
 40
0.0
  9
$PELEVATION
 40
0.0
  9
$THICKNESS
 40
0.0
  9
$LIMCHECK
 70
     0
  9
$CHAMFERA
 40
0.5
  9
$CHAMFERB
 40
0.5
  9
$CHAMFERC
 40
1.0
  9
$CHAMFERD
 40
0.0
  9
$SKPOLY
 70
     0
  9
$TDCREATE
 40
2454966.46206603
  9
$TDUCREATE
 40
2454966.378732697
  9
$TDUPDATE
 40
2454966.462066042
  9
$TDUUPDATE
 40
2454966.378732708
  9
$TDINDWG
 40
0.0000000116
  9
$TDUSRTIMER
 40
0.0000000116
  9
$USRTIMER
 70
     1
  9
$ANGBASE
 50
0.0
  9
$ANGDIR
 70
     0
  9
$PDMODE
 70
     0
  9
$PDSIZE
 40
0.0
  9
$PLINEWID
 40
0.0
  9
$SPLFRAME
 70
     0
  9
$SPLINETYPE
 70
     6
  9
$SPLINESEGS
 70
     8
  9
$HANDSEED
  5
660
  9
$SURFTAB1
 70
     6
  9
$SURFTAB2
 70
     6
  9
$SURFTYPE
 70
     6
  9
$SURFU
 70
     6
  9
$SURFV
 70
     6
  9
$UCSBASE
  2

  9
$UCSNAME
  2

  9
$UCSORG
 10
0.0
 20
0.0
 30
0.0
  9
$UCSXDIR
 10
1.0
 20
0.0
 30
0.0
  9
$UCSYDIR
 10
0.0
 20
1.0
 30
0.0
  9
$UCSORTHOREF
  2

  9
$UCSORTHOVIEW
 70
     0
  9
$UCSORGTOP
 10
0.0
 20
0.0
 30
0.0
  9
$UCSORGBOTTOM
 10
0.0
 20
0.0
 30
0.0
  9
$UCSORGLEFT
 10
0.0
 20
0.0
 30
0.0
  9
$UCSORGRIGHT
 10
0.0
 20
0.0
 30
0.0
  9
$UCSORGFRONT
 10
0.0
 20
0.0
 30
0.0
  9
$UCSORGBACK
 10
0.0
 20
0.0
 30
0.0
  9
$PUCSBASE
  2

  9
$PUCSNAME
  2

  9
$PUCSORG
 10
0.0
 20
0.0
 30
0.0
  9
$PUCSXDIR
 10
1.0
 20
0.0
 30
0.0
  9
$PUCSYDIR
 10
0.0
 20
1.0
 30
0.0
  9
$PUCSORTHOREF
  2

  9
$PUCSORTHOVIEW
 70
     0
  9
$PUCSORGTOP
 10
0.0
 20
0.0
 30
0.0
  9
$PUCSORGBOTTOM
 10
0.0
 20
0.0
 30
0.0
  9
$PUCSORGLEFT
 10
0.0
 20
0.0
 30
0.0
  9
$PUCSORGRIGHT
 10
0.0
 20
0.0
 30
0.0
  9
$PUCSORGFRONT
 10
0.0
 20
0.0
 30
0.0
  9
$PUCSORGBACK
 10
0.0
 20
0.0
 30
0.0
  9
$USERI1
 70
     0
  9
$USERI2
 70
     0
  9
$USERI3
 70
     0
  9
$USERI4
 70
     0
  9
$USERI5
 70
     0
  9
$USERR1
 40
14.5
  9
$USERR2
 40
0.0
  9
$USERR3
 40
0.0
  9
$USERR4
 40
0.0
  9
$USERR5
 40
0.0
  9
$WORLDVIEW
 70
     1
  9
$SHADEDGE
 70
     3
  9
$SHADEDIF
 70
    70
  9
$TILEMODE
 70
     1
  9
$MAXACTVP
 70
    64
  9
$PINSBASE
 10
0.0
 20
0.0
 30
0.0
  9
$PLIMCHECK
 70
     0
  9
$PEXTMIN
 10
1.00000000000000E+20
 20
1.00000000000000E+20
 30
1.00000000000000E+20
  9
$PEXTMAX
 10
-1.00000000000000E+20
 20
-1.00000000000000E+20
 30
-1.00000000000000E+20
  9
$PLIMMIN
 10
0.0
 20
0.0
  9
$PLIMMAX
 10
12.0
 20
9.0
  9
$UNITMODE
 70
     0
  9
$VISRETAIN
 70
     1
  9
$PLINEGEN
 70
     0
  9
$PSLTSCALE
 70
     1
  9
$TREEDEPTH
 70
  3020
  9
$CMLSTYLE
  2
Standard
  9
$CMLJUST
 70
     0
  9
$CMLSCALE
 40
1.0
  9
$PROXYGRAPHICS
 70
     1
  9
$MEASUREMENT
 70
     1
  9
$CELWEIGHT
370
    -1
  9
$ENDCAPS
280
     0
  9
$JOINSTYLE
280
     0
  9
$LWDISPLAY
290
     0
  9
$INSUNITS
 70
     1
  9
$HYPERLINKBASE
  1

  9
$STYLESHEET
  1

  9
$XEDIT
290
     1
  9
$CEPSNTYPE
380
     0
  9
$PSTYLEMODE
290
     1
  9
$FINGERPRINTGUID
  2
{AC77E4F0-BF78-445E-B998-A304463A4336}
  9
$VERSIONGUID
  2
{FAEB1C32-E019-11D5-929B-00C0DF256EC4}
  9
$EXTNAMES
290
     1
  9
$PSVPSCALE
 40
0.0
  9
$OLESTARTUP
290
     0
  9
$SORTENTS
280
   127
  9
$INDEXCTL
280
     0
  9
$HIDETEXT
280
     1
  9
$XCLIPFRAME
290
     0
  9
$HALOGAP
280
     0
  9
$OBSCOLOR
 70
   257
  9
$OBSLTYPE
280
     0
  9
$INTERSECTIONDISPLAY
280
     0
  9
$INTERSECTIONCOLOR
 70
   257
  9
$DIMASSOC
280
     2
  9
$PROJECTNAME
  1

  0
ENDSEC
  0
SECTION
  2
CLASSES
  0
CLASS
  1
ACDBDICTIONARYWDFLT
  2
AcDbDictionaryWithDefault
  3
ObjectDBX Classes
 90
        0
 91
        3
280
     0
281
     0
  0
CLASS
  1

  2
exOdDbCircle
  3

 90
        0
 91
        3
280
     0
281
     1
  0
ENDSEC
  0
SECTION
  2
TABLES
  0
TABLE
  2
VPORT
  5
8
330
0
100
AcDbSymbolTable
 70
     1
  0
VPORT
  5
29
330
8
100
AcDbSymbolTableRecord
100
AcDbViewportTableRecord
  2
*Active
 70
     0
 10
0.0
 20
0.0
 11
1.0
 21
1.0
 12
6.11999999999901
 22
-49.857404409496
 13
0.0
 23
0.0
 14
0.5
 24
0.5
 15
0.5
 25
0.5
 16
0.0
 26
0.0
 36
1.0
 17
0.0
 27
0.0
 37
0.0
 40
625.9000000000001
 41
1.60267857142857
 42
50.0
 43
0.0
 44
0.0
 50
0.0
 51
0.0
 71
     0
 72
   100
 73
     1
 74
     3
 75
     0
 76
     0
 77
     0
 78
     0
281
     0
 65
     1
110
0.0
120
0.0
130
0.0
111
1.0
121
0.0
131
0.0
112
0.0
122
1.0
132
0.0
 79
     0
146
0.0
  0
ENDTAB
  0
TABLE
  2
LTYPE
  5
5
330
0
100
AcDbSymbolTable
 70
     8
  0
LTYPE
  5
14
330
5
100
AcDbSymbolTableRecord
100
AcDbLinetypeTableRecord
  2
ByBlock
 70
     0
  3

 72
    65
 73
     0
 40
0.0
  0
LTYPE
  5
15
330
5
100
AcDbSymbolTableRecord
100
AcDbLinetypeTableRecord
  2
ByLayer
 70
     0
  3

 72
    65
 73
     0
 40
0.0
  0
LTYPE
  5
16
330
5
100
AcDbSymbolTableRecord
100
AcDbLinetypeTableRecord
  2
Continuous
 70
     0
  3
Solid line
 72
    65
 73
     0
 40
0.0
  0
LTYPE
  5
2A
330
5
100
AcDbSymbolTableRecord
100
AcDbLinetypeTableRecord
  2
DASHED
 70
     0
  3
Dashed
 72
    65
 73
     2
 40
15.0
 49
7.0
 74
     0
 49
-8.0
 74
     0
  0
LTYPE
  5
2B
330
5
100
AcDbSymbolTableRecord
100
AcDbLinetypeTableRecord
  2
DOTTED
 70
     0
  3
Dotted
 72
    65
 73
     2
 40
1.0
 49
0.0
 74
     0
 49
-1.0
 74
     0
  0
LTYPE
  5
2C
330
5
100
AcDbSymbolTableRecord
100
AcDbLinetypeTableRecord
  2
DOT_CENTER
 70
     0
  3
Dot_Center
 72
    65
 73
     4
 40
14.0
 49
12.0
 74
     0
 49
-1.0
 74
     0
 49
0.0
 74
     0
 49
-1.0
 74
     0
  0
LTYPE
  5
2D
330
5
100
AcDbSymbolTableRecord
100
AcDbLinetypeTableRecord
  2
LONG_DASHED
 70
     0
  3
Long_Dashed
 72
    65
 73
     2
 40
15.0
 49
10.0
 74
     0
 49
-5.0
 74
     0
  0
LTYPE
  5
2E
330
5
100
AcDbSymbolTableRecord
100
AcDbLinetypeTableRecord
  2
DASH_CENTER
 70
     0
  3
Dash_Center
 72
    65
 73
     4
 40
14.0
 49
11.0
 74
     0
 49
-1.0
 74
     0
 49
1.0
 74
     0
 49
-1.0
 74
     0
  0
LTYPE
  5
2F
330
5
100
AcDbSymbolTableRecord
100
AcDbLinetypeTableRecord
  2
PHANTOM
 70
     0
  3
Phantom
 72
    65
 73
     6
 40
13.0
 49
10.0
 74
     0
 49
-1.0
 74
     0
 49
0.0
 74
     0
 49
-1.0
 74
     0
 49
0.0
 74
     0
 49
-1.0
 74
     0
  0
LTYPE
  5
30
330
5
100
AcDbSymbolTableRecord
100
AcDbLinetypeTableRecord
  2
CENTER_DASH_DASH
 70
     0
  3
Center_Dash_Dash
 72
    65
 73
     6
 40
14.0
 49
9.0
 74
     0
 49
-1.0
 74
     0
 49
1.0
 74
     0
 49
-1.0
 74
     0
 49
1.0
 74
     0
 49
-1.0
 74
     0
  0
ENDTAB
  0
TABLE
  2
LAYER
  5
2
330
0
100
AcDbSymbolTable
 70
     3
  0
LAYER
  5
10
330
2
100
AcDbSymbolTableRecord
100
AcDbLayerTableRecord
  2
0
 70
     0
 62
     7
  6
Continuous
370
    -3
390
F
  0
LAYER
  5
31
330
2
100
AcDbSymbolTableRecord
100
AcDbLayerTableRecord
  2
1
 70
     0
 62
     7
  6
Continuous
370
    -3
390
F
  0
LAYER
  5
32
330
2
100
AcDbSymbolTableRecord
100
AcDbLayerTableRecord
  2
AM_VIS
 70
     0
 62
     7
  6
Continuous
370
    -3
390
F
  0
ENDTAB
  0
TABLE
  2
STYLE
  5
3
330
0
100
AcDbSymbolTable
 70
     6
  0
STYLE
  5
11
330
3
100
AcDbSymbolTableRecord
100
AcDbTextStyleTableRecord
  2
Standard
 70
     0
 40
0.0
 41
1.0
 50
0.0
 71
     0
 42
0.2
  3
txt
  4

  0
STYLE
  5
359
330
3
100
AcDbSymbolTableRecord
100
AcDbTextStyleTableRecord
  2
CONVERTER_11
 70
     0
 40
0.0
 41
0.855
 50
0.0
 71
     0
 42
0.2
  3
complex.shx
  4

  0
STYLE
  5
35B
330
3
100
AcDbSymbolTableRecord
100
AcDbTextStyleTableRecord
  2
CONVERTER_12
 70
     0
 40
0.0
 41
0.9
 50
0.0
 71
     0
 42
0.2
  3
txt.shx
  4

  0
STYLE
  5
363
330
3
100
AcDbSymbolTableRecord
100
AcDbTextStyleTableRecord
  2
CONVERTER_13
 70
     0
 40
0.0
 41
0.765
 50
0.0
 71
     0
 42
0.2
  3
txt.shx
  4

  0
STYLE
  5
367
330
3
100
AcDbSymbolTableRecord
100
AcDbTextStyleTableRecord
  2
CONVERTER_14
 70
     0
 40
0.0
 41
0.81
 50
0.0
 71
     0
 42
0.2
  3
txt.shx
  4

  0
STYLE
  5
36B
330
3
100
AcDbSymbolTableRecord
100
AcDbTextStyleTableRecord
  2
CONVERTER_15
 70
     0
 40
0.0
 41
0.72
 50
0.0
 71
     0
 42
0.2
  3
txt.shx
  4

  0
ENDTAB
  0
TABLE
  2
VIEW
  5
6
330
0
100
AcDbSymbolTable
 70
     0
  0
ENDTAB
  0
TABLE
  2
UCS
  5
7
330
0
100
AcDbSymbolTable
 70
     0
  0
ENDTAB
  0
TABLE
  2
APPID
  5
9
330
0
100
AcDbSymbolTable
 70
     1
  0
APPID
  5
12
330
9
100
AcDbSymbolTableRecord
100
AcDbRegAppTableRecord
  2
ACAD
 70
     0
  0
ENDTAB
  0
TABLE
  2
DIMSTYLE
  5
A
330
0
100
AcDbSymbolTable
 70
    23
100
AcDbDimStyleTable
  0
DIMSTYLE
105
27
330
A
100
AcDbSymbolTableRecord
100
AcDbDimStyleTableRecord
  2
Standard
 70
     0
340
11
  0
DIMSTYLE
105
42E
102
{ACAD_REACTORS
330
42F
102
}
330
A
100
AcDbSymbolTableRecord
100
AcDbDimStyleTableRecord
  2
ME10_DIM_10
 70
     0
 41
7.0
 42
0.0
 44
2.0
 73
     0
 74
     0
 77
     1
 78
     8
140
7.0
147
4.0
172
     1
173
     1
176
     2
177
     2
178
     3
271
     3
340
36B
  0
DIMSTYLE
105
43B
102
{ACAD_REACTORS
330
43C
102
}
330
A
100
AcDbSymbolTableRecord
100
AcDbDimStyleTableRecord
  2
ME10_DIM_11
 70
     0
 41
7.0
 42
0.0
 44
2.0
 73
     0
 74
     0
 77
     1
 78
     8
140
7.0
147
4.0
172
     1
173
     1
176
     2
177
     2
178
     3
271
     3
340
36B
  0
DIMSTYLE
105
448
102
{ACAD_REACTORS
330
449
102
}
330
A
100
AcDbSymbolTableRecord
100
AcDbDimStyleTableRecord
  2
ME10_DIM_12
 70
     0
 41
7.0
 42
0.0
 44
2.0
 73
     0
 74
     0
 77
     1
 78
     8
140
7.0
147
4.0
172
     1
173
     1
176
     2
177
     2
178
     3
271
     3
340
36B
  0
DIMSTYLE
105
453
102
{ACAD_REACTORS
330
454
102
}
330
A
100
AcDbSymbolTableRecord
100
AcDbDimStyleTableRecord
  2
ME10_DIM_13
 70
     0
 41
7.0
 42
0.0
 44
2.0
 73
     0
 74
     0
 77
     1
 78
     8
140
7.0
147
4.0
172
     1
173
     1
176
     2
177
     2
178
     3
271
     3
340
36B
  0
DIMSTYLE
105
45E
102
{ACAD_REACTORS
330
45F
102
}
330
A
100
AcDbSymbolTableRecord
100
AcDbDimStyleTableRecord
  2
ME10_DIM_14
 70
     0
 41
7.0
 42
0.0
 44
2.0
 73
     0
 74
     0
 77
     1
 78
     8
140
7.0
147
4.0
172
     1
173
     1
176
     2
177
     2
178
     3
271
     3
340
36B
  0
DIMSTYLE
105
46B
102
{ACAD_REACTORS
330
46C
102
}
330
A
100
AcDbSymbolTableRecord
100
AcDbDimStyleTableRecord
  2
ME10_DIM_15
 70
     0
 41
7.0
 42
0.0
 44
2.0
 73
     0
 74
     0
 77
     1
 78
     8
140
7.0
147
4.0
172
     1
173
     1
176
     2
177
     2
178
     3
271
     3
340
36B
  0
DIMSTYLE
105
478
102
{ACAD_REACTORS
330
479
102
}
330
A
100
AcDbSymbolTableRecord
100
AcDbDimStyleTableRecord
  2
ME10_DIM_16
 70
     0
 41
7.0
 42
0.0
 44
2.0
 73
     0
 74
     0
 77
     1
 78
     8
140
7.0
147
4.0
172
     1
173
     1
176
     2
177
     2
178
     3
271
     3
340
36B
  0
DIMSTYLE
105
485
102
{ACAD_REACTORS
330
486
102
}
330
A
100
AcDbSymbolTableRecord
100
AcDbDimStyleTableRecord
  2
ME10_DIM_17
 70
     0
 41
7.0
 42
0.0
 44
2.0
 73
     0
 74
     0
 77
     1
 78
     8
140
7.0
147
4.0
172
     1
173
     1
176
     2
177
     2
178
     3
271
     3
340
36B
  0
DIMSTYLE
105
491
102
{ACAD_REACTORS
330
492
102
}
330
A
100
AcDbSymbolTableRecord
100
AcDbDimStyleTableRecord
  2
ME10_DIM_18
 70
     0
  3
{\Fgdt;n}<>
 41
7.0
 42
0.0
 44
2.0
 48
-6.0
 71
     1
 73
     0
 74
     0
 77
     1
 78
     8
140
7.0
146
0.6
147
4.0
172
     1
173
     1
176
     2
177
     2
178
     3
271
     3
272
     0
340
36B
  0
DIMSTYLE
105
5C0
102
{ACAD_REACTORS
330
5C1
102
}
330
A
100
AcDbSymbolTableRecord
100
AcDbDimStyleTableRecord
  2
ME10_DIM_19
 70
     0
 41
7.0
 42
0.0
 44
2.0
 73
     0
 74
     0
 77
     1
 78
     8
140
7.0
147
4.0
172
     1
173
     1
176
     2
177
     2
178
     3
271
     3
340
36B
  0
DIMSTYLE
105
5CB
102
{ACAD_REACTORS
330
5CC
102
}
330
A
100
AcDbSymbolTableRecord
100
AcDbDimStyleTableRecord
  2
ME10_DIM_20
 70
     0
 41
7.0
 42
0.0
 44
2.0
 73
     0
 74
     0
 77
     1
 78
     8
140
7.0
147
4.0
172
     1
173
     1
176
     2
177
     2
178
     3
271
     3
340
36B
  0
DIMSTYLE
105
5D6
102
{ACAD_REACTORS
330
5D7
102
}
330
A
100
AcDbSymbolTableRecord
100
AcDbDimStyleTableRecord
  2
ME10_DIM_21
 70
     0
  3
{\Fgdt;n}<>
 41
7.0
 42
0.0
 44
2.0
 48
-6.0
 71
     1
 73
     0
 74
     0
 77
     1
 78
     8
140
7.0
146
0.6
147
4.0
172
     1
173
     1
176
     2
177
     2
178
     3
271
     3
272
     0
340
36B
  0
DIMSTYLE
105
5E1
102
{ACAD_REACTORS
330
5E2
102
}
330
A
100
AcDbSymbolTableRecord
100
AcDbDimStyleTableRecord
  2
ME10_DIM_22
 70
     0
 41
7.0
 42
0.0
 44
2.0
 73
     0
 74
     0
 77
     1
 78
     8
140
7.0
147
4.0
172
     1
173
     1
176
     2
177
     2
178
     3
271
     3
340
36B
  0
DIMSTYLE
105
5EC
102
{ACAD_REACTORS
330
5ED
102
}
330
A
100
AcDbSymbolTableRecord
100
AcDbDimStyleTableRecord
  2
ME10_DIM_23
 70
     0
 41
7.0
 42
0.0
 44
2.0
 73
     0
 74
     0
 77
     1
 78
     8
140
7.0
147
4.0
172
     1
173
     1
176
     2
177
     2
178
     3
271
     3
340
36B
  0
DIMSTYLE
105
5F7
102
{ACAD_REACTORS
330
5F8
102
}
330
A
100
AcDbSymbolTableRecord
100
AcDbDimStyleTableRecord
  2
ME10_DIM_24
 70
     0
 41
7.0
 42
0.0
 44
2.0
 73
     0
 74
     0
 77
     1
 78
     8
140
7.0
147
4.0
172
     1
173
     1
176
     2
177
     2
178
     3
271
     3
340
36B
  0
DIMSTYLE
105
604
102
{ACAD_REACTORS
330
605
102
}
330
A
100
AcDbSymbolTableRecord
100
AcDbDimStyleTableRecord
  2
ME10_DIM_25
 70
     0
 41
7.0
 42
0.0
 44
2.0
 73
     0
 74
     0
 77
     1
 78
     8
140
7.0
147
4.0
172
     1
173
     1
176
     2
177
     2
178
     3
271
     3
340
36B
  0
DIMSTYLE
105
60F
102
{ACAD_REACTORS
330
610
102
}
330
A
100
AcDbSymbolTableRecord
100
AcDbDimStyleTableRecord
  2
ME10_DIM_26
 70
     0
 41
7.0
 42
0.0
 44
2.0
 73
     0
 74
     0
 77
     1
 78
     8
140
7.0
147
4.0
172
     1
173
     1
176
     2
177
     2
178
     3
271
     3
340
36B
  0
DIMSTYLE
105
61A
102
{ACAD_REACTORS
330
61B
102
}
330
A
100
AcDbSymbolTableRecord
100
AcDbDimStyleTableRecord
  2
ME10_DIM_27
 70
     0
 41
7.0
 42
0.0
 44
2.0
 73
     0
 74
     0
 77
     1
 78
     8
140
7.0
147
4.0
172
     1
173
     1
176
     2
177
     2
178
     3
271
     3
340
36B
  0
DIMSTYLE
105
627
102
{ACAD_REACTORS
330
628
102
}
330
A
100
AcDbSymbolTableRecord
100
AcDbDimStyleTableRecord
  2
ME10_DIM_28
 70
     0
 41
7.0
 42
0.0
 44
2.0
 73
     0
 74
     0
 77
     1
 78
     8
140
7.0
147
4.0
172
     1
173
     1
176
     2
177
     2
178
     3
271
     3
340
36B
  0
DIMSTYLE
105
632
102
{ACAD_REACTORS
330
633
102
}
330
A
100
AcDbSymbolTableRecord
100
AcDbDimStyleTableRecord
  2
ME10_DIM_29
 70
     0
 41
7.0
 42
0.0
 44
2.0
 73
     0
 74
     0
 77
     1
 78
     8
140
7.0
147
4.0
172
     1
173
     1
176
     2
177
     2
178
     3
271
     3
340
36B
  0
DIMSTYLE
105
63D
102
{ACAD_REACTORS
330
63E
102
}
330
A
100
AcDbSymbolTableRecord
100
AcDbDimStyleTableRecord
  2
ME10_DIM_30
 70
     0
 41
7.0
 42
0.0
 44
2.0
 73
     0
 74
     0
 77
     1
 78
     8
140
7.0
147
4.0
172
     1
173
     1
176
     2
177
     2
178
     3
271
     3
340
36B
  0
DIMSTYLE
105
648
102
{ACAD_REACTORS
330
649
102
}
330
A
100
AcDbSymbolTableRecord
100
AcDbDimStyleTableRecord
  2
ME10_DIM_31
 70
     0
 41
7.0
 42
0.0
 44
2.0
 73
     0
 74
     0
 77
     1
 78
     8
140
7.0
147
4.0
172
     1
173
     1
176
     2
177
     2
178
     3
271
     3
340
36B
  0
ENDTAB
  0
TABLE
  2
BLOCK_RECORD
  5
1
330
0
100
AcDbSymbolTable
 70
    39
  0
BLOCK_RECORD
  5
1F
330
1
100
AcDbSymbolTableRecord
100
AcDbBlockTableRecord
  2
*Model_Space
340
22
  0
BLOCK_RECORD
  5
1B
330
1
100
AcDbSymbolTableRecord
100
AcDbBlockTableRecord
  2
*Paper_Space
340
1E
  0
BLOCK_RECORD
  5
23
330
1
100
AcDbSymbolTableRecord
100
AcDbBlockTableRecord
  2
*Paper_Space0
340
26
  0
BLOCK_RECORD
  5
33
330
1
100
AcDbSymbolTableRecord
100
AcDbBlockTableRecord
  2
Flanschlagerschild
340
0
102
{BLKREFS
331
60
102
}
  0
BLOCK_RECORD
  5
36
330
1
100
AcDbSymbolTableRecord
100
AcDbBlockTableRecord
  2
Deckel
340
0
102
{BLKREFS
331
61
102
}
  0
BLOCK_RECORD
  5
39
330
1
100
AcDbSymbolTableRecord
100
AcDbBlockTableRecord
  2
Zwischenst_ck__1
340
0
102
{BLKREFS
331
62
102
}
  0
BLOCK_RECORD
  5
3C
330
1
100
AcDbSymbolTableRecord
100
AcDbBlockTableRecord
  2
O-Ring
340
0
102
{BLKREFS
331
40
102
}
  0
BLOCK_RECORD
  5
3F
330
1
100
AcDbSymbolTableRecord
100
AcDbBlockTableRecord
  2
Winkelflanschdose_8-polig_drehbar__2
340
0
102
{BLKREFS
331
63
102
}
  0
BLOCK_RECORD
  5
43
330
1
100
AcDbSymbolTableRecord
100
AcDbBlockTableRecord
  2
Linsenschraube_DIN_7985_-_M2_5_x_6_-__-___3
340
0
102
{BLKREFS
331
64
102
}
  0
BLOCK_RECORD
  5
46
330
1
100
AcDbSymbolTableRecord
100
AcDbBlockTableRecord
  2
Linsenschraube_DIN_7985_-_M2_5_x_6_-__-___4
340
0
102
{BLKREFS
331
65
102
}
  0
BLOCK_RECORD
  5
49
330
1
100
AcDbSymbolTableRecord
100
AcDbBlockTableRecord
  2
Winkelflanschdose_8-polig_drehbar__5
340
0
102
{BLKREFS
331
66
102
}
  0
BLOCK_RECORD
  5
4C
330
1
100
AcDbSymbolTableRecord
100
AcDbBlockTableRecord
  2
Zwischenst_ck__6
340
0
102
{BLKREFS
331
67
102
}
  0
BLOCK_RECORD
  5
4F
330
1
100
AcDbSymbolTableRecord
100
AcDbBlockTableRecord
  2
tb_frame_A3
340
0
102
{BLKREFS
331
68
102
}
  0
BLOCK_RECORD
  5
52
330
1
100
AcDbSymbolTableRecord
100
AcDbBlockTableRecord
  2
TOP
340
0
102
{BLKREFS
331
56
102
}
  0
BLOCK_RECORD
  5
55
330
1
100
AcDbSymbolTableRecord
100
AcDbBlockTableRecord
  2
Angebotszeichnung
340
0
102
{BLKREFS
331
69
102
}
  0
BLOCK_RECORD
  5
59
330
1
100
AcDbSymbolTableRecord
100
AcDbBlockTableRecord
  2
Winkelflanschdose_8-polig_drehbar__7
340
0
102
{BLKREFS
331
5D
102
}
  0
BLOCK_RECORD
  5
5C
330
1
100
AcDbSymbolTableRecord
100
AcDbBlockTableRecord
  2
Ma_blatt__8
340
0
102
{BLKREFS
331
6A
102
}
  0
BLOCK_RECORD
  5
425
330
1
100
AcDbSymbolTableRecord
100
AcDbBlockTableRecord
  2
*D15
340
0
  0
BLOCK_RECORD
  5
430
330
1
100
AcDbSymbolTableRecord
100
AcDbBlockTableRecord
  2
*D16
340
0
  0
BLOCK_RECORD
  5
43D
330
1
100
AcDbSymbolTableRecord
100
AcDbBlockTableRecord
  2
*D17
340
0
  0
BLOCK_RECORD
  5
44A
330
1
100
AcDbSymbolTableRecord
100
AcDbBlockTableRecord
  2
*D18
340
0
  0
BLOCK_RECORD
  5
455
330
1
100
AcDbSymbolTableRecord
100
AcDbBlockTableRecord
  2
*D19
340
0
  0
BLOCK_RECORD
  5
460
330
1
100
AcDbSymbolTableRecord
100
AcDbBlockTableRecord
  2
*D20
340
0
  0
BLOCK_RECORD
  5
46D
330
1
100
AcDbSymbolTableRecord
100
AcDbBlockTableRecord
  2
*D21
340
0
  0
BLOCK_RECORD
  5
47A
330
1
100
AcDbSymbolTableRecord
100
AcDbBlockTableRecord
  2
*D22
340
0
  0
BLOCK_RECORD
  5
487
330
1
100
AcDbSymbolTableRecord
100
AcDbBlockTableRecord
  2
*D23
340
0
  0
BLOCK_RECORD
  5
5B7
330
1
100
AcDbSymbolTableRecord
100
AcDbBlockTableRecord
  2
*D24
340
0
  0
BLOCK_RECORD
  5
5C2
330
1
100
AcDbSymbolTableRecord
100
AcDbBlockTableRecord
  2
*D25
340
0
  0
BLOCK_RECORD
  5
5CD
330
1
100
AcDbSymbolTableRecord
100
AcDbBlockTableRecord
  2
*D26
340
0
  0
BLOCK_RECORD
  5
5D8
330
1
100
AcDbSymbolTableRecord
100
AcDbBlockTableRecord
  2
*D27
340
0
  0
BLOCK_RECORD
  5
5E3
330
1
100
AcDbSymbolTableRecord
100
AcDbBlockTableRecord
  2
*D28
340
0
  0
BLOCK_RECORD
  5
5EE
330
1
100
AcDbSymbolTableRecord
100
AcDbBlockTableRecord
  2
*D29
340
0
  0
BLOCK_RECORD
  5
5F9
330
1
100
AcDbSymbolTableRecord
100
AcDbBlockTableRecord
  2
*D30
340
0
  0
BLOCK_RECORD
  5
606
330
1
100
AcDbSymbolTableRecord
100
AcDbBlockTableRecord
  2
*D31
340
0
  0
BLOCK_RECORD
  5
611
330
1
100
AcDbSymbolTableRecord
100
AcDbBlockTableRecord
  2
*D32
340
0
  0
BLOCK_RECORD
  5
61C
330
1
100
AcDbSymbolTableRecord
100
AcDbBlockTableRecord
  2
*D33
340
0
  0
BLOCK_RECORD
  5
629
330
1
100
AcDbSymbolTableRecord
100
AcDbBlockTableRecord
  2
*D34
340
0
  0
BLOCK_RECORD
  5
634
330
1
100
AcDbSymbolTableRecord
100
AcDbBlockTableRecord
  2
*D35
340
0
  0
BLOCK_RECORD
  5
63F
330
1
100
AcDbSymbolTableRecord
100
AcDbBlockTableRecord
  2
*D36
340
0
  0
BLOCK_RECORD
  5
64A
330
1
100
AcDbSymbolTableRecord
100
AcDbBlockTableRecord
  2
*D37
340
0
102
{BLKREFS
331
653
102
}
  0
BLOCK_RECORD
  5
654
330
1
100
AcDbSymbolTableRecord
100
AcDbBlockTableRecord
  2
*D38
340
0
102
{BLKREFS
331
65F
102
}
  0
ENDTAB
  0
ENDSEC
  0
SECTION
  2
BLOCKS
  0
BLOCK
  5
20
330
1F
100
AcDbEntity
  8
0
100
AcDbBlockBegin
  2
*Model_Space
 70
     0
 71
     0
 10
0.0
 20
0.0
 30
0.0
  3
*Model_Space
  1

  0
ENDBLK
  5
21
330
1F
100
AcDbEntity
  8
0
100
AcDbBlockEnd
  0
BLOCK
  5
1C
330
1B
100
AcDbEntity
 67
     1
  8
0
100
AcDbBlockBegin
  2
*Paper_Space
 70
     0
 71
     0
 10
0.0
 20
0.0
 30
0.0
  3
*Paper_Space
  1

  0
ENDBLK
  5
1D
330
1B
100
AcDbEntity
 67
     1
  8
0
100
AcDbBlockEnd
  0
BLOCK
  5
24
330
23
100
AcDbEntity
  8
0
100
AcDbBlockBegin
  2
*Paper_Space0
 70
     0
 71
     0
 10
0.0
 20
0.0
 30
0.0
  3
*Paper_Space0
  1

  0
ENDBLK
  5
25
330
23
100
AcDbEntity
  8
0
100
AcDbBlockEnd
  0
BLOCK
  5
34
330
33
100
AcDbEntity
  8
0
100
AcDbBlockBegin
  2
Flanschlagerschild
 70
     0
 71
     0
 10
252.9960508442671
 20
273.539584626464
 30
0.0
  3
Flanschlagerschild
  1

  0
POINT
  5
6B
330
33
100
AcDbEntity
  8
1
 62
     3
 60
     1
100
AcDbPoint
 10
34.5
 20
102.3137084989848
 30
0.0
  0
POINT
  5
6C
330
33
100
AcDbEntity
  8
1
 62
     3
 60
     1
100
AcDbPoint
 10
34.5
 20
105.0
 30
0.0
  0
POINT
  5
6D
330
33
100
AcDbEntity
  8
1
 62
     3
 60
     1
100
AcDbPoint
 10
26.5
 20
105.0
 30
0.0
  0
POINT
  5
6E
330
33
100
AcDbEntity
  8
1
 62
     3
 60
     1
100
AcDbPoint
 10
26.5
 20
102.3137084989848
 30
0.0
  0
POINT
  5
6F
330
33
100
AcDbEntity
  8
1
 62
     3
 60
     1
100
AcDbPoint
 10
-178.0
 20
149.0
 30
0.0
  0
POINT
  5
70
330
33
100
AcDbEntity
  8
1
 62
     3
 60
     1
100
AcDbPoint
 10
-178.0
 20
151.0
 30
0.0
  0
POINT
  5
71
330
33
100
AcDbEntity
  8
1
 62
     3
 60
     1
100
AcDbPoint
 10
-244.0
 20
151.0
 30
0.0
  0
POINT
  5
72
330
33
100
AcDbEntity
  8
1
 62
     3
 60
     1
100
AcDbPoint
 10
-244.0
 20
149.0
 30
0.0
  0
POINT
  5
73
330
33
100
AcDbEntity
  8
1
 62
     3
 60
     1
100
AcDbPoint
 10
-269.0
 20
75.0
 30
0.0
  0
POINT
  5
74
330
33
100
AcDbEntity
  8
1
 62
     3
 60
     1
100
AcDbPoint
 10
-309.0
 20
103.0
 30
0.0
  0
POINT
  5
75
330
33
100
AcDbEntity
  8
1
 62
     3
 60
     1
100
AcDbPoint
 10
-309.0
 20
106.0
 30
0.0
  0
POINT
  5
76
330
33
100
AcDbEntity
  8
1
 62
     3
 60
     1
100
AcDbPoint
 10
-273.0
 20
106.0
 30
0.0
  0
POINT
  5
77
330
33
100
AcDbEntity
  8
1
 62
     3
 60
     1
100
AcDbPoint
 10
-273.0
 20
103.0
 30
0.0
  0
POINT
  5
78
330
33
100
AcDbEntity
  8
1
 62
     3
 60
     1
100
AcDbPoint
 10
-207.65581821079
 20
44.7937839804153
 30
0.0
  0
POINT
  5
79
330
33
100
AcDbEntity
  8
1
 62
     3
 60
     1
100
AcDbPoint
 10
-212.868031584725
 20
42.5599782487287
 30
0.0
  0
LINE
  5
7A
330
33
100
AcDbEntity
  8
1
  6
Continuous
 62
     7
100
AcDbLine
 10
34.5
 20
105.0
 30
0.0
 11
34.5
 21
102.3137084989848
 31
0.0
  0
LINE
  5
7B
330
33
100
AcDbEntity
  8
1
  6
Continuous
 62
     7
100
AcDbLine
 10
26.5
 20
102.3137084989848
 30
0.0
 11
26.5
 21
105.0
 31
0.0
  0
LINE
  5
7C
330
33
100
AcDbEntity
  8
1
  6
Continuous
 62
     7
100
AcDbLine
 10
-27.0
 20
38.5
 30
0.0
 11
-27.0
 21
143.5
 31
0.0
  0
LINE
  5
7D
330
33
100
AcDbEntity
  8
1
  6
Continuous
 62
     7
100
AcDbLine
 10
83.0
 20
33.5
 30
0.0
 11
-22.0
 21
33.5
 31
0.0
  0
LINE
  5
7E
330
33
100
AcDbEntity
  8
1
  6
Continuous
 62
     7
100
AcDbLine
 10
88.0
 20
143.5
 30
0.0
 11
88.0
 21
38.49999999999999
 31
0.0
  0
LINE
  5
7F
330
33
100
AcDbEntity
  8
1
  6
Continuous
 62
     7
100
AcDbLine
 10
-22.0
 20
148.5
 30
0.0
 11
83.0
 21
148.5
 31
0.0
  0
LINE
  5
80
330
33
100
AcDbEntity
  8
1
  6
Continuous
 62
     7
100
AcDbLine
 10
-220.4339811320571
 20
61.0
 30
0.0
 11
-201.5660188679429
 21
61.0
 31
0.0
  0
LINE
  5
81
330
33
100
AcDbEntity
  8
1
  6
Continuous
 62
     7
100
AcDbLine
 10
-220.4339811320561
 20
149.0
 30
0.0
 11
-201.5660188679439
 21
149.0
 31
0.0
  0
LINE
  5
82
330
33
100
AcDbEntity
  8
1
  6
Continuous
 62
     7
100
AcDbLine
 10
-255.0
 20
114.4339811320565
 30
0.0
 11
-255.0
 21
95.56601886794328
 31
0.0
  0
LINE
  5
83
330
33
100
AcDbEntity
  8
1
  6
Continuous
 62
     7
100
AcDbLine
 10
-167.0
 20
114.4339811320565
 30
0.0
 11
-167.0
 21
95.56601886794328
 31
0.0
  0
LINE
  5
84
330
33
100
AcDbEntity
  8
1
  6
Continuous
 62
     7
100
AcDbLine
 10
-178.0
 20
149.0
 30
0.0
 11
-175.5563828031056
 21
149.0
 31
0.0
  0
LINE
  5
85
330
33
100
AcDbEntity
  8
1
  6
Continuous
 62
     7
100
AcDbLine
 10
-178.0
 20
151.0
 30
0.0
 11
-178.0
 21
149.0
 31
0.0
  0
LINE
  5
86
330
33
100
AcDbEntity
  8
1
  6
Continuous
 62
     7
100
AcDbLine
 10
-244.0
 20
151.0
 30
0.0
 11
-178.0
 21
151.0
 31
0.0
  0
LINE
  5
87
330
33
100
AcDbEntity
  8
1
  6
Continuous
 62
     7
100
AcDbLine
 10
-244.0
 20
149.0
 30
0.0
 11
-220.4339811320561
 21
149.0
 31
0.0
  0
LINE
  5
88
330
33
100
AcDbEntity
  8
1
  6
Continuous
 62
     7
100
AcDbLine
 10
-244.0
 20
149.0
 30
0.0
 11
-244.0
 21
151.0
 31
0.0
  0
LINE
  5
89
330
33
100
AcDbEntity
  8
1
  6
Continuous
 62
     7
100
AcDbLine
 10
-167.0
 20
140.4436171968945
 30
0.0
 11
-167.0
 21
114.4339811320565
 31
0.0
  0
LINE
  5
8A
330
33
100
AcDbEntity
  8
1
  6
Continuous
 62
     7
100
AcDbLine
 10
-167.0
 20
69.55638280310532
 30
0.0
 11
-167.0
 21
95.56601886794328
 31
0.0
  0
LINE
  5
8B
330
33
100
AcDbEntity
  8
1
  6
Continuous
 62
     7
100
AcDbLine
 10
-201.5660188679429
 20
61.0
 30
0.0
 11
-175.5563828031053
 21
61.0
 31
0.0
  0
LINE
  5
8C
330
33
100
AcDbEntity
  8
1
  6
Continuous
 62
     7
100
AcDbLine
 10
-246.4436171968947
 20
61.0
 30
0.0
 11
-245.0
 21
61.0
 31
0.0
  0
LINE
  5
8D
330
33
100
AcDbEntity
  8
1
  6
Continuous
 62
     7
100
AcDbLine
 10
-255.0
 20
95.56601886794328
 30
0.0
 11
-255.0
 21
69.55638280310532
 31
0.0
  0
LINE
  5
8E
330
33
100
AcDbEntity
  8
1
  6
Continuous
 62
     7
100
AcDbLine
 10
-255.0
 20
140.4436171968945
 30
0.0
 11
-255.0
 21
114.4339811320565
 31
0.0
  0
LINE
  5
8F
330
33
100
AcDbEntity
  8
1
  6
Continuous
 62
     7
100
AcDbLine
 10
-201.5660188679439
 20
149.0
 30
0.0
 11
-178.0
 21
149.0
 31
0.0
  0
LINE
  5
90
330
33
100
AcDbEntity
  8
1
  6
Continuous
 62
     7
100
AcDbLine
 10
-246.4436171968945
 20
149.0
 30
0.0
 11
-244.0
 21
149.0
 31
0.0
  0
LINE
  5
91
330
33
100
AcDbEntity
  8
1
  6
DOT_CENTER
 62
     2
100
AcDbLine
 10
88.25
 20
91.0
 30
0.0
 11
-27.25
 21
91.0
 31
0.0
  0
LINE
  5
92
330
33
100
AcDbEntity
  8
1
  6
DOT_CENTER
 62
     2
100
AcDbLine
 10
30.5
 20
148.75
 30
0.0
 11
30.5
 21
33.25
 31
0.0
  0
LINE
  5
93
330
33
100
AcDbEntity
  8
1
  6
Continuous
 62
     7
100
AcDbLine
 10
-247.0555127546398
 20
148.5
 30
0.0
 11
-256.0
 21
148.5
 31
0.0
  0
LINE
  5
94
330
33
100
AcDbEntity
  8
1
  6
Continuous
 62
     7
100
AcDbLine
 10
-256.0
 20
148.5
 30
0.0
 11
-256.0
 21
143.5
 31
0.0
  0
LINE
  5
95
330
33
100
AcDbEntity
  8
1
  6
Continuous
 62
     7
100
AcDbLine
 10
-256.0
 20
33.5
 30
0.0
 11
-245.0
 21
33.5
 31
0.0
  0
LINE
  5
96
330
33
100
AcDbEntity
  8
1
  6
Continuous
 62
     7
100
AcDbLine
 10
-245.0
 20
33.5
 30
0.0
 11
-245.0
 21
38.0
 31
0.0
  0
LINE
  5
97
330
33
100
AcDbEntity
  8
1
  6
Continuous
 62
     7
100
AcDbLine
 10
-245.0
 20
41.0
 30
0.0
 11
-245.0
 21
61.0
 31
0.0
  0
LINE
  5
98
330
33
100
AcDbEntity
  8
1
  6
Continuous
 62
     7
100
AcDbLine
 10
-245.0
 20
61.0
 30
0.0
 11
-220.4339811320571
 21
61.0
 31
0.0
  0
LINE
  5
99
330
33
100
AcDbEntity
  8
1
  6
Continuous
 62
     7
100
AcDbLine
 10
-242.0
 20
41.0
 30
0.0
 11
-211.8043629816244
 21
41.0
 31
0.0
  0
LINE
  5
9A
330
33
100
AcDbEntity
  8
1
  6
Continuous
 62
     7
100
AcDbLine
 10
-210.3035301880005
 20
41.40240478026635
 30
0.0
 11
-189.1964698119995
 21
53.59759521973365
 31
0.0
  0
LINE
  5
9B
330
33
100
AcDbEntity
  8
1
  6
Continuous
 62
     7
100
AcDbLine
 10
-187.6956370183756
 20
54.0
 30
0.0
 11
-174.0
 21
54.0
 31
0.0
  0
LINE
  5
9C
330
33
100
AcDbEntity
  8
1
  6
Continuous
 62
     7
100
AcDbLine
 10
-169.0
 20
59.0
 30
0.0
 11
-169.0
 21
67.20780503860607
 31
0.0
  0
LINE
  5
9D
330
33
100
AcDbEntity
  8
1
  6
Continuous
 62
     7
100
AcDbLine
 10
-256.0
 20
143.5
 30
0.0
 11
-269.0
 21
143.5
 31
0.0
  0
LINE
  5
9E
330
33
100
AcDbEntity
  8
1
  6
Continuous
 62
     7
100
AcDbLine
 10
-256.0
 20
143.5
 30
0.0
 11
-256.0
 21
38.5
 31
0.0
  0
LINE
  5
9F
330
33
100
AcDbEntity
  8
1
  6
Continuous
 62
     7
100
AcDbLine
 10
-269.0
 20
143.5
 30
0.0
 11
-269.0
 21
107.0
 31
0.0
  0
LINE
  5
A0
330
33
100
AcDbEntity
  8
1
  6
Continuous
 62
     7
100
AcDbLine
 10
-271.0
 20
103.0
 30
0.0
 11
-273.0
 21
103.0
 31
0.0
  0
LINE
  5
A1
330
33
100
AcDbEntity
  8
1
  6
Continuous
 62
     7
100
AcDbLine
 10
-311.0
 20
103.0
 30
0.0
 11
-311.0
 21
79.0
 31
0.0
  0
LINE
  5
A2
330
33
100
AcDbEntity
  8
1
  6
Continuous
 62
     7
100
AcDbLine
 10
-311.0
 20
79.0
 30
0.0
 11
-271.0
 21
79.0
 31
0.0
  0
LINE
  5
A3
330
33
100
AcDbEntity
  8
1
  6
Continuous
 62
     7
100
AcDbLine
 10
-269.0
 20
107.0
 30
0.0
 11
-271.0
 21
107.0
 31
0.0
  0
LINE
  5
A4
330
33
100
AcDbEntity
  8
1
  6
Continuous
 62
     7
100
AcDbLine
 10
-269.0
 20
107.0
 30
0.0
 11
-269.0
 21
75.0
 31
0.0
  0
LINE
  5
A5
330
33
100
AcDbEntity
  8
1
  6
Continuous
 62
     7
100
AcDbLine
 10
-271.0
 20
107.0
 30
0.0
 11
-271.0
 21
75.0
 31
0.0
  0
LINE
  5
A6
330
33
100
AcDbEntity
  8
1
  6
Continuous
 62
     7
100
AcDbLine
 10
-271.0
 20
75.0
 30
0.0
 11
-269.0
 21
75.0
 31
0.0
  0
LINE
  5
A7
330
33
100
AcDbEntity
  8
1
  6
Continuous
 62
     7
100
AcDbLine
 10
-269.0
 20
75.0
 30
0.0
 11
-269.0
 21
38.5
 31
0.0
  0
LINE
  5
A8
330
33
100
AcDbEntity
  8
1
  6
Continuous
 62
     7
100
AcDbLine
 10
-269.0
 20
38.5
 30
0.0
 11
-256.0
 21
38.5
 31
0.0
  0
LINE
  5
A9
330
33
100
AcDbEntity
  8
1
  6
Continuous
 62
     7
100
AcDbLine
 10
-256.0
 20
38.5
 30
0.0
 11
-256.0
 21
33.5
 31
0.0
  0
LINE
  5
AA
330
33
100
AcDbEntity
  8
1
  6
Continuous
 62
     7
100
AcDbLine
 10
-309.0
 20
103.0
 30
0.0
 11
-309.0
 21
106.0
 31
0.0
  0
LINE
  5
AB
330
33
100
AcDbEntity
  8
1
  6
Continuous
 62
     7
100
AcDbLine
 10
-309.0
 20
103.0
 30
0.0
 11
-311.0
 21
103.0
 31
0.0
  0
LINE
  5
AC
330
33
100
AcDbEntity
  8
1
  6
Continuous
 62
     7
100
AcDbLine
 10
-309.0
 20
106.0
 30
0.0
 11
-273.0
 21
106.0
 31
0.0
  0
LINE
  5
AD
330
33
100
AcDbEntity
  8
1
  6
Continuous
 62
     7
100
AcDbLine
 10
-273.0
 20
106.0
 30
0.0
 11
-273.0
 21
103.0
 31
0.0
  0
LINE
  5
AE
330
33
100
AcDbEntity
  8
1
  6
Continuous
 62
     7
100
AcDbLine
 10
-273.0
 20
103.0
 30
0.0
 11
-309.0
 21
103.0
 31
0.0
  0
LINE
  5
AF
330
33
100
AcDbEntity
  8
1
  6
Continuous
 62
     7
100
AcDbLine
 10
-245.0
 20
41.0
 30
0.0
 11
-245.0
 21
38.0
 31
0.0
  0
LINE
  5
B0
330
33
100
AcDbEntity
  8
1
  6
DOT_CENTER
 62
     2
100
AcDbLine
 10
-13.55
 20
42.0
 30
0.0
 11
-23.45
 21
42.0
 31
0.0
  0
LINE
  5
B1
330
33
100
AcDbEntity
  8
1
  6
DOT_CENTER
 62
     2
100
AcDbLine
 10
-18.5
 20
46.95
 30
0.0
 11
-18.5
 21
37.05
 31
0.0
  0
LINE
  5
B2
330
33
100
AcDbEntity
  8
1
  6
DOT_CENTER
 62
     2
100
AcDbLine
 10
-13.55
 20
140.0
 30
0.0
 11
-23.45
 21
140.0
 31
0.0
  0
LINE
  5
B3
330
33
100
AcDbEntity
  8
1
  6
DOT_CENTER
 62
     2
100
AcDbLine
 10
-18.5
 20
144.95
 30
0.0
 11
-18.5
 21
135.05
 31
0.0
  0
LINE
  5
B4
330
33
100
AcDbEntity
  8
1
  6
DOT_CENTER
 62
     2
100
AcDbLine
 10
84.45
 20
140.0
 30
0.0
 11
74.55
 21
140.0
 31
0.0
  0
LINE
  5
B5
330
33
100
AcDbEntity
  8
1
  6
DOT_CENTER
 62
     2
100
AcDbLine
 10
79.5
 20
144.95
 30
0.0
 11
79.5
 21
135.05
 31
0.0
  0
LINE
  5
B6
330
33
100
AcDbEntity
  8
1
  6
DOT_CENTER
 62
     2
100
AcDbLine
 10
84.45
 20
42.0
 30
0.0
 11
74.55
 21
42.0
 31
0.0
  0
LINE
  5
B7
330
33
100
AcDbEntity
  8
1
  6
DOT_CENTER
 62
     2
100
AcDbLine
 10
79.5
 20
46.95
 30
0.0
 11
79.5
 21
37.05
 31
0.0
  0
LINE
  5
B8
330
33
100
AcDbEntity
  8
1
  6
Continuous
 62
     7
100
AcDbLine
 10
26.5
 20
105.0
 30
0.0
 11
26.5
 21
106.0
 31
0.0
  0
LINE
  5
B9
330
33
100
AcDbEntity
  8
1
  6
Continuous
 62
     7
100
AcDbLine
 10
34.5
 20
105.0
 30
0.0
 11
34.5
 21
106.0
 31
0.0
  0
LINE
  5
BA
330
33
100
AcDbEntity
  8
1
  6
Continuous
 62
     7
100
AcDbLine
 10
26.5
 20
106.0
 30
0.0
 11
34.5
 21
106.0
 31
0.0
  0
LINE
  5
BB
330
33
100
AcDbEntity
  8
1
  6
DOT_CENTER
 62
     2
100
AcDbLine
 10
-313.0
 20
91.0
 30
0.0
 11
-269.0
 21
91.0
 31
0.0
  0
LINE
  5
BC
330
33
100
AcDbEntity
  8
1
  6
DOT_CENTER
 62
     2
100
AcDbLine
 10
-271.0
 20
91.0
 30
0.0
 11
-254.0
 21
91.0
 31
0.0
  0
ARC
  5
BD
330
33
100
AcDbEntity
  8
1
  6
Continuous
 62
     7
100
AcDbCircle
 10
30.5
 20
91.0
 30
0.0
 40
12.00000000000003
100
AcDbArc
 50
70.52877936550937
 51
109.4712206344906
  0
ARC
  5
BE
330
33
100
AcDbEntity
  8
1
  6
Continuous
 62
     7
100
AcDbCircle
 10
30.5
 20
91.0
 30
0.0
 40
12.00000000000003
100
AcDbArc
 50
109.4712206344906
 51
70.52877936550937
  0
ARC
  5
BF
330
33
100
AcDbEntity
  8
1
  6
Continuous
 62
     7
100
AcDbCircle
 10
-211.0
 20
104.9999999999999
 30
0.0
 40
56.50000000000001
100
AcDbArc
 50
-41.98132934538398
 51
-38.8527210444816
  0
ARC
  5
C0
330
33
100
AcDbEntity
  8
1
  6
Continuous
 62
     7
100
AcDbCircle
 10
-211.0
 20
104.9999999999999
 30
0.0
 40
56.50000000000001
100
AcDbArc
 50
-141.1472789555184
 51
-128.8527210444818
  0
ARC
  5
C1
330
33
100
AcDbEntity
  8
1
  6
Continuous
 62
     7
100
AcDbCircle
 10
-211.0
 20
104.9999999999999
 30
0.0
 40
56.50000000000002
100
AcDbArc
 50
129.6540573068162
 51
141.1472789555184
  0
ARC
  5
C2
330
33
100
AcDbEntity
  8
1
  6
Continuous
 62
     7
100
AcDbCircle
 10
-211.0
 20
104.9999999999999
 30
0.0
 40
56.50000000000003
100
AcDbArc
 50
38.85272104448163
 51
51.14727895551861
  0
ARC
  5
C3
330
33
100
AcDbEntity
  8
1
  6
Continuous
 62
     7
100
AcDbCircle
 10
-211.0
 20
104.9999999999999
 30
0.0
 40
56.50000000000004
100
AcDbArc
 50
128.8527210444815
 51
129.6540573068162
  0
ARC
  5
C4
330
33
100
AcDbEntity
  8
1
  6
Continuous
 62
     7
100
AcDbCircle
 10
-211.0
 20
104.9999999999999
 30
0.0
 40
56.50000000000001
100
AcDbArc
 50
-51.14727895551823
 51
-41.98132934538398
  0
ARC
  5
C5
330
33
100
AcDbEntity
  8
1
  6
Continuous
 62
     7
100
AcDbCircle
 10
-213.6266676079084
 20
51.52794743825694
 30
0.0
 40
8.999999999999961
100
AcDbArc
 50
-85.16463539365819
 51
-48.43818357904287
  0
CIRCLE
  5
C6
330
33
100
AcDbEntity
  8
1
  6
Continuous
 62
     7
100
AcDbCircle
 10
-18.5
 20
140.0
 30
0.0
 40
5.0
  0
CIRCLE
  5
C7
330
33
100
AcDbEntity
  8
1
  6
Continuous
 62
     7
100
AcDbCircle
 10
-18.5
 20
140.0
 30
0.0
 40
4.5
  0
CIRCLE
  5
C8
330
33
100
AcDbEntity
  8
1
  6
Continuous
 62
     7
100
AcDbCircle
 10
79.5
 20
140.0
 30
0.0
 40
5.0
  0
CIRCLE
  5
C9
330
33
100
AcDbEntity
  8
1
  6
Continuous
 62
     7
100
AcDbCircle
 10
79.5
 20
140.0
 30
0.0
 40
4.5
  0
CIRCLE
  5
CA
330
33
100
AcDbEntity
  8
1
  6
Continuous
 62
     7
100
AcDbCircle
 10
30.5
 20
91.0
 30
0.0
 40
16.0
  0
CIRCLE
  5
CB
330
33
100
AcDbEntity
  8
1
  6
Continuous
 62
     7
100
AcDbCircle
 10
30.5
 20
91.0
 30
0.0
 40
52.5
  0
CIRCLE
  5
CC
330
33
100
AcDbEntity
  8
1
  6
Continuous
 62
     7
100
AcDbCircle
 10
-18.5
 20
42.0
 30
0.0
 40
4.5
  0
CIRCLE
  5
CD
330
33
100
AcDbEntity
  8
1
  6
Continuous
 62
     7
100
AcDbCircle
 10
-18.5
 20
42.0
 30
0.0
 40
5.0
  0
CIRCLE
  5
CE
330
33
100
AcDbEntity
  8
1
  6
Continuous
 62
     7
100
AcDbCircle
 10
79.5
 20
42.0
 30
0.0
 40
4.5
  0
CIRCLE
  5
CF
330
33
100
AcDbEntity
  8
1
  6
Continuous
 62
     7
100
AcDbCircle
 10
79.5
 20
42.0
 30
0.0
 40
5.0
  0
ARC
  5
D0
330
33
100
AcDbEntity
  8
1
  6
Continuous
 62
     7
100
AcDbCircle
 10
-22.0
 20
143.5
 30
0.0
 40
5.0
100
AcDbArc
 50
90.0
 51
180.0
  0
ARC
  5
D1
330
33
100
AcDbEntity
  8
1
  6
Continuous
 62
     7
100
AcDbCircle
 10
-22.0
 20
38.5
 30
0.0
 40
5.0
100
AcDbArc
 50
180.0
 51
-90.0
  0
ARC
  5
D2
330
33
100
AcDbEntity
  8
1
  6
Continuous
 62
     7
100
AcDbCircle
 10
83.0
 20
38.49999999999999
 30
0.0
 40
4.999999999999993
100
AcDbArc
 50
-90.0
 51
0.0
  0
ARC
  5
D3
330
33
100
AcDbEntity
  8
1
  6
Continuous
 62
     7
100
AcDbCircle
 10
83.0
 20
143.5
 30
0.0
 40
5.0
100
AcDbArc
 50
0.0
 51
90.0
  0
ARC
  5
D4
330
33
100
AcDbEntity
  8
1
  6
Continuous
 62
     7
100
AcDbCircle
 10
-242.0
 20
38.0
 30
0.0
 40
3.0
100
AcDbArc
 50
90.0
 51
180.0
  0
ARC
  5
D5
330
33
100
AcDbEntity
  8
1
  6
Continuous
 62
     7
100
AcDbCircle
 10
-211.8043629816244
 20
44.0
 30
0.0
 40
3.0
100
AcDbArc
 50
-90.0
 51
-59.98163257239091
  0
ARC
  5
D6
330
33
100
AcDbEntity
  8
1
  6
Continuous
 62
     7
100
AcDbCircle
 10
-187.6956370183756
 20
51.0
 30
0.0
 40
3.0
100
AcDbArc
 50
90.0
 51
120.0183674276091
  0
ARC
  5
D7
330
33
100
AcDbEntity
  8
1
  6
Continuous
 62
     7
100
AcDbCircle
 10
-174.0
 20
59.0
 30
0.0
 40
5.0
100
AcDbArc
 50
-90.0
 51
0.0
  0
ENDBLK
  5
35
330
33
100
AcDbEntity
  8
0
100
AcDbBlockEnd
  0
BLOCK
  5
37
330
36
100
AcDbEntity
  8
0
100
AcDbBlockBegin
  2
Deckel
 70
     0
 71
     0
 10
372.740257612901
 20
250.537107208105
 30
0.0
  3
Deckel
  1

  0
LINE
  5
D8
330
36
100
AcDbEntity
  8
1
  6
Continuous
 62
     7
100
AcDbLine
 10
271.0000000000001
 20
148.5
 30
0.0
 11
274.0
 21
148.5
 31
0.0
  0
LINE
  5
D9
330
36
100
AcDbEntity
  8
1
  6
Continuous
 62
     7
100
AcDbLine
 10
271.0000000000001
 20
148.5
 30
0.0
 11
271.0000000000001
 21
140.317279836453
 31
0.0
  0
LINE
  5
DA
330
36
100
AcDbEntity
  8
1
  6
Continuous
 62
     7
100
AcDbLine
 10
274.0
 20
148.5
 30
0.0
 11
274.0
 21
140.317279836453
 31
0.0
  0
LINE
  5
DB
330
36
100
AcDbEntity
  8
1
  6
Continuous
 62
     7
100
AcDbLine
 10
274.0
 20
62.19999999999989
 30
0.0
 11
274.0
 21
61.49999999999999
 31
0.0
  0
LINE
  5
DC
330
36
100
AcDbEntity
  8
1
  6
Continuous
 62
     7
100
AcDbLine
 10
274.0
 20
61.49999999999999
 30
0.0
 11
271.0000000000001
 21
61.49999999999999
 31
0.0
  0
LINE
  5
DD
330
36
100
AcDbEntity
  8
1
  6
Continuous
 62
     7
100
AcDbLine
 10
271.0000000000001
 20
140.317279836453
 30
0.0
 11
274.0
 21
140.317279836453
 31
0.0
  0
LINE
  5
DE
330
36
100
AcDbEntity
  8
1
  6
Continuous
 62
     7
100
AcDbLine
 10
274.0
 20
140.317279836453
 30
0.0
 11
274.0
 21
62.19999999999989
 31
0.0
  0
LINE
  5
DF
330
36
100
AcDbEntity
  8
1
  6
Continuous
 62
     7
100
AcDbLine
 10
271.0000000000001
 20
69.682720163547
 30
0.0
 11
271.0000000000001
 21
61.49999999999999
 31
0.0
  0
LINE
  5
E0
330
36
100
AcDbEntity
  8
1
  6
Continuous
 62
     7
100
AcDbLine
 10
274.0
 20
69.682720163547
 30
0.0
 11
271.0000000000001
 21
69.682720163547
 31
0.0
  0
LINE
  5
E1
330
36
100
AcDbEntity
  8
1
  6
Continuous
 62
     7
100
AcDbLine
 10
271.0000000000001
 20
140.317279836453
 30
0.0
 11
271.0000000000001
 21
69.682720163547
 31
0.0
  0
LINE
  5
E2
330
36
100
AcDbEntity
  8
1
  6
Continuous
 62
     7
100
AcDbLine
 10
271.5000000000001
 20
-24.23216821204778
 30
0.0
 11
271.5000000000001
 21
-94.86672788495378
 31
0.0
  0
LINE
  5
E3
330
36
100
AcDbEntity
  8
1
  6
Continuous
 62
     7
100
AcDbLine
 10
274.5
 20
-94.86672788495378
 30
0.0
 11
271.5000000000001
 21
-94.86672788495378
 31
0.0
  0
LINE
  5
E4
330
36
100
AcDbEntity
  8
1
  6
Continuous
 62
     7
100
AcDbLine
 10
271.5000000000001
 20
-94.86672788495378
 30
0.0
 11
271.5000000000001
 21
-103.0494480485008
 31
0.0
  0
LINE
  5
E5
330
36
100
AcDbEntity
  8
1
  6
Continuous
 62
     7
100
AcDbLine
 10
274.5
 20
-24.23216821204778
 30
0.0
 11
274.5
 21
-102.3494480485009
 31
0.0
  0
LINE
  5
E6
330
36
100
AcDbEntity
  8
1
  6
Continuous
 62
     7
100
AcDbLine
 10
271.5000000000001
 20
-24.23216821204778
 30
0.0
 11
274.5
 21
-24.23216821204778
 31
0.0
  0
LINE
  5
E7
330
36
100
AcDbEntity
  8
1
  6
Continuous
 62
     7
100
AcDbLine
 10
274.5
 20
-103.0494480485008
 30
0.0
 11
271.5000000000001
 21
-103.0494480485008
 31
0.0
  0
LINE
  5
E8
330
36
100
AcDbEntity
  8
1
  6
Continuous
 62
     7
100
AcDbLine
 10
274.5
 20
-102.3494480485009
 30
0.0
 11
274.5
 21
-103.0494480485008
 31
0.0
  0
LINE
  5
E9
330
36
100
AcDbEntity
  8
1
  6
Continuous
 62
     7
100
AcDbLine
 10
274.5
 20
-16.04944804850078
 30
0.0
 11
274.5
 21
-24.23216821204778
 31
0.0
  0
LINE
  5
EA
330
36
100
AcDbEntity
  8
1
  6
Continuous
 62
     7
100
AcDbLine
 10
271.5000000000001
 20
-16.04944804850078
 30
0.0
 11
271.5000000000001
 21
-24.23216821204778
 31
0.0
  0
LINE
  5
EB
330
36
100
AcDbEntity
  8
1
  6
Continuous
 62
     7
100
AcDbLine
 10
271.5000000000001
 20
-16.04944804850078
 30
0.0
 11
274.5
 21
-16.04944804850078
 31
0.0
  0
ENDBLK
  5
38
330
36
100
AcDbEntity
  8
0
100
AcDbBlockEnd
  0
BLOCK
  5
3A
330
39
100
AcDbEntity
  8
0
100
AcDbBlockBegin
  2
Zwischenst_ck__1
 70
     0
 71
     0
 10
484.46868736308
 20
-172.93644081309
 30
0.0
  3
Zwischenst_ck__1
  1

  0
POINT
  5
EC
330
39
100
AcDbEntity
  8
1
 62
     3
 60
     1
100
AcDbPoint
 10
271.0000000000001
 20
140.317279836453
 30
0.0
  0
POINT
  5
ED
330
39
100
AcDbEntity
  8
1
 62
     3
 60
     1
100
AcDbPoint
 10
224.0
 20
140.3172798364529
 30
0.0
  0
POINT
  5
EE
330
39
100
AcDbEntity
  8
1
 62
     3
 60
     1
100
AcDbPoint
 10
189.0775266919861
 20
140.3172798364529
 30
0.0
  0
POINT
  5
EF
330
39
100
AcDbEntity
  8
1
 62
     3
 60
     1
100
AcDbPoint
 10
224.5
 20
-24.23216821204787
 30
0.0
  0
POINT
  5
F0
330
39
100
AcDbEntity
  8
1
 62
     3
 60
     1
100
AcDbPoint
 10
271.5000000000001
 20
-24.23216821204778
 30
0.0
  0
LINE
  5
F1
330
39
100
AcDbEntity
  8
1
  6
DOT_CENTER
 62
     2
100
AcDbLine
 10
273.0000000000001
 20
105.0
 30
0.0
 11
222.0
 21
105.0
 31
0.0
  0
LINE
  5
F2
330
39
100
AcDbEntity
  8
1
  6
Continuous
 62
     7
100
AcDbLine
 10
271.0000000000001
 20
69.68272016354706
 30
0.0
 11
224.0000000000001
 21
69.68272016354706
 31
0.0
  0
LINE
  5
F3
330
39
100
AcDbEntity
  8
1
  6
Continuous
 62
     7
100
AcDbLine
 10
224.0
 20
140.3172798364529
 30
0.0
 11
224.0000000000001
 21
69.68272016354706
 31
0.0
  0
LINE
  5
F4
330
39
100
AcDbEntity
  8
1
  6
Continuous
 62
     7
100
AcDbLine
 10
271.0000000000001
 20
140.317279836453
 30
0.0
 11
271.0000000000001
 21
148.5
 31
0.0
  0
LINE
  5
F5
330
39
100
AcDbEntity
  8
1
  6
Continuous
 62
     7
100
AcDbLine
 10
224.0
 20
140.3172798364529
 30
0.0
 11
271.0000000000001
 21
140.317279836453
 31
0.0
  0
LINE
  5
F6
330
39
100
AcDbEntity
  8
1
  6
Continuous
 62
     7
100
AcDbLine
 10
224.0
 20
148.5
 30
0.0
 11
224.0
 21
140.3172798364529
 31
0.0
  0
LINE
  5
F7
330
39
100
AcDbEntity
  8
1
  6
Continuous
 62
     7
100
AcDbLine
 10
271.0000000000001
 20
61.50000000000001
 30
0.0
 11
224.0000000000001
 21
61.50000000000001
 31
0.0
  0
LINE
  5
F8
330
39
100
AcDbEntity
  8
1
  6
Continuous
 62
     7
100
AcDbLine
 10
271.0000000000001
 20
61.50000000000001
 30
0.0
 11
271.0000000000001
 21
140.317279836453
 31
0.0
  0
LINE
  5
F9
330
39
100
AcDbEntity
  8
1
  6
Continuous
 62
     7
100
AcDbLine
 10
224.0
 20
148.5
 30
0.0
 11
271.0000000000001
 21
148.5
 31
0.0
  0
LINE
  5
FA
330
39
100
AcDbEntity
  8
1
  6
Continuous
 62
     7
100
AcDbLine
 10
224.0000000000001
 20
69.68272016354706
 30
0.0
 11
224.0000000000001
 21
61.50000000000001
 31
0.0
  0
LINE
  5
FB
330
39
100
AcDbEntity
  8
1
  6
Continuous
 62
     7
100
AcDbLine
 10
224.5000000000001
 20
-94.86672788495372
 30
0.0
 11
224.5000000000001
 21
-103.0494480485008
 31
0.0
  0
LINE
  5
FC
330
39
100
AcDbEntity
  8
1
  6
Continuous
 62
     7
100
AcDbLine
 10
224.5
 20
-16.04944804850078
 30
0.0
 11
271.5000000000001
 21
-16.04944804850078
 31
0.0
  0
LINE
  5
FD
330
39
100
AcDbEntity
  8
1
  6
Continuous
 62
     7
100
AcDbLine
 10
271.5000000000001
 20
-103.0494480485008
 30
0.0
 11
271.5000000000001
 21
-24.23216821204778
 31
0.0
  0
LINE
  5
FE
330
39
100
AcDbEntity
  8
1
  6
Continuous
 62
     7
100
AcDbLine
 10
271.5000000000001
 20
-103.0494480485008
 30
0.0
 11
224.5000000000001
 21
-103.0494480485008
 31
0.0
  0
LINE
  5
FF
330
39
100
AcDbEntity
  8
1
  6
Continuous
 62
     7
100
AcDbLine
 10
224.5
 20
-16.04944804850078
 30
0.0
 11
224.5
 21
-24.23216821204787
 31
0.0
  0
LINE
  5
100
330
39
100
AcDbEntity
  8
1
  6
Continuous
 62
     7
100
AcDbLine
 10
224.5
 20
-24.23216821204787
 30
0.0
 11
271.5000000000001
 21
-24.23216821204778
 31
0.0
  0
LINE
  5
101
330
39
100
AcDbEntity
  8
1
  6
Continuous
 62
     7
100
AcDbLine
 10
271.5000000000001
 20
-24.23216821204778
 30
0.0
 11
271.5000000000001
 21
-16.04944804850078
 31
0.0
  0
LINE
  5
102
330
39
100
AcDbEntity
  8
1
  6
Continuous
 62
     7
100
AcDbLine
 10
224.5
 20
-24.23216821204787
 30
0.0
 11
224.5000000000001
 21
-94.86672788495372
 31
0.0
  0
LINE
  5
103
330
39
100
AcDbEntity
  8
1
  6
Continuous
 62
     7
100
AcDbLine
 10
271.5000000000001
 20
-94.86672788495372
 30
0.0
 11
224.5000000000001
 21
-94.86672788495372
 31
0.0
  0
LINE
  5
104
330
39
100
AcDbEntity
  8
1
  6
DOT_CENTER
 62
     2
100
AcDbLine
 10
273.5000000000001
 20
-59.54944804850078
 30
0.0
 11
222.5
 21
-59.54944804850078
 31
0.0
  0
ENDBLK
  5
3B
330
39
100
AcDbEntity
  8
0
100
AcDbBlockEnd
  0
BLOCK
  5
3D
330
3C
100
AcDbEntity
  8
0
100
AcDbBlockBegin
  2
O-Ring
 70
     0
 71
     0
 10
570.8356406666401
 20
-131.2593453266859
 30
0.0
  3
O-Ring
  1

  0
LINE
  5
105
330
3C
100
AcDbEntity
  8
1
  6
Continuous
 62
     7
100
AcDbLine
 10
273.0633
 20
165.6136114126711
 30
0.0
 11
273.0633
 21
166.1886114126711
 31
0.0
  0
LINE
  5
106
330
3C
100
AcDbEntity
  8
1
  6
Continuous
 62
     7
100
AcDbLine
 10
273.0633
 20
187.7886114126711
 30
0.0
 11
273.0633
 21
188.3636114126711
 31
0.0
  0
ARC
  5
107
102
{ACAD_REACTORS
330
10B
330
10B
102
}
330
3C
100
AcDbEntity
  8
1
  6
Continuous
 62
     7
100
AcDbCircle
 10
272.2633
 20
188.3636114126711
 30
0.0
 40
0.8000000000000114
100
AcDbArc
 50
0.0
 51
180.0
  0
ARC
  5
108
102
{ACAD_REACTORS
330
10B
330
10B
102
}
330
3C
100
AcDbEntity
  8
1
  6
Continuous
 62
     7
100
AcDbCircle
 10
272.2633
 20
188.3636114126711
 30
0.0
 40
0.8000000000000114
100
AcDbArc
 50
180.0
 51
0.0
  0
CIRCLE
  5
109
102
{ACAD_REACTORS
330
10A
330
10A
102
}
330
3C
100
AcDbEntity
  8
1
  6
Continuous
 62
     7
100
AcDbCircle
 10
272.2633
 20
165.6136114126711
 30
0.0
 40
0.8000000000000114
  0
HATCH
  5
10A
330
3C
100
AcDbEntity
  8
1
  6
Continuous
 62
     2
100
AcDbHatch
 10
0.0
 20
0.0
 30
0.0
210
0.0
220
0.0
230
1.0
  2
CUSTOM0
 70
     0
 71
     1
 91
        1
 92
        1
 93
        1
 72
     2
 10
272.2633
 20
165.6136114126711
 40
0.8000000000000114
 50
0.0
 51
360.0
 73
     1
 97
        1
330
109
 75
     1
 76
     2
 52
45.0
 41
0.5
 77
     0
 78
     2
 53
45.0
 43
0.0
 44
0.0
 45
-0.7071067811865475
 46
0.0000000000000001
 79
     0
 53
135.0
 43
0.0
 44
0.0
 45
0.0000000000000003
 46
-0.7071067811865475
 79
     0
 98
        1
 10
0.0
 20
0.0
  0
HATCH
  5
10B
330
3C
100
AcDbEntity
  8
1
  6
Continuous
 62
     2
100
AcDbHatch
 10
0.0
 20
0.0
 30
0.0
210
0.0
220
0.0
230
1.0
  2
CUSTOM1
 70
     0
 71
     1
 91
        1
 92
        1
 93
        2
 72
     2
 10
272.2633
 20
188.3636114126711
 40
0.8000000000000114
 50
0.0
 51
180.0
 73
     1
 72
     2
 10
272.2633
 20
188.3636114126711
 40
0.8000000000000114
 50
180.0
 51
360.0
 73
     1
 97
        2
330
107
330
108
 75
     1
 76
     2
 52
45.0
 41
0.5
 77
     0
 78
     2
 53
45.0
 43
0.0
 44
0.0
 45
-0.7071067811865475
 46
0.0000000000000001
 79
     0
 53
135.0
 43
0.0
 44
0.0
 45
0.0000000000000003
 46
-0.7071067811865475
 79
     0
 98
        1
 10
0.0
 20
0.0
  0
ENDBLK
  5
3E
330
3C
100
AcDbEntity
  8
0
100
AcDbBlockEnd
  0
BLOCK
  5
41
330
3F
100
AcDbEntity
  8
0
100
AcDbBlockBegin
  2
Winkelflanschdose_8-polig_drehbar__2
 70
     0
 71
     0
 10
354.5238149551591
 20
-12.66173146347131
 30
0.0
  3
Winkelflanschdose_8-polig_drehbar__2
  1

  0
INSERT
  5
40
330
3F
100
AcDbEntity
  8
1
100
AcDbBlockReference
  2
O-Ring
 10
570.8356406666401
 20
-131.2593453266859
 30
0.0
  0
POINT
  5
10C
330
3F
100
AcDbEntity
  8
1
 62
     3
 60
     1
100
AcDbPoint
 10
-212.1500000000003
 20
163.5
 30
0.0
  0
POINT
  5
10D
330
3F
100
AcDbEntity
  8
1
 62
     3
 60
     1
100
AcDbPoint
 10
-212.1500000000003
 20
153.5
 30
0.0
  0
POINT
  5
10E
330
3F
100
AcDbEntity
  8
1
 62
     3
 60
     1
100
AcDbPoint
 10
-224.0000000000004
 20
164.0400642056229
 30
0.0
  0
POINT
  5
10F
330
3F
100
AcDbEntity
  8
1
 62
     3
 60
     1
100
AcDbPoint
 10
-224.0000000000004
 20
160.0000117293001
 30
0.0
  0
POINT
  5
110
330
3F
100
AcDbEntity
  8
1
 62
     3
 60
     1
100
AcDbPoint
 10
-226.0000000000004
 20
164.0400642056229
 30
0.0
  0
POINT
  5
111
330
3F
100
AcDbEntity
  8
1
 62
     3
 60
     1
100
AcDbPoint
 10
-226.0000000000004
 20
160.0000137089281
 30
0.0
  0
POINT
  5
112
330
3F
100
AcDbEntity
  8
1
 62
     3
 60
     1
100
AcDbPoint
 10
260.85
 20
160.4999765129528
 30
0.0
  0
POINT
  5
113
330
3F
100
AcDbEntity
  8
1
 62
     3
 60
     1
100
AcDbPoint
 10
260.85
 20
160.4999756716066
 30
0.0
  0
LINE
  5
114
330
3F
100
AcDbEntity
  8
1
  6
DOT_CENTER
 62
     2
100
AcDbLine
 10
248.0
 20
153.0
 30
0.0
 11
248.0
 21
146.5
 31
0.0
  0
LINE
  5
115
330
3F
100
AcDbEntity
  8
AM_VIS
  6
Continuous
 62
     7
100
AcDbLine
 10
260.85
 20
151.0
 30
0.0
 11
260.85
 21
153.9999756716065
 31
0.0
  0
LINE
  5
116
330
3F
100
AcDbEntity
  8
1
  6
Continuous
 62
     7
100
AcDbLine
 10
233.0
 20
148.5
 30
0.0
 11
263.0
 21
148.5
 31
0.0
  0
LINE
  5
117
330
3F
100
AcDbEntity
  8
1
  6
Continuous
 62
     7
100
AcDbLine
 10
263.0
 20
151.0
 30
0.0
 11
263.0
 21
148.5
 31
0.0
  0
LINE
  5
118
330
3F
100
AcDbEntity
  8
1
  6
Continuous
 62
     7
100
AcDbLine
 10
233.0
 20
151.0
 30
0.0
 11
263.0
 21
151.0
 31
0.0
  0
LINE
  5
119
330
3F
100
AcDbEntity
  8
1
  6
Continuous
 62
     7
100
AcDbLine
 10
233.0
 20
148.5
 30
0.0
 11
233.0
 21
151.0
 31
0.0
  0
LINE
  5
11A
330
3F
100
AcDbEntity
  8
AM_VIS
  6
Continuous
 62
     7
100
AcDbLine
 10
-212.1500000000003
 20
151.0
 30
0.0
 11
-212.1500000000003
 21
153.5
 31
0.0
  0
LINE
  5
11B
330
3F
100
AcDbEntity
  8
AM_VIS
  6
Continuous
 62
     7
100
AcDbLine
 10
-184.1500000000004
 20
151.0
 30
0.0
 11
-184.1500000000004
 21
153.5
 31
0.0
  0
LINE
  5
11C
330
3F
100
AcDbEntity
  8
AM_VIS
  6
Continuous
 62
     7
100
AcDbLine
 10
-213.0000000000003
 20
163.5
 30
0.0
 11
-213.0000000000003
 21
173.0000000000003
 31
0.0
  0
LINE
  5
11D
330
3F
100
AcDbEntity
  8
1
  6
Continuous
 62
     7
100
AcDbLine
 10
-212.1500000000003
 20
163.5
 30
0.0
 11
-213.0000000000003
 21
163.5
 31
0.0
  0
LINE
  5
11E
330
3F
100
AcDbEntity
  8
1
  6
Continuous
 62
     7
100
AcDbLine
 10
-212.1500000000003
 20
153.5
 30
0.0
 11
-212.1500000000003
 21
163.5
 31
0.0
  0
LINE
  5
11F
330
3F
100
AcDbEntity
  8
1
  6
Continuous
 62
     7
100
AcDbLine
 10
-224.0000000000004
 20
160.0000117293001
 30
0.0
 11
-212.8335886223296
 21
160.00000067663
 31
0.0
  0
LINE
  5
120
330
3F
100
AcDbEntity
  8
1
  6
Continuous
 62
     7
100
AcDbLine
 10
-224.0000000000004
 20
160.0000117293001
 30
0.0
 11
-224.0000000000004
 21
164.0400642056229
 31
0.0
  0
LINE
  5
121
330
3F
100
AcDbEntity
  8
1
  6
Continuous
 62
     7
100
AcDbLine
 10
-226.0000000000004
 20
160.0000137089281
 30
0.0
 11
-224.0000000000004
 21
160.0000117293001
 31
0.0
  0
LINE
  5
122
330
3F
100
AcDbEntity
  8
1
  6
Continuous
 62
     7
100
AcDbLine
 10
-226.0000000000004
 20
160.0000137089281
 30
0.0
 11
-226.0000000000004
 21
164.0400642056229
 31
0.0
  0
LINE
  5
123
330
3F
100
AcDbEntity
  8
AM_VIS
  6
Continuous
 62
     7
100
AcDbLine
 10
-237.0000000000003
 20
160.0000245968819
 30
0.0
 11
-237.0000000000003
 21
153.5
 31
0.0
  0
LINE
  5
124
330
3F
100
AcDbEntity
  8
1
  6
Continuous
 62
     7
100
AcDbLine
 10
-237.0000000000003
 20
160.0000245968819
 30
0.0
 11
-226.0000000000004
 21
160.0000137089281
 31
0.0
  0
LINE
  5
125
330
3F
100
AcDbEntity
  8
AM_VIS
  6
Continuous
 62
     7
100
AcDbLine
 10
-212.1500000000003
 20
153.5
 30
0.0
 11
-212.1632620000003
 21
153.5
 31
0.0
  0
LINE
  5
126
330
3F
100
AcDbEntity
  8
AM_VIS
  6
Continuous
 62
     7
100
AcDbLine
 10
-212.1632620000003
 20
153.5
 30
0.0
 11
-213.0000000000003
 21
153.5
 31
0.0
  0
LINE
  5
127
330
3F
100
AcDbEntity
  8
AM_VIS
  6
Continuous
 62
     7
100
AcDbLine
 10
-215.1904550000003
 20
168.7525599780977
 30
0.0
 11
-215.1904550000003
 21
153.5
 31
0.0
  0
LINE
  5
128
330
3F
100
AcDbEntity
  8
AM_VIS
  6
Continuous
 62
     7
100
AcDbLine
 10
-213.0000000000003
 20
153.5
 30
0.0
 11
-213.0000000000003
 21
163.5
 31
0.0
  0
LINE
  5
129
330
3F
100
AcDbEntity
  8
AM_VIS
  6
Continuous
 62
     7
100
AcDbLine
 10
-224.4163440000004
 20
153.5
 30
0.0
 11
-225.5836560000004
 21
153.5
 31
0.0
  0
LINE
  5
12A
330
3F
100
AcDbEntity
  8
AM_VIS
  6
Continuous
 62
     7
100
AcDbLine
 10
-218.0882100000004
 20
153.4999999999999
 30
0.0
 11
-218.0882100000004
 21
166.0847631329913
 31
0.0
  0
LINE
  5
12B
330
3F
100
AcDbEntity
  8
AM_VIS
  6
Continuous
 62
     7
100
AcDbLine
 10
-237.8500000000004
 20
153.5
 30
0.0
 11
-237.8500000000004
 21
151.0
 31
0.0
  0
LINE
  5
12C
330
3F
100
AcDbEntity
  8
AM_VIS
  6
Continuous
 62
     7
100
AcDbLine
 10
-235.0236560000004
 20
153.5
 30
0.0
 11
-237.0000000000003
 21
153.5
 31
0.0
  0
LINE
  5
12D
330
3F
100
AcDbEntity
  8
AM_VIS
  6
Continuous
 62
     7
100
AcDbLine
 10
-231.9117900000004
 20
166.0847631329911
 30
0.0
 11
-231.9117900000004
 21
153.5
 31
0.0
  0
LINE
  5
12E
330
3F
100
AcDbEntity
  8
AM_VIS
  6
Continuous
 62
     7
100
AcDbLine
 10
-234.8095440000004
 20
153.5
 30
0.0
 11
-234.8095440000004
 21
168.7525587119318
 31
0.0
  0
LINE
  5
12F
330
3F
100
AcDbEntity
  8
AM_VIS
  6
Continuous
 62
     7
100
AcDbLine
 10
-237.0000000000003
 20
172.9999999999998
 30
0.0
 11
-237.0000000000003
 21
160.0000245968819
 31
0.0
  0
LINE
  5
130
330
3F
100
AcDbEntity
  8
AM_VIS
  6
Continuous
 62
     7
100
AcDbLine
 10
-225.5836560000004
 20
153.5
 30
0.0
 11
-235.0236560000004
 21
153.5
 31
0.0
  0
LINE
  5
131
330
3F
100
AcDbEntity
  8
AM_VIS
  6
Continuous
 62
     7
100
AcDbLine
 10
-214.9763440000003
 20
153.5
 30
0.0
 11
-224.4163440000004
 21
153.5
 31
0.0
  0
LINE
  5
132
330
3F
100
AcDbEntity
  8
AM_VIS
  6
Continuous
 62
     7
100
AcDbLine
 10
-213.0000000000003
 20
153.5
 30
0.0
 11
-214.9763440000003
 21
153.5
 31
0.0
  0
LINE
  5
133
330
3F
100
AcDbEntity
  8
AM_VIS
  6
Continuous
 62
     7
100
AcDbLine
 10
-237.0000000000003
 20
153.5
 30
0.0
 11
-237.8500000000004
 21
153.5
 31
0.0
  0
LINE
  5
134
330
3F
100
AcDbEntity
  8
AM_VIS
  6
Continuous
 62
     2
100
AcDbLine
 10
-233.046816314736
 20
184.993453196251
 30
0.0
 11
-233.0469190000004
 21
184.993453
 31
0.0
  0
LINE
  5
135
330
3F
100
AcDbEntity
  8
AM_VIS
  6
Continuous
 62
     7
100
AcDbLine
 10
-229.9191270000004
 20
186.95
 30
0.0
 11
-229.9193490000004
 21
186.95
 31
0.0
  0
LINE
  5
136
330
3F
100
AcDbEntity
  8
1
  6
Continuous
 62
     7
100
AcDbLine
 10
260.85
 20
160.4999756716066
 30
0.0
 11
260.85
 21
160.4999765129528
 31
0.0
  0
LINE
  5
137
330
3F
100
AcDbEntity
  8
1
  6
Continuous
 62
     7
100
AcDbLine
 10
260.85
 20
160.4999765129528
 30
0.0
 11
260.0
 21
160.4999765129528
 31
0.0
  0
LINE
  5
138
330
3F
100
AcDbEntity
  8
AM_VIS
  6
Continuous
 62
     7
100
AcDbLine
 10
260.0
 20
164.4999756716066
 30
0.0
 11
260.85
 21
164.4999756716066
 31
0.0
  0
LINE
  5
139
330
3F
100
AcDbEntity
  8
1
  6
Continuous
 62
     7
100
AcDbLine
 10
260.85
 20
160.4999765129528
 30
0.0
 11
260.85
 21
164.4999756716066
 31
0.0
  0
LINE
  5
13A
330
3F
100
AcDbEntity
  8
AM_VIS
  6
Continuous
 62
     2
100
AcDbLine
 10
270.6633
 20
184.5162736716066
 30
0.0
 11
259.617257
 21
184.5162736716066
 31
0.0
  0
LINE
  5
13B
330
3F
100
AcDbEntity
  8
AM_VIS
  6
Continuous
 62
     2
100
AcDbLine
 10
270.6633
 20
183.3510956716066
 30
0.0
 11
260.294643
 21
183.3510956716067
 31
0.0
  0
LINE
  5
13C
330
3F
100
AcDbEntity
  8
AM_VIS
  6
Continuous
 62
     2
100
AcDbLine
 10
270.6633
 20
182.4233356716066
 30
0.0
 11
260.5447859999999
 21
182.4233356716066
 31
0.0
  0
LINE
  5
13D
330
3F
100
AcDbEntity
  8
AM_VIS
  6
Continuous
 62
     2
100
AcDbLine
 10
270.6633
 20
181.1286586716066
 30
0.0
 11
260.7063719957957
 21
181.1286586716066
 31
0.0
  0
LINE
  5
13E
330
3F
100
AcDbEntity
  8
AM_VIS
  6
Continuous
 62
     2
100
AcDbLine
 10
270.6633
 20
180.1219816716066
 30
0.0
 11
260.754623
 21
180.1219816716066
 31
0.0
  0
LINE
  5
13F
330
3F
100
AcDbEntity
  8
AM_VIS
  6
Continuous
 62
     2
100
AcDbLine
 10
270.6633
 20
178.7475596716065
 30
0.0
 11
260.7725729999999
 21
178.7475596716066
 31
0.0
  0
LINE
  5
140
330
3F
100
AcDbEntity
  8
AM_VIS
  6
Continuous
 62
     2
100
AcDbLine
 10
270.6633
 20
176.2993016716066
 30
0.0
 11
260.7668428460327
 21
176.2993016716066
 31
0.0
  0
LINE
  5
141
330
3F
100
AcDbEntity
  8
AM_VIS
  6
Continuous
 62
     2
100
AcDbLine
 10
270.6633
 20
177.7006496716066
 30
0.0
 11
260.7691566728931
 21
177.7006496716066
 31
0.0
  0
LINE
  5
142
330
3F
100
AcDbEntity
  8
AM_VIS
  6
Continuous
 62
     7
100
AcDbLine
 10
270.6633
 20
189.8254286716066
 30
0.0
 11
270.6633
 21
189.9999756716066
 31
0.0
  0
LINE
  5
143
330
3F
100
AcDbEntity
  8
AM_VIS
  6
Continuous
 62
     7
100
AcDbLine
 10
270.6633
 20
189.5915946716066
 30
0.0
 11
270.6633
 21
189.8254286716066
 31
0.0
  0
LINE
  5
144
330
3F
100
AcDbEntity
  8
AM_VIS
  6
Continuous
 62
     7
100
AcDbLine
 10
270.6633
 20
189.5915946716066
 30
0.0
 11
270.6633
 21
188.5499756716065
 31
0.0
  0
LINE
  5
145
330
3F
100
AcDbEntity
  8
AM_VIS
  6
Continuous
 62
     7
100
AcDbLine
 10
270.6633
 20
187.2120616716066
 30
0.0
 11
270.6633
 21
186.3196376716066
 31
0.0
  0
LINE
  5
146
330
3F
100
AcDbEntity
  8
AM_VIS
  6
Continuous
 62
     7
100
AcDbLine
 10
270.6633
 20
185.3294626716066
 30
0.0
 11
270.6633
 21
184.5162736716066
 31
0.0
  0
LINE
  5
147
330
3F
100
AcDbEntity
  8
AM_VIS
  6
Continuous
 62
     7
100
AcDbLine
 10
273.6633
 20
188.5499756716065
 30
0.0
 11
273.0633
 21
188.5499756716065
 31
0.0
  0
LINE
  5
148
330
3F
100
AcDbEntity
  8
AM_VIS
  6
Continuous
 62
     7
100
AcDbLine
 10
273.0633
 20
187.5749756716066
 30
0.0
 11
271.4633
 21
187.5749756716066
 31
0.0
  0
LINE
  5
149
330
3F
100
AcDbEntity
  8
AM_VIS
  6
Continuous
 62
     7
100
AcDbLine
 10
271.4633
 20
188.5499756716065
 30
0.0
 11
270.6633
 21
188.5499756716065
 31
0.0
  0
LINE
  5
14A
330
3F
100
AcDbEntity
  8
AM_VIS
  6
Continuous
 62
     7
100
AcDbLine
 10
278.6633
 20
188.4999756716066
 30
0.0
 11
273.6633
 21
188.4999756716066
 31
0.0
  0
LINE
  5
14B
330
3F
100
AcDbEntity
  8
AM_VIS
  6
Continuous
 62
     7
100
AcDbLine
 10
270.6633
 20
183.3510956716066
 30
0.0
 11
270.6633
 21
182.4233356716066
 31
0.0
  0
LINE
  5
14C
330
3F
100
AcDbEntity
  8
AM_VIS
  6
Continuous
 62
     7
100
AcDbLine
 10
270.6633
 20
181.1286586716066
 30
0.0
 11
270.6633
 21
182.4233356716066
 31
0.0
  0
LINE
  5
14D
330
3F
100
AcDbEntity
  8
AM_VIS
  6
Continuous
 62
     7
100
AcDbLine
 10
270.6633
 20
181.1286586716066
 30
0.0
 11
270.6633
 21
180.1219816716066
 31
0.0
  0
LINE
  5
14E
330
3F
100
AcDbEntity
  8
AM_VIS
  6
Continuous
 62
     7
100
AcDbLine
 10
270.6633
 20
178.7475596716065
 30
0.0
 11
270.6633
 21
180.1219816716066
 31
0.0
  0
LINE
  5
14F
330
3F
100
AcDbEntity
  8
AM_VIS
  6
Continuous
 62
     7
100
AcDbLine
 10
270.6633
 20
178.7475596716065
 30
0.0
 11
270.6633
 21
177.7006496716066
 31
0.0
  0
LINE
  5
150
330
3F
100
AcDbEntity
  8
AM_VIS
  6
Continuous
 62
     7
100
AcDbLine
 10
270.6633
 20
176.2993016716066
 30
0.0
 11
270.6633
 21
177.7006496716066
 31
0.0
  0
LINE
  5
151
330
3F
100
AcDbEntity
  8
AM_VIS
  6
Continuous
 62
     7
100
AcDbLine
 10
270.6633
 20
176.2993016716066
 30
0.0
 11
270.6633
 21
175.7845626716066
 31
0.0
  0
LINE
  5
152
330
3F
100
AcDbEntity
  8
AM_VIS
  6
Continuous
 62
     7
100
AcDbLine
 10
270.6633
 20
167.6795866716066
 30
0.0
 11
270.6633
 21
168.6704886716066
 31
0.0
  0
LINE
  5
153
330
3F
100
AcDbEntity
  8
AM_VIS
  6
Continuous
 62
     7
100
AcDbLine
 10
273.6633
 20
181.0941786716066
 30
0.0
 11
273.6633
 21
180.9509246716066
 31
0.0
  0
LINE
  5
154
330
3F
100
AcDbEntity
  8
AM_VIS
  6
Continuous
 62
     7
100
AcDbLine
 10
273.0633
 20
181.0941786716066
 30
0.0
 11
273.6633
 21
181.0941786716066
 31
0.0
  0
LINE
  5
155
330
3F
100
AcDbEntity
  8
AM_VIS
  6
Continuous
 62
     7
100
AcDbLine
 10
273.0633
 20
172.9057726716066
 30
0.0
 11
273.0633
 21
181.0941786716066
 31
0.0
  0
LINE
  5
156
330
3F
100
AcDbEntity
  8
AM_VIS
  6
Continuous
 62
     7
100
AcDbLine
 10
273.6633
 20
172.9057726716066
 30
0.0
 11
273.0633
 21
172.9057726716066
 31
0.0
  0
LINE
  5
157
330
3F
100
AcDbEntity
  8
AM_VIS
  6
Continuous
 62
     7
100
AcDbLine
 10
273.6633
 20
173.0490266716065
 30
0.0
 11
273.6633
 21
172.9057726716066
 31
0.0
  0
LINE
  5
158
330
3F
100
AcDbEntity
  8
AM_VIS
  6
Continuous
 62
     7
100
AcDbLine
 10
273.0633
 20
165.4499756716066
 30
0.0
 11
273.0633
 21
166.4249756716065
 31
0.0
  0
LINE
  5
159
330
3F
100
AcDbEntity
  8
AM_VIS
  6
Continuous
 62
     7
100
AcDbLine
 10
270.6633
 20
175.7845626716066
 30
0.0
 11
270.6633
 21
175.2523916716066
 31
0.0
  0
LINE
  5
15A
330
3F
100
AcDbEntity
  8
AM_VIS
  6
Continuous
 62
     7
100
AcDbLine
 10
270.6633
 20
173.8779696716066
 30
0.0
 11
270.6633
 21
175.2523916716066
 31
0.0
  0
LINE
  5
15B
330
3F
100
AcDbEntity
  8
AM_VIS
  6
Continuous
 62
     7
100
AcDbLine
 10
270.6633
 20
173.8779696716066
 30
0.0
 11
270.6633
 21
172.8712916716066
 31
0.0
  0
LINE
  5
15C
330
3F
100
AcDbEntity
  8
AM_VIS
  6
Continuous
 62
     7
100
AcDbLine
 10
270.6633
 20
171.5766156716066
 30
0.0
 11
270.6633
 21
172.8712916716066
 31
0.0
  0
LINE
  5
15D
330
3F
100
AcDbEntity
  8
AM_VIS
  6
Continuous
 62
     7
100
AcDbLine
 10
270.6633
 20
171.5766156716066
 30
0.0
 11
270.6633
 21
170.6488556716065
 31
0.0
  0
LINE
  5
15E
330
3F
100
AcDbEntity
  8
AM_VIS
  6
Continuous
 62
     7
100
AcDbLine
 10
270.6633
 20
169.4836776716066
 30
0.0
 11
270.6633
 21
170.6488556716065
 31
0.0
  0
LINE
  5
15F
330
3F
100
AcDbEntity
  8
AM_VIS
  6
Continuous
 62
     7
100
AcDbLine
 10
270.6633
 20
169.4836776716066
 30
0.0
 11
270.6633
 21
168.6704886716066
 31
0.0
  0
LINE
  5
160
330
3F
100
AcDbEntity
  8
AM_VIS
  6
Continuous
 62
     7
100
AcDbLine
 10
270.6633
 20
167.6795866716066
 30
0.0
 11
270.6633
 21
167.0122196716066
 31
0.0
  0
LINE
  5
161
330
3F
100
AcDbEntity
  8
AM_VIS
  6
Continuous
 62
     7
100
AcDbLine
 10
270.6633
 20
166.2336726716066
 30
0.0
 11
270.6633
 21
167.0122196716066
 31
0.0
  0
LINE
  5
162
330
3F
100
AcDbEntity
  8
AM_VIS
  6
Continuous
 62
     7
100
AcDbLine
 10
270.6633
 20
166.2336726716066
 30
0.0
 11
270.6633
 21
165.7377746716066
 31
0.0
  0
LINE
  5
163
330
3F
100
AcDbEntity
  8
AM_VIS
  6
Continuous
 62
     7
100
AcDbLine
 10
273.6633
 20
165.4499756716066
 30
0.0
 11
273.6633
 21
165.4999756716066
 31
0.0
  0
LINE
  5
164
330
3F
100
AcDbEntity
  8
AM_VIS
  6
Continuous
 62
     7
100
AcDbLine
 10
273.0633
 20
165.4499756716066
 30
0.0
 11
273.6633
 21
165.4499756716066
 31
0.0
  0
LINE
  5
165
330
3F
100
AcDbEntity
  8
AM_VIS
  6
Continuous
 62
     7
100
AcDbLine
 10
271.4633
 20
166.4249756716065
 30
0.0
 11
273.0633
 21
166.4249756716065
 31
0.0
  0
LINE
  5
166
330
3F
100
AcDbEntity
  8
AM_VIS
  6
Continuous
 62
     7
100
AcDbLine
 10
270.6633
 20
165.4499756716066
 30
0.0
 11
271.4633
 21
165.4499756716066
 31
0.0
  0
LINE
  5
167
330
3F
100
AcDbEntity
  8
AM_VIS
  6
Continuous
 62
     7
100
AcDbLine
 10
273.6633
 20
180.9509246716066
 30
0.0
 11
278.6633
 21
180.9509246716066
 31
0.0
  0
LINE
  5
168
330
3F
100
AcDbEntity
  8
AM_VIS
  6
Continuous
 62
     7
100
AcDbLine
 10
278.6633
 20
173.0490266716065
 30
0.0
 11
273.6633
 21
173.0490266716065
 31
0.0
  0
LINE
  5
169
330
3F
100
AcDbEntity
  8
AM_VIS
  6
Continuous
 62
     7
100
AcDbLine
 10
273.6633
 20
165.4999756716066
 30
0.0
 11
278.6633
 21
165.4999756716066
 31
0.0
  0
LINE
  5
16A
330
3F
100
AcDbEntity
  8
AM_VIS
  6
Continuous
 62
     7
100
AcDbLine
 10
270.6633
 20
183.3510956716066
 30
0.0
 11
270.6633
 21
184.5162736716066
 31
0.0
  0
LINE
  5
16B
330
3F
100
AcDbEntity
  8
AM_VIS
  6
Continuous
 62
     7
100
AcDbLine
 10
273.0633
 20
181.0941786716066
 30
0.0
 11
273.0633
 21
187.5749756716066
 31
0.0
  0
LINE
  5
16C
330
3F
100
AcDbEntity
  8
AM_VIS
  6
Continuous
 62
     7
100
AcDbLine
 10
273.6633
 20
181.0941786716066
 30
0.0
 11
273.6633
 21
188.4999756716066
 31
0.0
  0
LINE
  5
16D
330
3F
100
AcDbEntity
  8
AM_VIS
  6
Continuous
 62
     7
100
AcDbLine
 10
271.4633
 20
165.4499756716066
 30
0.0
 11
271.4633
 21
166.4249756716065
 31
0.0
  0
LINE
  5
16E
330
3F
100
AcDbEntity
  8
AM_VIS
  6
Continuous
 62
     7
100
AcDbLine
 10
266.4714229999999
 20
189.9999756716066
 30
0.0
 11
266.4714229999999
 21
189.9713986716065
 31
0.0
  0
LINE
  5
16F
330
3F
100
AcDbEntity
  8
AM_VIS
  6
Continuous
 62
     7
100
AcDbLine
 10
266.4714229999999
 20
189.9713986716065
 30
0.0
 11
264.9714229999999
 21
189.9713986716065
 31
0.0
  0
LINE
  5
170
330
3F
100
AcDbEntity
  8
AM_VIS
  6
Continuous
 62
     7
100
AcDbLine
 10
264.992856
 20
189.9928306716065
 30
0.0
 11
265.0
 21
189.9999756716066
 31
0.0
  0
LINE
  5
171
330
3F
100
AcDbEntity
  8
AM_VIS
  6
Continuous
 62
     7
100
AcDbLine
 10
264.9714229999999
 20
189.9713986716065
 30
0.0
 11
264.992856
 21
189.9928306716065
 31
0.0
  0
LINE
  5
172
330
3F
100
AcDbEntity
  8
AM_VIS
  6
Continuous
 62
     7
100
AcDbLine
 10
265.0
 20
189.9999756716066
 30
0.0
 11
235.1633
 21
189.9999756716066
 31
0.0
  0
LINE
  5
173
330
3F
100
AcDbEntity
  8
AM_VIS
  6
Continuous
 62
     2
100
AcDbLine
 10
270.6633
 20
187.2120616716066
 30
0.0
 11
237.37412
 21
187.2120616716066
 31
0.0
  0
LINE
  5
174
330
3F
100
AcDbEntity
  8
AM_VIS
  6
Continuous
 62
     2
100
AcDbLine
 10
270.6633
 20
186.3196376716066
 30
0.0
 11
238.0399249999999
 21
186.3196376716066
 31
0.0
  0
LINE
  5
175
330
3F
100
AcDbEntity
  8
AM_VIS
  6
Continuous
 62
     2
100
AcDbLine
 10
270.6633
 20
167.6795866716066
 30
0.0
 11
256.6382669999999
 21
167.6795866716066
 31
0.0
  0
LINE
  5
176
330
3F
100
AcDbEntity
  8
AM_VIS
  6
Continuous
 62
     2
100
AcDbLine
 10
270.6633
 20
168.6704886716066
 30
0.0
 11
258.240886
 21
168.6704886716066
 31
0.0
  0
LINE
  5
177
330
3F
100
AcDbEntity
  8
AM_VIS
  6
Continuous
 62
     7
100
AcDbLine
 10
270.6633
 20
175.7845626716066
 30
0.0
 11
260.7715189999999
 21
175.7845626716066
 31
0.0
  0
LINE
  5
178
330
3F
100
AcDbEntity
  8
AM_VIS
  6
Continuous
 62
     2
100
AcDbLine
 10
270.6633
 20
175.2523916716066
 30
0.0
 11
260.7725729999999
 21
175.2523916716066
 31
0.0
  0
LINE
  5
179
330
3F
100
AcDbEntity
  8
AM_VIS
  6
Continuous
 62
     2
100
AcDbLine
 10
270.6633
 20
173.8779696716066
 30
0.0
 11
260.754623
 21
173.8779696716066
 31
0.0
  0
LINE
  5
17A
330
3F
100
AcDbEntity
  8
AM_VIS
  6
Continuous
 62
     2
100
AcDbLine
 10
270.6633
 20
172.8712916716066
 30
0.0
 11
260.7063719999999
 21
172.8712916716066
 31
0.0
  0
LINE
  5
17B
330
3F
100
AcDbEntity
  8
AM_VIS
  6
Continuous
 62
     2
100
AcDbLine
 10
270.6633
 20
171.5766156716066
 30
0.0
 11
260.5447859999999
 21
171.5766156716066
 31
0.0
  0
LINE
  5
17C
330
3F
100
AcDbEntity
  8
AM_VIS
  6
Continuous
 62
     2
100
AcDbLine
 10
270.6633
 20
170.6488556716065
 30
0.0
 11
260.294643
 21
170.6488556716065
 31
0.0
  0
LINE
  5
17D
330
3F
100
AcDbEntity
  8
AM_VIS
  6
Continuous
 62
     2
100
AcDbLine
 10
270.6633
 20
169.4836776716066
 30
0.0
 11
259.617257
 21
169.4836776716066
 31
0.0
  0
LINE
  5
17E
330
3F
100
AcDbEntity
  8
AM_VIS
  6
Continuous
 62
     2
100
AcDbLine
 10
270.6633
 20
167.0122196716066
 30
0.0
 11
257.354425
 21
167.0122196716066
 31
0.0
  0
LINE
  5
17F
330
3F
100
AcDbEntity
  8
AM_VIS
  6
Continuous
 62
     2
100
AcDbLine
 10
270.6633
 20
166.2336726716066
 30
0.0
 11
258.1815169999999
 21
166.2336726716066
 31
0.0
  0
LINE
  5
180
330
3F
100
AcDbEntity
  8
AM_VIS
  6
Continuous
 62
     2
100
AcDbLine
 10
270.6633
 20
165.7377746716066
 30
0.0
 11
258.70454
 21
165.7377746716066
 31
0.0
  0
LINE
  5
181
330
3F
100
AcDbEntity
  8
AM_VIS
  6
Continuous
 62
     2
100
AcDbLine
 10
270.6633
 20
165.2015026716066
 30
0.0
 11
259.3139885466304
 21
165.2015026716066
 31
0.0
  0
LINE
  5
182
330
3F
100
AcDbEntity
  8
AM_VIS
  6
Continuous
 62
     2
100
AcDbLine
 10
270.6633
 20
164.8961296716065
 30
0.0
 11
259.5867639999999
 21
164.8961296716065
 31
0.0
  0
LINE
  5
183
330
3F
100
AcDbEntity
  8
AM_VIS
  6
Continuous
 62
     2
100
AcDbLine
 10
270.6633
 20
164.6227406716065
 30
0.0
 11
259.9583334097916
 21
164.6227406716065
 31
0.0
  0
LINE
  5
184
330
3F
100
AcDbEntity
  8
AM_VIS
  6
Continuous
 62
     2
100
AcDbLine
 10
270.6633
 20
164.5196286716066
 30
0.0
 11
259.979527
 21
164.5196286716066
 31
0.0
  0
LINE
  5
185
330
3F
100
AcDbEntity
  8
AM_VIS
  6
Continuous
 62
     7
100
AcDbLine
 10
270.6633
 20
189.9999756716066
 30
0.0
 11
266.4714229999999
 21
189.9999756716066
 31
0.0
  0
LINE
  5
186
330
3F
100
AcDbEntity
  8
AM_VIS
  6
Continuous
 62
     7
100
AcDbLine
 10
260.85
 20
164.4999756716066
 30
0.0
 11
270.6633
 21
164.4999756716066
 31
0.0
  0
LINE
  5
187
330
3F
100
AcDbEntity
  8
AM_VIS
  6
Continuous
 62
     7
100
AcDbLine
 10
273.0633
 20
166.4249756716065
 30
0.0
 11
273.0633
 21
172.9057726716066
 31
0.0
  0
LINE
  5
188
330
3F
100
AcDbEntity
  8
AM_VIS
  6
Continuous
 62
     7
100
AcDbLine
 10
271.4633
 20
166.4249756716065
 30
0.0
 11
271.4633
 21
187.5749756716066
 31
0.0
  0
LINE
  5
189
330
3F
100
AcDbEntity
  8
AM_VIS
  6
Continuous
 62
     7
100
AcDbLine
 10
271.4633
 20
187.5749756716066
 30
0.0
 11
271.4633
 21
188.5499756716065
 31
0.0
  0
LINE
  5
18A
330
3F
100
AcDbEntity
  8
AM_VIS
  6
Continuous
 62
     7
100
AcDbLine
 10
273.0633
 20
187.5749756716066
 30
0.0
 11
273.0633
 21
188.5499756716065
 31
0.0
  0
LINE
  5
18B
330
3F
100
AcDbEntity
  8
AM_VIS
  6
Continuous
 62
     7
100
AcDbLine
 10
270.6633
 20
188.5499756716065
 30
0.0
 11
270.6633
 21
187.2120616716066
 31
0.0
  0
LINE
  5
18C
330
3F
100
AcDbEntity
  8
AM_VIS
  6
Continuous
 62
     7
100
AcDbLine
 10
270.6633
 20
164.4999756716066
 30
0.0
 11
270.6633
 21
164.5196286716066
 31
0.0
  0
LINE
  5
18D
330
3F
100
AcDbEntity
  8
AM_VIS
  6
Continuous
 62
     7
100
AcDbLine
 10
273.6633
 20
188.4999756716066
 30
0.0
 11
273.6633
 21
188.5499756716065
 31
0.0
  0
LINE
  5
18E
330
3F
100
AcDbEntity
  8
AM_VIS
  6
Continuous
 62
     7
100
AcDbLine
 10
270.6633
 20
165.2015026716066
 30
0.0
 11
270.6633
 21
165.4499756716066
 31
0.0
  0
LINE
  5
18F
330
3F
100
AcDbEntity
  8
AM_VIS
  6
Continuous
 62
     7
100
AcDbLine
 10
270.6633
 20
164.8961296716065
 30
0.0
 11
270.6633
 21
165.2015026716066
 31
0.0
  0
LINE
  5
190
330
3F
100
AcDbEntity
  8
AM_VIS
  6
Continuous
 62
     7
100
AcDbLine
 10
270.6633
 20
164.6227406716065
 30
0.0
 11
270.6633
 21
164.8961296716065
 31
0.0
  0
LINE
  5
191
330
3F
100
AcDbEntity
  8
AM_VIS
  6
Continuous
 62
     7
100
AcDbLine
 10
270.6633
 20
164.5196286716066
 30
0.0
 11
270.6633
 21
164.6227406716065
 31
0.0
  0
LINE
  5
192
330
3F
100
AcDbEntity
  8
AM_VIS
  6
Continuous
 62
     7
100
AcDbLine
 10
270.6633
 20
165.4499756716066
 30
0.0
 11
270.6633
 21
165.7377746716066
 31
0.0
  0
LINE
  5
193
330
3F
100
AcDbEntity
  8
AM_VIS
  6
Continuous
 62
     7
100
AcDbLine
 10
273.6633
 20
165.4999756716066
 30
0.0
 11
273.6633
 21
172.9057726716066
 31
0.0
  0
LINE
  5
194
330
3F
100
AcDbEntity
  8
AM_VIS
  6
Continuous
 62
     7
100
AcDbLine
 10
238.190453
 20
153.9999756716065
 30
0.0
 11
238.190453
 21
166.5799756716066
 31
0.0
  0
LINE
  5
195
330
3F
100
AcDbEntity
  8
AM_VIS
  6
Continuous
 62
     7
100
AcDbLine
 10
241.08821
 20
153.9999756716066
 30
0.0
 11
238.190453
 21
153.9999756716065
 31
0.0
  0
LINE
  5
196
330
3F
100
AcDbEntity
  8
AM_VIS
  6
Continuous
 62
     2
100
AcDbLine
 10
235.1633
 20
164.4999756716066
 30
0.0
 11
235.163615860592
 21
164.4999756716066
 31
0.0
  0
LINE
  5
197
330
3F
100
AcDbEntity
  8
1
  6
Continuous
 62
     3
100
AcDbLine
 10
243.857194
 20
171.5766156716066
 30
0.0
 11
245.810016
 21
172.8712916716066
 31
0.0
  0
LINE
  5
198
330
3F
100
AcDbEntity
  8
AM_VIS
  6
Continuous
 62
     2
100
AcDbLine
 10
254.392178
 20
173.8779696716066
 30
0.0
 11
242.684428
 21
173.8779696716066
 31
0.0
  0
LINE
  5
199
330
3F
100
AcDbEntity
  8
1
  6
Continuous
 62
     3
100
AcDbLine
 10
250.189984
 20
172.8712916716066
 30
0.0
 11
252.1428060000001
 21
171.5766156716066
 31
0.0
  0
LINE
  5
19A
330
3F
100
AcDbEntity
  8
1
  6
Continuous
 62
     3
100
AcDbLine
 10
235.1633
 20
189.9999756716066
 30
0.0
 11
236.163134
 21
189.7876526716066
 31
0.0
  0
LINE
  5
19B
330
3F
100
AcDbEntity
  8
1
  6
Continuous
 62
     3
100
AcDbLine
 10
235.163615860592
 20
164.4999756716066
 30
0.0
 11
237.449235
 21
167.0122196716066
 31
0.0
  0
LINE
  5
19C
330
3F
100
AcDbEntity
  8
1
  6
Continuous
 62
     3
100
AcDbLine
 10
238.8940724012467
 20
185.3294626716066
 30
0.0
 11
242.102353
 21
181.1286586716066
 31
0.0
  0
LINE
  5
19D
330
3F
100
AcDbEntity
  8
1
  6
Continuous
 62
     3
100
AcDbLine
 10
254.392178
 20
173.8779696716066
 30
0.0
 11
254.392178
 21
180.1219816716066
 31
0.0
  0
LINE
  5
19E
330
3F
100
AcDbEntity
  8
1
  6
Continuous
 62
     3
100
AcDbLine
 10
260.754623
 20
173.8779696716066
 30
0.0
 11
260.754623
 21
180.1219816716066
 31
0.0
  0
LINE
  5
19F
330
3F
100
AcDbEntity
  8
AM_VIS
  6
Continuous
 62
     7
100
AcDbLine
 10
260.0
 20
153.9999756716065
 30
0.0
 11
260.0
 21
160.4999765129528
 31
0.0
  0
LINE
  5
1A0
330
3F
100
AcDbEntity
  8
AM_VIS
  6
Continuous
 62
     7
100
AcDbLine
 10
236.0
 20
160.9999756716066
 30
0.0
 11
236.0
 21
160.5000002684885
 31
0.0
  0
LINE
  5
1A1
330
3F
100
AcDbEntity
  8
1
  6
Continuous
 62
     7
100
AcDbLine
 10
243.08821
 20
160.4999932524791
 30
0.0
 11
260.0
 21
160.4999765129528
 31
0.0
  0
LINE
  5
1A2
330
3F
100
AcDbEntity
  8
AM_VIS
  6
Continuous
 62
     7
100
AcDbLine
 10
236.0
 20
160.5000002684885
 30
0.0
 11
236.0
 21
153.9999756716065
 31
0.0
  0
LINE
  5
1A3
330
3F
100
AcDbEntity
  8
1
  6
DOT_CENTER
 62
     2
100
AcDbLine
 10
257.910104
 20
147.6301587325096
 30
0.0
 11
257.910104
 21
154.5733251525486
 31
0.0
  0
LINE
  5
1A4
330
3F
100
AcDbEntity
  8
1
  6
DOT_CENTER
 62
     2
100
AcDbLine
 10
238.089896
 20
154.5733251525486
 30
0.0
 11
238.089896
 21
147.6301587325096
 31
0.0
  0
LINE
  5
1A5
330
3F
100
AcDbEntity
  8
AM_VIS
  6
Continuous
 62
     7
100
AcDbLine
 10
260.85
 20
153.9999756716065
 30
0.0
 11
260.0
 21
153.9999756716065
 31
0.0
  0
LINE
  5
1A6
330
3F
100
AcDbEntity
  8
AM_VIS
  6
Continuous
 62
     7
100
AcDbLine
 10
248.583656
 20
153.9999756716066
 30
0.0
 11
247.416345
 21
153.9999756716066
 31
0.0
  0
LINE
  5
1A7
330
3F
100
AcDbEntity
  8
AM_VIS
  6
Continuous
 62
     7
100
AcDbLine
 10
254.91179
 20
153.9999756716065
 30
0.0
 11
248.583656
 21
153.9999756716066
 31
0.0
  0
LINE
  5
1A8
330
3F
100
AcDbEntity
  8
AM_VIS
  6
Continuous
 62
     7
100
AcDbLine
 10
237.976345
 20
153.9999756716065
 30
0.0
 11
236.0
 21
153.9999756716065
 31
0.0
  0
LINE
  5
1A9
330
3F
100
AcDbEntity
  8
AM_VIS
  6
Continuous
 62
     7
100
AcDbLine
 10
235.15
 20
153.9999756716066
 30
0.0
 11
235.15
 21
151.0
 31
0.0
  0
LINE
  5
1AA
330
3F
100
AcDbEntity
  8
AM_VIS
  6
Continuous
 62
     7
100
AcDbLine
 10
238.190453
 20
153.9999756716065
 30
0.0
 11
237.976345
 21
153.9999756716065
 31
0.0
  0
LINE
  5
1AB
330
3F
100
AcDbEntity
  8
AM_VIS
  6
Continuous
 62
     7
100
AcDbLine
 10
260.85
 20
148.4999756716066
 30
0.0
 11
260.1664034693444
 21
148.4999763482399
 31
0.0
  0
LINE
  5
1AC
330
3F
100
AcDbEntity
  8
AM_VIS
  6
Continuous
 62
     7
100
AcDbLine
 10
236.0
 20
153.9999756716065
 30
0.0
 11
235.15
 21
153.9999756716066
 31
0.0
  0
LINE
  5
1AD
330
3F
100
AcDbEntity
  8
AM_VIS
  6
Continuous
 62
     7
100
AcDbLine
 10
236.2712470486784
 20
148.4999999999999
 30
0.0
 11
235.15
 21
148.5000011098259
 31
0.0
  0
LINE
  5
1AE
330
3F
100
AcDbEntity
  8
AM_VIS
  6
Continuous
 62
     7
100
AcDbLine
 10
260.0
 20
153.9999756716065
 30
0.0
 11
258.0236559999999
 21
153.9999756716066
 31
0.0
  0
LINE
  5
1AF
330
3F
100
AcDbEntity
  8
1
  6
Continuous
 62
     2
100
AcDbLine
 10
238.8940724012467
 20
185.3294626716066
 30
0.0
 11
270.6633
 21
185.3294626716066
 31
0.0
  0
LINE
  5
1B0
330
3F
100
AcDbEntity
  8
1
  6
Continuous
 62
     2
100
AcDbLine
 10
242.102353
 20
181.1286586716066
 30
0.0
 11
254.440428
 21
181.1286596716066
 31
0.0
  0
LINE
  5
1B1
330
3F
100
AcDbEntity
  8
AM_VIS
  6
Continuous
 62
     2
100
AcDbLine
 10
254.375282
 20
177.7006496716066
 30
0.0
 11
243.516365
 21
177.7006496716066
 31
0.0
  0
LINE
  5
1B2
330
3F
100
AcDbEntity
  8
AM_VIS
  6
Continuous
 62
     2
100
AcDbLine
 10
254.374228
 20
178.7475596716066
 30
0.0
 11
243.2731189999999
 21
178.7475596716066
 31
0.0
  0
LINE
  5
1B3
330
3F
100
AcDbEntity
  8
AM_VIS
  6
Continuous
 62
     2
100
AcDbLine
 10
254.392178
 20
180.1219816716066
 30
0.0
 11
242.684428
 21
180.1219816716066
 31
0.0
  0
LINE
  5
1B4
330
3F
100
AcDbEntity
  8
AM_VIS
  6
Continuous
 62
     2
100
AcDbLine
 10
254.602015
 20
182.4233356716066
 30
0.0
 11
241.21932
 21
182.4233356716066
 31
0.0
  0
LINE
  5
1B5
330
3F
100
AcDbEntity
  8
AM_VIS
  6
Continuous
 62
     2
100
AcDbLine
 10
254.852157
 20
183.3510956716066
 30
0.0
 11
240.518564
 21
183.3510956716066
 31
0.0
  0
LINE
  5
1B6
330
3F
100
AcDbEntity
  8
AM_VIS
  6
Continuous
 62
     2
100
AcDbLine
 10
255.529543
 20
184.5162736716066
 30
0.0
 11
239.580639
 21
184.5162736716066
 31
0.0
  0
LINE
  5
1B7
330
3F
100
AcDbEntity
  8
AM_VIS
  6
Continuous
 62
     2
100
AcDbLine
 10
254.375282
 20
176.2993016716066
 30
0.0
 11
243.516365
 21
176.2993016716066
 31
0.0
  0
LINE
  5
1B8
330
3F
100
AcDbEntity
  8
AM_VIS
  6
Continuous
 62
     2
100
AcDbLine
 10
243.857194
 20
171.5766156716066
 30
0.0
 11
241.1982944634132
 21
171.5766156716066
 31
0.0
  0
LINE
  5
1B9
330
3F
100
AcDbEntity
  8
AM_VIS
  6
Continuous
 62
     2
100
AcDbLine
 10
242.6693062397319
 20
170.6488556716066
 30
0.0
 11
240.5315065757852
 21
170.6488556716066
 31
0.0
  0
LINE
  5
1BA
330
3F
100
AcDbEntity
  8
AM_VIS
  6
Continuous
 62
     2
100
AcDbLine
 10
241.2528538211826
 20
169.4836776716066
 30
0.0
 11
239.6299641825017
 21
169.4836776716066
 31
0.0
  0
LINE
  5
1BB
330
3F
100
AcDbEntity
  8
AM_VIS
  6
Continuous
 62
     7
100
AcDbLine
 10
235.1633
 20
189.9999756716066
 30
0.0
 11
235.1633
 21
164.4999756716066
 31
0.0
  0
LINE
  5
1BC
330
3F
100
AcDbEntity
  8
AM_VIS
  6
Continuous
 62
     7
100
AcDbLine
 10
236.0
 20
164.4999756716066
 30
0.0
 11
236.0
 21
160.9999756716066
 31
0.0
  0
LINE
  5
1BD
330
3F
100
AcDbEntity
  8
AM_VIS
  6
Continuous
 62
     7
100
AcDbLine
 10
250.7845870000004
 20
175.7845626716066
 30
0.0
 11
236.0
 21
160.9999756716066
 31
0.0
  0
LINE
  5
1BE
330
3F
100
AcDbEntity
  8
AM_VIS
  6
Continuous
 62
     7
100
AcDbLine
 10
241.08821
 20
162.9999756716065
 30
0.0
 11
241.08821
 21
153.9999756716066
 31
0.0
  0
LINE
  5
1BF
330
3F
100
AcDbEntity
  8
AM_VIS
  6
Continuous
 62
     7
100
AcDbLine
 10
236.0
 20
160.9999756716066
 30
0.0
 11
236.0
 21
160.4999756716065
 31
0.0
  0
LINE
  5
1C0
330
3F
100
AcDbEntity
  8
AM_VIS
  6
Continuous
 62
     2
100
AcDbLine
 10
235.1633
 20
164.4999756716066
 30
0.0
 11
236.0
 21
164.4999756716066
 31
0.0
  0
LINE
  5
1C1
330
3F
100
AcDbEntity
  8
AM_VIS
  6
Continuous
 62
     2
100
AcDbLine
 10
239.2080032596905
 20
167.6795866716066
 30
0.0
 11
238.0774104133234
 21
167.6795866716066
 31
0.0
  0
LINE
  5
1C2
330
3F
100
AcDbEntity
  8
AM_VIS
  6
Continuous
 62
     2
100
AcDbLine
 10
238.4930641941618
 20
167.0122196716066
 30
0.0
 11
237.449235
 21
167.0122196716066
 31
0.0
  0
LINE
  5
1C3
330
3F
100
AcDbEntity
  8
AM_VIS
  6
Continuous
 62
     2
100
AcDbLine
 10
237.6851770925454
 20
166.2336726716066
 30
0.0
 11
236.7409192774314
 21
166.2336726716066
 31
0.0
  0
LINE
  5
1C4
330
3F
100
AcDbEntity
  8
AM_VIS
  6
Continuous
 62
     2
100
AcDbLine
 10
237.1846411200888
 20
165.7377746716066
 30
0.0
 11
236.2897553140607
 21
165.7377746716066
 31
0.0
  0
LINE
  5
1C5
330
3F
100
AcDbEntity
  8
AM_VIS
  6
Continuous
 62
     2
100
AcDbLine
 10
236.6551818403198
 20
165.2015026716066
 30
0.0
 11
235.8018594141686
 21
165.2015026716066
 31
0.0
  0
LINE
  5
1C6
330
3F
100
AcDbEntity
  8
AM_VIS
  6
Continuous
 62
     2
100
AcDbLine
 10
236.3590275243502
 20
164.8961296716066
 30
0.0
 11
235.5240335447633
 21
164.8961296716066
 31
0.0
  0
LINE
  5
1C7
330
3F
100
AcDbEntity
  8
AM_VIS
  6
Continuous
 62
     2
100
AcDbLine
 10
236.0971041050798
 20
164.6227406716066
 30
0.0
 11
235.276891
 21
164.6227406716066
 31
0.0
  0
LINE
  5
1C8
330
3F
100
AcDbEntity
  8
AM_VIS
  6
Continuous
 62
     2
100
AcDbLine
 10
240.3100137589118
 20
168.6704886716066
 30
0.0
 11
238.9550941332234
 21
168.6704886716066
 31
0.0
  0
LINE
  5
1C9
330
3F
100
AcDbEntity
  8
AM_VIS
  6
Continuous
 62
     7
100
AcDbLine
 10
238.190453
 20
166.5799756716066
 30
0.0
 11
241.088215
 21
166.5799756716066
 31
0.0
  0
LINE
  5
1CA
330
3F
100
AcDbEntity
  8
AM_VIS
  6
Continuous
 62
     2
100
AcDbLine
 10
254.852157
 20
170.6488556716066
 30
0.0
 11
253.3306937602681
 21
170.6488556716066
 31
0.0
  0
LINE
  5
1CB
330
3F
100
AcDbEntity
  8
AM_VIS
  6
Continuous
 62
     2
100
AcDbLine
 10
254.374228
 20
175.2523916716066
 30
0.0
 11
243.2731189999999
 21
175.2523916716066
 31
0.0
  0
LINE
  5
1CC
330
3F
100
AcDbEntity
  8
AM_VIS
  6
Continuous
 62
     2
100
AcDbLine
 10
245.810017
 20
172.8712916716066
 30
0.0
 11
242.102353
 21
172.8712916716066
 31
0.0
  0
LINE
  5
1CD
330
3F
100
AcDbEntity
  8
AM_VIS
  6
Continuous
 62
     2
100
AcDbLine
 10
254.440428
 20
172.8712916716066
 30
0.0
 11
250.189984
 21
172.8712916716066
 31
0.0
  0
LINE
  5
1CE
330
3F
100
AcDbEntity
  8
AM_VIS
  6
Continuous
 62
     2
100
AcDbLine
 10
254.602015
 20
171.5766156716066
 30
0.0
 11
252.1428060000001
 21
171.5766156716066
 31
0.0
  0
LINE
  5
1CF
330
3F
100
AcDbEntity
  8
AM_VIS
  6
Continuous
 62
     7
100
AcDbLine
 10
254.375282
 20
175.7845626716066
 30
0.0
 11
250.7845870000004
 21
175.7845626716066
 31
0.0
  0
LINE
  5
1D0
330
3F
100
AcDbEntity
  8
AM_VIS
  6
Continuous
 62
     7
100
AcDbLine
 10
260.0
 20
160.4999765129528
 30
0.0
 11
260.0
 21
164.4999756716066
 31
0.0
  0
LINE
  5
1D1
330
3F
100
AcDbEntity
  8
AM_VIS
  6
Continuous
 62
     7
100
AcDbLine
 10
254.91179
 20
153.9999756716065
 30
0.0
 11
254.91179
 21
169.2821756716066
 31
0.0
  0
LINE
  5
1D2
330
3F
100
AcDbEntity
  8
AM_VIS
  6
Continuous
 62
     7
100
AcDbLine
 10
257.809545
 20
166.7236966415615
 30
0.0
 11
257.809545
 21
153.9999756716066
 31
0.0
  0
LINE
  5
1D3
330
3F
100
AcDbEntity
  8
AM_VIS
  6
Continuous
 62
     2
100
AcDbLine
 10
255.529543
 20
169.4836776716066
 30
0.0
 11
254.7471461788174
 21
169.4836776716066
 31
0.0
  0
LINE
  5
1D4
330
3F
100
AcDbEntity
  8
AM_VIS
  6
Continuous
 62
     2
100
AcDbLine
 10
256.905915
 20
168.6704886716066
 30
0.0
 11
255.6899862410882
 21
168.6704886716066
 31
0.0
  0
LINE
  5
1D5
330
3F
100
AcDbEntity
  8
AM_VIS
  6
Continuous
 62
     7
100
AcDbLine
 10
258.0236559999999
 20
153.9999756716066
 30
0.0
 11
257.809545
 21
153.9999756716066
 31
0.0
  0
LINE
  5
1D6
330
3F
100
AcDbEntity
  8
AM_VIS
  6
Continuous
 62
     7
100
AcDbLine
 10
257.809545
 20
153.9999756716066
 30
0.0
 11
254.91179
 21
153.9999756716065
 31
0.0
  0
LINE
  5
1D7
330
3F
100
AcDbEntity
  8
AM_VIS
  6
Continuous
 62
     7
100
AcDbLine
 10
243.08821
 20
153.9999756716065
 30
0.0
 11
241.08821
 21
153.9999756716066
 31
0.0
  0
LINE
  5
1D8
330
3F
100
AcDbEntity
  8
1
  6
Continuous
 62
     7
100
AcDbLine
 10
243.08821
 20
162.9999756716065
 30
0.0
 11
243.08821
 21
153.9999756716065
 31
0.0
  0
LINE
  5
1D9
330
3F
100
AcDbEntity
  8
AM_VIS
  6
Continuous
 62
     7
100
AcDbLine
 10
247.416345
 20
153.9999756716066
 30
0.0
 11
243.08821
 21
153.9999756716065
 31
0.0
  0
LINE
  5
1DA
330
3F
100
AcDbEntity
  8
AM_VIS
  6
Continuous
 62
     7
100
AcDbLine
 10
241.08821
 20
169.3438978082421
 30
0.0
 11
241.08821
 21
162.9999756716065
 31
0.0
  0
LINE
  5
1DB
330
3F
100
AcDbEntity
  8
1
  6
Continuous
 62
     7
100
AcDbLine
 10
236.0
 20
160.5000002684885
 30
0.0
 11
241.08821
 21
160.4999952321071
 31
0.0
  0
LINE
  5
1DC
330
3F
100
AcDbEntity
  8
AM_VIS
  6
Continuous
 62
     7
100
AcDbLine
 10
270.6633
 20
186.3196376716066
 30
0.0
 11
270.6633
 21
185.3294626716066
 31
0.0
  0
LINE
  5
1DD
330
3F
100
AcDbEntity
  8
1
  6
DOT_CENTER
 62
     2
100
AcDbLine
 10
271.6633
 20
176.9999756716066
 30
0.0
 11
280.6633
 21
176.9999756716066
 31
0.0
  0
LINE
  5
1DE
330
3F
100
AcDbEntity
  8
1
  6
DOT_CENTER
 62
     2
100
AcDbLine
 10
-224.9999999999999
 20
190.2500000000001
 30
0.0
 11
-224.9999999999999
 21
146.8561401044124
 31
0.0
  0
LINE
  5
1DF
330
3F
100
AcDbEntity
  8
1
  6
DOT_CENTER
 62
     2
100
AcDbLine
 10
-211.2500000000001
 20
176.5000000000002
 30
0.0
 11
-238.7499999999998
 21
176.5000000000002
 31
0.0
  0
LINE
  5
1E0
330
3F
100
AcDbEntity
  8
AM_VIS
  6
Continuous
 62
     7
100
AcDbLine
 10
-209.0000000000005
 20
173.0000000000003
 30
0.0
 11
-209.0000000000005
 21
163.5
 31
0.0
  0
LINE
  5
1E1
330
3F
100
AcDbEntity
  8
1
  6
Continuous
 62
     7
100
AcDbLine
 10
-209.0000000000005
 20
163.5
 30
0.0
 11
-209.8500000000004
 21
163.5
 31
0.0
  0
LINE
  5
1E2
330
3F
100
AcDbEntity
  8
1
  6
Continuous
 62
     7
100
AcDbLine
 10
-209.8500000000004
 20
163.5
 30
0.0
 11
-209.8500000000004
 21
153.5
 31
0.0
  0
LINE
  5
1E3
330
3F
100
AcDbEntity
  8
1
  6
Continuous
 62
     7
100
AcDbLine
 10
-209.1664113776711
 20
160.00000067663
 30
0.0
 11
-198.0000000000004
 21
160.0000117293001
 31
0.0
  0
LINE
  5
1E4
330
3F
100
AcDbEntity
  8
1
  6
Continuous
 62
     7
100
AcDbLine
 10
-198.0000000000004
 20
164.0400642056229
 30
0.0
 11
-198.0000000000004
 21
160.0000117293001
 31
0.0
  0
LINE
  5
1E5
330
3F
100
AcDbEntity
  8
1
  6
Continuous
 62
     7
100
AcDbLine
 10
-198.0000000000004
 20
160.0000117293001
 30
0.0
 11
-196.0000000000004
 21
160.0000137089281
 31
0.0
  0
LINE
  5
1E6
330
3F
100
AcDbEntity
  8
1
  6
Continuous
 62
     7
100
AcDbLine
 10
-196.0000000000004
 20
164.0400642056229
 30
0.0
 11
-196.0000000000004
 21
160.0000137089281
 31
0.0
  0
LINE
  5
1E7
330
3F
100
AcDbEntity
  8
AM_VIS
  6
Continuous
 62
     7
100
AcDbLine
 10
-185.0000000000005
 20
153.5
 30
0.0
 11
-185.0000000000005
 21
160.0000245968819
 31
0.0
  0
LINE
  5
1E8
330
3F
100
AcDbEntity
  8
1
  6
Continuous
 62
     7
100
AcDbLine
 10
-196.0000000000004
 20
160.0000137089281
 30
0.0
 11
-185.0000000000005
 21
160.0000245968819
 31
0.0
  0
LINE
  5
1E9
330
3F
100
AcDbEntity
  8
AM_VIS
  6
Continuous
 62
     7
100
AcDbLine
 10
-209.8367380000005
 20
153.5
 30
0.0
 11
-209.8500000000004
 21
153.5
 31
0.0
  0
LINE
  5
1EA
330
3F
100
AcDbEntity
  8
AM_VIS
  6
Continuous
 62
     7
100
AcDbLine
 10
-209.0000000000005
 20
153.5
 30
0.0
 11
-209.8367380000005
 21
153.5
 31
0.0
  0
LINE
  5
1EB
330
3F
100
AcDbEntity
  8
AM_VIS
  6
Continuous
 62
     7
100
AcDbLine
 10
-209.8500000000004
 20
153.5
 30
0.0
 11
-209.8500000000004
 21
151.0
 31
0.0
  0
LINE
  5
1EC
330
3F
100
AcDbEntity
  8
AM_VIS
  6
Continuous
 62
     7
100
AcDbLine
 10
-206.8095450000005
 20
153.5
 30
0.0
 11
-206.8095450000005
 21
168.7525599780977
 31
0.0
  0
LINE
  5
1ED
330
3F
100
AcDbEntity
  8
AM_VIS
  6
Continuous
 62
     7
100
AcDbLine
 10
-209.0000000000005
 20
163.5
 30
0.0
 11
-209.0000000000005
 21
153.5
 31
0.0
  0
LINE
  5
1EE
330
3F
100
AcDbEntity
  8
AM_VIS
  6
Continuous
 62
     7
100
AcDbLine
 10
-196.4163440000004
 20
153.5
 30
0.0
 11
-197.5836560000004
 21
153.5
 31
0.0
  0
LINE
  5
1EF
330
3F
100
AcDbEntity
  8
AM_VIS
  6
Continuous
 62
     7
100
AcDbLine
 10
-203.9117900000004
 20
166.0847631329913
 30
0.0
 11
-203.9117900000004
 21
153.4999999999999
 31
0.0
  0
LINE
  5
1F0
330
3F
100
AcDbEntity
  8
AM_VIS
  6
Continuous
 62
     7
100
AcDbLine
 10
-185.0000000000005
 20
153.5
 30
0.0
 11
-186.9763440000004
 21
153.5
 31
0.0
  0
LINE
  5
1F1
330
3F
100
AcDbEntity
  8
AM_VIS
  6
Continuous
 62
     7
100
AcDbLine
 10
-190.0882100000004
 20
153.5
 30
0.0
 11
-190.0882100000004
 21
166.0847631329911
 31
0.0
  0
LINE
  5
1F2
330
3F
100
AcDbEntity
  8
AM_VIS
  6
Continuous
 62
     7
100
AcDbLine
 10
-187.1904560000004
 20
168.7525587119318
 30
0.0
 11
-187.1904560000004
 21
153.5
 31
0.0
  0
LINE
  5
1F3
330
3F
100
AcDbEntity
  8
AM_VIS
  6
Continuous
 62
     7
100
AcDbLine
 10
-185.0000000000005
 20
160.0000245968819
 30
0.0
 11
-185.0000000000005
 21
172.9999999999998
 31
0.0
  0
LINE
  5
1F4
330
3F
100
AcDbEntity
  8
AM_VIS
  6
Continuous
 62
     7
100
AcDbLine
 10
-186.9763440000004
 20
153.5
 30
0.0
 11
-196.4163440000004
 21
153.5
 31
0.0
  0
LINE
  5
1F5
330
3F
100
AcDbEntity
  8
AM_VIS
  6
Continuous
 62
     7
100
AcDbLine
 10
-197.5836560000004
 20
153.5
 30
0.0
 11
-207.0236560000004
 21
153.5
 31
0.0
  0
LINE
  5
1F6
330
3F
100
AcDbEntity
  8
AM_VIS
  6
Continuous
 62
     7
100
AcDbLine
 10
-207.0236560000004
 20
153.5
 30
0.0
 11
-209.0000000000005
 21
153.5
 31
0.0
  0
LINE
  5
1F7
330
3F
100
AcDbEntity
  8
AM_VIS
  6
Continuous
 62
     7
100
AcDbLine
 10
-184.1500000000004
 20
153.5
 30
0.0
 11
-185.0000000000005
 21
153.5
 31
0.0
  0
LINE
  5
1F8
330
3F
100
AcDbEntity
  8
AM_VIS
  6
Continuous
 62
     7
100
AcDbLine
 10
-184.1500000000004
 20
149.500023651759
 30
0.0
 11
-184.1500000000004
 21
149.5000490899784
 31
0.0
  0
LINE
  5
1F9
330
3F
100
AcDbEntity
  8
AM_VIS
  6
Continuous
 62
     2
100
AcDbLine
 10
-188.9530810000004
 20
184.993453
 30
0.0
 11
-188.9531836852648
 21
184.993453196251
 31
0.0
  0
LINE
  5
1FA
330
3F
100
AcDbEntity
  8
AM_VIS
  6
Continuous
 62
     7
100
AcDbLine
 10
-192.0806510000004
 20
186.95
 30
0.0
 11
-192.0808730000004
 21
186.95
 31
0.0
  0
LINE
  5
1FB
330
3F
100
AcDbEntity
  8
1
  6
DOT_CENTER
 62
     2
100
AcDbLine
 10
-183.250000000001
 20
176.5000000000002
 30
0.0
 11
-210.7500000000009
 21
176.5000000000002
 31
0.0
  0
LINE
  5
1FC
330
3F
100
AcDbEntity
  8
1
  6
DOT_CENTER
 62
     2
100
AcDbLine
 10
-197.0000000000009
 20
146.8561401044124
 30
0.0
 11
-197.0000000000009
 21
190.2500000000001
 31
0.0
  0
ARC
  5
1FD
330
3F
100
AcDbEntity
  8
1
  6
Continuous
 62
     7
100
AcDbCircle
 10
-225.0000000000004
 20
176.4999999999999
 30
0.0
 40
12.49999999999986
100
AcDbArc
 50
-94.58856573578589
 51
-85.41143426421412
  0
ARC
  5
1FE
330
3F
100
AcDbEntity
  8
1
  6
Continuous
 62
     7
100
AcDbCircle
 10
-225.0000000000004
 20
176.4999999999999
 30
0.0
 40
12.49999999999996
100
AcDbArc
 50
-123.5691640368266
 51
-94.58856573578589
  0
ARC
  5
1FF
330
3F
100
AcDbEntity
  8
1
  6
Continuous
 62
     7
100
AcDbCircle
 10
-213.1854046260243
 20
191.8908797661562
 30
0.0
 40
6.999999999999879
100
AcDbArc
 50
-153.0067442793675
 51
-119.8516759502465
  0
ARC
  5
200
330
3F
100
AcDbEntity
  8
1
  6
Continuous
 62
     7
100
AcDbCircle
 10
-236.8145953739765
 20
191.8908797661562
 30
0.0
 40
6.999999999999884
100
AcDbArc
 50
-60.14832404975347
 51
-26.99325572063248
  0
ARC
  5
201
330
3F
100
AcDbEntity
  8
1
  6
Continuous
 62
     7
100
AcDbCircle
 10
-224.9999995000005
 20
119.5000288043523
 30
0.0
 40
69.9999711956477
100
AcDbArc
 50
90.00000040925565
 51
93.63444924520941
  0
ARC
  5
202
330
3F
100
AcDbEntity
  8
1
  6
Continuous
 62
     7
100
AcDbCircle
 10
-225.0000000000004
 20
176.4999999999999
 30
0.0
 40
12.49999999999996
100
AcDbArc
 50
-16.26020470830997
 51
48.20833315859864
  0
ARC
  5
203
330
3F
100
AcDbEntity
  8
1
  6
Continuous
 62
     7
100
AcDbCircle
 10
-225.0000000000004
 20
176.4999999999999
 30
0.0
 40
12.49999999999994
100
AcDbArc
 50
-38.30118056285343
 51
-16.26020470830997
  0
ARC
  5
204
330
3F
100
AcDbEntity
  8
1
  6
Continuous
 62
     7
100
AcDbCircle
 10
-225.0000000000004
 20
176.4999999999999
 30
0.0
 40
12.49999999999979
100
AcDbArc
 50
-56.43083596317288
 51
-38.30118056285343
  0
ARC
  5
205
330
3F
100
AcDbEntity
  8
1
  6
Continuous
 62
     7
100
AcDbCircle
 10
-225.0000000000004
 20
176.4999999999999
 30
0.0
 40
12.49999999999986
100
AcDbArc
 50
-85.41143426421412
 51
-56.43083596317288
  0
ARC
  5
206
330
3F
100
AcDbEntity
  8
1
  6
Continuous
 62
     7
100
AcDbCircle
 10
-225.0000000000004
 20
176.4999999999999
 30
0.0
 40
12.49999999999991
100
AcDbArc
 50
180.0
 51
-163.7397952916876
  0
ARC
  5
207
330
3F
100
AcDbEntity
  8
1
  6
Continuous
 62
     7
100
AcDbCircle
 10
-225.0000000000004
 20
176.4999999999999
 30
0.0
 40
12.49999999999994
100
AcDbArc
 50
-163.7397952916876
 51
-141.6988120416999
  0
ARC
  5
208
330
3F
100
AcDbEntity
  8
1
  6
Continuous
 62
     7
100
AcDbCircle
 10
-225.0000000000004
 20
176.4999999999999
 30
0.0
 40
12.49999999999991
100
AcDbArc
 50
-141.6988120416999
 51
-123.5691640368266
  0
ARC
  5
209
330
3F
100
AcDbEntity
  8
1
  6
Continuous
 62
     3
100
AcDbCircle
 10
283.8855673386094
 20
119.1006275640454
 30
0.0
 40
66.00000000000004
100
AcDbArc
 50
130.4244494423627
 51
133.4534643289625
  0
ARC
  5
20A
330
3F
100
AcDbEntity
  8
1
  6
Continuous
 62
     3
100
AcDbCircle
 10
212.1144326613907
 20
119.1006275640454
 30
0.0
 40
65.99999999999999
100
AcDbArc
 50
51.3553231057157
 51
52.6638260580866
  0
ARC
  5
20B
330
3F
100
AcDbEntity
  8
1
  6
Continuous
 62
     3
100
AcDbCircle
 10
283.8855673386094
 20
119.1006275640454
 30
0.0
 40
66.00000000000006
100
AcDbArc
 50
133.4534643289625
 51
136.538349467506
  0
ARC
  5
20C
330
3F
100
AcDbEntity
  8
1
  6
Continuous
 62
     3
100
AcDbCircle
 10
283.8855673386094
 20
119.1006275640454
 30
0.0
 40
66.0
100
AcDbArc
 50
127.3361739419134
 51
130.4244494423627
  0
ARC
  5
20D
330
3F
100
AcDbEntity
  8
1
  6
Continuous
 62
     3
100
AcDbCircle
 10
248.0000005
 20
170.8209326128737
 30
0.0
 40
3.000000000000066
100
AcDbArc
 50
43.11406702827503
 51
136.885932971725
  0
ARC
  5
20E
330
3F
100
AcDbEntity
  8
1
  6
Continuous
 62
     3
100
AcDbCircle
 10
211.9646157239076
 20
119.0903234107718
 30
0.0
 40
66.10169938058932
100
AcDbArc
 50
43.39045719333742
 51
51.25947665728773
  0
ARC
  5
20F
330
3F
100
AcDbEntity
  8
1
  6
Continuous
 62
     3
100
AcDbCircle
 10
252.1397624530715
 20
197.5208362212081
 30
0.0
 40
18.0
100
AcDbArc
 50
-147.9950310843468
 51
-137.367096007602
  0
ARC
  5
210
330
3F
100
AcDbEntity
  8
1
  6
Continuous
 62
     3
100
AcDbCircle
 10
241.082147223658
 20
190.6839276882598
 30
0.0
 40
4.999999999999899
100
AcDbArc
 50
-169.6736311270704
 51
-147.2760245827851
  0
ARC
  5
211
330
3F
100
AcDbEntity
  8
1
  6
Continuous
 62
     3
100
AcDbCircle
 10
210.8233050616995
 20
192.703849727341
 30
0.0
 40
37.00000000000002
100
AcDbArc
 50
-43.97690659750719
 51
-32.29418010190263
  0
ARC
  5
212
330
3F
100
AcDbEntity
  8
1
  6
Continuous
 62
     3
100
AcDbCircle
 10
236.4249071310093
 20
177.0339537488215
 30
0.0
 40
6.99999999999997
100
AcDbArc
 50
-35.83290971213984
 51
35.80001208873753
  0
ARC
  5
213
330
3F
100
AcDbEntity
  8
1
  6
Continuous
 62
     3
100
AcDbCircle
 10
251.2540443948475
 20
173.5839870912766
 30
0.0
 40
9.5051259639323
100
AcDbArc
 50
-17.98660155213852
 51
1.77237501055559
  0
ARC
  5
214
330
3F
100
AcDbEntity
  8
1
  6
Continuous
 62
     3
100
AcDbCircle
 10
251.2540443948475
 20
180.4159642519367
 30
0.0
 40
9.505125963932219
100
AcDbArc
 50
-1.77237501055645
 51
17.98660155213786
  0
ARC
  5
215
330
3F
100
AcDbEntity
  8
1
  6
Continuous
 62
     3
100
AcDbCircle
 10
263.892811214949
 20
173.5839920705868
 30
0.0
 40
9.50518039360083
100
AcDbArc
 50
178.2276651707517
 51
-162.0134734104103
  0
ARC
  5
216
330
3F
100
AcDbEntity
  8
1
  6
Continuous
 62
     3
100
AcDbCircle
 10
263.8928112149488
 20
180.4159592726264
 30
0.0
 40
9.505180393600613
100
AcDbArc
 50
162.0134734104098
 51
-178.2276651707516
  0
ARC
  5
217
330
3F
100
AcDbEntity
  8
1
  6
Continuous
 62
     3
100
AcDbCircle
 10
257.5734
 20
171.4186620573894
 30
0.0
 40
2.828032060751947
100
AcDbArc
 50
-164.2044401773411
 51
-15.79555982266094
  0
ARC
  5
218
330
3F
100
AcDbEntity
  8
1
  6
Continuous
 62
     3
100
AcDbCircle
 10
257.5734
 20
182.5788701507633
 30
0.0
 40
2.828691520843334
100
AcDbArc
 50
15.84270966064598
 51
164.1572903393561
  0
ARC
  5
219
330
3F
100
AcDbEntity
  8
1
  6
Continuous
 62
     7
100
AcDbCircle
 10
-224.9999995000005
 20
119.5000288043523
 30
0.0
 40
69.99997119564766
100
AcDbArc
 50
86.36555163129701
 51
90.00000040925565
  0
ARC
  5
21A
330
3F
100
AcDbEntity
  8
1
  6
Continuous
 62
     7
100
AcDbCircle
 10
-225.0000000000004
 20
176.4999999999999
 30
0.0
 40
12.50000000000009
100
AcDbArc
 50
131.7916668414014
 51
180.0
  0
ARC
  5
21B
330
3F
100
AcDbEntity
  8
1
  6
Continuous
 62
     7
100
AcDbCircle
 10
-197.0000000000004
 20
176.4999999999999
 30
0.0
 40
12.49999999999986
100
AcDbArc
 50
-94.58856573578589
 51
-85.41143426421412
  0
ARC
  5
21C
330
3F
100
AcDbEntity
  8
1
  6
Continuous
 62
     7
100
AcDbCircle
 10
-197.0000000000004
 20
176.4999999999999
 30
0.0
 40
12.49999999999986
100
AcDbArc
 50
-85.41143426421412
 51
-56.43083596317339
  0
ARC
  5
21D
330
3F
100
AcDbEntity
  8
1
  6
Continuous
 62
     7
100
AcDbCircle
 10
-208.8145953739765
 20
191.8908797661562
 30
0.0
 40
6.999999999999884
100
AcDbArc
 50
-60.14832404975347
 51
-26.99325572063248
  0
ARC
  5
21E
330
3F
100
AcDbEntity
  8
1
  6
Continuous
 62
     7
100
AcDbCircle
 10
-185.1854046260243
 20
191.8908797661562
 30
0.0
 40
6.999999999999879
100
AcDbArc
 50
-153.0067442793675
 51
-119.8516759502465
  0
ARC
  5
21F
330
3F
100
AcDbEntity
  8
1
  6
Continuous
 62
     7
100
AcDbCircle
 10
-197.0000005000005
 20
119.5000288043523
 30
0.0
 40
69.99997119564775
100
AcDbArc
 50
86.3655507547904
 51
89.99999959074417
  0
ARC
  5
220
330
3F
100
AcDbEntity
  8
1
  6
Continuous
 62
     7
100
AcDbCircle
 10
-197.0000000000004
 20
176.4999999999999
 30
0.0
 40
12.50000000000009
100
AcDbArc
 50
131.7916668414014
 51
-163.7397952916901
  0
ARC
  5
221
330
3F
100
AcDbEntity
  8
1
  6
Continuous
 62
     7
100
AcDbCircle
 10
-197.0000000000004
 20
176.4999999999999
 30
0.0
 40
12.49999999999999
100
AcDbArc
 50
-163.7397952916901
 51
-141.6988194371466
  0
ARC
  5
222
330
3F
100
AcDbEntity
  8
1
  6
Continuous
 62
     7
100
AcDbCircle
 10
-197.0000000000004
 20
176.4999999999999
 30
0.0
 40
12.49999999999994
100
AcDbArc
 50
-141.6988194371466
 51
-123.5691640368271
  0
ARC
  5
223
330
3F
100
AcDbEntity
  8
1
  6
Continuous
 62
     7
100
AcDbCircle
 10
-197.0000000000004
 20
176.4999999999999
 30
0.0
 40
12.49999999999979
100
AcDbArc
 50
-123.5691640368271
 51
-94.58856573578589
  0
ARC
  5
224
330
3F
100
AcDbEntity
  8
1
  6
Continuous
 62
     7
100
AcDbCircle
 10
-197.0000000000004
 20
176.4999999999999
 30
0.0
 40
12.49999999999991
100
AcDbArc
 50
-16.26020470831248
 51
0.0
  0
ARC
  5
225
330
3F
100
AcDbEntity
  8
1
  6
Continuous
 62
     7
100
AcDbCircle
 10
-197.0000000000004
 20
176.4999999999999
 30
0.0
 40
12.49999999999991
100
AcDbArc
 50
-38.30118795830011
 51
-16.26020470831248
  0
ARC
  5
226
330
3F
100
AcDbEntity
  8
1
  6
Continuous
 62
     7
100
AcDbCircle
 10
-197.0000000000004
 20
176.4999999999999
 30
0.0
 40
12.49999999999996
100
AcDbArc
 50
-56.43083596317339
 51
-38.30118795830011
  0
ARC
  5
227
330
3F
100
AcDbEntity
  8
1
  6
Continuous
 62
     7
100
AcDbCircle
 10
-197.0000005000005
 20
119.5000288043523
 30
0.0
 40
69.9999711956477
100
AcDbArc
 50
89.99999959074417
 51
93.63444836870272
  0
ARC
  5
228
330
3F
100
AcDbEntity
  8
1
  6
Continuous
 62
     7
100
AcDbCircle
 10
-197.0000000000004
 20
176.4999999999999
 30
0.0
 40
12.49999999999989
100
AcDbArc
 50
0.0
 51
48.20833315859864
  0
XLINE
  5
229
330
3F
100
AcDbEntity
  8
1
  6
DOT_CENTER
 62
     3
 60
     1
100
AcDbXline
 10
260.85
 20
160.4999765129528
 30
0.0
 11
0.0
 21
1.0
 31
0.0
  0
ARC
  5
22A
330
3F
100
AcDbEntity
  8
1
  6
Continuous
 62
     7
100
AcDbCircle
 10
-229.3422520247494
 20
187.8622325196793
 30
0.0
 40
1.500000000000074
100
AcDbArc
 50
93.63444924521029
 51
145.4147407050588
  0
ARC
  5
22B
330
3F
100
AcDbEntity
  8
1
  6
Continuous
 62
     7
100
AcDbCircle
 10
-220.6577480210514
 20
187.8622325861067
 30
0.0
 40
1.500000000000071
100
AcDbArc
 50
34.58525621296137
 51
86.36555163129506
  0
ARC
  5
22C
330
3F
100
AcDbEntity
  8
1
  6
Continuous
 62
     7
100
AcDbCircle
 10
242.08821
 20
162.9999756716065
 30
0.0
 40
1.0
100
AcDbArc
 50
0.0
 51
90.0
  0
ARC
  5
22D
330
3F
100
AcDbEntity
  8
1
  6
Continuous
 62
     7
100
AcDbCircle
 10
242.08821
 20
162.9999756716065
 30
0.0
 40
1.0
100
AcDbArc
 50
90.0
 51
180.0
  0
ARC
  5
22E
330
3F
100
AcDbEntity
  8
1
  6
Continuous
 62
     7
100
AcDbCircle
 10
-192.6577479752514
 20
187.8622325196793
 30
0.0
 40
1.500000000000048
100
AcDbArc
 50
34.58525929494117
 51
86.36555075478971
  0
ARC
  5
22F
330
3F
100
AcDbEntity
  8
1
  6
Continuous
 62
     7
100
AcDbCircle
 10
-201.3422519789494
 20
187.8622325861067
 30
0.0
 40
1.500000000000047
100
AcDbArc
 50
93.6344483687006
 51
145.4147437870386
  0
ENDBLK
  5
42
330
3F
100
AcDbEntity
  8
0
100
AcDbBlockEnd
  0
BLOCK
  5
44
330
43
100
AcDbEntity
  8
0
100
AcDbBlockBegin
  2
Linsenschraube_DIN_7985_-_M2_5_x_6_-__-___3
 70
     0
 71
     0
 10
183.4763440000001
 20
-68.55955924482868
 30
0.0
  3
Linsenschraube_DIN_7985_-_M2_5_x_6_-__-___3
  1

  0
LINE
  5
230
330
43
100
AcDbEntity
  8
1
  6
Continuous
 62
     7
100
AcDbLine
 10
255.410104
 20
153.9999756716066
 30
0.0
 11
255.410104
 21
155.2999756716066
 31
0.0
  0
LINE
  5
231
330
43
100
AcDbEntity
  8
1
  6
Continuous
 62
     7
100
AcDbLine
 10
260.4101040000001
 20
153.9999756716066
 30
0.0
 11
255.410104
 21
153.9999756716066
 31
0.0
  0
LINE
  5
232
330
43
100
AcDbEntity
  8
1
  6
Continuous
 62
     7
100
AcDbLine
 10
260.4101040000001
 20
155.2999756716066
 30
0.0
 11
260.4101040000001
 21
153.9999756716066
 31
0.0
  0
LINE
  5
233
330
43
100
AcDbEntity
  8
1
  6
Continuous
 62
     7
100
AcDbLine
 10
255.410104
 20
155.2999756716066
 30
0.0
 11
260.4101040000001
 21
155.2999756716066
 31
0.0
  0
LINE
  5
234
330
43
100
AcDbEntity
  8
1
  6
Continuous
 62
     7
100
AcDbLine
 10
256.660104
 20
153.9999756716066
 30
0.0
 11
259.1601040000001
 21
153.9999756716066
 31
0.0
  0
LINE
  5
235
330
43
100
AcDbEntity
  8
1
  6
LONG_DASHED
 62
     2
100
AcDbLine
 10
257.9101040000001
 20
153.9999756716066
 30
0.0
 11
258.9935085986722
 21
155.8764874816606
 31
0.0
  0
LINE
  5
236
330
43
100
AcDbEntity
  8
1
  6
LONG_DASHED
 62
     2
100
AcDbLine
 10
256.8266994013278
 20
155.8764874816606
 30
0.0
 11
257.9101040000001
 21
153.9999756716066
 31
0.0
  0
ARC
  5
237
330
43
100
AcDbEntity
  8
1
  6
Continuous
 62
     7
100
AcDbCircle
 10
257.9101040000001
 20
151.1856899573209
 30
0.0
 40
4.814285714285702
100
AcDbArc
 50
58.71550708558246
 51
121.2844929144187
  0
ENDBLK
  5
45
330
43
100
AcDbEntity
  8
0
100
AcDbBlockEnd
  0
BLOCK
  5
47
330
46
100
AcDbEntity
  8
0
100
AcDbBlockBegin
  2
Linsenschraube_DIN_7985_-_M2_5_x_6_-__-___4
 70
     0
 71
     0
 10
-49.58989599999997
 20
152.4999756716065
 30
0.0
  3
Linsenschraube_DIN_7985_-_M2_5_x_6_-__-___4
  1

  0
POINT
  5
238
330
46
100
AcDbEntity
  8
1
 62
     3
 60
     1
100
AcDbPoint
 10
-214.8095440000004
 20
153.5
 30
0.0
  0
LINE
  5
239
330
46
100
AcDbEntity
  8
1
  6
Continuous
 62
     7
100
AcDbLine
 10
235.589896
 20
153.9999756716065
 30
0.0
 11
235.589896
 21
155.2999756716065
 31
0.0
  0
LINE
  5
23A
330
46
100
AcDbEntity
  8
1
  6
Continuous
 62
     7
100
AcDbLine
 10
240.589896
 20
153.9999756716065
 30
0.0
 11
235.589896
 21
153.9999756716065
 31
0.0
  0
LINE
  5
23B
330
46
100
AcDbEntity
  8
1
  6
Continuous
 62
     7
100
AcDbLine
 10
240.589896
 20
155.2999756716065
 30
0.0
 11
240.589896
 21
153.9999756716065
 31
0.0
  0
LINE
  5
23C
330
46
100
AcDbEntity
  8
1
  6
Continuous
 62
     7
100
AcDbLine
 10
235.589896
 20
155.2999756716065
 30
0.0
 11
240.589896
 21
155.2999756716065
 31
0.0
  0
LINE
  5
23D
330
46
100
AcDbEntity
  8
1
  6
Continuous
 62
     7
100
AcDbLine
 10
236.839896
 20
153.9999756716065
 30
0.0
 11
239.339896
 21
153.9999756716065
 31
0.0
  0
LINE
  5
23E
330
46
100
AcDbEntity
  8
1
  6
LONG_DASHED
 62
     2
100
AcDbLine
 10
238.089896
 20
153.9999756716065
 30
0.0
 11
239.1733005986722
 21
155.8764874816605
 31
0.0
  0
LINE
  5
23F
330
46
100
AcDbEntity
  8
1
  6
LONG_DASHED
 62
     2
100
AcDbLine
 10
237.0064914013279
 20
155.8764874816605
 30
0.0
 11
238.089896
 21
153.9999756716065
 31
0.0
  0
LINE
  5
240
330
46
100
AcDbEntity
  8
1
  6
Continuous
 62
     7
100
AcDbLine
 10
-237.3095440000004
 20
153.5
 30
0.0
 11
-237.3095440000004
 21
154.8
 31
0.0
  0
LINE
  5
241
330
46
100
AcDbEntity
  8
1
  6
Continuous
 62
     7
100
AcDbLine
 10
-232.3095440000004
 20
153.5
 30
0.0
 11
-237.3095440000004
 21
153.5
 31
0.0
  0
LINE
  5
242
330
46
100
AcDbEntity
  8
1
  6
Continuous
 62
     7
100
AcDbLine
 10
-232.3095440000004
 20
154.8
 30
0.0
 11
-232.3095440000004
 21
153.5
 31
0.0
  0
LINE
  5
243
330
46
100
AcDbEntity
  8
1
  6
Continuous
 62
     7
100
AcDbLine
 10
-237.3095440000004
 20
154.8
 30
0.0
 11
-232.3095440000004
 21
154.8
 31
0.0
  0
LINE
  5
244
330
46
100
AcDbEntity
  8
1
  6
Continuous
 62
     7
100
AcDbLine
 10
-236.0595440000004
 20
153.5
 30
0.0
 11
-233.5595440000004
 21
153.5
 31
0.0
  0
LINE
  5
245
330
46
100
AcDbEntity
  8
1
  6
LONG_DASHED
 62
     2
100
AcDbLine
 10
-234.8095440000004
 20
153.5
 30
0.0
 11
-233.7261394013282
 21
155.376511810054
 31
0.0
  0
LINE
  5
246
330
46
100
AcDbEntity
  8
1
  6
LONG_DASHED
 62
     2
100
AcDbLine
 10
-235.8929485986725
 20
155.376511810054
 30
0.0
 11
-234.8095440000004
 21
153.5
 31
0.0
  0
LINE
  5
247
330
46
100
AcDbEntity
  8
1
  6
Continuous
 62
     7
100
AcDbLine
 10
-217.3095440000004
 20
153.5
 30
0.0
 11
-217.3095440000004
 21
154.8
 31
0.0
  0
LINE
  5
248
330
46
100
AcDbEntity
  8
1
  6
Continuous
 62
     7
100
AcDbLine
 10
-212.3095440000004
 20
153.5
 30
0.0
 11
-217.3095440000004
 21
153.5
 31
0.0
  0
LINE
  5
249
330
46
100
AcDbEntity
  8
1
  6
Continuous
 62
     7
100
AcDbLine
 10
-212.3095440000004
 20
154.8
 30
0.0
 11
-212.3095440000004
 21
153.5
 31
0.0
  0
LINE
  5
24A
330
46
100
AcDbEntity
  8
1
  6
Continuous
 62
     7
100
AcDbLine
 10
-217.3095440000004
 20
154.8
 30
0.0
 11
-212.3095440000004
 21
154.8
 31
0.0
  0
LINE
  5
24B
330
46
100
AcDbEntity
  8
1
  6
Continuous
 62
     7
100
AcDbLine
 10
-216.0595440000004
 20
153.5
 30
0.0
 11
-213.5595440000004
 21
153.5
 31
0.0
  0
LINE
  5
24C
330
46
100
AcDbEntity
  8
1
  6
LONG_DASHED
 62
     2
100
AcDbLine
 10
-214.8095440000004
 20
153.5
 30
0.0
 11
-213.7261394013282
 21
155.376511810054
 31
0.0
  0
LINE
  5
24D
330
46
100
AcDbEntity
  8
1
  6
LONG_DASHED
 62
     2
100
AcDbLine
 10
-215.8929485986725
 20
155.376511810054
 30
0.0
 11
-214.8095440000004
 21
153.5
 31
0.0
  0
LINE
  5
24E
330
46
100
AcDbEntity
  8
1
  6
Continuous
 62
     7
100
AcDbLine
 10
-184.3095440000013
 20
154.8
 30
0.0
 11
-184.3095440000013
 21
153.5
 31
0.0
  0
LINE
  5
24F
330
46
100
AcDbEntity
  8
1
  6
Continuous
 62
     7
100
AcDbLine
 10
-184.3095440000013
 20
153.5
 30
0.0
 11
-189.3095440000014
 21
153.5
 31
0.0
  0
LINE
  5
250
330
46
100
AcDbEntity
  8
1
  6
Continuous
 62
     7
100
AcDbLine
 10
-189.3095440000014
 20
153.5
 30
0.0
 11
-189.3095440000014
 21
154.8
 31
0.0
  0
LINE
  5
251
330
46
100
AcDbEntity
  8
1
  6
Continuous
 62
     7
100
AcDbLine
 10
-189.3095440000014
 20
154.8
 30
0.0
 11
-184.3095440000013
 21
154.8
 31
0.0
  0
LINE
  5
252
330
46
100
AcDbEntity
  8
1
  6
Continuous
 62
     7
100
AcDbLine
 10
-188.0595440000014
 20
153.5
 30
0.0
 11
-185.5595440000014
 21
153.5
 31
0.0
  0
LINE
  5
253
330
46
100
AcDbEntity
  8
1
  6
LONG_DASHED
 62
     2
100
AcDbLine
 10
-187.8929485986735
 20
155.376511810054
 30
0.0
 11
-186.8095440000014
 21
153.5
 31
0.0
  0
LINE
  5
254
330
46
100
AcDbEntity
  8
1
  6
LONG_DASHED
 62
     2
100
AcDbLine
 10
-186.8095440000014
 20
153.5
 30
0.0
 11
-185.7261394013293
 21
155.376511810054
 31
0.0
  0
LINE
  5
255
330
46
100
AcDbEntity
  8
1
  6
Continuous
 62
     7
100
AcDbLine
 10
-204.3095440000014
 20
154.8
 30
0.0
 11
-204.3095440000014
 21
153.5
 31
0.0
  0
LINE
  5
256
330
46
100
AcDbEntity
  8
1
  6
Continuous
 62
     7
100
AcDbLine
 10
-204.3095440000014
 20
153.5
 30
0.0
 11
-209.3095440000014
 21
153.5
 31
0.0
  0
LINE
  5
257
330
46
100
AcDbEntity
  8
1
  6
Continuous
 62
     7
100
AcDbLine
 10
-209.3095440000014
 20
153.5
 30
0.0
 11
-209.3095440000014
 21
154.8
 31
0.0
  0
LINE
  5
258
330
46
100
AcDbEntity
  8
1
  6
Continuous
 62
     7
100
AcDbLine
 10
-209.3095440000014
 20
154.8
 30
0.0
 11
-204.3095440000014
 21
154.8
 31
0.0
  0
LINE
  5
259
330
46
100
AcDbEntity
  8
1
  6
Continuous
 62
     7
100
AcDbLine
 10
-208.0595440000014
 20
153.5
 30
0.0
 11
-205.5595440000014
 21
153.5
 31
0.0
  0
LINE
  5
25A
330
46
100
AcDbEntity
  8
1
  6
LONG_DASHED
 62
     2
100
AcDbLine
 10
-207.8929485986735
 20
155.376511810054
 30
0.0
 11
-206.8095440000014
 21
153.5
 31
0.0
  0
LINE
  5
25B
330
46
100
AcDbEntity
  8
1
  6
LONG_DASHED
 62
     2
100
AcDbLine
 10
-206.8095440000014
 20
153.5
 30
0.0
 11
-205.7261394013293
 21
155.376511810054
 31
0.0
  0
ARC
  5
25C
330
46
100
AcDbEntity
  8
1
  6
Continuous
 62
     7
100
AcDbCircle
 10
238.089896
 20
151.1856899573208
 30
0.0
 40
4.814285714285702
100
AcDbArc
 50
58.71550708558246
 51
121.2844929144176
  0
ARC
  5
25D
330
46
100
AcDbEntity
  8
1
  6
Continuous
 62
     7
100
AcDbCircle
 10
-234.8095440000004
 20
150.6857142857143
 30
0.0
 40
4.814285714285702
100
AcDbArc
 50
58.71550708558246
 51
121.2844929144176
  0
ARC
  5
25E
330
46
100
AcDbEntity
  8
1
  6
Continuous
 62
     7
100
AcDbCircle
 10
-214.8095440000004
 20
150.6857142857143
 30
0.0
 40
4.814285714285702
100
AcDbArc
 50
58.71550708558246
 51
121.2844929144176
  0
ARC
  5
25F
330
46
100
AcDbEntity
  8
1
  6
Continuous
 62
     7
100
AcDbCircle
 10
-186.8095440000014
 20
150.6857142857143
 30
0.0
 40
4.814285714285761
100
AcDbArc
 50
58.7155070855813
 51
121.2844929144176
  0
ARC
  5
260
330
46
100
AcDbEntity
  8
1
  6
Continuous
 62
     7
100
AcDbCircle
 10
-206.8095440000014
 20
150.6857142857143
 30
0.0
 40
4.814285714285702
100
AcDbArc
 50
58.71550708558246
 51
121.2844929144176
  0
ENDBLK
  5
48
330
46
100
AcDbEntity
  8
0
100
AcDbBlockEnd
  0
BLOCK
  5
4A
330
49
100
AcDbEntity
  8
0
100
AcDbBlockBegin
  2
Winkelflanschdose_8-polig_drehbar__5
 70
     0
 71
     0
 10
602.8254836891306
 20
569.51293335638
 30
0.0
  3
Winkelflanschdose_8-polig_drehbar__5
  1

  0
LINE
  5
261
330
49
100
AcDbEntity
  8
AM_VIS
  6
Continuous
 62
     7
100
AcDbLine
 10
284.5633000000001
 20
187.7999756716064
 30
0.0
 11
279.3633000000001
 21
187.7999756716064
 31
0.0
  0
LINE
  5
262
330
49
100
AcDbEntity
  8
AM_VIS
  6
Continuous
 62
     7
100
AcDbLine
 10
279.3633000000001
 20
176.9999756716066
 30
0.0
 11
279.3633000000001
 21
187.7999756716064
 31
0.0
  0
LINE
  5
263
330
49
100
AcDbEntity
  8
AM_VIS
  6
Continuous
 62
     7
100
AcDbLine
 10
278.6633000000001
 20
180.9509246716066
 30
0.0
 11
278.6633000000001
 21
188.4999756716066
 31
0.0
  0
LINE
  5
264
330
49
100
AcDbEntity
  8
AM_VIS
  6
Continuous
 62
     7
100
AcDbLine
 10
278.6633000000001
 20
165.4999756716066
 30
0.0
 11
279.3633000000001
 21
166.1999756716065
 31
0.0
  0
LINE
  5
265
330
49
100
AcDbEntity
  8
AM_VIS
  6
Continuous
 62
     7
100
AcDbLine
 10
278.6633000000001
 20
180.9509246716066
 30
0.0
 11
279.189696
 21
178.9441976716064
 31
0.0
  0
LINE
  5
266
330
49
100
AcDbEntity
  8
AM_VIS
  6
Continuous
 62
     7
100
AcDbLine
 10
279.189696
 20
178.9441976716064
 30
0.0
 11
279.3633000000001
 21
176.9999756716066
 31
0.0
  0
LINE
  5
267
330
49
100
AcDbEntity
  8
AM_VIS
  6
Continuous
 62
     7
100
AcDbLine
 10
279.3633000000001
 20
176.9999756716066
 30
0.0
 11
279.189696
 21
175.0557536716066
 31
0.0
  0
LINE
  5
268
330
49
100
AcDbEntity
  8
AM_VIS
  6
Continuous
 62
     7
100
AcDbLine
 10
279.189696
 20
175.0557536716066
 30
0.0
 11
278.6633000000001
 21
173.0490266716064
 31
0.0
  0
LINE
  5
269
330
49
100
AcDbEntity
  8
AM_VIS
  6
Continuous
 62
     7
100
AcDbLine
 10
278.6633000000001
 20
165.4999756716066
 30
0.0
 11
278.6633000000001
 21
173.0490266716064
 31
0.0
  0
LINE
  5
26A
330
49
100
AcDbEntity
  8
AM_VIS
  6
Continuous
 62
     7
100
AcDbLine
 10
279.3633000000001
 20
166.1999756716065
 30
0.0
 11
284.5633000000001
 21
166.1999756716065
 31
0.0
  0
LINE
  5
26B
330
49
100
AcDbEntity
  8
AM_VIS
  6
Continuous
 62
     7
100
AcDbLine
 10
279.3633000000001
 20
166.1999756716065
 30
0.0
 11
279.3633000000001
 21
176.9999756716066
 31
0.0
  0
LINE
  5
26C
330
49
100
AcDbEntity
  8
AM_VIS
  6
Continuous
 62
     7
100
AcDbLine
 10
279.3633000000001
 20
187.7999756716064
 30
0.0
 11
278.6633000000001
 21
188.4999756716066
 31
0.0
  0
LINE
  5
26D
330
49
100
AcDbEntity
  8
1
  6
Continuous
 62
     7
100
AcDbLine
 10
284.5633000000001
 20
187.7999756716064
 30
0.0
 11
284.5633000000001
 21
166.1999756716065
 31
0.0
  0
ENDBLK
  5
4B
330
49
100
AcDbEntity
  8
0
100
AcDbBlockEnd
  0
BLOCK
  5
4D
330
4C
100
AcDbEntity
  8
0
100
AcDbBlockBegin
  2
Zwischenst_ck__6
 70
     0
 71
     0
 10
264.1360832837569
 20
298.100979177073
 30
0.0
  3
Zwischenst_ck__6
  1

  0
LINE
  5
26E
330
4C
100
AcDbEntity
  8
1
  6
DOT_CENTER
 62
     2
100
AcDbLine
 10
141.9999999999999
 20
105.0
 30
0.0
 11
226.0000000000001
 21
105.0
 31
0.0
  0
LINE
  5
26F
330
4C
100
AcDbEntity
  8
1
  6
Continuous
 62
     7
100
AcDbLine
 10
224.0
 20
69.68272016354706
 30
0.0
 11
144.0
 21
69.68272016354706
 31
0.0
  0
LINE
  5
270
330
4C
100
AcDbEntity
  8
1
  6
Continuous
 62
     7
100
AcDbLine
 10
224.0
 20
140.3172798364529
 30
0.0
 11
224.0000000000001
 21
148.5
 31
0.0
  0
LINE
  5
271
330
4C
100
AcDbEntity
  8
1
  6
Continuous
 62
     7
100
AcDbLine
 10
144.0
 20
140.3172798364529
 30
0.0
 11
144.0
 21
61.49999999999999
 31
0.0
  0
LINE
  5
272
330
4C
100
AcDbEntity
  8
1
  6
Continuous
 62
     7
100
AcDbLine
 10
144.0
 20
140.3172798364529
 30
0.0
 11
224.0
 21
140.3172798364529
 31
0.0
  0
LINE
  5
273
330
4C
100
AcDbEntity
  8
1
  6
Continuous
 62
     7
100
AcDbLine
 10
224.0
 20
61.49999999999999
 30
0.0
 11
224.0
 21
126.4999999999937
 31
0.0
  0
LINE
  5
274
330
4C
100
AcDbEntity
  8
1
  6
Continuous
 62
     7
100
AcDbLine
 10
224.0
 20
126.4999999999937
 30
0.0
 11
224.0
 21
140.3172798364529
 31
0.0
  0
LINE
  5
275
330
4C
100
AcDbEntity
  8
1
  6
Continuous
 62
     7
100
AcDbLine
 10
143.9999999999999
 20
148.5
 30
0.0
 11
224.0000000000001
 21
148.5
 31
0.0
  0
LINE
  5
276
330
4C
100
AcDbEntity
  8
1
  6
Continuous
 62
     7
100
AcDbLine
 10
224.0
 20
61.49999999999999
 30
0.0
 11
144.0
 21
61.49999999999999
 31
0.0
  0
LINE
  5
277
330
4C
100
AcDbEntity
  8
1
  6
Continuous
 62
     7
100
AcDbLine
 10
143.9999999999999
 20
148.5
 30
0.0
 11
144.0
 21
140.3172798364529
 31
0.0
  0
LINE
  5
278
330
4C
100
AcDbEntity
  8
1
  6
Continuous
 62
     7
100
AcDbLine
 10
224.0
 20
126.4999999999937
 30
0.0
 11
224.0
 21
131.9999999999938
 31
0.0
  0
LINE
  5
279
330
4C
100
AcDbEntity
  8
1
  6
Continuous
 62
     7
100
AcDbLine
 10
224.5
 20
-38.04944804850707
 30
0.0
 11
224.5
 21
-32.54944804850697
 31
0.0
  0
LINE
  5
27A
330
4C
100
AcDbEntity
  8
1
  6
Continuous
 62
     7
100
AcDbLine
 10
144.4999999999999
 20
-16.04944804850078
 30
0.0
 11
144.5
 21
-24.23216821204787
 31
0.0
  0
LINE
  5
27B
330
4C
100
AcDbEntity
  8
1
  6
Continuous
 62
     7
100
AcDbLine
 10
224.5
 20
-103.0494480485008
 30
0.0
 11
144.5
 21
-103.0494480485008
 31
0.0
  0
LINE
  5
27C
330
4C
100
AcDbEntity
  8
1
  6
Continuous
 62
     7
100
AcDbLine
 10
144.4999999999999
 20
-16.04944804850078
 30
0.0
 11
224.5000000000001
 21
-16.04944804850078
 31
0.0
  0
LINE
  5
27D
330
4C
100
AcDbEntity
  8
1
  6
Continuous
 62
     7
100
AcDbLine
 10
224.5
 20
-38.04944804850707
 30
0.0
 11
224.5
 21
-24.23216821204787
 31
0.0
  0
LINE
  5
27E
330
4C
100
AcDbEntity
  8
1
  6
Continuous
 62
     7
100
AcDbLine
 10
224.5
 20
-103.0494480485008
 30
0.0
 11
224.5
 21
-38.04944804850707
 31
0.0
  0
LINE
  5
27F
330
4C
100
AcDbEntity
  8
1
  6
Continuous
 62
     7
100
AcDbLine
 10
144.5
 20
-24.23216821204787
 30
0.0
 11
224.5
 21
-24.23216821204787
 31
0.0
  0
LINE
  5
280
330
4C
100
AcDbEntity
  8
1
  6
Continuous
 62
     7
100
AcDbLine
 10
144.5
 20
-24.23216821204787
 30
0.0
 11
144.5
 21
-103.0494480485008
 31
0.0
  0
LINE
  5
281
330
4C
100
AcDbEntity
  8
1
  6
Continuous
 62
     7
100
AcDbLine
 10
224.5
 20
-24.23216821204787
 30
0.0
 11
224.5000000000001
 21
-16.04944804850078
 31
0.0
  0
LINE
  5
282
330
4C
100
AcDbEntity
  8
1
  6
Continuous
 62
     7
100
AcDbLine
 10
224.5
 20
-94.86672788495372
 30
0.0
 11
144.5
 21
-94.86672788495372
 31
0.0
  0
LINE
  5
283
330
4C
100
AcDbEntity
  8
1
  6
DOT_CENTER
 62
     2
100
AcDbLine
 10
142.4999999999999
 20
-59.54944804850078
 30
0.0
 11
226.5000000000001
 21
-59.54944804850078
 31
0.0
  0
ENDBLK
  5
4E
330
4C
100
AcDbEntity
  8
0
100
AcDbBlockEnd
  0
BLOCK
  5
50
330
4F
100
AcDbEntity
  8
0
100
AcDbBlockBegin
  2
tb_frame_A3
 70
     0
 71
     0
 10
0.0
 20
0.0
 30
0.0
  3
tb_frame_A3
  1

  0
POINT
  5
284
330
4F
100
AcDbEntity
  8
1
 62
   250
100
AcDbPoint
 10
205.0
 20
-167.178702204748
 30
0.0
  0
LINE
  5
285
102
{ACAD_REACTORS
330
388
330
388
102
}
330
4F
100
AcDbEntity
  8
1
  6
Continuous
 62
     2
100
AcDbLine
 10
145.8516542509982
 20
-139.6987022047479
 30
0.0
 11
145.8516542509982
 21
-142.986289665258
 31
0.0
  0
LINE
  5
286
102
{ACAD_REACTORS
330
388
330
388
102
}
330
4F
100
AcDbEntity
  8
1
  6
Continuous
 62
     2
100
AcDbLine
 10
145.8516542509982
 20
-139.6987022047479
 30
0.0
 11
147.1516542509982
 21
-139.6987022047479
 31
0.0
  0
LINE
  5
287
102
{ACAD_REACTORS
330
388
330
388
102
}
330
4F
100
AcDbEntity
  8
1
  6
Continuous
 62
     2
100
AcDbLine
 10
147.1516542509982
 20
-138.5987022047479
 30
0.0
 11
147.1516542509982
 21
-139.6987022047479
 31
0.0
  0
LINE
  5
288
102
{ACAD_REACTORS
330
388
330
388
102
}
330
4F
100
AcDbEntity
  8
1
  6
Continuous
 62
     2
100
AcDbLine
 10
145.8516542509982
 20
-138.5987022047479
 30
0.0
 11
147.1516542509982
 21
-138.5987022047479
 31
0.0
  0
LINE
  5
289
102
{ACAD_REACTORS
330
388
330
388
102
}
330
4F
100
AcDbEntity
  8
1
  6
Continuous
 62
     2
100
AcDbLine
 10
145.8516542509982
 20
-142.986289665258
 30
0.0
 11
147.1516542509982
 21
-142.986289665258
 31
0.0
  0
LINE
  5
28A
102
{ACAD_REACTORS
330
388
330
388
102
}
330
4F
100
AcDbEntity
  8
1
  6
Continuous
 62
     2
100
AcDbLine
 10
145.8516542509982
 20
-135.9987022047479
 30
0.0
 11
145.8516542509982
 21
-138.5987022047479
 31
0.0
  0
LINE
  5
28B
102
{ACAD_REACTORS
330
392
330
392
102
}
330
4F
100
AcDbEntity
  8
1
  6
Continuous
 62
     2
100
AcDbLine
 10
141.9927287849846
 20
-140.5987022047479
 30
0.0
 11
142.5516542509982
 21
-140.5987022047479
 31
0.0
  0
LINE
  5
28C
330
4F
100
AcDbEntity
  8
1
  6
Continuous
 62
     2
100
AcDbLine
 10
141.9927287849846
 20
-140.5987022047479
 30
0.0
 11
142.2516542509982
 21
-140.5987022047479
 31
0.0
  0
LINE
  5
28D
102
{ACAD_REACTORS
330
392
330
392
102
}
330
4F
100
AcDbEntity
  8
1
  6
Continuous
 62
     2
100
AcDbLine
 10
141.9927287849846
 20
-139.3987022047479
 30
0.0
 11
143.7516542509982
 21
-139.3987022047479
 31
0.0
  0
LINE
  5
28E
102
{ACAD_REACTORS
330
392
330
392
102
}
330
4F
100
AcDbEntity
  8
1
  6
Continuous
 62
     2
100
AcDbLine
 10
141.9927287849846
 20
-139.3987022047479
 30
0.0
 11
141.9927287849846
 21
-140.5987022047479
 31
0.0
  0
LINE
  5
28F
102
{ACAD_REACTORS
330
392
330
392
102
}
330
4F
100
AcDbEntity
  8
1
  6
Continuous
 62
     2
100
AcDbLine
 10
143.7516542509982
 20
-144.0987022047479
 30
0.0
 11
143.2516542509982
 21
-144.0987022047479
 31
0.0
  0
LINE
  5
290
102
{ACAD_REACTORS
330
392
330
392
102
}
330
4F
100
AcDbEntity
  8
1
  6
Continuous
 62
     2
100
AcDbLine
 10
143.7516542509982
 20
-135.8987022047479
 30
0.0
 11
143.7516542509982
 21
-137.9987022047479
 31
0.0
  0
LINE
  5
291
102
{ACAD_REACTORS
330
388
330
388
102
}
330
4F
100
AcDbEntity
  8
1
  6
Continuous
 62
     2
100
AcDbLine
 10
147.1516542509982
 20
-134.8987022047479
 30
0.0
 11
144.5516542509982
 21
-134.8987022047479
 31
0.0
  0
LINE
  5
292
102
{ACAD_REACTORS
330
388
330
388
102
}
330
4F
100
AcDbEntity
  8
1
  6
Continuous
 62
     2
100
AcDbLine
 10
144.5516542509982
 20
-134.8987022047479
 30
0.0
 11
144.5516542509982
 21
-144.0987022047479
 31
0.0
  0
LINE
  5
293
102
{ACAD_REACTORS
330
388
330
388
102
}
330
4F
100
AcDbEntity
  8
1
  6
Continuous
 62
     2
100
AcDbLine
 10
144.5516542509982
 20
-144.0987022047479
 30
0.0
 11
147.1516542509982
 21
-144.0987022047479
 31
0.0
  0
LINE
  5
294
102
{ACAD_REACTORS
330
388
330
388
102
}
330
4F
100
AcDbEntity
  8
1
  6
Continuous
 62
     2
100
AcDbLine
 10
147.1516542509982
 20
-144.0987022047479
 30
0.0
 11
147.1516542509982
 21
-142.986289665258
 31
0.0
  0
LINE
  5
295
102
{ACAD_REACTORS
330
392
330
392
102
}
330
4F
100
AcDbEntity
  8
1
  6
Continuous
 62
     2
100
AcDbLine
 10
143.7516542509982
 20
-139.3987022047479
 30
0.0
 11
143.7516542509982
 21
-144.0987022047479
 31
0.0
  0
LINE
  5
296
102
{ACAD_REACTORS
330
392
330
392
102
}
330
4F
100
AcDbEntity
  8
1
  6
Continuous
 62
     2
100
AcDbLine
 10
143.2516542509982
 20
-144.0987022047479
 30
0.0
 11
142.9048783308657
 21
-143.4987022047479
 31
0.0
  0
LINE
  5
297
102
{ACAD_REACTORS
330
392
330
392
102
}
330
4F
100
AcDbEntity
  8
1
  6
Continuous
 62
     2
100
AcDbLine
 10
141.0516542509982
 20
-144.0987022047479
 30
0.0
 11
141.9016542509982
 21
-144.0987022047479
 31
0.0
  0
LINE
  5
298
102
{ACAD_REACTORS
330
38B
330
38B
102
}
330
4F
100
AcDbEntity
  8
1
  6
Continuous
 62
     2
100
AcDbLine
 10
148.9516542509982
 20
-134.8987022047479
 30
0.0
 11
150.6516542509982
 21
-134.8987022047479
 31
0.0
  0
LINE
  5
299
102
{ACAD_REACTORS
330
38B
330
38B
102
}
330
4F
100
AcDbEntity
  8
1
  6
Continuous
 62
     2
100
AcDbLine
 10
150.6516542509982
 20
-144.0987022047479
 30
0.0
 11
148.9516542509982
 21
-144.0987022047479
 31
0.0
  0
LINE
  5
29A
102
{ACAD_REACTORS
330
38B
330
38B
102
}
330
4F
100
AcDbEntity
  8
1
  6
Continuous
 62
     2
100
AcDbLine
 10
147.9516542509982
 20
-135.8987022047479
 30
0.0
 11
147.9516542509982
 21
-143.0987022047479
 31
0.0
  0
LINE
  5
29B
102
{ACAD_REACTORS
330
38B
330
38B
102
}
330
4F
100
AcDbEntity
  8
1
  6
Continuous
 62
     2
100
AcDbLine
 10
151.6516542509982
 20
-135.8987022047479
 30
0.0
 11
151.6516542509982
 21
-143.0987022047479
 31
0.0
  0
LINE
  5
29C
102
{ACAD_REACTORS
330
390
330
390
102
}
330
4F
100
AcDbEntity
  8
1
  6
Continuous
 62
     2
100
AcDbLine
 10
152.4516542509982
 20
-134.8987022047479
 30
0.0
 11
152.4516542509982
 21
-144.0987022047479
 31
0.0
  0
LINE
  5
29D
102
{ACAD_REACTORS
330
390
330
390
102
}
330
4F
100
AcDbEntity
  8
1
  6
Continuous
 62
     2
100
AcDbLine
 10
152.4516542509982
 20
-134.8987022047479
 30
0.0
 11
155.1516542509982
 21
-134.8987022047479
 31
0.0
  0
LINE
  5
29E
102
{ACAD_REACTORS
330
390
330
390
102
}
330
4F
100
AcDbEntity
  8
1
  6
Continuous
 62
     2
100
AcDbLine
 10
156.1516542509982
 20
-138.6830643350151
 30
0.0
 11
156.1516542509982
 21
-135.8987022047479
 31
0.0
  0
LINE
  5
29F
102
{ACAD_REACTORS
330
390
330
390
102
}
330
4F
100
AcDbEntity
  8
1
  6
Continuous
 62
     2
100
AcDbLine
 10
156.1516542509982
 20
-140.3390436232606
 30
0.0
 11
156.1516542509982
 21
-144.0987022047479
 31
0.0
  0
LINE
  5
2A0
102
{ACAD_REACTORS
330
391
330
391
102
}
330
4F
100
AcDbEntity
  8
1
  6
Continuous
 62
     2
100
AcDbLine
 10
157.9516542509982
 20
-134.8987022047479
 30
0.0
 11
159.6516542509982
 21
-134.8987022047479
 31
0.0
  0
LINE
  5
2A1
102
{ACAD_REACTORS
330
391
330
391
102
}
330
4F
100
AcDbEntity
  8
1
  6
Continuous
 62
     2
100
AcDbLine
 10
160.6516542509982
 20
-144.0987022047479
 30
0.0
 11
160.6516542509982
 21
-139.3987022047479
 31
0.0
  0
LINE
  5
2A2
102
{ACAD_REACTORS
330
391
330
391
102
}
330
4F
100
AcDbEntity
  8
1
  6
Continuous
 62
     2
100
AcDbLine
 10
160.6516542509982
 20
-137.9987022047479
 30
0.0
 11
159.4516542509982
 21
-137.9987022047479
 31
0.0
  0
LINE
  5
2A3
102
{ACAD_REACTORS
330
391
330
391
102
}
330
4F
100
AcDbEntity
  8
1
  6
Continuous
 62
     2
100
AcDbLine
 10
160.6516542509982
 20
-137.9987022047479
 30
0.0
 11
160.6516542509983
 21
-135.8987022047479
 31
0.0
  0
LINE
  5
2A4
102
{ACAD_REACTORS
330
38A
330
38A
102
}
330
4F
100
AcDbEntity
  8
1
  6
Continuous
 62
     2
100
AcDbLine
 10
168.6516542509982
 20
-134.8987022047479
 30
0.0
 11
169.8516542509982
 21
-134.8987022047479
 31
0.0
  0
LINE
  5
2A5
102
{ACAD_REACTORS
330
38A
330
38A
102
}
330
4F
100
AcDbEntity
  8
1
  6
Continuous
 62
     2
100
AcDbLine
 10
168.6516542509982
 20
-144.0987022047479
 30
0.0
 11
169.8516542509982
 21
-144.0987022047479
 31
0.0
  0
LINE
  5
2A6
102
{ACAD_REACTORS
330
38A
330
38A
102
}
330
4F
100
AcDbEntity
  8
1
  6
Continuous
 62
     2
100
AcDbLine
 10
168.6516542509982
 20
-144.0987022047479
 30
0.0
 11
168.6516542509982
 21
-134.8987022047479
 31
0.0
  0
LINE
  5
2A7
330
4F
100
AcDbEntity
  8
1
  6
Continuous
 62
     2
100
AcDbLine
 10
168.6516542509982
 20
-144.0987022047479
 30
0.0
 11
169.8516542509982
 21
-144.0987022047479
 31
0.0
  0
LINE
  5
2A8
102
{ACAD_REACTORS
330
38E
330
38E
102
}
330
4F
100
AcDbEntity
  8
1
  6
Continuous
 62
     2
100
AcDbLine
 10
174.1516542509982
 20
-134.8987022047479
 30
0.0
 11
175.8516542509982
 21
-134.8987022047479
 31
0.0
  0
LINE
  5
2A9
102
{ACAD_REACTORS
330
38E
330
38E
102
}
330
4F
100
AcDbEntity
  8
1
  6
Continuous
 62
     2
100
AcDbLine
 10
174.1516542509982
 20
-144.0987022047479
 30
0.0
 11
175.8516542509982
 21
-144.0987022047479
 31
0.0
  0
LINE
  5
2AA
102
{ACAD_REACTORS
330
38D
330
38D
102
}
330
4F
100
AcDbEntity
  8
1
  6
Continuous
 62
     2
100
AcDbLine
 10
177.6516542509982
 20
-134.8987022047479
 30
0.0
 11
177.6516542509982
 21
-144.0987022047479
 31
0.0
  0
LINE
  5
2AB
102
{ACAD_REACTORS
330
38D
330
38D
102
}
330
4F
100
AcDbEntity
  8
1
  6
Continuous
 62
     2
100
AcDbLine
 10
180.3516542509982
 20
-134.8987022047479
 30
0.0
 11
177.6516542509982
 21
-134.8987022047479
 31
0.0
  0
LINE
  5
2AC
102
{ACAD_REACTORS
330
38D
330
38D
102
}
330
4F
100
AcDbEntity
  8
1
  6
Continuous
 62
     2
100
AcDbLine
 10
177.6516542509982
 20
-144.0987022047479
 30
0.0
 11
180.3516542509982
 21
-144.0987022047479
 31
0.0
  0
LINE
  5
2AD
102
{ACAD_REACTORS
330
38C
330
38C
102
}
330
4F
100
AcDbEntity
  8
1
  6
Continuous
 62
     2
100
AcDbLine
 10
182.1516542509982
 20
-135.8987022047479
 30
0.0
 11
182.1516542509982
 21
-143.0987022047479
 31
0.0
  0
LINE
  5
2AE
102
{ACAD_REACTORS
330
38C
330
38C
102
}
330
4F
100
AcDbEntity
  8
1
  6
Continuous
 62
     2
100
AcDbLine
 10
183.1516542509982
 20
-144.0987022047479
 30
0.0
 11
184.8516542509982
 21
-144.0987022047479
 31
0.0
  0
LINE
  5
2AF
102
{ACAD_REACTORS
330
38C
330
38C
102
}
330
4F
100
AcDbEntity
  8
1
  6
Continuous
 62
     2
100
AcDbLine
 10
185.8516542509982
 20
-135.8987022047479
 30
0.0
 11
185.8516542509982
 21
-143.0987022047479
 31
0.0
  0
LINE
  5
2B0
102
{ACAD_REACTORS
330
38C
330
38C
102
}
330
4F
100
AcDbEntity
  8
1
  6
Continuous
 62
     2
100
AcDbLine
 10
183.1516542509982
 20
-134.8987022047479
 30
0.0
 11
184.8516542509982
 21
-134.8987022047479
 31
0.0
  0
LINE
  5
2B1
102
{ACAD_REACTORS
330
389
330
389
102
}
330
4F
100
AcDbEntity
  8
1
  6
Continuous
 62
     2
100
AcDbLine
 10
186.6516542509982
 20
-134.8987022047479
 30
0.0
 11
186.6516542509982
 21
-144.0987022047479
 31
0.0
  0
LINE
  5
2B2
102
{ACAD_REACTORS
330
389
330
389
102
}
330
4F
100
AcDbEntity
  8
1
  6
Continuous
 62
     2
100
AcDbLine
 10
186.6516542509982
 20
-144.0987022047479
 30
0.0
 11
189.2516542509982
 21
-144.0987022047479
 31
0.0
  0
LINE
  5
2B3
102
{ACAD_REACTORS
330
389
330
389
102
}
330
4F
100
AcDbEntity
  8
1
  6
Continuous
 62
     2
100
AcDbLine
 10
189.2516542509982
 20
-144.0987022047479
 30
0.0
 11
189.2516542509982
 21
-142.986289665258
 31
0.0
  0
LINE
  5
2B4
102
{ACAD_REACTORS
330
389
330
389
102
}
330
4F
100
AcDbEntity
  8
1
  6
Continuous
 62
     2
100
AcDbLine
 10
186.6516542509982
 20
-134.8987022047479
 30
0.0
 11
187.8516542509982
 21
-134.8987022047479
 31
0.0
  0
LINE
  5
2B5
102
{ACAD_REACTORS
330
38F
330
38F
102
}
330
4F
100
AcDbEntity
  8
1
  6
Continuous
 62
     2
100
AcDbLine
 10
190.0516542509982
 20
-144.0987022047479
 30
0.0
 11
190.0516542509982
 21
-134.8987022047479
 31
0.0
  0
LINE
  5
2B6
102
{ACAD_REACTORS
330
38F
330
38F
102
}
330
4F
100
AcDbEntity
  8
1
  6
Continuous
 62
     2
100
AcDbLine
 10
190.0516542509982
 20
-134.8987022047479
 30
0.0
 11
192.7516542509982
 21
-134.8987022047479
 31
0.0
  0
LINE
  5
2B7
102
{ACAD_REACTORS
330
38E
330
38E
102
}
330
4F
100
AcDbEntity
  8
1
  6
Continuous
 62
     2
100
AcDbLine
 10
176.8516542509982
 20
-135.8987022047479
 30
0.0
 11
176.8516542509982
 21
-143.0987022047479
 31
0.0
  0
LINE
  5
2B8
102
{ACAD_REACTORS
330
38F
330
38F
102
}
330
4F
100
AcDbEntity
  8
1
  6
Continuous
 62
     2
100
AcDbLine
 10
192.7516542509982
 20
-144.0987022047479
 30
0.0
 11
190.0516542509982
 21
-144.0987022047479
 31
0.0
  0
LINE
  5
2B9
102
{ACAD_REACTORS
330
38F
330
38F
102
}
330
4F
100
AcDbEntity
  8
1
  6
Continuous
 62
     2
100
AcDbLine
 10
193.7516542509982
 20
-135.8987022047479
 30
0.0
 11
193.7516542509982
 21
-143.0987022047479
 31
0.0
  0
LINE
  5
2BA
102
{ACAD_REACTORS
330
391
330
391
102
}
330
4F
100
AcDbEntity
  8
1
  6
Continuous
 62
     2
100
AcDbLine
 10
157.9516542509982
 20
-144.0987022047479
 30
0.0
 11
158.8173222162131
 21
-144.0987022047479
 31
0.0
  0
LINE
  5
2BB
102
{ACAD_REACTORS
330
391
330
391
102
}
330
4F
100
AcDbEntity
  8
1
  6
Continuous
 62
     2
100
AcDbLine
 10
156.9516542509982
 20
-143.0987022047479
 30
0.0
 11
156.9516542509982
 21
-135.8987022047479
 31
0.0
  0
LINE
  5
2BC
102
{ACAD_REACTORS
330
392
330
392
102
}
330
4F
100
AcDbEntity
  8
1
  6
Continuous
 62
     2
100
AcDbLine
 10
140.0516542509982
 20
-135.8987022047479
 30
0.0
 11
140.0516542509982
 21
-143.0987022047479
 31
0.0
  0
LINE
  5
2BD
102
{ACAD_REACTORS
330
392
330
392
102
}
330
4F
100
AcDbEntity
  8
1
  6
Continuous
 62
     2
100
AcDbLine
 10
141.0516542509982
 20
-134.8987022047479
 30
0.0
 11
142.7516542509982
 21
-134.8987022047479
 31
0.0
  0
LINE
  5
2BE
102
{ACAD_REACTORS
330
391
330
391
102
}
330
4F
100
AcDbEntity
  8
1
  6
Continuous
 62
     2
100
AcDbLine
 10
160.6516542509982
 20
-144.0987022047479
 30
0.0
 11
160.1516542509982
 21
-144.0987022047479
 31
0.0
  0
LINE
  5
2BF
102
{ACAD_REACTORS
330
391
330
391
102
}
330
4F
100
AcDbEntity
  8
1
  6
Continuous
 62
     2
100
AcDbLine
 10
160.1516542509982
 20
-144.0987022047479
 30
0.0
 11
159.8046153744343
 21
-143.4987022047479
 31
0.0
  0
LINE
  5
2C0
102
{ACAD_REACTORS
330
391
330
391
102
}
330
4F
100
AcDbEntity
  8
1
  6
Continuous
 62
     2
100
AcDbLine
 10
159.4516542509982
 20
-137.9987022047479
 30
0.0
 11
159.4516542509982
 21
-136.6487022047479
 31
0.0
  0
LINE
  5
2C1
102
{ACAD_REACTORS
330
391
330
391
102
}
330
4F
100
AcDbEntity
  8
1
  6
Continuous
 62
     2
100
AcDbLine
 10
158.1516542509982
 20
-136.6487022047479
 30
0.0
 11
158.1516542509982
 21
-142.336289665258
 31
0.0
  0
LINE
  5
2C2
102
{ACAD_REACTORS
330
391
330
391
102
}
330
4F
100
AcDbEntity
  8
1
  6
Continuous
 62
     2
100
AcDbLine
 10
159.4516542509982
 20
-142.336289665258
 30
0.0
 11
159.4516542509982
 21
-140.5987022047479
 31
0.0
  0
LINE
  5
2C3
102
{ACAD_REACTORS
330
390
330
390
102
}
330
4F
100
AcDbEntity
  8
1
  6
Continuous
 62
     2
100
AcDbLine
 10
154.9516542509982
 20
-138.2487022047479
 30
0.0
 11
154.9516542509982
 21
-136.6487022047479
 31
0.0
  0
LINE
  5
2C4
102
{ACAD_REACTORS
330
390
330
390
102
}
330
4F
100
AcDbEntity
  8
1
  6
Continuous
 62
     2
100
AcDbLine
 10
154.9516542509982
 20
-140.7487022047479
 30
0.0
 11
154.9516542509982
 21
-144.0987022047479
 31
0.0
  0
LINE
  5
2C5
102
{ACAD_REACTORS
330
390
330
390
102
}
330
4F
100
AcDbEntity
  8
1
  6
Continuous
 62
     2
100
AcDbLine
 10
154.9516542509982
 20
-144.0987022047479
 30
0.0
 11
156.1516542509982
 21
-144.0987022047479
 31
0.0
  0
LINE
  5
2C6
102
{ACAD_REACTORS
330
390
330
390
102
}
330
4F
100
AcDbEntity
  8
1
  6
Continuous
 62
     2
100
AcDbLine
 10
153.6516542509982
 20
-144.0987022047479
 30
0.0
 11
152.4516542509982
 21
-144.0987022047479
 31
0.0
  0
LINE
  5
2C7
102
{ACAD_REACTORS
330
386
330
386
102
}
330
4F
100
AcDbEntity
  8
1
  6
Continuous
 62
     2
100
AcDbLine
 10
161.4516542509982
 20
-134.8987022047479
 30
0.0
 11
162.6516542509982
 21
-134.8987022047479
 31
0.0
  0
LINE
  5
2C8
102
{ACAD_REACTORS
330
387
330
387
102
}
330
4F
100
AcDbEntity
  8
1
  6
Continuous
 62
     2
100
AcDbLine
 10
163.4516542509982
 20
-134.8987022047479
 30
0.0
 11
164.6516542509982
 21
-134.8987022047479
 31
0.0
  0
LINE
  5
2C9
102
{ACAD_REACTORS
330
386
330
386
102
}
330
4F
100
AcDbEntity
  8
1
  6
Continuous
 62
     2
100
AcDbLine
 10
161.4516542509982
 20
-144.0987022047479
 30
0.0
 11
162.6516542509982
 21
-144.0987022047479
 31
0.0
  0
LINE
  5
2CA
102
{ACAD_REACTORS
330
387
330
387
102
}
330
4F
100
AcDbEntity
  8
1
  6
Continuous
 62
     2
100
AcDbLine
 10
164.6516542509982
 20
-144.0987022047479
 30
0.0
 11
164.6516542509982
 21
-134.8987022047479
 31
0.0
  0
LINE
  5
2CB
102
{ACAD_REACTORS
330
387
330
387
102
}
330
4F
100
AcDbEntity
  8
1
  6
Continuous
 62
     2
100
AcDbLine
 10
163.4516542509982
 20
-134.8987022047479
 30
0.0
 11
163.4516542509982
 21
-144.0987022047479
 31
0.0
  0
LINE
  5
2CC
102
{ACAD_REACTORS
330
386
330
386
102
}
330
4F
100
AcDbEntity
  8
1
  6
Continuous
 62
     2
100
AcDbLine
 10
162.6516542509982
 20
-144.0987022047479
 30
0.0
 11
162.6516542509982
 21
-134.8987022047479
 31
0.0
  0
LINE
  5
2CD
102
{ACAD_REACTORS
330
386
330
386
102
}
330
4F
100
AcDbEntity
  8
1
  6
Continuous
 62
     2
100
AcDbLine
 10
161.4516542509982
 20
-134.8987022047479
 30
0.0
 11
161.4516542509982
 21
-144.0987022047479
 31
0.0
  0
LINE
  5
2CE
102
{ACAD_REACTORS
330
391
330
391
102
}
330
4F
100
AcDbEntity
  8
1
  6
Continuous
 62
     2
100
AcDbLine
 10
158.9016542509982
 20
-139.3987022047479
 30
0.0
 11
159.7415058473918
 21
-139.3987022047479
 31
0.0
  0
LINE
  5
2CF
102
{ACAD_REACTORS
330
391
330
391
102
}
330
4F
100
AcDbEntity
  8
1
  6
Continuous
 62
     2
100
AcDbLine
 10
158.9016542509982
 20
-139.3987022047479
 30
0.0
 11
158.9016542509982
 21
-140.5987022047479
 31
0.0
  0
LINE
  5
2D0
102
{ACAD_REACTORS
330
391
330
391
102
}
330
4F
100
AcDbEntity
  8
1
  6
Continuous
 62
     2
100
AcDbLine
 10
158.9016542509982
 20
-140.5987022047479
 30
0.0
 11
159.4516542509982
 21
-140.5987022047479
 31
0.0
  0
LINE
  5
2D1
102
{ACAD_REACTORS
330
387
330
387
102
}
330
4F
100
AcDbEntity
  8
1
  6
Continuous
 62
     2
100
AcDbLine
 10
163.4516542509982
 20
-144.0987022047479
 30
0.0
 11
164.6516542509982
 21
-144.0987022047479
 31
0.0
  0
LINE
  5
2D2
102
{ACAD_REACTORS
330
388
330
388
102
}
330
4F
100
AcDbEntity
  8
1
  6
Continuous
 62
     2
100
AcDbLine
 10
145.8516542509982
 20
-135.9987022047479
 30
0.0
 11
147.1516542509982
 21
-135.9987022047479
 31
0.0
  0
LINE
  5
2D3
102
{ACAD_REACTORS
330
388
330
388
102
}
330
4F
100
AcDbEntity
  8
1
  6
Continuous
 62
     2
100
AcDbLine
 10
147.1516542509982
 20
-135.9987022047479
 30
0.0
 11
147.1516542509982
 21
-134.8987022047479
 31
0.0
  0
LINE
  5
2D4
102
{ACAD_REACTORS
330
38B
330
38B
102
}
330
4F
100
AcDbEntity
  8
1
  6
Continuous
 62
     2
100
AcDbLine
 10
150.4516542509982
 20
-136.6487022047479
 30
0.0
 11
150.4516542509982
 21
-142.336289665258
 31
0.0
  0
LINE
  5
2D5
102
{ACAD_REACTORS
330
38B
330
38B
102
}
330
4F
100
AcDbEntity
  8
1
  6
Continuous
 62
     2
100
AcDbLine
 10
149.1516542509982
 20
-136.6487022047479
 30
0.0
 11
149.1516542509982
 21
-142.336289665258
 31
0.0
  0
LINE
  5
2D6
102
{ACAD_REACTORS
330
392
330
392
102
}
330
4F
100
AcDbEntity
  8
1
  6
Continuous
 62
     2
100
AcDbLine
 10
142.5516542509982
 20
-142.336289665258
 30
0.0
 11
142.5516542509982
 21
-140.5987022047479
 31
0.0
  0
LINE
  5
2D7
102
{ACAD_REACTORS
330
392
330
392
102
}
330
4F
100
AcDbEntity
  8
1
  6
Continuous
 62
     2
100
AcDbLine
 10
141.2516542509982
 20
-142.336289665258
 30
0.0
 11
141.2516542509982
 21
-136.6487022047479
 31
0.0
  0
LINE
  5
2D8
102
{ACAD_REACTORS
330
392
330
392
102
}
330
4F
100
AcDbEntity
  8
1
  6
Continuous
 62
     2
100
AcDbLine
 10
142.5516542509982
 20
-136.6487022047479
 30
0.0
 11
142.5516542509982
 21
-137.9987022047479
 31
0.0
  0
LINE
  5
2D9
102
{ACAD_REACTORS
330
392
330
392
102
}
330
4F
100
AcDbEntity
  8
1
  6
Continuous
 62
     2
100
AcDbLine
 10
142.5516542509982
 20
-137.9987022047479
 30
0.0
 11
143.7516542509982
 21
-137.9987022047479
 31
0.0
  0
LINE
  5
2DA
102
{ACAD_REACTORS
330
390
330
390
102
}
330
4F
100
AcDbEntity
  8
1
  6
Continuous
 62
     2
100
AcDbLine
 10
153.6516542509982
 20
-135.9987022047479
 30
0.0
 11
154.3016542509982
 21
-135.9987022047479
 31
0.0
  0
LINE
  5
2DB
102
{ACAD_REACTORS
330
390
330
390
102
}
330
4F
100
AcDbEntity
  8
1
  6
Continuous
 62
     2
100
AcDbLine
 10
153.6516542509982
 20
-135.9987022047479
 30
0.0
 11
153.6516542509982
 21
-138.8987022047479
 31
0.0
  0
LINE
  5
2DC
102
{ACAD_REACTORS
330
390
330
390
102
}
330
4F
100
AcDbEntity
  8
1
  6
Continuous
 62
     2
100
AcDbLine
 10
153.6516542509982
 20
-138.8987022047479
 30
0.0
 11
154.3016542509982
 21
-138.8987022047479
 31
0.0
  0
LINE
  5
2DD
102
{ACAD_REACTORS
330
390
330
390
102
}
330
4F
100
AcDbEntity
  8
1
  6
Continuous
 62
     2
100
AcDbLine
 10
154.3016542509982
 20
-140.0987022047479
 30
0.0
 11
153.6516542509982
 21
-140.0987022047479
 31
0.0
  0
LINE
  5
2DE
102
{ACAD_REACTORS
330
390
330
390
102
}
330
4F
100
AcDbEntity
  8
1
  6
Continuous
 62
     2
100
AcDbLine
 10
153.6516542509982
 20
-140.0987022047479
 30
0.0
 11
153.6516542509982
 21
-144.0987022047479
 31
0.0
  0
LINE
  5
2DF
330
4F
100
AcDbEntity
  8
1
  6
Continuous
 62
     2
100
AcDbLine
 10
158.9016542509982
 20
-139.3987022047479
 30
0.0
 11
159.7415058473918
 21
-139.3987022047479
 31
0.0
  0
LINE
  5
2E0
102
{ACAD_REACTORS
330
391
330
391
102
}
330
4F
100
AcDbEntity
  8
1
  6
Continuous
 62
     2
100
AcDbLine
 10
159.7415058473918
 20
-139.3987022047479
 30
0.0
 11
160.6516542509982
 21
-139.3987022047479
 31
0.0
  0
LINE
  5
2E1
102
{ACAD_REACTORS
330
38E
330
38E
102
}
330
4F
100
AcDbEntity
  8
1
  6
Continuous
 62
     2
100
AcDbLine
 10
175.6516542509982
 20
-136.6487022047479
 30
0.0
 11
175.6516542509982
 21
-142.336289665258
 31
0.0
  0
LINE
  5
2E2
102
{ACAD_REACTORS
330
38E
330
38E
102
}
330
4F
100
AcDbEntity
  8
1
  6
Continuous
 62
     2
100
AcDbLine
 10
174.3516542509982
 20
-142.336289665258
 30
0.0
 11
174.3516542509982
 21
-136.6487022047479
 31
0.0
  0
LINE
  5
2E3
102
{ACAD_REACTORS
330
38D
330
38D
102
}
330
4F
100
AcDbEntity
  8
1
  6
Continuous
 62
     2
100
AcDbLine
 10
178.8516542509982
 20
-135.9987022047479
 30
0.0
 11
179.5016542509982
 21
-135.9987022047479
 31
0.0
  0
LINE
  5
2E4
102
{ACAD_REACTORS
330
38D
330
38D
102
}
330
4F
100
AcDbEntity
  8
1
  6
Continuous
 62
     2
100
AcDbLine
 10
180.1516542509982
 20
-136.6487022047479
 30
0.0
 11
180.1516542509982
 21
-137.9487022047479
 31
0.0
  0
LINE
  5
2E5
102
{ACAD_REACTORS
330
38D
330
38D
102
}
330
4F
100
AcDbEntity
  8
1
  6
Continuous
 62
     2
100
AcDbLine
 10
179.5016542509982
 20
-138.5987022047479
 30
0.0
 11
178.8516542509982
 21
-138.5987022047479
 31
0.0
  0
LINE
  5
2E6
102
{ACAD_REACTORS
330
38D
330
38D
102
}
330
4F
100
AcDbEntity
  8
1
  6
Continuous
 62
     2
100
AcDbLine
 10
178.8516542509982
 20
-139.6987022047479
 30
0.0
 11
178.8516542509982
 21
-142.986289665258
 31
0.0
  0
LINE
  5
2E7
102
{ACAD_REACTORS
330
38D
330
38D
102
}
330
4F
100
AcDbEntity
  8
1
  6
Continuous
 62
     2
100
AcDbLine
 10
178.8516542509982
 20
-142.986289665258
 30
0.0
 11
179.5016542509982
 21
-142.986289665258
 31
0.0
  0
LINE
  5
2E8
102
{ACAD_REACTORS
330
38D
330
38D
102
}
330
4F
100
AcDbEntity
  8
1
  6
Continuous
 62
     2
100
AcDbLine
 10
180.1516542509982
 20
-142.336289665258
 30
0.0
 11
180.1516542509982
 21
-140.3487022047479
 31
0.0
  0
LINE
  5
2E9
102
{ACAD_REACTORS
330
38D
330
38D
102
}
330
4F
100
AcDbEntity
  8
1
  6
Continuous
 62
     2
100
AcDbLine
 10
178.8516542509982
 20
-135.9987022047479
 30
0.0
 11
178.8516542509982
 21
-138.5987022047479
 31
0.0
  0
LINE
  5
2EA
102
{ACAD_REACTORS
330
38D
330
38D
102
}
330
4F
100
AcDbEntity
  8
1
  6
Continuous
 62
     2
100
AcDbLine
 10
178.8516542509982
 20
-139.6987022047479
 30
0.0
 11
179.5016542509982
 21
-139.6987022047479
 31
0.0
  0
LINE
  5
2EB
102
{ACAD_REACTORS
330
38C
330
38C
102
}
330
4F
100
AcDbEntity
  8
1
  6
Continuous
 62
     2
100
AcDbLine
 10
184.6516542509982
 20
-136.6487022047479
 30
0.0
 11
184.6516542509982
 21
-142.336289665258
 31
0.0
  0
LINE
  5
2EC
102
{ACAD_REACTORS
330
38C
330
38C
102
}
330
4F
100
AcDbEntity
  8
1
  6
Continuous
 62
     2
100
AcDbLine
 10
183.3516542509982
 20
-142.336289665258
 30
0.0
 11
183.3516542509982
 21
-136.6487022047479
 31
0.0
  0
LINE
  5
2ED
102
{ACAD_REACTORS
330
38F
330
38F
102
}
330
4F
100
AcDbEntity
  8
1
  6
Continuous
 62
     2
100
AcDbLine
 10
192.5516542509982
 20
-136.6487022047479
 30
0.0
 11
192.5516542509982
 21
-142.336289665258
 31
0.0
  0
LINE
  5
2EE
102
{ACAD_REACTORS
330
38F
330
38F
102
}
330
4F
100
AcDbEntity
  8
1
  6
Continuous
 62
     2
100
AcDbLine
 10
191.9016542509982
 20
-142.986289665258
 30
0.0
 11
191.2516542509982
 21
-142.986289665258
 31
0.0
  0
LINE
  5
2EF
102
{ACAD_REACTORS
330
38F
330
38F
102
}
330
4F
100
AcDbEntity
  8
1
  6
Continuous
 62
     2
100
AcDbLine
 10
191.2516542509982
 20
-142.986289665258
 30
0.0
 11
191.2516542509982
 21
-136.6487022047479
 31
0.0
  0
LINE
  5
2F0
102
{ACAD_REACTORS
330
389
330
389
102
}
330
4F
100
AcDbEntity
  8
1
  6
Continuous
 62
     2
100
AcDbLine
 10
187.8516542509982
 20
-134.8987022047479
 30
0.0
 11
187.8516542509982
 21
-142.986289665258
 31
0.0
  0
LINE
  5
2F1
102
{ACAD_REACTORS
330
389
330
389
102
}
330
4F
100
AcDbEntity
  8
1
  6
Continuous
 62
     2
100
AcDbLine
 10
187.8516542509982
 20
-142.986289665258
 30
0.0
 11
189.2516542509982
 21
-142.986289665258
 31
0.0
  0
LINE
  5
2F2
102
{ACAD_REACTORS
330
38F
330
38F
102
}
330
4F
100
AcDbEntity
  8
1
  6
Continuous
 62
     2
100
AcDbLine
 10
191.2516542509982
 20
-135.9987022047479
 30
0.0
 11
191.9016542509982
 21
-135.9987022047479
 31
0.0
  0
LINE
  5
2F3
102
{ACAD_REACTORS
330
38F
330
38F
102
}
330
4F
100
AcDbEntity
  8
1
  6
Continuous
 62
     2
100
AcDbLine
 10
191.2516542509982
 20
-135.9987022047479
 30
0.0
 11
191.2516542509982
 21
-136.6487022047479
 31
0.0
  0
LINE
  5
2F4
102
{ACAD_REACTORS
330
38D
330
38D
102
}
330
4F
100
AcDbEntity
  8
1
  6
Continuous
 62
     2
100
AcDbLine
 10
181.3516542509982
 20
-138.4987022047479
 30
0.0
 11
181.3516542509982
 21
-135.8987022047479
 31
0.0
  0
LINE
  5
2F5
102
{ACAD_REACTORS
330
38D
330
38D
102
}
330
4F
100
AcDbEntity
  8
1
  6
Continuous
 62
     2
100
AcDbLine
 10
181.3516542509982
 20
-139.7987022047479
 30
0.0
 11
181.3516542509982
 21
-143.0987022047479
 31
0.0
  0
LINE
  5
2F6
102
{ACAD_REACTORS
330
38A
330
38A
102
}
330
4F
100
AcDbEntity
  8
1
  6
Continuous
 62
     2
100
AcDbLine
 10
172.3516542509982
 20
-134.8987022047479
 30
0.0
 11
170.9200628688759
 21
-139.1487022047479
 31
0.0
  0
LINE
  5
2F7
102
{ACAD_REACTORS
330
38A
330
38A
102
}
330
4F
100
AcDbEntity
  8
1
  6
Continuous
 62
     2
100
AcDbLine
 10
170.9200628688759
 20
-139.1487022047479
 30
0.0
 11
172.3516542509982
 21
-144.0987022047479
 31
0.0
  0
LINE
  5
2F8
102
{ACAD_REACTORS
330
38A
330
38A
102
}
330
4F
100
AcDbEntity
  8
1
  6
Continuous
 62
     2
100
AcDbLine
 10
171.0854042804337
 20
-134.8987022047479
 30
0.0
 11
172.3516542509982
 21
-134.8987022047479
 31
0.0
  0
LINE
  5
2F9
102
{ACAD_REACTORS
330
38A
330
38A
102
}
330
4F
100
AcDbEntity
  8
1
  6
Continuous
 62
     2
100
AcDbLine
 10
171.1024763583806
 20
-144.0987022047479
 30
0.0
 11
172.3516542509982
 21
-144.0987022047479
 31
0.0
  0
LINE
  5
2FA
102
{ACAD_REACTORS
330
38A
330
38A
102
}
330
4F
100
AcDbEntity
  8
1
  6
Continuous
 62
     2
100
AcDbLine
 10
171.0854042804337
 20
-134.8987022047479
 30
0.0
 11
169.8516542509982
 21
-138.5613657905874
 31
0.0
  0
LINE
  5
2FB
102
{ACAD_REACTORS
330
38A
330
38A
102
}
330
4F
100
AcDbEntity
  8
1
  6
Continuous
 62
     2
100
AcDbLine
 10
169.8516542509982
 20
-139.7737464185765
 30
0.0
 11
171.1024763583806
 21
-144.0987022047479
 31
0.0
  0
LINE
  5
2FC
102
{ACAD_REACTORS
330
38A
330
38A
102
}
330
4F
100
AcDbEntity
  8
1
  6
Continuous
 62
     2
100
AcDbLine
 10
169.8516542509982
 20
-134.8987022047479
 30
0.0
 11
169.8516542509982
 21
-138.5613657905874
 31
0.0
  0
LINE
  5
2FD
102
{ACAD_REACTORS
330
38A
330
38A
102
}
330
4F
100
AcDbEntity
  8
1
  6
Continuous
 62
     2
100
AcDbLine
 10
169.8516542509982
 20
-139.7737464185765
 30
0.0
 11
169.8516542509982
 21
-144.0987022047479
 31
0.0
  0
LINE
  5
2FE
102
{ACAD_REACTORS
330
38E
330
38E
102
}
330
4F
100
AcDbEntity
  8
1
  6
Continuous
 62
     2
100
AcDbLine
 10
173.1516542509982
 20
-143.0987022047479
 30
0.0
 11
173.1516542509982
 21
-135.8987022047479
 31
0.0
  0
LINE
  5
2FF
330
4F
100
AcDbEntity
  8
1
  6
Continuous
 62
     2
100
AcDbLine
 10
55.13999999999851
 20
-133.3387022047479
 30
0.0
 11
55.13999999999851
 21
-150.2587022047479
 31
0.0
  0
LINE
  5
300
330
4F
100
AcDbEntity
  8
1
  6
Continuous
 62
     7
100
AcDbLine
 10
102.1300000000001
 20
-112.1887022047482
 30
0.0
 11
102.1300000000001
 21
-133.3387022047479
 31
0.0
  0
LINE
  5
301
330
4F
100
AcDbEntity
  8
1
  6
Continuous
 62
     2
100
AcDbLine
 10
67.83999999999912
 20
-112.1887022047482
 30
0.0
 11
67.83999999999912
 21
-133.3387022047479
 31
0.0
  0
LINE
  5
302
330
4F
100
AcDbEntity
  8
1
  6
Continuous
 62
     2
100
AcDbLine
 10
60.21999999999832
 20
-112.1887022047482
 30
0.0
 11
60.21999999999832
 21
-133.3387022047479
 31
0.0
  0
LINE
  5
303
330
4F
100
AcDbEntity
  8
1
  6
Continuous
 62
     7
100
AcDbLine
 10
22.11999999999898
 20
-133.3387022047479
 30
0.0
 11
205.0
 21
-133.3387022047479
 31
0.0
  0
LINE
  5
304
330
4F
100
AcDbEntity
  8
1
  6
Continuous
 62
     2
100
AcDbLine
 10
42.43999999999869
 20
-112.1887022047482
 30
0.0
 11
42.43999999999869
 21
-133.3387022047479
 31
0.0
  0
LINE
  5
305
330
4F
100
AcDbEntity
  8
1
  6
Continuous
 62
     2
100
AcDbLine
 10
27.19999999999891
 20
-112.1887022047482
 30
0.0
 11
27.19999999999891
 21
-133.3387022047479
 31
0.0
  0
LINE
  5
306
330
4F
100
AcDbEntity
  8
1
  6
Continuous
 62
     2
100
AcDbLine
 10
75.45999999999992
 20
-141.7987022047488
 30
0.0
 11
22.11999999999898
 21
-141.7987022047488
 31
0.0
  0
LINE
  5
307
330
4F
100
AcDbEntity
  8
1
  6
Continuous
 62
     7
100
AcDbLine
 10
75.45999999999992
 20
-133.3387022047479
 30
0.0
 11
75.45999999999992
 21
-150.2587022047479
 31
0.0
  0
LINE
  5
308
330
4F
100
AcDbEntity
  8
1
  6
Continuous
 62
     7
100
AcDbLine
 10
75.45999999999992
 20
-112.1887022047482
 30
0.0
 11
75.45999999999992
 21
-133.3387022047479
 31
0.0
  0
LINE
  5
309
330
4F
100
AcDbEntity
  8
1
  6
Continuous
 62
     7
100
AcDbLine
 10
22.11999999999898
 20
-112.1887022047482
 30
0.0
 11
205.0
 21
-112.1887022047482
 31
0.0
  0
LINE
  5
30A
330
4F
100
AcDbEntity
  8
1
  6
Continuous
 62
     2
100
AcDbLine
 10
22.11999999999898
 20
-146.0287022047484
 30
0.0
 11
75.45999999999992
 21
-146.0287022047484
 31
0.0
  0
LINE
  5
30B
330
4F
100
AcDbEntity
  8
1
  6
Continuous
 62
     2
100
AcDbLine
 10
22.11999999999898
 20
-137.5687022047474
 30
0.0
 11
75.45999999999992
 21
-137.5687022047474
 31
0.0
  0
LINE
  5
30C
330
4F
100
AcDbEntity
  8
1
  6
Continuous
 62
     2
100
AcDbLine
 10
37.35999999999888
 20
-133.3387022047479
 30
0.0
 11
37.35999999999888
 21
-150.2587022047479
 31
0.0
  0
LINE
  5
30D
330
4F
100
AcDbEntity
  8
1
  6
Continuous
 62
     2
100
AcDbLine
 10
22.11999999999898
 20
-129.1087022047483
 30
0.0
 11
75.45999999999992
 21
-129.1087022047483
 31
0.0
  0
LINE
  5
30E
330
4F
100
AcDbEntity
  8
1
  6
Continuous
 62
     2
100
AcDbLine
 10
22.11999999999898
 20
-120.6487022047492
 30
0.0
 11
75.45999999999992
 21
-120.6487022047492
 31
0.0
  0
LINE
  5
30F
330
4F
100
AcDbEntity
  8
1
  6
Continuous
 62
     2
100
AcDbLine
 10
22.11999999999898
 20
-116.4187022047478
 30
0.0
 11
75.45999999999992
 21
-116.4187022047478
 31
0.0
  0
LINE
  5
310
330
4F
100
AcDbEntity
  8
1
  6
Continuous
 62
     7
100
AcDbLine
 10
192.3000000000002
 20
-150.2587022047479
 30
0.0
 11
192.3000000000002
 21
-162.9487022047484
 31
0.0
  0
LINE
  5
311
330
4F
100
AcDbEntity
  8
1
  6
Continuous
 62
     7
100
AcDbLine
 10
192.3000000000002
 20
-158.7187022047489
 30
0.0
 11
205.0
 21
-158.7187022047489
 31
0.0
  0
LINE
  5
312
330
4F
100
AcDbEntity
  8
1
  6
Continuous
 62
     7
100
AcDbLine
 10
128.8000000000002
 20
-162.9487022047484
 30
0.0
 11
205.0
 21
-162.9487022047484
 31
0.0
  0
LINE
  5
313
330
4F
100
AcDbEntity
  8
1
  6
Continuous
 62
     7
100
AcDbLine
 10
166.8999999999996
 20
-112.1887022047482
 30
0.0
 11
166.8999999999996
 21
-116.4187022047478
 31
0.0
  0
LINE
  5
314
330
4F
100
AcDbEntity
  8
1
  6
Continuous
 62
     7
100
AcDbLine
 10
128.8000000000002
 20
-116.4187022047478
 30
0.0
 11
205.0
 21
-116.4187022047478
 31
0.0
  0
LINE
  5
315
330
4F
100
AcDbEntity
  8
1
  6
Continuous
 62
     7
100
AcDbLine
 10
128.8000000000002
 20
-112.1887022047482
 30
0.0
 11
128.8000000000002
 21
-167.178702204748
 31
0.0
  0
LINE
  5
316
330
4F
100
AcDbEntity
  8
1
  6
Continuous
 62
     7
100
AcDbLine
 10
37.35999999999888
 20
-150.2587022047479
 30
0.0
 11
37.35999999999888
 21
-167.178702204748
 31
0.0
  0
LINE
  5
317
330
4F
100
AcDbEntity
  8
1
  6
Continuous
 62
     7
100
AcDbLine
 10
205.0
 20
-150.2587022047479
 30
0.0
 11
22.11999999999898
 21
-150.2587022047479
 31
0.0
  0
LINE
  5
318
330
4F
100
AcDbEntity
  8
1
  6
Continuous
 62
     2
100
AcDbLine
 10
75.45999999999992
 20
-124.8787022047487
 30
0.0
 11
22.11999999999898
 21
-124.8787022047487
 31
0.0
  0
LINE
  5
319
330
4F
100
AcDbEntity
  8
1
  6
Continuous
 62
     7
100
AcDbLine
 10
22.11999999999898
 20
-167.178702204748
 30
0.0
 11
22.11999999999898
 21
-112.1887022047482
 31
0.0
  0
LINE
  5
31A
330
4F
100
AcDbEntity
  8
1
  6
Continuous
 62
     7
100
AcDbLine
 10
-187.880000000001
 20
-167.178702204748
 30
0.0
 11
205.0
 21
-167.178702204748
 31
0.0
  0
LINE
  5
31B
330
4F
100
AcDbEntity
  8
1
  6
Continuous
 62
     7
100
AcDbLine
 10
205.0
 20
-167.178702204748
 30
0.0
 11
205.0
 21
117.321297795252
 31
0.0
  0
LINE
  5
31C
330
4F
100
AcDbEntity
  8
1
  6
Continuous
 62
     7
100
AcDbLine
 10
205.0
 20
117.321297795252
 30
0.0
 11
-187.880000000001
 21
117.321297795252
 31
0.0
  0
LINE
  5
31D
330
4F
100
AcDbEntity
  8
1
  6
Continuous
 62
     7
100
AcDbLine
 10
-187.880000000001
 20
117.321297795252
 30
0.0
 11
-187.880000000001
 21
-167.178702204748
 31
0.0
  0
LINE
  5
31E
330
4F
100
AcDbEntity
  8
0
  6
Continuous
 62
     2
100
AcDbLine
 10
-198.880000000001
 20
-24.67870220474799
 30
0.0
 11
-187.880000000001
 21
-24.67870220474799
 31
0.0
  0
ARC
  5
31F
102
{ACAD_REACTORS
330
392
330
392
102
}
330
4F
100
AcDbEntity
  8
1
  6
Continuous
 62
     2
100
AcDbCircle
 10
141.9264261003899
 20
-143.0014062690806
 30
0.0
 40
1.097575516743262
100
AcDbArc
 50
-91.29325310587122
 51
-26.94184191294435
  0
ARC
  5
320
102
{ACAD_REACTORS
330
390
330
390
102
}
330
4F
100
AcDbEntity
  8
1
  6
Continuous
 62
     2
100
AcDbCircle
 10
155.3000342667233
 20
-138.6497024607775
 30
0.0
 40
0.8522732028340427
100
AcDbArc
 50
-84.97668097571477
 51
-2.2433922411457
  0
ARC
  5
321
102
{ACAD_REACTORS
330
390
330
390
102
}
330
4F
100
AcDbEntity
  8
1
  6
Continuous
 62
     2
100
AcDbCircle
 10
155.3161055621215
 20
-140.3322245215489
 30
0.0
 40
0.8355765145285912
100
AcDbArc
 50
-0.46759342609272
 51
85.98158622994607
  0
ARC
  5
322
102
{ACAD_REACTORS
330
391
330
391
102
}
330
4F
100
AcDbEntity
  8
1
  6
Continuous
 62
     2
100
AcDbCircle
 10
158.8327793484388
 20
-143.0118469226761
 30
0.0
 40
1.086965191302819
100
AcDbArc
 50
-90.81479912927361
 51
-26.60924039545096
  0
ARC
  5
323
102
{ACAD_REACTORS
330
38D
330
38D
102
}
330
4F
100
AcDbEntity
  8
1
  6
Continuous
 62
     2
100
AcDbCircle
 10
180.7016542509982
 20
-138.4987022047479
 30
0.0
 40
0.6500000000000057
100
AcDbArc
 50
-90.0
 51
0.0
  0
ARC
  5
324
102
{ACAD_REACTORS
330
38D
330
38D
102
}
330
4F
100
AcDbEntity
  8
1
  6
Continuous
 62
     2
100
AcDbCircle
 10
180.7016542509982
 20
-139.7987022047479
 30
0.0
 40
0.6500000000000057
100
AcDbArc
 50
0.0
 51
90.0
  0
ARC
  5
325
102
{ACAD_REACTORS
330
392
330
392
102
}
330
4F
100
AcDbEntity
  8
1
  6
Continuous
 62
     2
100
AcDbCircle
 10
142.7516542509982
 20
-135.8987022047479
 30
0.0
 40
1.0
100
AcDbArc
 50
0.0
 51
90.0
  0
ARC
  5
326
102
{ACAD_REACTORS
330
392
330
392
102
}
330
4F
100
AcDbEntity
  8
1
  6
Continuous
 62
     2
100
AcDbCircle
 10
141.0516542509982
 20
-143.0987022047479
 30
0.0
 40
1.0
100
AcDbArc
 50
180.0
 51
-90.0
  0
ARC
  5
327
102
{ACAD_REACTORS
330
38B
330
38B
102
}
330
4F
100
AcDbEntity
  8
1
  6
Continuous
 62
     2
100
AcDbCircle
 10
148.9516542509982
 20
-135.8987022047479
 30
0.0
 40
1.0
100
AcDbArc
 50
90.0
 51
180.0
  0
ARC
  5
328
102
{ACAD_REACTORS
330
38B
330
38B
102
}
330
4F
100
AcDbEntity
  8
1
  6
Continuous
 62
     2
100
AcDbCircle
 10
150.6516542509982
 20
-135.8987022047479
 30
0.0
 40
1.0
100
AcDbArc
 50
0.0
 51
90.0
  0
ARC
  5
329
102
{ACAD_REACTORS
330
38B
330
38B
102
}
330
4F
100
AcDbEntity
  8
1
  6
Continuous
 62
     2
100
AcDbCircle
 10
148.9516542509982
 20
-143.0987022047479
 30
0.0
 40
1.0
100
AcDbArc
 50
180.0
 51
-90.0
  0
ARC
  5
32A
102
{ACAD_REACTORS
330
38B
330
38B
102
}
330
4F
100
AcDbEntity
  8
1
  6
Continuous
 62
     2
100
AcDbCircle
 10
150.6516542509982
 20
-143.0987022047479
 30
0.0
 40
1.0
100
AcDbArc
 50
-90.0
 51
0.0
  0
ARC
  5
32B
102
{ACAD_REACTORS
330
390
330
390
102
}
330
4F
100
AcDbEntity
  8
1
  6
Continuous
 62
     2
100
AcDbCircle
 10
155.1516542509982
 20
-135.8987022047479
 30
0.0
 40
1.0
100
AcDbArc
 50
0.0
 51
90.0
  0
ARC
  5
32C
102
{ACAD_REACTORS
330
391
330
391
102
}
330
4F
100
AcDbEntity
  8
1
  6
Continuous
 62
     2
100
AcDbCircle
 10
157.9516542509982
 20
-135.8987022047479
 30
0.0
 40
1.0
100
AcDbArc
 50
90.0
 51
180.0
  0
ARC
  5
32D
102
{ACAD_REACTORS
330
391
330
391
102
}
330
4F
100
AcDbEntity
  8
1
  6
Continuous
 62
     2
100
AcDbCircle
 10
159.6516542509982
 20
-135.8987022047479
 30
0.0
 40
1.000000000000085
100
AcDbArc
 50
0.0
 51
90.0
  0
ARC
  5
32E
102
{ACAD_REACTORS
330
38E
330
38E
102
}
330
4F
100
AcDbEntity
  8
1
  6
Continuous
 62
     2
100
AcDbCircle
 10
174.1516542509982
 20
-135.8987022047479
 30
0.0
 40
1.0
100
AcDbArc
 50
90.0
 51
180.0
  0
ARC
  5
32F
102
{ACAD_REACTORS
330
38E
330
38E
102
}
330
4F
100
AcDbEntity
  8
1
  6
Continuous
 62
     2
100
AcDbCircle
 10
175.8516542509982
 20
-135.8987022047479
 30
0.0
 40
1.0
100
AcDbArc
 50
0.0
 51
90.0
  0
ARC
  5
330
102
{ACAD_REACTORS
330
38D
330
38D
102
}
330
4F
100
AcDbEntity
  8
1
  6
Continuous
 62
     2
100
AcDbCircle
 10
180.3516542509982
 20
-135.8987022047479
 30
0.0
 40
1.0
100
AcDbArc
 50
0.0
 51
90.0
  0
ARC
  5
331
102
{ACAD_REACTORS
330
38C
330
38C
102
}
330
4F
100
AcDbEntity
  8
1
  6
Continuous
 62
     2
100
AcDbCircle
 10
184.8516542509982
 20
-135.8987022047479
 30
0.0
 40
1.0
100
AcDbArc
 50
0.0
 51
90.0
  0
ARC
  5
332
102
{ACAD_REACTORS
330
38C
330
38C
102
}
330
4F
100
AcDbEntity
  8
1
  6
Continuous
 62
     2
100
AcDbCircle
 10
183.1516542509982
 20
-135.8987022047479
 30
0.0
 40
1.0
100
AcDbArc
 50
90.0
 51
180.0
  0
ARC
  5
333
102
{ACAD_REACTORS
330
38F
330
38F
102
}
330
4F
100
AcDbEntity
  8
1
  6
Continuous
 62
     2
100
AcDbCircle
 10
192.7516542509982
 20
-135.8987022047479
 30
0.0
 40
1.0
100
AcDbArc
 50
0.0
 51
90.0
  0
ARC
  5
334
102
{ACAD_REACTORS
330
38C
330
38C
102
}
330
4F
100
AcDbEntity
  8
1
  6
Continuous
 62
     2
100
AcDbCircle
 10
184.8516542509982
 20
-143.0987022047479
 30
0.0
 40
1.0
100
AcDbArc
 50
-90.0
 51
0.0
  0
ARC
  5
335
102
{ACAD_REACTORS
330
38C
330
38C
102
}
330
4F
100
AcDbEntity
  8
1
  6
Continuous
 62
     2
100
AcDbCircle
 10
183.1516542509982
 20
-143.0987022047479
 30
0.0
 40
1.0
100
AcDbArc
 50
180.0
 51
-90.0
  0
ARC
  5
336
102
{ACAD_REACTORS
330
38D
330
38D
102
}
330
4F
100
AcDbEntity
  8
1
  6
Continuous
 62
     2
100
AcDbCircle
 10
180.3516542509982
 20
-143.0987022047479
 30
0.0
 40
1.0
100
AcDbArc
 50
-90.0
 51
0.0
  0
ARC
  5
337
102
{ACAD_REACTORS
330
38E
330
38E
102
}
330
4F
100
AcDbEntity
  8
1
  6
Continuous
 62
     2
100
AcDbCircle
 10
175.8516542509982
 20
-143.0987022047479
 30
0.0
 40
1.0
100
AcDbArc
 50
-90.0
 51
0.0
  0
ARC
  5
338
102
{ACAD_REACTORS
330
38E
330
38E
102
}
330
4F
100
AcDbEntity
  8
1
  6
Continuous
 62
     2
100
AcDbCircle
 10
174.1516542509982
 20
-143.0987022047479
 30
0.0
 40
1.0
100
AcDbArc
 50
180.0
 51
-90.0
  0
ARC
  5
339
102
{ACAD_REACTORS
330
38F
330
38F
102
}
330
4F
100
AcDbEntity
  8
1
  6
Continuous
 62
     2
100
AcDbCircle
 10
192.7516542509982
 20
-143.0987022047479
 30
0.0
 40
1.0
100
AcDbArc
 50
-90.0
 51
0.0
  0
ARC
  5
33A
102
{ACAD_REACTORS
330
391
330
391
102
}
330
4F
100
AcDbEntity
  8
1
  6
Continuous
 62
     2
100
AcDbCircle
 10
157.9516542509982
 20
-143.0987022047479
 30
0.0
 40
1.0
100
AcDbArc
 50
180.0
 51
-90.0
  0
ARC
  5
33B
102
{ACAD_REACTORS
330
392
330
392
102
}
330
4F
100
AcDbEntity
  8
1
  6
Continuous
 62
     2
100
AcDbCircle
 10
141.0516542509982
 20
-135.8987022047479
 30
0.0
 40
1.0
100
AcDbArc
 50
90.0
 51
180.0
  0
ARC
  5
33C
102
{ACAD_REACTORS
330
38B
330
38B
102
}
330
4F
100
AcDbEntity
  8
1
  6
Continuous
 62
     2
100
AcDbCircle
 10
149.8016542509982
 20
-136.6487022047479
 30
0.0
 40
0.6500000000000057
100
AcDbArc
 50
90.0
 51
180.0
  0
ARC
  5
33D
102
{ACAD_REACTORS
330
38B
330
38B
102
}
330
4F
100
AcDbEntity
  8
1
  6
Continuous
 62
     2
100
AcDbCircle
 10
149.8016542509982
 20
-136.6487022047479
 30
0.0
 40
0.6499999999999773
100
AcDbArc
 50
0.0
 51
90.0
  0
ARC
  5
33E
102
{ACAD_REACTORS
330
38B
330
38B
102
}
330
4F
100
AcDbEntity
  8
1
  6
Continuous
 62
     2
100
AcDbCircle
 10
149.8016542509982
 20
-142.336289665258
 30
0.0
 40
0.6500000000000057
100
AcDbArc
 50
180.0
 51
-90.0
  0
ARC
  5
33F
102
{ACAD_REACTORS
330
38B
330
38B
102
}
330
4F
100
AcDbEntity
  8
1
  6
Continuous
 62
     2
100
AcDbCircle
 10
149.8016542509982
 20
-142.336289665258
 30
0.0
 40
0.6500000000000057
100
AcDbArc
 50
-90.0
 51
0.0
  0
ARC
  5
340
102
{ACAD_REACTORS
330
390
330
390
102
}
330
4F
100
AcDbEntity
  8
1
  6
Continuous
 62
     2
100
AcDbCircle
 10
154.3016542509982
 20
-136.6487022047479
 30
0.0
 40
0.6499999999999773
100
AcDbArc
 50
0.0
 51
90.0
  0
ARC
  5
341
102
{ACAD_REACTORS
330
390
330
390
102
}
330
4F
100
AcDbEntity
  8
1
  6
Continuous
 62
     2
100
AcDbCircle
 10
154.3016542509982
 20
-140.7487022047479
 30
0.0
 40
0.6499999999999773
100
AcDbArc
 50
0.0
 51
90.0
  0
ARC
  5
342
102
{ACAD_REACTORS
330
390
330
390
102
}
330
4F
100
AcDbEntity
  8
1
  6
Continuous
 62
     2
100
AcDbCircle
 10
154.3016542509982
 20
-138.2487022047479
 30
0.0
 40
0.6500000000000057
100
AcDbArc
 50
-90.0
 51
0.0
  0
ARC
  5
343
102
{ACAD_REACTORS
330
391
330
391
102
}
330
4F
100
AcDbEntity
  8
1
  6
Continuous
 62
     2
100
AcDbCircle
 10
158.8016542509982
 20
-136.6487022047479
 30
0.0
 40
0.6500000000000057
100
AcDbArc
 50
90.0
 51
180.0
  0
ARC
  5
344
102
{ACAD_REACTORS
330
391
330
391
102
}
330
4F
100
AcDbEntity
  8
1
  6
Continuous
 62
     2
100
AcDbCircle
 10
158.8016542509982
 20
-136.6487022047479
 30
0.0
 40
0.6499999999999773
100
AcDbArc
 50
0.0
 51
90.0
  0
ARC
  5
345
102
{ACAD_REACTORS
330
391
330
391
102
}
330
4F
100
AcDbEntity
  8
1
  6
Continuous
 62
     2
100
AcDbCircle
 10
158.8016542509982
 20
-142.336289665258
 30
0.0
 40
0.6500000000000057
100
AcDbArc
 50
180.0
 51
-90.0
  0
ARC
  5
346
102
{ACAD_REACTORS
330
391
330
391
102
}
330
4F
100
AcDbEntity
  8
1
  6
Continuous
 62
     2
100
AcDbCircle
 10
158.8016542509982
 20
-142.336289665258
 30
0.0
 40
0.6500000000000057
100
AcDbArc
 50
-90.0
 51
0.0
  0
ARC
  5
347
102
{ACAD_REACTORS
330
392
330
392
102
}
330
4F
100
AcDbEntity
  8
1
  6
Continuous
 62
     2
100
AcDbCircle
 10
141.9016542509982
 20
-136.6487022047479
 30
0.0
 40
0.6500000000000057
100
AcDbArc
 50
90.0
 51
180.0
  0
ARC
  5
348
102
{ACAD_REACTORS
330
392
330
392
102
}
330
4F
100
AcDbEntity
  8
1
  6
Continuous
 62
     2
100
AcDbCircle
 10
141.9016542509982
 20
-136.6487022047479
 30
0.0
 40
0.6500000000000057
100
AcDbArc
 50
0.0
 51
90.0
  0
ARC
  5
349
102
{ACAD_REACTORS
330
392
330
392
102
}
330
4F
100
AcDbEntity
  8
1
  6
Continuous
 62
     2
100
AcDbCircle
 10
141.9016542509982
 20
-142.336289665258
 30
0.0
 40
0.6500000000000057
100
AcDbArc
 50
180.0
 51
-90.0
  0
ARC
  5
34A
102
{ACAD_REACTORS
330
392
330
392
102
}
330
4F
100
AcDbEntity
  8
1
  6
Continuous
 62
     2
100
AcDbCircle
 10
141.9016542509982
 20
-142.336289665258
 30
0.0
 40
0.6500000000000057
100
AcDbArc
 50
-90.0
 51
0.0
  0
ARC
  5
34B
102
{ACAD_REACTORS
330
38F
330
38F
102
}
330
4F
100
AcDbEntity
  8
1
  6
Continuous
 62
     2
100
AcDbCircle
 10
191.9016542509982
 20
-136.6487022047479
 30
0.0
 40
0.6500000000000057
100
AcDbArc
 50
0.0
 51
90.0
  0
ARC
  5
34C
102
{ACAD_REACTORS
330
38F
330
38F
102
}
330
4F
100
AcDbEntity
  8
1
  6
Continuous
 62
     2
100
AcDbCircle
 10
191.9016542509982
 20
-142.336289665258
 30
0.0
 40
0.6500000000000057
100
AcDbArc
 50
-90.0
 51
0.0
  0
ARC
  5
34D
102
{ACAD_REACTORS
330
38C
330
38C
102
}
330
4F
100
AcDbEntity
  8
1
  6
Continuous
 62
     2
100
AcDbCircle
 10
184.0016542509982
 20
-136.6487022047479
 30
0.0
 40
0.6500000000000057
100
AcDbArc
 50
0.0
 51
90.0
  0
ARC
  5
34E
102
{ACAD_REACTORS
330
38C
330
38C
102
}
330
4F
100
AcDbEntity
  8
1
  6
Continuous
 62
     2
100
AcDbCircle
 10
184.0016542509982
 20
-136.6487022047479
 30
0.0
 40
0.6500000000000057
100
AcDbArc
 50
90.0
 51
180.0
  0
ARC
  5
34F
102
{ACAD_REACTORS
330
38C
330
38C
102
}
330
4F
100
AcDbEntity
  8
1
  6
Continuous
 62
     2
100
AcDbCircle
 10
184.0016542509982
 20
-142.336289665258
 30
0.0
 40
0.6500000000000057
100
AcDbArc
 50
180.0
 51
-90.0
  0
ARC
  5
350
102
{ACAD_REACTORS
330
38C
330
38C
102
}
330
4F
100
AcDbEntity
  8
1
  6
Continuous
 62
     2
100
AcDbCircle
 10
184.0016542509982
 20
-142.336289665258
 30
0.0
 40
0.6500000000000057
100
AcDbArc
 50
-90.0
 51
0.0
  0
ARC
  5
351
102
{ACAD_REACTORS
330
38E
330
38E
102
}
330
4F
100
AcDbEntity
  8
1
  6
Continuous
 62
     2
100
AcDbCircle
 10
175.0016542509982
 20
-136.6487022047479
 30
0.0
 40
0.6500000000000057
100
AcDbArc
 50
90.0
 51
180.0
  0
ARC
  5
352
102
{ACAD_REACTORS
330
38E
330
38E
102
}
330
4F
100
AcDbEntity
  8
1
  6
Continuous
 62
     2
100
AcDbCircle
 10
175.0016542509982
 20
-136.6487022047479
 30
0.0
 40
0.6500000000000057
100
AcDbArc
 50
0.0
 51
90.0
  0
ARC
  5
353
102
{ACAD_REACTORS
330
38E
330
38E
102
}
330
4F
100
AcDbEntity
  8
1
  6
Continuous
 62
     2
100
AcDbCircle
 10
175.0016542509982
 20
-142.336289665258
 30
0.0
 40
0.6500000000000057
100
AcDbArc
 50
180.0
 51
-90.0
  0
ARC
  5
354
102
{ACAD_REACTORS
330
38E
330
38E
102
}
330
4F
100
AcDbEntity
  8
1
  6
Continuous
 62
     2
100
AcDbCircle
 10
175.0016542509982
 20
-142.336289665258
 30
0.0
 40
0.6500000000000057
100
AcDbArc
 50
-90.0
 51
0.0
  0
ARC
  5
355
102
{ACAD_REACTORS
330
38D
330
38D
102
}
330
4F
100
AcDbEntity
  8
1
  6
Continuous
 62
     2
100
AcDbCircle
 10
179.5016542509982
 20
-136.6487022047479
 30
0.0
 40
0.6500000000000057
100
AcDbArc
 50
0.0
 51
90.0
  0
ARC
  5
356
102
{ACAD_REACTORS
330
38D
330
38D
102
}
330
4F
100
AcDbEntity
  8
1
  6
Continuous
 62
     2
100
AcDbCircle
 10
179.5016542509982
 20
-137.9487022047479
 30
0.0
 40
0.6500000000000057
100
AcDbArc
 50
-90.0
 51
0.0
  0
ARC
  5
357
102
{ACAD_REACTORS
330
38D
330
38D
102
}
330
4F
100
AcDbEntity
  8
1
  6
Continuous
 62
     2
100
AcDbCircle
 10
179.5016542509982
 20
-140.3487022047479
 30
0.0
 40
0.6500000000000057
100
AcDbArc
 50
0.0
 51
90.0
  0
ARC
  5
358
102
{ACAD_REACTORS
330
38D
330
38D
102
}
330
4F
100
AcDbEntity
  8
1
  6
Continuous
 62
     2
100
AcDbCircle
 10
179.5016542509982
 20
-142.336289665258
 30
0.0
 40
0.6500000000000057
100
AcDbArc
 50
-90.0
 51
0.0
  0
MTEXT
  5
35A
330
4F
100
AcDbEntity
  8
1
 62
     2
100
AcDbMText
 10
166.6516542509982
 20
-147.6987022047479
 30
0.0
 40
2.8
 41
0.0
 71
     5
 72
     1
  1
GmbH & Co. KG
  7
CONVERTER_11
 73
     1
 44
1.32052821128451
  0
MTEXT
  5
35C
330
4F
100
AcDbEntity
  8
1
 62
     2
100
AcDbMText
 10
171.146150406868
 20
-165.0637022047482
 30
0.0
 40
1.8
 41
0.0
 71
     4
 72
     1
  1
 
  7
CONVERTER_12
 73
     1
 44
1.32052821128451
  0
MTEXT
  5
35D
330
4F
100
AcDbEntity
  8
1
 62
     2
100
AcDbMText
 10
138.090984385273
 20
-165.0637022047482
 30
0.0
 40
1.8
 41
0.0
 71
     4
 72
     1
  1
 
  7
CONVERTER_12
 73
     1
 44
1.32052821128451
  0
MTEXT
  5
35E
330
4F
100
AcDbEntity
  8
1
 62
     2
100
AcDbMText
 10
65.29999999999995
 20
-143.9137022047494
 30
0.0
 40
1.8
 41
0.0
 71
     5
 72
     1
  1
 
  7
CONVERTER_12
 73
     1
 44
1.32052821128451
  0
MTEXT
  5
35F
330
4F
100
AcDbEntity
  8
1
 62
     2
100
AcDbMText
 10
46.25
 20
-143.9137022047494
 30
0.0
 40
1.8
 41
0.0
 71
     5
 72
     1
  1
17.02.09
  7
CONVERTER_12
 73
     1
 44
1.32052821128451
  0
MTEXT
  5
360
330
4F
100
AcDbEntity
  8
1
 62
     3
100
AcDbMText
 10
168.9000000000001
 20
-129.8787022047478
 30
0.0
 40
2.5
 41
0.0
 71
     5
 72
     1
  1
 
  7
CONVERTER_12
 73
     1
 44
1.32052821128451
  0
MTEXT
  5
361
330
4F
100
AcDbEntity
  8
1
 62
     3
100
AcDbMText
 10
168.9000000000001
 20
-125.3787022047478
 30
0.0
 40
2.5
 41
0.0
 71
     5
 72
     1
  1
 
  7
CONVERTER_12
 73
     1
 44
1.32052821128451
  0
MTEXT
  5
362
330
4F
100
AcDbEntity
  8
1
 62
     3
100
AcDbMText
 10
168.9000000000001
 20
-120.8787022047478
 30
0.0
 40
2.5
 41
0.0
 71
     5
 72
     1
  1
 
  7
CONVERTER_12
 73
     1
 44
1.32052821128451
  0
MTEXT
  5
364
330
4F
100
AcDbEntity
  8
1
 62
     3
100
AcDbMText
 10
102.13
 20
-147.303702204748
 30
0.0
 40
2.5
 41
0.0
 71
     5
 72
     1
  1
 
  7
CONVERTER_13
 73
     1
 44
1.32052821128451
  0
MTEXT
  5
365
330
4F
100
AcDbEntity
  8
1
 62
     3
100
AcDbMText
 10
102.13
 20
-142.803702204748
 30
0.0
 40
2.5
 41
0.0
 71
     5
 72
     1
  1
 
  7
CONVERTER_13
 73
     1
 44
1.32052821128451
  0
MTEXT
  5
366
330
4F
100
AcDbEntity
  8
1
 62
     3
100
AcDbMText
 10
102.13
 20
-142.303702204748
 30
0.0
 40
2.5
 41
0.0
 71
     5
 72
     1
  1
KSG 36.. D(-MF)-R4(/S23)/DED75
  7
CONVERTER_13
 73
     1
 44
1.32052821128451
  0
MTEXT
  5
368
330
4F
100
AcDbEntity
  8
1
 62
     7
100
AcDbMText
 10
29.74000000000001
 20
-161.213702204748
 30
0.0
 40
5.0
 41
0.0
 71
     5
 72
     1
  1
1:2
  7
CONVERTER_14
 73
     1
 44
1.32052821128451
  0
MTEXT
  5
369
330
4F
100
AcDbEntity
  8
1
 62
     2
100
AcDbMText
 10
46.25
 20
-139.683702204748
 30
0.0
 40
1.8
 41
0.0
 71
     5
 72
     1
  1
17.02.09
  7
CONVERTER_12
 73
     1
 44
1.32052821128451
  0
MTEXT
  5
36A
330
4F
100
AcDbEntity
  8
1
 62
     2
100
AcDbMText
 10
65.29999999999995
 20
-139.683702204748
 30
0.0
 40
1.8
 41
0.0
 71
     5
 72
     1
  1
HI
  7
CONVERTER_12
 73
     1
 44
1.32052821128451
  0
MTEXT
  5
36C
330
4F
100
AcDbEntity
  8
1
 62
     7
100
AcDbMText
 10
83.60500000000002
 20
-161.008702204748
 30
0.0
 40
5.0
 41
0.0
 71
     5
 72
     1
  1
Maßblatt
  7
CONVERTER_15
 73
     1
 44
1.32052821128451
  0
MTEXT
  5
36D
330
4F
100
AcDbEntity
  8
1
 62
     2
100
AcDbMText
 10
196.85
 20
-160.928702204748
 30
0.0
 40
1.8
 41
0.0
 71
     5
 72
     1
  1
1
  7
CONVERTER_12
 73
     1
 44
1.32052821128451
  0
MTEXT
  5
36E
330
4F
100
AcDbEntity
  8
1
 62
     3
100
AcDbMText
 10
200.375
 20
-154.488702204748
 30
0.0
 40
3.0
 41
0.0
 71
     5
 72
     1
  1
1
  7
CONVERTER_15
 73
     1
 44
1.32052821128451
  0
MTEXT
  5
36F
330
4F
100
AcDbEntity
  8
1
 62
     7
100
AcDbMText
 10
160.55
 20
-157.958702204748
 30
0.0
 40
5.0
 41
0.0
 71
     5
 72
     1
  1
K3042
  7
CONVERTER_14
 73
     1
 44
1.32052821128451
  0
TEXT
  5
370
330
4F
100
AcDbEntity
  8
1
 62
     2
100
AcDbText
 10
193.3000000000002
 20
-154.2587022047479
 30
0.0
 40
1.8
  1
Bl.
 41
0.9
  7
CONVERTER_12
100
AcDbText
  0
MTEXT
  5
371
330
4F
100
AcDbEntity
  8
1
 62
     2
100
AcDbMText
 10
129.868213777145
 20
-165.0637022047482
 30
0.0
 40
1.8
 41
0.0
 71
     4
 72
     1
  1
Ers.
  7
CONVERTER_12
 73
     1
 44
1.32052821128451
  0
TEXT
  5
372
330
4F
100
AcDbEntity
  8
1
 62
     2
100
AcDbText
 10
129.8000000000002
 20
-119.6487022047492
 30
0.0
 40
1.8
  1
Werkstoff
 41
0.9
  7
CONVERTER_12
100
AcDbText
  0
MTEXT
  5
373
330
4F
100
AcDbEntity
  8
1
 62
     2
100
AcDbMText
 10
167.8999999999996
 20
-114.303702204748
 30
0.0
 40
1.8
 41
0.0
 71
     4
 72
     1
  1
Gewicht
  7
CONVERTER_12
 73
     1
 44
1.32052821128451
  0
MTEXT
  5
374
330
4F
100
AcDbEntity
  8
1
 62
     2
100
AcDbMText
 10
129.8000000000002
 20
-114.303702204748
 30
0.0
 40
1.8
 41
0.0
 71
     4
 72
     1
  1
Urheberschutz  DIN 34
  7
CONVERTER_12
 73
     1
 44
1.32052821128451
  0
TEXT
  5
375
330
4F
100
AcDbEntity
  8
1
 62
     2
100
AcDbText
 10
130.8962833787473
 20
-153.8932744118334
 30
0.0
 40
1.8
  1
Z.-Nr.
 41
0.9
  7
CONVERTER_12
100
AcDbText
  0
TEXT
  5
376
330
4F
100
AcDbEntity
  8
1
 62
     2
100
AcDbText
 10
38.35999999999888
 20
-154.2587022047479
 30
0.0
 40
1.8
  1
Benennung
 41
0.9
  7
CONVERTER_12
100
AcDbText
  0
TEXT
  5
377
330
4F
100
AcDbEntity
  8
1
 62
     2
100
AcDbText
 10
23.11999999999898
 20
-154.2587022047479
 30
0.0
 40
1.8
  1
Maßstab
 41
0.9
  7
CONVERTER_12
100
AcDbText
  0
TEXT
  5
378
330
4F
100
AcDbEntity
  8
1
 62
     2
100
AcDbText
 10
75.95999999999992
 20
-135.9687022047474
 30
0.0
 40
1.8
  1
Typ
 41
0.9
  7
CONVERTER_12
100
AcDbText
  0
TEXT
  5
379
330
4F
100
AcDbEntity
  8
1
 62
     2
100
AcDbText
 10
23.11999999999898
 20
-149.2587022047479
 30
0.0
 40
1.8
  1
Norm.
 41
0.9
  7
CONVERTER_12
100
AcDbText
  0
TEXT
  5
37A
330
4F
100
AcDbEntity
  8
1
 62
     2
100
AcDbText
 10
23.11999999999898
 20
-145.0287022047484
 30
0.0
 40
1.8
  1
Gepr.
 41
0.9
  7
CONVERTER_12
100
AcDbText
  0
TEXT
  5
37B
330
4F
100
AcDbEntity
  8
1
 62
     2
100
AcDbText
 10
23.11999999999898
 20
-140.7987022047488
 30
0.0
 40
1.8
  1
Bearb.
 41
0.9
  7
CONVERTER_12
100
AcDbText
  0
TEXT
  5
37C
330
4F
100
AcDbEntity
  8
1
 62
     2
100
AcDbText
 10
59.73202796696876
 20
-136.5687022047474
 30
0.0
 40
1.8
  1
Name
 41
0.9
  7
CONVERTER_12
100
AcDbText
  0
TEXT
  5
37D
330
4F
100
AcDbEntity
  8
1
 62
     2
100
AcDbText
 10
41.95202796696901
 20
-136.5687022047474
 30
0.0
 40
1.8
  1
Datum
 41
0.9
  7
CONVERTER_12
100
AcDbText
  0
TEXT
  5
37E
330
4F
100
AcDbEntity
  8
1
 62
     2
100
AcDbText
 10
68.83999999999912
 20
-132.3387022047479
 30
0.0
 40
1.8
  1
Gepr.
 41
0.72
  7
CONVERTER_15
100
AcDbText
  0
TEXT
  5
37F
330
4F
100
AcDbEntity
  8
1
 62
     2
100
AcDbText
 10
61.21999999999832
 20
-132.3387022047479
 30
0.0
 40
1.8
  1
Name
 41
0.72
  7
CONVERTER_15
100
AcDbText
  0
TEXT
  5
380
330
4F
100
AcDbEntity
  8
1
 62
     2
100
AcDbText
 10
43.43999999999869
 20
-132.3387022047479
 30
0.0
 40
1.8
  1
Datum
 41
0.9
  7
CONVERTER_12
100
AcDbText
  0
TEXT
  5
381
330
4F
100
AcDbEntity
  8
1
 62
     2
100
AcDbText
 10
28.19999999999891
 20
-132.3387022047479
 30
0.0
 40
1.8
  1
Änderung
 41
0.9
  7
CONVERTER_12
100
AcDbText
  0
TEXT
  5
382
330
4F
100
AcDbEntity
  8
1
 62
     2
100
AcDbText
 10
23.11999999999898
 20
-132.3387022047479
 30
0.0
 40
1.8
  1
Nr.
 41
0.9
  7
CONVERTER_12
100
AcDbText
  0
TEXT
  5
383
330
4F
100
AcDbEntity
  8
0
 62
     2
100
AcDbText
 10
201.4516239034123
 20
-161.832614346156
 30
0.0
 40
1.8
  1
Bl.
 41
0.9
  7
CONVERTER_12
100
AcDbText
  0
MTEXT
  5
384
330
4F
100
AcDbEntity
  8
1
 62
     3
100
AcDbMText
 10
103.5850000000001
 20
-122.763702204748
 30
0.0
 40
2.2
 41
0.0
 71
     4
 72
     1
  1
Oberflächen\PDIN ISO 1302\PReihe 2
  7
CONVERTER_12
 73
     1
 44
1.32052821128451
  0
MTEXT
  5
385
330
4F
100
AcDbEntity
  8
1
 62
     3
100
AcDbMText
 10
76.91500000000008
 20
-122.763702204748
 30
0.0
 40
2.2
 41
0.0
 71
     4
 72
     1
  1
Allgemein-\Ptoleranzen\PDIN ISO 2768-mK
  7
CONVERTER_15
 73
     1
 44
1.32052821128451
  0
HATCH
  5
386
330
4F
100
AcDbEntity
  8
1
  6
Continuous
 62
     2
100
AcDbHatch
 10
0.0
 20
0.0
 30
0.0
210
0.0
220
0.0
230
1.0
  2
_USER
 70
     0
 71
     1
 91
        1
 92
        1
 93
        4
 72
     1
 10
162.6516542509982
 20
-144.0987022047479
 11
161.4516542509982
 21
-144.0987022047479
 72
     1
 10
161.4516542509982
 20
-144.0987022047479
 11
161.4516542509982
 21
-134.8987022047479
 72
     1
 10
161.4516542509982
 20
-134.8987022047479
 11
162.6516542509982
 21
-134.8987022047479
 72
     1
 10
162.6516542509982
 20
-134.8987022047479
 11
162.6516542509982
 21
-144.0987022047479
 97
        4
330
2C7
330
2CD
330
2C9
330
2CC
 75
     1
 76
     0
 52
90.00000000000003
 41
0.15
 77
     0
 78
     1
 53
90.00000000000003
 43
0.0
 44
0.0
 45
-0.15
 46
-0.0000000000000001
 79
     0
 98
        1
 10
0.0
 20
0.0
  0
HATCH
  5
387
330
4F
100
AcDbEntity
  8
1
  6
Continuous
 62
     2
100
AcDbHatch
 10
0.0
 20
0.0
 30
0.0
210
0.0
220
0.0
230
1.0
  2
_USER
 70
     0
 71
     1
 91
        1
 92
        1
 93
        4
 72
     1
 10
164.6516542509982
 20
-144.0987022047479
 11
163.4516542509982
 21
-144.0987022047479
 72
     1
 10
163.4516542509982
 20
-144.0987022047479
 11
163.4516542509982
 21
-134.8987022047479
 72
     1
 10
163.4516542509982
 20
-134.8987022047479
 11
164.6516542509982
 21
-134.8987022047479
 72
     1
 10
164.6516542509982
 20
-134.8987022047479
 11
164.6516542509982
 21
-144.0987022047479
 97
        4
330
2C8
330
2CB
330
2D1
330
2CA
 75
     1
 76
     0
 52
90.00000000000003
 41
0.15
 77
     0
 78
     1
 53
90.00000000000003
 43
0.0
 44
0.0
 45
-0.15
 46
-0.0000000000000001
 79
     0
 98
        1
 10
0.0
 20
0.0
  0
HATCH
  5
388
330
4F
100
AcDbEntity
  8
1
  6
Continuous
 62
     2
100
AcDbHatch
 10
0.0
 20
0.0
 30
0.0
210
0.0
220
0.0
230
1.0
  2
_USER
 70
     0
 71
     1
 91
        1
 92
        1
 93
       12
 72
     1
 10
147.1516542509982
 20
-134.8987022047479
 11
144.5516542509982
 21
-134.8987022047479
 72
     1
 10
144.5516542509982
 20
-134.8987022047479
 11
144.5516542509982
 21
-144.0987022047479
 72
     1
 10
144.5516542509982
 20
-144.0987022047479
 11
147.1516542509982
 21
-144.0987022047479
 72
     1
 10
147.1516542509982
 20
-144.0987022047479
 11
147.1516542509982
 21
-142.986289665258
 72
     1
 10
147.1516542509982
 20
-142.986289665258
 11
145.8516542509982
 21
-142.986289665258
 72
     1
 10
145.8516542509982
 20
-142.986289665258
 11
145.8516542509982
 21
-139.6987022047479
 72
     1
 10
145.8516542509982
 20
-139.6987022047479
 11
147.1516542509982
 21
-139.6987022047479
 72
     1
 10
147.1516542509982
 20
-139.6987022047479
 11
147.1516542509982
 21
-138.5987022047479
 72
     1
 10
147.1516542509982
 20
-138.5987022047479
 11
145.8516542509982
 21
-138.5987022047479
 72
     1
 10
145.8516542509982
 20
-138.5987022047479
 11
145.8516542509982
 21
-135.9987022047479
 72
     1
 10
145.8516542509982
 20
-135.9987022047479
 11
147.1516542509982
 21
-135.9987022047479
 72
     1
 10
147.1516542509982
 20
-135.9987022047479
 11
147.1516542509982
 21
-134.8987022047479
 97
       12
330
291
330
292
330
293
330
294
330
289
330
285
330
286
330
287
330
288
330
28A
330
2D2
330
2D3
 75
     1
 76
     0
 52
90.00000000000003
 41
0.15
 77
     0
 78
     1
 53
90.00000000000003
 43
0.0
 44
0.0
 45
-0.15
 46
-0.0000000000000001
 79
     0
 98
        1
 10
0.0
 20
0.0
  0
HATCH
  5
389
330
4F
100
AcDbEntity
  8
1
  6
Continuous
 62
     2
100
AcDbHatch
 10
0.0
 20
0.0
 30
0.0
210
0.0
220
0.0
230
1.0
  2
_USER
 70
     0
 71
     1
 91
        1
 92
        1
 93
        6
 72
     1
 10
189.2516542509982
 20
-144.0987022047479
 11
186.6516542509982
 21
-144.0987022047479
 72
     1
 10
186.6516542509982
 20
-144.0987022047479
 11
186.6516542509982
 21
-134.8987022047479
 72
     1
 10
186.6516542509982
 20
-134.8987022047479
 11
187.8516542509982
 21
-134.8987022047479
 72
     1
 10
187.8516542509982
 20
-134.8987022047479
 11
187.8516542509982
 21
-142.986289665258
 72
     1
 10
187.8516542509982
 20
-142.986289665258
 11
189.2516542509982
 21
-142.986289665258
 72
     1
 10
189.2516542509982
 20
-142.986289665258
 11
189.2516542509982
 21
-144.0987022047479
 97
        6
330
2F1
330
2F0
330
2B4
330
2B1
330
2B2
330
2B3
 75
     1
 76
     0
 52
90.00000000000003
 41
0.15
 77
     0
 78
     1
 53
90.00000000000003
 43
0.0
 44
0.0
 45
-0.15
 46
-0.0000000000000001
 79
     0
 98
        1
 10
0.0
 20
0.0
  0
HATCH
  5
38A
330
4F
100
AcDbEntity
  8
1
  6
Continuous
 62
     2
100
AcDbHatch
 10
0.0
 20
0.0
 30
0.0
210
0.0
220
0.0
230
1.0
  2
_USER
 70
     0
 71
     1
 91
        1
 92
        1
 93
       11
 72
     1
 10
169.8516542509982
 20
-138.5613657905874
 11
171.0854042804337
 21
-134.8987022047479
 72
     1
 10
171.0854042804337
 20
-134.8987022047479
 11
172.3516542509982
 21
-134.8987022047479
 72
     1
 10
172.3516542509982
 20
-134.8987022047479
 11
170.9200628688759
 21
-139.1487022047479
 72
     1
 10
170.9200628688759
 20
-139.1487022047479
 11
172.3516542509982
 21
-144.0987022047479
 72
     1
 10
172.3516542509982
 20
-144.0987022047479
 11
171.1024763583806
 21
-144.0987022047479
 72
     1
 10
171.1024763583806
 20
-144.0987022047479
 11
169.8516542509982
 21
-139.7737464185765
 72
     1
 10
169.8516542509982
 20
-139.7737464185765
 11
169.8516542509982
 21
-144.0987022047479
 72
     1
 10
169.8516542509982
 20
-144.0987022047479
 11
168.6516542509982
 21
-144.0987022047479
 72
     1
 10
168.6516542509982
 20
-144.0987022047479
 11
168.6516542509982
 21
-134.8987022047479
 72
     1
 10
168.6516542509982
 20
-134.8987022047479
 11
169.8516542509982
 21
-134.8987022047479
 72
     1
 10
169.8516542509982
 20
-134.8987022047479
 11
169.8516542509982
 21
-138.5613657905874
 97
       11
330
2A4
330
2A6
330
2A5
330
2FD
330
2FB
330
2F9
330
2F7
330
2F6
330
2F8
330
2FA
330
2FC
 75
     1
 76
     0
 52
90.00000000000003
 41
0.15
 77
     0
 78
     1
 53
90.00000000000003
 43
0.0
 44
0.0
 45
-0.15
 46
-0.0000000000000001
 79
     0
 98
        1
 10
0.0
 20
0.0
  0
HATCH
  5
38B
330
4F
100
AcDbEntity
  8
1
  6
Continuous
 62
     2
100
AcDbHatch
 10
0.0
 20
0.0
 30
0.0
210
0.0
220
0.0
230
1.0
  2
_USER
 70
     0
 71
     1
 91
        2
 92
        1
 93
        8
 72
     1
 10
151.6516542509982
 20
-135.8987022047479
 11
151.6516542509982
 21
-143.0987022047479
 72
     2
 10
150.6516542509982
 20
-143.0987022047479
 40
1.0
 50
0.0
 51
90.0
 73
     0
 72
     1
 10
150.6516542509982
 20
-144.0987022047479
 11
148.9516542509982
 21
-144.0987022047479
 72
     2
 10
148.9516542509982
 20
-143.0987022047479
 40
1.0
 50
90.0
 51
180.0
 73
     0
 72
     1
 10
147.9516542509982
 20
-143.0987022047479
 11
147.9516542509982
 21
-135.8987022047479
 72
     2
 10
148.9516542509982
 20
-135.8987022047479
 40
1.0
 50
180.0
 51
270.0
 73
     0
 72
     1
 10
148.9516542509982
 20
-134.8987022047479
 11
150.6516542509982
 21
-134.8987022047479
 72
     2
 10
150.6516542509982
 20
-135.8987022047479
 40
1.0
 50
270.0
 51
360.0
 73
     0
 97
        8
330
298
330
327
330
29A
330
329
330
299
330
32A
330
29B
330
328
 92
       16
 93
        6
 72
     2
 10
149.8016542509982
 20
-136.6487022047479
 40
0.6500000000000057
 50
90.0
 51
180.0
 73
     1
 72
     1
 10
149.1516542509982
 20
-136.6487022047479
 11
149.1516542509982
 21
-142.336289665258
 72
     2
 10
149.8016542509982
 20
-142.336289665258
 40
0.6500000000000057
 50
180.0
 51
270.0
 73
     1
 72
     2
 10
149.8016542509982
 20
-142.336289665258
 40
0.6500000000000057
 50
270.0
 51
360.0
 73
     1
 72
     1
 10
150.4516542509982
 20
-142.336289665258
 11
150.4516542509982
 21
-136.6487022047479
 72
     2
 10
149.8016542509982
 20
-136.6487022047479
 40
0.6499999999999773
 50
0.0
 51
90.0
 73
     1
 97
        6
330
33C
330
2D5
330
33E
330
33F
330
2D4
330
33D
 75
     1
 76
     0
 52
90.00000000000003
 41
0.15
 77
     0
 78
     1
 53
90.00000000000003
 43
0.0
 44
0.0
 45
-0.15
 46
-0.0000000000000001
 79
     0
 98
        1
 10
0.0
 20
0.0
  0
HATCH
  5
38C
330
4F
100
AcDbEntity
  8
1
  6
Continuous
 62
     2
100
AcDbHatch
 10
0.0
 20
0.0
 30
0.0
210
0.0
220
0.0
230
1.0
  2
_USER
 70
     0
 71
     1
 91
        2
 92
        1
 93
        8
 72
     2
 10
183.1516542509982
 20
-135.8987022047479
 40
1.0
 50
90.0
 51
180.0
 73
     1
 72
     1
 10
182.1516542509982
 20
-135.8987022047479
 11
182.1516542509982
 21
-143.0987022047479
 72
     2
 10
183.1516542509982
 20
-143.0987022047479
 40
1.0
 50
180.0
 51
270.0
 73
     1
 72
     1
 10
183.1516542509982
 20
-144.0987022047479
 11
184.8516542509982
 21
-144.0987022047479
 72
     2
 10
184.8516542509982
 20
-143.0987022047479
 40
1.0
 50
270.0
 51
360.0
 73
     1
 72
     1
 10
185.8516542509982
 20
-143.0987022047479
 11
185.8516542509982
 21
-135.8987022047479
 72
     2
 10
184.8516542509982
 20
-135.8987022047479
 40
1.0
 50
0.0
 51
90.0
 73
     1
 72
     1
 10
184.8516542509982
 20
-134.8987022047479
 11
183.1516542509982
 21
-134.8987022047479
 97
        8
330
332
330
2AD
330
335
330
2AE
330
334
330
2AF
330
331
330
2B0
 92
       16
 93
        6
 72
     2
 10
184.0016542509982
 20
-136.6487022047479
 40
0.6500000000000057
 50
0.0
 51
90.0
 73
     1
 72
     2
 10
184.0016542509982
 20
-136.6487022047479
 40
0.6500000000000057
 50
90.0
 51
180.0
 73
     1
 72
     1
 10
183.3516542509982
 20
-136.6487022047479
 11
183.3516542509982
 21
-142.336289665258
 72
     2
 10
184.0016542509982
 20
-142.336289665258
 40
0.6500000000000057
 50
180.0
 51
270.0
 73
     1
 72
     2
 10
184.0016542509982
 20
-142.336289665258
 40
0.6500000000000057
 50
270.0
 51
360.0
 73
     1
 72
     1
 10
184.6516542509982
 20
-142.336289665258
 11
184.6516542509982
 21
-136.6487022047479
 97
        6
330
34D
330
34E
330
2EC
330
34F
330
350
330
2EB
 75
     1
 76
     0
 52
90.00000000000003
 41
0.15
 77
     0
 78
     1
 53
90.00000000000003
 43
0.0
 44
0.0
 45
-0.15
 46
-0.0000000000000001
 79
     0
 98
        1
 10
0.0
 20
0.0
  0
HATCH
  5
38D
330
4F
100
AcDbEntity
  8
1
  6
Continuous
 62
     2
100
AcDbHatch
 10
0.0
 20
0.0
 30
0.0
210
0.0
220
0.0
230
1.0
  2
_USER
 70
     0
 71
     1
 91
        3
 92
        1
 93
        9
 72
     1
 10
180.3516542509982
 20
-134.8987022047479
 11
177.6516542509982
 21
-134.8987022047479
 72
     1
 10
177.6516542509982
 20
-134.8987022047479
 11
177.6516542509982
 21
-144.0987022047479
 72
     1
 10
177.6516542509982
 20
-144.0987022047479
 11
180.3516542509982
 21
-144.0987022047479
 72
     2
 10
180.3516542509982
 20
-143.0987022047479
 40
1.0
 50
270.0
 51
360.0
 73
     1
 72
     1
 10
181.3516542509982
 20
-143.0987022047479
 11
181.3516542509982
 21
-139.7987022047479
 72
     2
 10
180.7016542509982
 20
-139.7987022047479
 40
0.6500000000000057
 50
0.0
 51
90.0
 73
     1
 72
     2
 10
180.7016542509982
 20
-138.4987022047479
 40
0.6500000000000057
 50
270.0
 51
360.0
 73
     1
 72
     1
 10
181.3516542509982
 20
-138.4987022047479
 11
181.3516542509982
 21
-135.8987022047479
 72
     2
 10
180.3516542509982
 20
-135.8987022047479
 40
1.0
 50
0.0
 51
90.0
 73
     1
 97
        9
330
2AB
330
2AA
330
2AC
330
336
330
2F5
330
324
330
323
330
2F4
330
330
 92
       16
 93
        6
 72
     2
 10
179.5016542509982
 20
-136.6487022047479
 40
0.6500000000000057
 50
0.0
 51
90.0
 73
     1
 72
     1
 10
179.5016542509982
 20
-135.9987022047479
 11
178.8516542509982
 21
-135.9987022047479
 72
     1
 10
178.8516542509982
 20
-135.9987022047479
 11
178.8516542509982
 21
-138.5987022047479
 72
     1
 10
178.8516542509982
 20
-138.5987022047479
 11
179.5016542509982
 21
-138.5987022047479
 72
     2
 10
179.5016542509982
 20
-137.9487022047479
 40
0.6500000000000057
 50
270.0
 51
360.0
 73
     1
 72
     1
 10
180.1516542509982
 20
-137.9487022047479
 11
180.1516542509982
 21
-136.6487022047479
 97
        6
330
355
330
2E3
330
2E9
330
2E5
330
356
330
2E4
 92
       16
 93
        6
 72
     2
 10
179.5016542509982
 20
-140.3487022047479
 40
0.6500000000000057
 50
0.0
 51
90.0
 73
     1
 72
     1
 10
179.5016542509982
 20
-139.6987022047479
 11
178.8516542509982
 21
-139.6987022047479
 72
     1
 10
178.8516542509982
 20
-139.6987022047479
 11
178.8516542509982
 21
-142.986289665258
 72
     1
 10
178.8516542509982
 20
-142.986289665258
 11
179.5016542509982
 21
-142.986289665258
 72
     2
 10
179.5016542509982
 20
-142.336289665258
 40
0.6500000000000057
 50
270.0
 51
360.0
 73
     1
 72
     1
 10
180.1516542509982
 20
-142.336289665258
 11
180.1516542509982
 21
-140.3487022047479
 97
        6
330
357
330
2EA
330
2E6
330
2E7
330
358
330
2E8
 75
     1
 76
     0
 52
90.00000000000003
 41
0.15
 77
     0
 78
     1
 53
90.00000000000003
 43
0.0
 44
0.0
 45
-0.15
 46
-0.0000000000000001
 79
     0
 98
        1
 10
0.0
 20
0.0
  0
HATCH
  5
38E
330
4F
100
AcDbEntity
  8
1
  6
Continuous
 62
     2
100
AcDbHatch
 10
0.0
 20
0.0
 30
0.0
210
0.0
220
0.0
230
1.0
  2
_USER
 70
     0
 71
     1
 91
        2
 92
        1
 93
        8
 72
     2
 10
174.1516542509982
 20
-135.8987022047479
 40
1.0
 50
90.0
 51
180.0
 73
     1
 72
     1
 10
173.1516542509982
 20
-135.8987022047479
 11
173.1516542509982
 21
-143.0987022047479
 72
     2
 10
174.1516542509982
 20
-143.0987022047479
 40
1.0
 50
180.0
 51
270.0
 73
     1
 72
     1
 10
174.1516542509982
 20
-144.0987022047479
 11
175.8516542509982
 21
-144.0987022047479
 72
     2
 10
175.8516542509982
 20
-143.0987022047479
 40
1.0
 50
270.0
 51
360.0
 73
     1
 72
     1
 10
176.8516542509982
 20
-143.0987022047479
 11
176.8516542509982
 21
-135.8987022047479
 72
     2
 10
175.8516542509982
 20
-135.8987022047479
 40
1.0
 50
0.0
 51
90.0
 73
     1
 72
     1
 10
175.8516542509982
 20
-134.8987022047479
 11
174.1516542509982
 21
-134.8987022047479
 97
        8
330
32E
330
2FE
330
338
330
2A9
330
337
330
2B7
330
32F
330
2A8
 92
       16
 93
        6
 72
     2
 10
175.0016542509982
 20
-136.6487022047479
 40
0.6500000000000057
 50
90.0
 51
180.0
 73
     1
 72
     1
 10
174.3516542509982
 20
-136.6487022047479
 11
174.3516542509982
 21
-142.336289665258
 72
     2
 10
175.0016542509982
 20
-142.336289665258
 40
0.6500000000000057
 50
180.0
 51
270.0
 73
     1
 72
     2
 10
175.0016542509982
 20
-142.336289665258
 40
0.6500000000000057
 50
270.0
 51
360.0
 73
     1
 72
     1
 10
175.6516542509982
 20
-142.336289665258
 11
175.6516542509982
 21
-136.6487022047479
 72
     2
 10
175.0016542509982
 20
-136.6487022047479
 40
0.6500000000000057
 50
0.0
 51
90.0
 73
     1
 97
        6
330
351
330
2E2
330
353
330
354
330
2E1
330
352
 75
     1
 76
     0
 52
90.00000000000003
 41
0.15
 77
     0
 78
     1
 53
90.00000000000003
 43
0.0
 44
0.0
 45
-0.15
 46
-0.0000000000000001
 79
     0
 98
        1
 10
0.0
 20
0.0
  0
HATCH
  5
38F
330
4F
100
AcDbEntity
  8
1
  6
Continuous
 62
     2
100
AcDbHatch
 10
0.0
 20
0.0
 30
0.0
210
0.0
220
0.0
230
1.0
  2
_USER
 70
     0
 71
     1
 91
        2
 92
        1
 93
        6
 72
     1
 10
193.7516542509982
 20
-135.8987022047479
 11
193.7516542509982
 21
-143.0987022047479
 72
     2
 10
192.7516542509982
 20
-143.0987022047479
 40
1.0
 50
0.0
 51
90.0
 73
     0
 72
     1
 10
192.7516542509982
 20
-144.0987022047479
 11
190.0516542509982
 21
-144.0987022047479
 72
     1
 10
190.0516542509982
 20
-144.0987022047479
 11
190.0516542509982
 21
-134.8987022047479
 72
     1
 10
190.0516542509982
 20
-134.8987022047479
 11
192.7516542509982
 21
-134.8987022047479
 72
     2
 10
192.7516542509982
 20
-135.8987022047479
 40
1.0
 50
270.0
 51
360.0
 73
     0
 97
        6
330
2B6
330
2B5
330
2B8
330
339
330
2B9
330
333
 92
       16
 93
        7
 72
     2
 10
191.9016542509982
 20
-136.6487022047479
 40
0.6500000000000057
 50
0.0
 51
90.0
 73
     1
 72
     1
 10
191.9016542509982
 20
-135.9987022047479
 11
191.2516542509982
 21
-135.9987022047479
 72
     1
 10
191.2516542509982
 20
-135.9987022047479
 11
191.2516542509982
 21
-136.6487022047479
 72
     1
 10
191.2516542509982
 20
-136.6487022047479
 11
191.2516542509982
 21
-142.986289665258
 72
     1
 10
191.2516542509982
 20
-142.986289665258
 11
191.9016542509982
 21
-142.986289665258
 72
     2
 10
191.9016542509982
 20
-142.336289665258
 40
0.6500000000000057
 50
270.0
 51
360.0
 73
     1
 72
     1
 10
192.5516542509982
 20
-142.336289665258
 11
192.5516542509982
 21
-136.6487022047479
 97
        7
330
34B
330
2F2
330
2F3
330
2EF
330
2EE
330
34C
330
2ED
 75
     1
 76
     0
 52
90.00000000000003
 41
0.15
 77
     0
 78
     1
 53
90.00000000000003
 43
0.0
 44
0.0
 45
-0.15
 46
-0.0000000000000001
 79
     0
 98
        1
 10
0.0
 20
0.0
  0
HATCH
  5
390
330
4F
100
AcDbEntity
  8
1
  6
Continuous
 62
     2
100
AcDbHatch
 10
0.0
 20
0.0
 30
0.0
210
0.0
220
0.0
230
1.0
  2
_USER
 70
     0
 71
     1
 91
        2
 92
        1
 93
       13
 72
     2
 10
155.3161055621215
 20
-140.3322245215489
 40
0.8355765145285912
 50
359.5324065739073
 51
445.9815862299461
 73
     1
 72
     2
 10
155.3000342667233
 20
-138.6497024607775
 40
0.8522732028340427
 50
275.0233190242852
 51
357.7566077588543
 73
     1
 72
     1
 10
156.1516542509982
 20
-138.6830643350151
 11
156.1516542509982
 21
-135.8987022047479
 72
     2
 10
155.1516542509982
 20
-135.8987022047479
 40
1.0
 50
0.0
 51
90.0
 73
     1
 72
     1
 10
155.1516542509982
 20
-134.8987022047479
 11
152.4516542509982
 21
-134.8987022047479
 72
     1
 10
152.4516542509982
 20
-134.8987022047479
 11
152.4516542509982
 21
-144.0987022047479
 72
     1
 10
152.4516542509982
 20
-144.0987022047479
 11
153.6516542509982
 21
-144.0987022047479
 72
     1
 10
153.6516542509982
 20
-144.0987022047479
 11
153.6516542509982
 21
-140.0987022047479
 72
     1
 10
153.6516542509982
 20
-140.0987022047479
 11
154.3016542509982
 21
-140.0987022047479
 72
     2
 10
154.3016542509982
 20
-140.7487022047479
 40
0.6499999999999773
 50
270.0
 51
360.0
 73
     0
 72
     1
 10
154.9516542509982
 20
-140.7487022047479
 11
154.9516542509982
 21
-144.0987022047479
 72
     1
 10
154.9516542509982
 20
-144.0987022047479
 11
156.1516542509982
 21
-144.0987022047479
 72
     1
 10
156.1516542509982
 20
-144.0987022047479
 11
156.1516542509982
 21
-140.3390436232606
 97
       13
330
321
330
320
330
29E
330
32B
330
29D
330
29C
330
2C6
330
2DE
330
2DD
330
341
330
2C4
330
2C5
330
29F
 92
       16
 93
        6
 72
     2
 10
154.3016542509982
 20
-136.6487022047479
 40
0.6499999999999773
 50
0.0
 51
90.0
 73
     1
 72
     1
 10
154.3016542509982
 20
-135.9987022047479
 11
153.6516542509982
 21
-135.9987022047479
 72
     1
 10
153.6516542509982
 20
-135.9987022047479
 11
153.6516542509982
 21
-138.8987022047479
 72
     1
 10
153.6516542509982
 20
-138.8987022047479
 11
154.3016542509982
 21
-138.8987022047479
 72
     2
 10
154.3016542509982
 20
-138.2487022047479
 40
0.6500000000000057
 50
270.0
 51
360.0
 73
     1
 72
     1
 10
154.9516542509982
 20
-138.2487022047479
 11
154.9516542509982
 21
-136.6487022047479
 97
        6
330
340
330
2DA
330
2DB
330
2DC
330
342
330
2C3
 75
     1
 76
     0
 52
90.00000000000003
 41
0.15
 77
     0
 78
     1
 53
90.00000000000003
 43
0.0
 44
0.0
 45
-0.15
 46
-0.0000000000000001
 79
     0
 98
        1
 10
0.0
 20
0.0
  0
HATCH
  5
391
330
4F
100
AcDbEntity
  8
1
  6
Continuous
 62
     2
100
AcDbHatch
 10
0.0
 20
0.0
 30
0.0
210
0.0
220
0.0
230
1.0
  2
_USER
 70
     0
 71
     1
 91
        1
 92
        1
 93
       23
 72
     1
 10
159.4516542509982
 20
-142.336289665258
 11
159.4516542509982
 21
-140.5987022047479
 72
     1
 10
159.4516542509982
 20
-140.5987022047479
 11
158.9016542509982
 21
-140.5987022047479
 72
     1
 10
158.9016542509982
 20
-140.5987022047479
 11
158.9016542509982
 21
-139.3987022047479
 72
     1
 10
158.9016542509982
 20
-139.3987022047479
 11
159.7415058473918
 21
-139.3987022047479
 72
     1
 10
159.7415058473918
 20
-139.3987022047479
 11
160.6516542509982
 21
-139.3987022047479
 72
     1
 10
160.6516542509982
 20
-139.3987022047479
 11
160.6516542509982
 21
-144.0987022047479
 72
     1
 10
160.6516542509982
 20
-144.0987022047479
 11
160.1516542509982
 21
-144.0987022047479
 72
     1
 10
160.1516542509982
 20
-144.0987022047479
 11
159.8046153744343
 21
-143.4987022047479
 72
     2
 10
158.8327793484388
 20
-143.0118469226761
 40
1.086965191302819
 50
26.60924039545096
 51
90.81479912927361
 73
     0
 72
     1
 10
158.8173222162131
 20
-144.0987022047479
 11
157.9516542509982
 21
-144.0987022047479
 72
     2
 10
157.9516542509982
 20
-143.0987022047479
 40
1.0
 50
90.0
 51
180.0
 73
     0
 72
     1
 10
156.9516542509982
 20
-143.0987022047479
 11
156.9516542509982
 21
-135.8987022047479
 72
     2
 10
157.9516542509982
 20
-135.8987022047479
 40
1.0
 50
180.0
 51
270.0
 73
     0
 72
     1
 10
157.9516542509982
 20
-134.8987022047479
 11
159.6516542509982
 21
-134.8987022047479
 72
     2
 10
159.6516542509982
 20
-135.8987022047479
 40
1.000000000000085
 50
270.0
 51
360.0
 73
     0
 72
     1
 10
160.6516542509983
 20
-135.8987022047479
 11
160.6516542509982
 21
-137.9987022047479
 72
     1
 10
160.6516542509982
 20
-137.9987022047479
 11
159.4516542509982
 21
-137.9987022047479
 72
     1
 10
159.4516542509982
 20
-137.9987022047479
 11
159.4516542509982
 21
-136.6487022047479
 72
     2
 10
158.8016542509982
 20
-136.6487022047479
 40
0.6499999999999773
 50
0.0
 51
90.0
 73
     1
 72
     2
 10
158.8016542509982
 20
-136.6487022047479
 40
0.6500000000000057
 50
90.0
 51
180.0
 73
     1
 72
     1
 10
158.1516542509982
 20
-136.6487022047479
 11
158.1516542509982
 21
-142.336289665258
 72
     2
 10
158.8016542509982
 20
-142.336289665258
 40
0.6500000000000057
 50
180.0
 51
270.0
 73
     1
 72
     2
 10
158.8016542509982
 20
-142.336289665258
 40
0.6500000000000057
 50
270.0
 51
360.0
 73
     1
 97
       23
330
345
330
2C1
330
343
330
344
330
2C0
330
2A2
330
2A3
330
32D
330
2A0
330
32C
330
2BB
330
33A
330
2BA
330
322
330
2BF
330
2BE
330
2A1
330
2E0
330
2CE
330
2CF
330
2D0
330
2C2
330
346
 75
     1
 76
     0
 52
90.00000000000003
 41
0.15
 77
     0
 78
     1
 53
90.00000000000003
 43
0.0
 44
0.0
 45
-0.15
 46
-0.0000000000000001
 79
     0
 98
        1
 10
0.0
 20
0.0
  0
HATCH
  5
392
330
4F
100
AcDbEntity
  8
1
  6
Continuous
 62
     2
100
AcDbHatch
 10
0.0
 20
0.0
 30
0.0
210
0.0
220
0.0
230
1.0
  2
_USER
 70
     0
 71
     1
 91
        1
 92
        1
 93
       22
 72
     1
 10
143.7516542509982
 20
-144.0987022047479
 11
143.2516542509982
 21
-144.0987022047479
 72
     1
 10
143.2516542509982
 20
-144.0987022047479
 11
142.9048783308657
 21
-143.4987022047479
 72
     2
 10
141.9264261003899
 20
-143.0014062690806
 40
1.097575516743262
 50
26.94184191294435
 51
91.29325310587122
 73
     0
 72
     1
 10
141.9016542509982
 20
-144.0987022047479
 11
141.0516542509982
 21
-144.0987022047479
 72
     2
 10
141.0516542509982
 20
-143.0987022047479
 40
1.0
 50
90.0
 51
180.0
 73
     0
 72
     1
 10
140.0516542509982
 20
-143.0987022047479
 11
140.0516542509982
 21
-135.8987022047479
 72
     2
 10
141.0516542509982
 20
-135.8987022047479
 40
1.0
 50
180.0
 51
270.0
 73
     0
 72
     1
 10
141.0516542509982
 20
-134.8987022047479
 11
142.7516542509982
 21
-134.8987022047479
 72
     2
 10
142.7516542509982
 20
-135.8987022047479
 40
1.0
 50
270.0
 51
360.0
 73
     0
 72
     1
 10
143.7516542509982
 20
-135.8987022047479
 11
143.7516542509982
 21
-137.9987022047479
 72
     1
 10
143.7516542509982
 20
-137.9987022047479
 11
142.5516542509982
 21
-137.9987022047479
 72
     1
 10
142.5516542509982
 20
-137.9987022047479
 11
142.5516542509982
 21
-136.6487022047479
 72
     2
 10
141.9016542509982
 20
-136.6487022047479
 40
0.6500000000000057
 50
0.0
 51
90.0
 73
     1
 72
     2
 10
141.9016542509982
 20
-136.6487022047479
 40
0.6500000000000057
 50
90.0
 51
180.0
 73
     1
 72
     1
 10
141.2516542509982
 20
-136.6487022047479
 11
141.2516542509982
 21
-142.336289665258
 72
     2
 10
141.9016542509982
 20
-142.336289665258
 40
0.6500000000000057
 50
180.0
 51
270.0
 73
     1
 72
     2
 10
141.9016542509982
 20
-142.336289665258
 40
0.6500000000000057
 50
270.0
 51
360.0
 73
     1
 72
     1
 10
142.5516542509982
 20
-142.336289665258
 11
142.5516542509982
 21
-140.5987022047479
 72
     1
 10
142.5516542509982
 20
-140.5987022047479
 11
141.9927287849846
 21
-140.5987022047479
 72
     1
 10
141.9927287849846
 20
-140.5987022047479
 11
141.9927287849846
 21
-139.3987022047479
 72
     1
 10
141.9927287849846
 20
-139.3987022047479
 11
143.7516542509982
 21
-139.3987022047479
 72
     1
 10
143.7516542509982
 20
-139.3987022047479
 11
143.7516542509982
 21
-144.0987022047479
 97
       22
330
28D
330
28E
330
28B
330
2D6
330
34A
330
349
330
2D7
330
347
330
348
330
2D8
330
2D9
330
290
330
325
330
2BD
330
33B
330
2BC
330
326
330
297
330
31F
330
296
330
28F
330
295
 75
     1
 76
     0
 52
90.00000000000003
 41
0.15
 77
     0
 78
     1
 53
90.00000000000003
 43
0.0
 44
0.0
 45
-0.15
 46
-0.0000000000000001
 79
     0
 98
        1
 10
0.0
 20
0.0
  0
ENDBLK
  5
51
330
4F
100
AcDbEntity
  8
0
100
AcDbBlockEnd
  0
BLOCK
  5
53
330
52
100
AcDbEntity
  8
0
100
AcDbBlockBegin
  2
TOP
 70
     0
 71
     0
 10
-161.9722548798848
 20
307.1601372065735
 30
0.0
  3
TOP
  1

  0
POINT
  5
393
330
52
100
AcDbEntity
  8
1
 62
     3
 60
     1
100
AcDbPoint
 10
30.5
 20
-157.5494480485008
 30
0.0
  0
POINT
  5
394
330
52
100
AcDbEntity
  8
1
 62
     3
 60
     1
100
AcDbPoint
 10
30.5
 20
-121.5494480485008
 30
0.0
  0
POINT
  5
395
330
52
100
AcDbEntity
  8
1
 62
     3
 60
     1
100
AcDbPoint
 10
34.5
 20
-153.5494480485008
 30
0.0
  0
POINT
  5
396
330
52
100
AcDbEntity
  8
1
 62
     3
 60
     1
100
AcDbPoint
 10
34.5
 20
-125.5494480485008
 30
0.0
  0
POINT
  5
397
330
52
100
AcDbEntity
  8
1
 62
     3
 60
     1
100
AcDbPoint
 10
26.5
 20
-153.5494480485008
 30
0.0
  0
POINT
  5
398
330
52
100
AcDbEntity
  8
1
 62
     3
 60
     1
100
AcDbPoint
 10
26.5
 20
-125.5494480485008
 30
0.0
  0
POINT
  5
399
330
52
100
AcDbEntity
  8
1
 62
     3
 60
     1
100
AcDbPoint
 10
47.5
 20
-17.54944804850078
 30
0.0
  0
POINT
  5
39A
330
52
100
AcDbEntity
  8
1
 62
     3
 60
     1
100
AcDbPoint
 10
13.5
 20
-17.54944804850078
 30
0.0
  0
POINT
  5
39B
330
52
100
AcDbEntity
  8
1
 62
     3
 60
     1
100
AcDbPoint
 10
42.5
 20
-119.5494480485008
 30
0.0
  0
POINT
  5
39C
330
52
100
AcDbEntity
  8
1
 62
     3
 60
     1
100
AcDbPoint
 10
42.5
 20
-159.5494480485008
 30
0.0
  0
POINT
  5
39D
330
52
100
AcDbEntity
  8
1
 62
     3
 60
     1
100
AcDbPoint
 10
18.5
 20
-159.5494480485008
 30
0.0
  0
POINT
  5
39E
330
52
100
AcDbEntity
  8
1
 62
     3
 60
     1
100
AcDbPoint
 10
18.5
 20
-119.5494480485008
 30
0.0
  0
POINT
  5
39F
330
52
100
AcDbEntity
  8
1
 62
     3
 60
     1
100
AcDbPoint
 10
47.5
 20
-117.5494480485008
 30
0.0
  0
POINT
  5
3A0
330
52
100
AcDbEntity
  8
1
 62
     3
 60
     1
100
AcDbPoint
 10
47.5
 20
-119.5494480485008
 30
0.0
  0
POINT
  5
3A1
330
52
100
AcDbEntity
  8
1
 62
     3
 60
     1
100
AcDbPoint
 10
13.5
 20
-119.5494480485008
 30
0.0
  0
POINT
  5
3A2
330
52
100
AcDbEntity
  8
1
 62
     3
 60
     1
100
AcDbPoint
 10
13.5
 20
-117.5494480485008
 30
0.0
  0
POINT
  5
3A3
330
52
100
AcDbEntity
  8
1
 62
     3
 60
     1
100
AcDbPoint
 10
86.0431105090725
 20
-81.54944804850078
 30
0.0
  0
POINT
  5
3A4
330
52
100
AcDbEntity
  8
1
 62
     3
 60
     1
100
AcDbPoint
 10
85.7076490959937
 20
-75.54944804850078
 30
0.0
  0
POINT
  5
3A5
330
52
100
AcDbEntity
  8
1
 62
     3
 60
     1
100
AcDbPoint
 10
85.7889113411322
 20
-43.54944804850078
 30
0.0
  0
POINT
  5
3A6
330
52
100
AcDbEntity
  8
1
 62
     3
 60
     1
100
AcDbPoint
 10
85.4638623605781
 20
-37.54944804850078
 30
0.0
  0
POINT
  5
3A7
330
52
100
AcDbEntity
  8
1
 62
     3
 60
     1
100
AcDbPoint
 10
88.0
 20
-43.54944804850078
 30
0.0
  0
POINT
  5
3A8
330
52
100
AcDbEntity
  8
1
 62
     3
 60
     1
100
AcDbPoint
 10
88.0
 20
-75.54944804850078
 30
0.0
  0
POINT
  5
3A9
330
52
100
AcDbEntity
  8
1
 62
     3
 60
     1
100
AcDbPoint
 10
88.0
 20
-37.54944804850078
 30
0.0
  0
POINT
  5
3AA
330
52
100
AcDbEntity
  8
1
 62
     3
 60
     1
100
AcDbPoint
 10
88.0
 20
-81.54944804850078
 30
0.0
  0
POINT
  5
3AB
330
52
100
AcDbEntity
  8
1
 62
     3
 60
     1
100
AcDbPoint
 10
144.5
 20
-95.04944804850078
 30
0.0
  0
POINT
  5
3AC
330
52
100
AcDbEntity
  8
1
 62
     3
 60
     1
100
AcDbPoint
 10
144.5
 20
-24.04944804850078
 30
0.0
  0
POINT
  5
3AD
330
52
100
AcDbEntity
  8
1
 62
     3
 60
     1
100
AcDbPoint
 10
94.0
 20
-93.54944804850078
 30
0.0
  0
POINT
  5
3AE
330
52
100
AcDbEntity
  8
1
 62
     3
 60
     1
100
AcDbPoint
 10
127.5
 20
-103.5494480485008
 30
0.0
  0
POINT
  5
3AF
330
52
100
AcDbEntity
  8
1
 62
     3
 60
     1
100
AcDbPoint
 10
88.0
 20
-24.54944804850078
 30
0.0
  0
POINT
  5
3B0
330
52
100
AcDbEntity
  8
1
 62
     3
 60
     1
100
AcDbPoint
 10
127.5
 20
-15.54944804850078
 30
0.0
  0
POINT
  5
3B1
330
52
100
AcDbEntity
  8
1
 62
     3
 60
     1
100
AcDbPoint
 10
-22.0
 20
-35.54944804850078
 30
0.0
  0
POINT
  5
3B2
330
52
100
AcDbEntity
  8
1
 62
     3
 60
     1
100
AcDbPoint
 10
144.5
 20
-103.5494480485008
 30
0.0
  0
POINT
  5
3B3
330
52
100
AcDbEntity
  8
1
 62
     3
 60
     1
100
AcDbPoint
 10
144.5
 20
-15.54944804850078
 30
0.0
  0
POINT
  5
3B4
330
52
100
AcDbEntity
  8
1
 62
     3
 60
     1
100
AcDbPoint
 10
83.0
 20
-93.54944804850078
 30
0.0
  0
POINT
  5
3B5
330
52
100
AcDbEntity
  8
1
 62
     3
 60
     1
100
AcDbPoint
 10
-22.0
 20
-93.54944804850078
 30
0.0
  0
POINT
  5
3B6
330
52
100
AcDbEntity
  8
1
 62
     3
 60
     1
100
AcDbPoint
 10
88.0
 20
-93.54944804850078
 30
0.0
  0
POINT
  5
3B7
330
52
100
AcDbEntity
  8
1
 62
     3
 60
     1
100
AcDbPoint
 10
-27.0
 20
-93.54944804850078
 30
0.0
  0
POINT
  5
3B8
330
52
100
AcDbEntity
  8
1
 62
     3
 60
     1
100
AcDbPoint
 10
88.0
 20
-104.5494480485008
 30
0.0
  0
POINT
  5
3B9
330
52
100
AcDbEntity
  8
1
 62
     3
 60
     1
100
AcDbPoint
 10
-27.0
 20
-104.5494480485008
 30
0.0
  0
POINT
  5
3BA
330
52
100
AcDbEntity
  8
1
 62
     3
 60
     1
100
AcDbPoint
 10
-22.0
 20
-104.5494480485008
 30
0.0
  0
POINT
  5
3BB
330
52
100
AcDbEntity
  8
1
 62
     3
 60
     1
100
AcDbPoint
 10
83.0
 20
-104.5494480485008
 30
0.0
  0
POINT
  5
3BC
330
52
100
AcDbEntity
  8
1
 62
     3
 60
     1
100
AcDbPoint
 10
83.0
 20
-117.5494480485008
 30
0.0
  0
POINT
  5
3BD
330
52
100
AcDbEntity
  8
1
 62
     3
 60
     1
100
AcDbPoint
 10
-22.0
 20
-117.5494480485008
 30
0.0
  0
POINT
  5
3BE
330
52
100
AcDbEntity
  8
1
 62
     3
 60
     1
100
AcDbPoint
 10
144.5
 20
69.5
 30
0.0
  0
POINT
  5
3BF
330
52
100
AcDbEntity
  8
1
 62
     3
 60
     1
100
AcDbPoint
 10
144.5
 20
61.0
 30
0.0
  0
POINT
  5
3C0
330
52
100
AcDbEntity
  8
1
 62
     3
 60
     1
100
AcDbPoint
 10
127.5
 20
61.0
 30
0.0
  0
POINT
  5
3C1
330
52
100
AcDbEntity
  8
1
 62
     3
 60
     1
100
AcDbPoint
 10
127.5
 20
149.0
 30
0.0
  0
POINT
  5
3C2
330
52
100
AcDbEntity
  8
1
 62
     3
 60
     1
100
AcDbPoint
 10
144.5
 20
149.0
 30
0.0
  0
POINT
  5
3C3
330
52
100
AcDbEntity
  8
1
 62
     3
 60
     1
100
AcDbPoint
 10
144.5
 20
140.5
 30
0.0
  0
LINE
  5
3C4
330
52
100
AcDbEntity
  8
1
  6
Continuous
 62
     7
100
AcDbLine
 10
34.5
 20
-125.5494480485008
 30
0.0
 11
34.5
 21
-153.5494480485008
 31
0.0
  0
LINE
  5
3C5
330
52
100
AcDbEntity
  8
1
  6
Continuous
 62
     7
100
AcDbLine
 10
26.5
 20
-125.5494480485008
 30
0.0
 11
26.5
 21
-153.5494480485008
 31
0.0
  0
LINE
  5
3C6
330
52
100
AcDbEntity
  8
1
  6
Continuous
 62
     7
100
AcDbLine
 10
13.5
 20
-17.54944804850078
 30
0.0
 11
63.0
 21
-17.54944804850078
 31
0.0
  0
LINE
  5
3C7
330
52
100
AcDbEntity
  8
1
  6
Continuous
 62
     7
100
AcDbLine
 10
42.5
 20
-119.5494480485008
 30
0.0
 11
47.5
 21
-119.5494480485008
 31
0.0
  0
LINE
  5
3C8
330
52
100
AcDbEntity
  8
1
  6
Continuous
 62
     7
100
AcDbLine
 10
42.5
 20
-159.5494480485008
 30
0.0
 11
42.5
 21
-119.5494480485008
 31
0.0
  0
LINE
  5
3C9
330
52
100
AcDbEntity
  8
1
  6
Continuous
 62
     7
100
AcDbLine
 10
18.5
 20
-159.5494480485008
 30
0.0
 11
42.5
 21
-159.5494480485008
 31
0.0
  0
LINE
  5
3CA
330
52
100
AcDbEntity
  8
1
  6
Continuous
 62
     7
100
AcDbLine
 10
18.5
 20
-119.5494480485008
 30
0.0
 11
42.5
 21
-119.5494480485008
 31
0.0
  0
LINE
  5
3CB
330
52
100
AcDbEntity
  8
1
  6
Continuous
 62
     7
100
AcDbLine
 10
18.5
 20
-119.5494480485008
 30
0.0
 11
18.5
 21
-159.5494480485008
 31
0.0
  0
LINE
  5
3CC
330
52
100
AcDbEntity
  8
1
  6
Continuous
 62
     7
100
AcDbLine
 10
47.5
 20
-117.5494480485008
 30
0.0
 11
83.0
 21
-117.5494480485008
 31
0.0
  0
LINE
  5
3CD
330
52
100
AcDbEntity
  8
1
  6
Continuous
 62
     7
100
AcDbLine
 10
47.5
 20
-119.5494480485008
 30
0.0
 11
47.5
 21
-117.5494480485008
 31
0.0
  0
LINE
  5
3CE
330
52
100
AcDbEntity
  8
1
  6
Continuous
 62
     7
100
AcDbLine
 10
13.5
 20
-119.5494480485008
 30
0.0
 11
18.5
 21
-119.5494480485008
 31
0.0
  0
LINE
  5
3CF
330
52
100
AcDbEntity
  8
1
  6
Continuous
 62
     7
100
AcDbLine
 10
13.5
 20
-117.5494480485008
 30
0.0
 11
47.5
 21
-117.5494480485008
 31
0.0
  0
LINE
  5
3D0
330
52
100
AcDbEntity
  8
1
  6
Continuous
 62
     7
100
AcDbLine
 10
13.5
 20
-117.5494480485008
 30
0.0
 11
13.5
 21
-119.5494480485008
 31
0.0
  0
LINE
  5
3D1
330
52
100
AcDbEntity
  8
1
  6
DOT_CENTER
 62
     2
100
AcDbLine
 10
30.5
 20
-163.6081022423504
 30
0.0
 11
30.5
 21
-9.55083182885075
 31
0.0
  0
LINE
  5
3D2
330
52
100
AcDbEntity
  8
1
  6
DOT_CENTER
 62
     2
100
AcDbLine
 10
146.5
 20
-59.54944804850078
 30
0.0
 11
-26.27217741935488
 21
-59.54944804850078
 31
0.0
  0
LINE
  5
3D3
330
52
100
AcDbEntity
  8
1
  6
Continuous
 62
     7
100
AcDbLine
 10
87.22090232165729
 20
-81.54944804850078
 30
0.0
 11
86.0431105090725
 21
-81.54944804850078
 31
0.0
  0
LINE
  5
3D4
330
52
100
AcDbEntity
  8
1
  6
Continuous
 62
     7
100
AcDbLine
 10
130.6163907133708
 20
-15.54944804850078
 30
0.0
 11
128.8497917305457
 21
-15.54944804850078
 31
0.0
  0
LINE
  5
3D5
330
52
100
AcDbEntity
  8
1
  6
Continuous
 62
     7
100
AcDbLine
 10
87.29982974107179
 20
-75.54944804850078
 30
0.0
 11
85.7076490959937
 21
-75.54944804850078
 31
0.0
  0
LINE
  5
3D6
330
52
100
AcDbEntity
  8
1
  6
Continuous
 62
     7
100
AcDbLine
 10
87.29982974107179
 20
-43.54944804850078
 30
0.0
 11
85.7889113411322
 21
-43.54944804850078
 31
0.0
  0
LINE
  5
3D7
330
52
100
AcDbEntity
  8
1
  6
Continuous
 62
     7
100
AcDbLine
 10
87.22090232165729
 20
-37.54944804850078
 30
0.0
 11
85.4638623605781
 21
-37.54944804850078
 31
0.0
  0
LINE
  5
3D8
330
52
100
AcDbEntity
  8
1
  6
Continuous
 62
     7
100
AcDbLine
 10
124.9886692017372
 20
-25.28921894890902
 30
0.0
 11
88.62783269956569
 21
-43.23950532339876
 31
0.0
  0
LINE
  5
3D9
330
52
100
AcDbEntity
  8
1
  6
Continuous
 62
     7
100
AcDbLine
 10
124.9886692017372
 20
-93.80967714809259
 30
0.0
 11
88.62783269956569
 21
-75.85939077360285
 31
0.0
  0
LINE
  5
3DA
330
52
100
AcDbEntity
  8
1
  6
Continuous
 62
     7
100
AcDbLine
 10
124.7774115741895
 20
-17.06582641224338
 30
0.0
 11
88.6806471064526
 21
-37.17035345756517
 31
0.0
  0
LINE
  5
3DB
330
52
100
AcDbEntity
  8
1
  6
Continuous
 62
     7
100
AcDbLine
 10
124.7774115741895
 20
-102.0330696847582
 30
0.0
 11
88.6806471064526
 21
-81.92854263943644
 31
0.0
  0
LINE
  5
3DC
330
52
100
AcDbEntity
  8
1
  6
Continuous
 62
     7
100
AcDbLine
 10
144.5
 20
-95.04944804850078
 30
0.0
 11
144.5
 21
-103.5494480485008
 31
0.0
  0
LINE
  5
3DD
330
52
100
AcDbEntity
  8
1
  6
Continuous
 62
     7
100
AcDbLine
 10
144.5
 20
-95.04944804850078
 30
0.0
 11
130.3006810357129
 21
-95.04944804850078
 31
0.0
  0
LINE
  5
3DE
330
52
100
AcDbEntity
  8
1
  6
Continuous
 62
     7
100
AcDbLine
 10
144.5
 20
-24.04944804850078
 30
0.0
 11
144.5
 21
-95.04944804850078
 31
0.0
  0
LINE
  5
3DF
330
52
100
AcDbEntity
  8
1
  6
Continuous
 62
     7
100
AcDbLine
 10
144.5
 20
-24.04944804850078
 30
0.0
 11
130.3006810357129
 21
-24.04944804850078
 31
0.0
  0
LINE
  5
3E0
330
52
100
AcDbEntity
  8
1
  6
Continuous
 62
     7
100
AcDbLine
 10
88.0
 20
-93.54944804850078
 30
0.0
 11
88.0
 21
-99.54944804850078
 31
0.0
  0
LINE
  5
3E1
330
52
100
AcDbEntity
  8
1
  6
Continuous
 62
     7
100
AcDbLine
 10
125.8204043387308
 20
-103.048076209316
 30
0.0
 11
94.0
 21
-93.54944804850078
 31
0.0
  0
LINE
  5
3E2
330
52
100
AcDbEntity
  8
1
  6
Continuous
 62
     7
100
AcDbLine
 10
144.5
 20
-103.5494480485008
 30
0.0
 11
130.6163907133708
 21
-103.5494480485008
 31
0.0
  0
LINE
  5
3E3
330
52
100
AcDbEntity
  8
1
  6
Continuous
 62
     7
100
AcDbLine
 10
88.0
 20
-24.54944804850078
 30
0.0
 11
71.93596902870479
 21
-26.56613161429164
 31
0.0
  0
LINE
  5
3E4
330
52
100
AcDbEntity
  8
1
  6
Continuous
 62
     7
100
AcDbLine
 10
126.1839375765934
 20
-15.84931037282127
 30
0.0
 11
88.0
 21
-24.54944804850078
 31
0.0
  0
LINE
  5
3E5
330
52
100
AcDbEntity
  8
1
  6
Continuous
 62
     7
100
AcDbLine
 10
144.5
 20
-15.54944804850078
 30
0.0
 11
130.6163907133708
 21
-15.54944804850078
 31
0.0
  0
LINE
  5
3E6
330
52
100
AcDbEntity
  8
1
  6
Continuous
 62
     7
100
AcDbLine
 10
-22.0
 20
-93.54944804850078
 30
0.0
 11
-27.0
 21
-93.54944804850078
 31
0.0
  0
LINE
  5
3E7
330
52
100
AcDbEntity
  8
1
  6
Continuous
 62
     7
100
AcDbLine
 10
88.0
 20
-93.54944804850078
 30
0.0
 11
83.0
 21
-93.54944804850078
 31
0.0
  0
LINE
  5
3E8
330
52
100
AcDbEntity
  8
1
  6
Continuous
 62
     7
100
AcDbLine
 10
68.0
 20
-22.54944804850078
 30
0.0
 11
68.0
 21
-23.09339047709034
 31
0.0
  0
LINE
  5
3E9
330
52
100
AcDbEntity
  8
1
  6
Continuous
 62
     7
100
AcDbLine
 10
-2.0
 20
-17.54944804850078
 30
0.0
 11
13.5
 21
-17.54944804850078
 31
0.0
  0
LINE
  5
3EA
330
52
100
AcDbEntity
  8
1
  6
Continuous
 62
     7
100
AcDbLine
 10
-7.0
 20
-30.54944804850078
 30
0.0
 11
-7.0
 21
-22.54944804850078
 31
0.0
  0
LINE
  5
3EB
330
52
100
AcDbEntity
  8
1
  6
Continuous
 62
     7
100
AcDbLine
 10
-17.0
 20
-35.54944804850078
 30
0.0
 11
-12.0
 21
-35.54944804850078
 31
0.0
  0
LINE
  5
3EC
330
52
100
AcDbEntity
  8
1
  6
Continuous
 62
     7
100
AcDbLine
 10
144.5
 20
-15.54944804850078
 30
0.0
 11
144.5
 21
-24.04944804850078
 31
0.0
  0
LINE
  5
3ED
330
52
100
AcDbEntity
  8
1
  6
Continuous
 62
     7
100
AcDbLine
 10
-22.0
 20
-93.54944804850078
 30
0.0
 11
83.0
 21
-93.54944804850078
 31
0.0
  0
LINE
  5
3EE
330
52
100
AcDbEntity
  8
1
  6
Continuous
 62
     7
100
AcDbLine
 10
-22.0
 20
-88.54944804850078
 30
0.0
 11
-22.0
 21
-40.54944804850078
 31
0.0
  0
LINE
  5
3EF
330
52
100
AcDbEntity
  8
1
  6
Continuous
 62
     7
100
AcDbLine
 10
-27.0
 20
-93.54944804850078
 30
0.0
 11
-27.0
 21
-104.5494480485008
 31
0.0
  0
LINE
  5
3F0
330
52
100
AcDbEntity
  8
1
  6
Continuous
 62
     7
100
AcDbLine
 10
88.0
 20
-99.54944804850078
 30
0.0
 11
88.0
 21
-104.5494480485008
 31
0.0
  0
LINE
  5
3F1
330
52
100
AcDbEntity
  8
1
  6
Continuous
 62
     7
100
AcDbLine
 10
-27.0
 20
-104.5494480485008
 30
0.0
 11
88.0
 21
-104.5494480485008
 31
0.0
  0
LINE
  5
3F2
330
52
100
AcDbEntity
  8
1
  6
Continuous
 62
     7
100
AcDbLine
 10
-22.0
 20
-117.5494480485008
 30
0.0
 11
-22.0
 21
-104.5494480485008
 31
0.0
  0
LINE
  5
3F3
330
52
100
AcDbEntity
  8
1
  6
Continuous
 62
     7
100
AcDbLine
 10
83.0
 20
-117.5494480485008
 30
0.0
 11
83.0
 21
-104.5494480485008
 31
0.0
  0
LINE
  5
3F4
330
52
100
AcDbEntity
  8
1
  6
Continuous
 62
     7
100
AcDbLine
 10
-22.0
 20
-117.5494480485008
 30
0.0
 11
13.5
 21
-117.5494480485008
 31
0.0
  0
LINE
  5
3F5
330
52
100
AcDbEntity
  8
1
  6
Continuous
 62
     7
100
AcDbLine
 10
-13.89999999999998
 20
-117.5494480485008
 30
0.0
 11
-14.0
 21
-117.5494480485008
 31
0.0
  0
LINE
  5
3F6
330
52
100
AcDbEntity
  8
1
  6
Continuous
 62
     7
100
AcDbLine
 10
144.5
 20
149.0
 30
0.0
 11
144.5
 21
140.5
 31
0.0
  0
LINE
  5
3F7
330
52
100
AcDbEntity
  8
1
  6
Continuous
 62
     7
100
AcDbLine
 10
144.5
 20
149.0
 30
0.0
 11
130.6163907133708
 21
149.0
 31
0.0
  0
LINE
  5
3F8
330
52
100
AcDbEntity
  8
1
  6
Continuous
 62
     7
100
AcDbLine
 10
126.1839375765934
 20
148.7001376756795
 30
0.0
 11
88.0
 21
140.0
 31
0.0
  0
LINE
  5
3F9
330
52
100
AcDbEntity
  8
1
  6
Continuous
 62
     7
100
AcDbLine
 10
144.5
 20
61.0
 30
0.0
 11
130.6163907133708
 21
61.0
 31
0.0
  0
LINE
  5
3FA
330
52
100
AcDbEntity
  8
1
  6
Continuous
 62
     7
100
AcDbLine
 10
125.8204043387308
 20
61.5013718391848
 30
0.0
 11
94.0
 21
71.0
 31
0.0
  0
LINE
  5
3FB
330
52
100
AcDbEntity
  8
1
  6
Continuous
 62
     7
100
AcDbLine
 10
144.5
 20
140.5
 30
0.0
 11
130.3006810357129
 21
140.5
 31
0.0
  0
LINE
  5
3FC
330
52
100
AcDbEntity
  8
1
  6
Continuous
 62
     7
100
AcDbLine
 10
144.5
 20
140.5
 30
0.0
 11
144.5
 21
69.5
 31
0.0
  0
LINE
  5
3FD
330
52
100
AcDbEntity
  8
1
  6
Continuous
 62
     7
100
AcDbLine
 10
144.5
 20
69.5
 30
0.0
 11
130.3006810357129
 21
69.5
 31
0.0
  0
LINE
  5
3FE
330
52
100
AcDbEntity
  8
1
  6
Continuous
 62
     7
100
AcDbLine
 10
144.5
 20
69.5
 30
0.0
 11
144.5
 21
61.0
 31
0.0
  0
LINE
  5
3FF
330
52
100
AcDbEntity
  8
1
  6
Continuous
 62
     7
100
AcDbLine
 10
124.7774115741895
 20
62.51637836374255
 30
0.0
 11
88.6806471064526
 21
82.62090540906433
 31
0.0
  0
LINE
  5
400
330
52
100
AcDbEntity
  8
1
  6
Continuous
 62
     7
100
AcDbLine
 10
124.7774115741895
 20
147.4836216362574
 30
0.0
 11
88.6806471064526
 21
127.3790945909356
 31
0.0
  0
LINE
  5
401
330
52
100
AcDbEntity
  8
1
  6
Continuous
 62
     7
100
AcDbLine
 10
124.9886692017372
 20
70.73977090040819
 30
0.0
 11
88.62783269956569
 21
88.69005727489792
 31
0.0
  0
LINE
  5
402
330
52
100
AcDbEntity
  8
1
  6
Continuous
 62
     7
100
AcDbLine
 10
124.9886692017372
 20
139.2602290995918
 30
0.0
 11
88.62783269956569
 21
121.309942725102
 31
0.0
  0
LINE
  5
403
330
52
100
AcDbEntity
  8
1
  6
Continuous
 62
     7
100
AcDbLine
 10
130.6163907133708
 20
149.0
 30
0.0
 11
128.8497917305457
 21
149.0
 31
0.0
  0
LINE
  5
404
330
52
100
AcDbEntity
  8
1
  6
DOT_CENTER
 62
     2
100
AcDbLine
 10
146.5
 20
105.0
 30
0.0
 11
81.43378151674268
 21
105.0
 31
0.0
  0
ARC
  5
405
330
52
100
AcDbEntity
  8
1
  6
Continuous
 62
     7
100
AcDbCircle
 10
30.49999999999969
 20
-153.5494480485004
 30
0.0
 40
4.000000000000398
100
AcDbArc
 50
-89.99999999999557
 51
-0.0000000000057
  0
ARC
  5
406
330
52
100
AcDbEntity
  8
1
  6
Continuous
 62
     7
100
AcDbCircle
 10
30.50000000000091
 20
-153.5494480484999
 30
0.0
 40
4.000000000000909
100
AcDbArc
 50
-179.999999999987
 51
-90.00000000001303
  0
ARC
  5
407
330
52
100
AcDbEntity
  8
1
  6
Continuous
 62
     7
100
AcDbCircle
 10
30.5
 20
-125.5494480485008
 30
0.0
 40
4.0
100
AcDbArc
 50
0.0
 51
90.0
  0
ARC
  5
408
330
52
100
AcDbEntity
  8
1
  6
Continuous
 62
     7
100
AcDbCircle
 10
30.5
 20
-125.5494480485008
 30
0.0
 40
4.0
100
AcDbArc
 50
90.0
 51
180.0
  0
ARC
  5
409
330
52
100
AcDbEntity
  8
1
  6
Continuous
 62
     7
100
AcDbCircle
 10
130.6163907133708
 20
-91.54944804850078
 30
0.0
 40
11.99999999999997
100
AcDbArc
 50
-119.1161462660787
 51
-90.0
  0
ARC
  5
40A
330
52
100
AcDbEntity
  8
1
  6
Continuous
 62
     7
100
AcDbCircle
 10
129.252830655392
 20
-91.54944804850078
 30
0.0
 40
12.00000000000004
100
AcDbArc
 50
-106.6207569138918
 51
-90.0
  0
ARC
  5
40B
330
52
100
AcDbEntity
  8
1
  6
Continuous
 62
     7
100
AcDbCircle
 10
130.3006810357129
 20
-83.04944804850078
 30
0.0
 40
12.00000000000001
100
AcDbArc
 50
-116.2742121547274
 51
-90.0
  0
ARC
  5
40C
330
52
100
AcDbEntity
  8
1
  6
Continuous
 62
     7
100
AcDbCircle
 10
87.29982974107179
 20
-78.54944804850078
 30
0.0
 40
2.999999999999965
100
AcDbArc
 50
63.72578784527281
 51
90.0
  0
ARC
  5
40D
330
52
100
AcDbEntity
  8
1
  6
Continuous
 62
     7
100
AcDbCircle
 10
87.22090232165729
 20
-84.54944804850078
 30
0.0
 40
2.999999999999963
100
AcDbArc
 50
60.88385373392143
 51
90.0
  0
ARC
  5
40E
330
52
100
AcDbEntity
  8
1
  6
Continuous
 62
     7
100
AcDbCircle
 10
128.8497917305457
 20
-27.54944804850078
 30
0.0
 40
12.0
100
AcDbArc
 50
90.0
 51
102.8356094864015
  0
ARC
  5
40F
330
52
100
AcDbEntity
  8
1
  6
Continuous
 62
     7
100
AcDbCircle
 10
130.6163907133708
 20
-27.54944804850078
 30
0.0
 40
12.0
100
AcDbArc
 50
90.0
 51
119.1161462660788
  0
ARC
  5
410
330
52
100
AcDbEntity
  8
1
  6
Continuous
 62
     7
100
AcDbCircle
 10
130.3006810357129
 20
-36.04944804850078
 30
0.0
 40
12.0
100
AcDbArc
 50
90.0
 51
116.2742121547276
  0
ARC
  5
411
330
52
100
AcDbEntity
  8
1
  6
Continuous
 62
     7
100
AcDbCircle
 10
87.22090232165729
 20
-34.54944804850078
 30
0.0
 40
3.0
100
AcDbArc
 50
-90.0
 51
-60.88385373392195
  0
ARC
  5
412
330
52
100
AcDbEntity
  8
1
  6
Continuous
 62
     7
100
AcDbCircle
 10
87.29982974107179
 20
-40.54944804850078
 30
0.0
 40
3.0
100
AcDbArc
 50
-90.0
 51
-63.7257878452733
  0
ARC
  5
413
330
52
100
AcDbEntity
  8
1
  6
Continuous
 62
     7
100
AcDbCircle
 10
71.5
 20
-23.09339047709034
 30
0.0
 40
3.5
100
AcDbArc
 50
180.0
 51
-82.84450398328097
  0
ARC
  5
414
330
52
100
AcDbEntity
  8
1
  6
Continuous
 62
     7
100
AcDbCircle
 10
94.0
 20
-99.54944804850078
 30
0.0
 40
6.0
100
AcDbArc
 50
90.0
 51
180.0
  0
ARC
  5
415
330
52
100
AcDbEntity
  8
1
  6
Continuous
 62
     7
100
AcDbCircle
 10
-27.0
 20
-88.54944804850078
 30
0.0
 40
5.0
100
AcDbArc
 50
-90.0
 51
0.0
  0
ARC
  5
416
330
52
100
AcDbEntity
  8
1
  6
Continuous
 62
     7
100
AcDbCircle
 10
63.0
 20
-22.54944804850078
 30
0.0
 40
5.0
100
AcDbArc
 50
0.0
 51
90.0
  0
ARC
  5
417
330
52
100
AcDbEntity
  8
1
  6
Continuous
 62
     7
100
AcDbCircle
 10
-2.0
 20
-22.54944804850078
 30
0.0
 40
5.0
100
AcDbArc
 50
90.0
 51
180.0
  0
ARC
  5
418
330
52
100
AcDbEntity
  8
1
  6
Continuous
 62
     7
100
AcDbCircle
 10
-12.0
 20
-30.54944804850078
 30
0.0
 40
5.0
100
AcDbArc
 50
-90.0
 51
0.0
  0
ARC
  5
419
330
52
100
AcDbEntity
  8
1
  6
Continuous
 62
     7
100
AcDbCircle
 10
-17.0
 20
-40.54944804850078
 30
0.0
 40
5.0
100
AcDbArc
 50
90.0
 51
180.0
  0
ARC
  5
41A
330
52
100
AcDbEntity
  8
1
  6
Continuous
 62
     7
100
AcDbCircle
 10
94.0
 20
65.0
 30
0.0
 40
6.0
100
AcDbArc
 50
90.0
 51
180.0
  0
ARC
  5
41B
330
52
100
AcDbEntity
  8
1
  6
Continuous
 62
     7
100
AcDbCircle
 10
87.29982974107179
 20
124.0
 30
0.0
 40
3.000000000000021
100
AcDbArc
 50
-76.5032571436438
 51
-63.72578784527342
  0
ARC
  5
41C
330
52
100
AcDbEntity
  8
1
  6
Continuous
 62
     7
100
AcDbCircle
 10
87.22090232165729
 20
130.0
 30
0.0
 40
2.999999999999991
100
AcDbArc
 50
-74.94778395922889
 51
-60.88385373392209
  0
ARC
  5
41D
330
52
100
AcDbEntity
  8
1
  6
Continuous
 62
     7
100
AcDbCircle
 10
130.3006810357129
 20
128.5
 30
0.0
 40
12.0
100
AcDbArc
 50
90.0
 51
116.2742121547274
  0
ARC
  5
41E
330
52
100
AcDbEntity
  8
1
  6
Continuous
 62
     7
100
AcDbCircle
 10
130.6163907133708
 20
137.0
 30
0.0
 40
12.0
100
AcDbArc
 50
90.0
 51
119.1161462660788
  0
ARC
  5
41F
330
52
100
AcDbEntity
  8
1
  6
Continuous
 62
     7
100
AcDbCircle
 10
128.8497917305457
 20
137.0
 30
0.0
 40
12.0
100
AcDbArc
 50
90.0
 51
102.8356094864014
  0
ARC
  5
420
330
52
100
AcDbEntity
  8
1
  6
Continuous
 62
     7
100
AcDbCircle
 10
130.3006810357129
 20
81.5
 30
0.0
 40
12.00000000000001
100
AcDbArc
 50
-116.2742121547274
 51
-90.0
  0
ARC
  5
421
330
52
100
AcDbEntity
  8
1
  6
Continuous
 62
     7
100
AcDbCircle
 10
129.252830655392
 20
73.0
 30
0.0
 40
12.00000000000003
100
AcDbArc
 50
-106.6207569138918
 51
-90.0
  0
ARC
  5
422
330
52
100
AcDbEntity
  8
1
  6
Continuous
 62
     7
100
AcDbCircle
 10
130.6163907133708
 20
73.0
 30
0.0
 40
11.99999999999999
100
AcDbArc
 50
-119.1161462660787
 51
-90.0
  0
ARC
  5
423
330
52
100
AcDbEntity
  8
1
  6
Continuous
 62
     7
100
AcDbCircle
 10
87.29982974107179
 20
86.0
 30
0.0
 40
2.999999999999965
100
AcDbArc
 50
63.72578784527281
 51
76.50325714364367
  0
ARC
  5
424
330
52
100
AcDbEntity
  8
1
  6
Continuous
 62
     7
100
AcDbCircle
 10
87.22090232165729
 20
80.0
 30
0.0
 40
2.999999999999963
100
AcDbArc
 50
60.88385373392143
 51
74.94778395922889
  0
DIMENSION
  5
42F
330
52
100
AcDbEntity
  8
1
100
AcDbDimension
  2
*D15
 10
83.27978225957007
 20
-157.5494480485008
 30
0.0
 11
75.77978225957007
 21
-141.6426645577126
 31
0.0
 70
    32
  1
<>
 71
     5
 42
-1.0
 53
90.0
  3
ME10_DIM_10
100
AcDbAlignedDimension
 13
30.5
 23
-121.5494480485008
 33
0.0
 14
30.5
 24
-157.5494480485008
 34
0.0
 50
90.0
100
AcDbRotatedDimension
  0
DIMENSION
  5
43C
330
52
100
AcDbEntity
  8
1
100
AcDbDimension
  2
*D16
 10
83.48764696740047
 20
-159.5494480485009
 30
0.0
 11
75.98764696740047
 21
-173.7071646821744
 31
0.0
 70
    32
  1
<>
 71
     5
 42
-1.0
 53
90.0
  3
ME10_DIM_11
100
AcDbAlignedDimension
 13
30.5
 23
-157.5494480485008
 33
0.0
 14
42.5
 24
-159.5494480485008
 34
0.0
 50
90.0
100
AcDbRotatedDimension
  0
DIMENSION
  5
449
330
52
100
AcDbEntity
  8
1
100
AcDbDimension
  2
*D17
 10
101.1033664928781
 20
-119.5494480485008
 30
0.0
 11
93.60336649287807
 21
-110.7496295912073
 31
0.0
 70
    32
  1
<>
 71
     5
 42
-1.0
 53
90.0
  3
ME10_DIM_12
100
AcDbAlignedDimension
 13
47.5
 23
-117.5494480485008
 33
0.0
 14
42.5
 24
-119.5494480485008
 34
0.0
 50
90.0
100
AcDbRotatedDimension
  0
DIMENSION
  5
454
330
52
100
AcDbEntity
  8
1
100
AcDbDimension
  2
*D18
 10
132.7040012084125
 20
-159.5494480485008
 30
0.0
 11
125.2040012084125
 21
-139.3716701157448
 31
0.0
 70
    32
  1
<>
 71
     5
 42
-1.0
 53
90.0
  3
ME10_DIM_13
100
AcDbAlignedDimension
 13
42.5
 23
-119.5494480485008
 33
0.0
 14
42.5
 24
-159.5494480485008
 34
0.0
 50
90.0
100
AcDbRotatedDimension
  0
DIMENSION
  5
45F
330
52
100
AcDbEntity
  8
1
100
AcDbDimension
  2
*D19
 10
-68.1377053184315
 20
-104.5494480485008
 30
0.0
 11
-75.6377053184315
 21
-56.88311207793402
 31
0.0
 70
    32
  1
<>
 71
     5
 42
-1.0
 53
90.0
  3
ME10_DIM_14
100
AcDbAlignedDimension
 13
-2.0
 23
-17.54944804850078
 33
0.0
 14
-27.0
 24
-104.5494480485008
 34
0.0
 50
90.0
100
AcDbRotatedDimension
  0
DIMENSION
  5
46C
330
52
100
AcDbEntity
  8
1
100
AcDbDimension
  2
*D20
 10
-41.23926248001564
 20
-104.5494480485008
 30
0.0
 11
-48.73926248001564
 21
-78.99960952285431
 31
0.0
 70
    32
  1
<>
 71
     5
 42
-1.0
 53
90.0
  3
ME10_DIM_15
100
AcDbAlignedDimension
 13
-22.0
 23
-93.54944804850078
 33
0.0
 14
-27.0
 24
-104.5494480485008
 34
0.0
 50
90.0
100
AcDbRotatedDimension
  0
DIMENSION
  5
479
330
52
100
AcDbEntity
  8
1
100
AcDbDimension
  2
*D21
 10
-68.1377053184315
 20
-117.5494480485007
 30
0.0
 11
-75.6377053184315
 21
-113.0709704515153
 31
0.0
 70
    32
  1
<>
 71
     5
 42
-1.0
 53
90.0
  3
ME10_DIM_16
100
AcDbAlignedDimension
 13
-27.0
 23
-104.5494480485008
 33
0.0
 14
-22.0
 24
-117.5494480485008
 34
0.0
 50
90.0
100
AcDbRotatedDimension
  0
DIMENSION
  5
486
330
52
100
AcDbEntity
  8
1
100
AcDbDimension
  2
*D22
 10
26.5
 20
-142.134412726221
 30
0.0
 11
9.9210181451611
 21
-134.634412726221
 31
0.0
 70
    32
  1
<>
 71
     5
 42
-1.0
 53
0.00013888888889
  3
ME10_DIM_17
100
AcDbAlignedDimension
 13
34.5
 23
-153.5494480485008
 33
0.0
 14
26.5
 24
-153.5494480485008
 34
0.0
100
AcDbRotatedDimension
  0
DIMENSION
  5
492
330
52
100
AcDbEntity
  8
1
100
AcDbDimension
  2
*D23
 10
18.49999999999997
 20
-175.5635927119224
 30
0.0
 11
-0.39201164583591
 21
-166.3135927119224
 31
0.0
 70
    32
  1
<>
 71
     5
 42
-1.0
 53
0.00013888888889
  3
ME10_DIM_18
100
AcDbAlignedDimension
 13
42.5
 23
-159.5494480485008
 33
0.0
 14
18.5
 24
-159.5494480485008
 34
0.0
100
AcDbRotatedDimension
  0
ENDBLK
  5
54
330
52
100
AcDbEntity
  8
0
100
AcDbBlockEnd
  0
BLOCK
  5
57
330
55
100
AcDbEntity
  8
0
100
AcDbBlockBegin
  2
Angebotszeichnung
 70
     0
 71
     0
 10
-225.578877595279
 20
548.162942145618
 30
0.0
  3
Angebotszeichnung
  1

  0
INSERT
  5
56
330
55
100
AcDbEntity
  8
0
100
AcDbBlockReference
  2
TOP
 10
-161.9722548798848
 20
307.1601372065735
 30
0.0
  0
ENDBLK
  5
58
330
55
100
AcDbEntity
  8
0
100
AcDbBlockEnd
  0
BLOCK
  5
5A
330
59
100
AcDbEntity
  8
0
100
AcDbBlockBegin
  2
Winkelflanschdose_8-polig_drehbar__7
 70
     0
 71
     0
 10
-43.01034272730198
 20
591.4360167952134
 30
0.0
  3
Winkelflanschdose_8-polig_drehbar__7
  1

  0
LINE
  5
493
330
59
100
AcDbEntity
  8
1
  6
DOT_CENTER
 62
     2
100
AcDbLine
 10
288.092149312504
 20
-45.54944804850084
 30
0.0
 11
233.9146408228299
 21
-45.54944804850084
 31
0.0
  0
LINE
  5
494
330
59
100
AcDbEntity
  8
1
  6
DOT_CENTER
 62
     2
100
AcDbLine
 10
236.604896
 20
-35.6393440485009
 30
0.0
 11
239.574896
 21
-35.6393440485009
 31
0.0
  0
LINE
  5
495
330
59
100
AcDbEntity
  8
1
  6
DOT_CENTER
 62
     2
100
AcDbLine
 10
238.089896
 20
-34.15434404850089
 30
0.0
 11
238.089896
 21
-37.1243440485008
 31
0.0
  0
LINE
  5
496
330
59
100
AcDbEntity
  8
1
  6
DOT_CENTER
 62
     2
100
AcDbLine
 10
236.604896
 20
-55.45955204850088
 30
0.0
 11
239.574896
 21
-55.45955204850088
 31
0.0
  0
LINE
  5
497
330
59
100
AcDbEntity
  8
1
  6
DOT_CENTER
 62
     2
100
AcDbLine
 10
238.089896
 20
-53.97455204850076
 30
0.0
 11
238.089896
 21
-56.9445520485009
 31
0.0
  0
LINE
  5
498
330
59
100
AcDbEntity
  8
1
  6
DOT_CENTER
 62
     2
100
AcDbLine
 10
257.9101040000001
 20
-37.1243440485008
 30
0.0
 11
257.9101040000001
 21
-34.15434404850078
 31
0.0
  0
LINE
  5
499
330
59
100
AcDbEntity
  8
1
  6
DOT_CENTER
 62
     2
100
AcDbLine
 10
256.425104
 20
-35.63934404850079
 30
0.0
 11
259.395104
 21
-35.63934404850079
 31
0.0
  0
LINE
  5
49A
330
59
100
AcDbEntity
  8
1
  6
DOT_CENTER
 62
     2
100
AcDbLine
 10
257.9101040000001
 20
-56.94455204850078
 30
0.0
 11
257.9101040000001
 21
-53.97455204850076
 31
0.0
  0
LINE
  5
49B
330
59
100
AcDbEntity
  8
1
  6
DOT_CENTER
 62
     2
100
AcDbLine
 10
256.425104
 20
-55.45955204850077
 30
0.0
 11
259.395104
 21
-55.45955204850077
 31
0.0
  0
LINE
  5
49C
330
59
100
AcDbEntity
  8
1
  6
Continuous
 62
     7
100
AcDbLine
 10
264.971423
 20
-47.54944804850084
 30
0.0
 11
264.971423
 21
-43.54944804850084
 31
0.0
  0
LINE
  5
49D
330
59
100
AcDbEntity
  8
AM_VIS
  6
Continuous
 62
     7
100
AcDbLine
 10
241.4591333118975
 20
-32.98357007452069
 30
0.0
 11
244.0099929490127
 21
-32.86758857560994
 31
0.0
  0
LINE
  5
49E
330
59
100
AcDbEntity
  8
1
  6
Continuous
 62
     7
100
AcDbLine
 10
240.504554
 20
-33.02697251729421
 30
0.0
 11
241.4591333118975
 21
-32.98357007452069
 31
0.0
  0
LINE
  5
49F
330
59
100
AcDbEntity
  8
AM_VIS
  6
Continuous
 62
     7
100
AcDbLine
 10
237.9763442961353
 20
-33.14192417780441
 30
0.0
 11
240.504554
 21
-33.02697251729421
 31
0.0
  0
LINE
  5
4A0
330
59
100
AcDbEntity
  8
AM_VIS
  6
Continuous
 62
     2
100
AcDbLine
 10
255.2513701143853
 20
-35.56169204850085
 30
0.0
 11
239.5654453877904
 21
-35.56169204850085
 31
0.0
  0
LINE
  5
4A1
330
59
100
AcDbEntity
  8
AM_VIS
  6
Continuous
 62
     2
100
AcDbLine
 10
240.504554
 20
-36.22905904850086
 30
0.0
 11
238.882636846725
 21
-36.22905904850086
 31
0.0
  0
LINE
  5
4A2
330
59
100
AcDbEntity
  8
1
  6
Continuous
 62
     7
100
AcDbLine
 10
240.504554
 20
-34.77482809766855
 30
0.0
 11
240.504554
 21
-33.9825380225011
 31
0.0
  0
LINE
  5
4A3
330
59
100
AcDbEntity
  8
AM_VIS
  6
Continuous
 62
     7
100
AcDbLine
 10
244.0099929490127
 20
-32.86758857560994
 30
0.0
 11
247.4163442421353
 21
-32.7127099131211
 31
0.0
  0
LINE
  5
4A4
330
59
100
AcDbEntity
  8
AM_VIS
  6
Continuous
 62
     7
100
AcDbLine
 10
248.5836557578647
 20
-32.7127099131211
 30
0.0
 11
254.3752819857877
 21
-32.97604133334983
 31
0.0
  0
LINE
  5
4A5
330
59
100
AcDbEntity
  8
AM_VIS
  6
Continuous
 62
     7
100
AcDbLine
 10
260.771519
 20
-58.04944804850084
 30
0.0
 11
270.6633
 21
-58.04944804850084
 31
0.0
  0
LINE
  5
4A6
330
59
100
AcDbEntity
  8
AM_VIS
  6
Continuous
 62
     7
100
AcDbLine
 10
273.0633
 20
-56.12444804850088
 30
0.0
 11
273.0633
 21
-34.9744480485009
 31
0.0
  0
LINE
  5
4A7
330
59
100
AcDbEntity
  8
AM_VIS
  6
Continuous
 62
     7
100
AcDbLine
 10
271.4633
 20
-56.12444804850088
 30
0.0
 11
271.4633
 21
-34.9744480485009
 31
0.0
  0
LINE
  5
4A8
330
59
100
AcDbEntity
  8
AM_VIS
  6
Continuous
 62
     7
100
AcDbLine
 10
271.4633
 20
-34.9744480485009
 30
0.0
 11
271.4633
 21
-33.99944804850088
 31
0.0
  0
LINE
  5
4A9
330
59
100
AcDbEntity
  8
AM_VIS
  6
Continuous
 62
     7
100
AcDbLine
 10
247.4163442421353
 20
-58.38618618388045
 30
0.0
 11
243.992863978141
 21
-58.23052870797233
 31
0.0
  0
LINE
  5
4AA
330
59
100
AcDbEntity
  8
AM_VIS
  6
Continuous
 62
     7
100
AcDbLine
 10
271.4633
 20
-57.0994480485009
 30
0.0
 11
271.4633
 21
-56.92444804850084
 31
0.0
  0
LINE
  5
4AB
330
59
100
AcDbEntity
  8
AM_VIS
  6
Continuous
 62
     7
100
AcDbLine
 10
286.8633
 20
-56.14944804850086
 30
0.0
 11
286.8633
 21
-34.94944804850081
 31
0.0
  0
LINE
  5
4AC
330
59
100
AcDbEntity
  8
AM_VIS
  6
Continuous
 62
     7
100
AcDbLine
 10
281.6633
 20
-56.3494480485009
 30
0.0
 11
281.6633
 21
-34.74944804850088
 31
0.0
  0
LINE
  5
4AD
330
59
100
AcDbEntity
  8
AM_VIS
  6
Continuous
 62
     7
100
AcDbLine
 10
280.9633
 20
-56.3494480485009
 30
0.0
 11
280.9633
 21
-34.74944804850088
 31
0.0
  0
LINE
  5
4AE
330
59
100
AcDbEntity
  8
AM_VIS
  6
Continuous
 62
     7
100
AcDbLine
 10
273.663318
 20
-56.3494480485009
 30
0.0
 11
273.6633
 21
-34.74944804850088
 31
0.0
  0
LINE
  5
4AF
330
59
100
AcDbEntity
  8
AM_VIS
  6
Continuous
 62
     7
100
AcDbLine
 10
273.0633
 20
-56.3494480485009
 30
0.0
 11
273.0633
 21
-56.12444804850088
 31
0.0
  0
LINE
  5
4B0
330
59
100
AcDbEntity
  8
AM_VIS
  6
Continuous
 62
     7
100
AcDbLine
 10
270.6633
 20
-57.0994480485009
 30
0.0
 11
270.6633
 21
-58.04944804850084
 31
0.0
  0
LINE
  5
4B1
330
59
100
AcDbEntity
  8
AM_VIS
  6
Continuous
 62
     7
100
AcDbLine
 10
270.6633
 20
-57.0994480485009
 30
0.0
 11
271.4633
 21
-57.0994480485009
 31
0.0
  0
LINE
  5
4B2
330
59
100
AcDbEntity
  8
AM_VIS
  6
Continuous
 62
     7
100
AcDbLine
 10
271.4633
 20
-56.12444804850088
 30
0.0
 11
273.0633
 21
-56.12444804850088
 31
0.0
  0
LINE
  5
4B3
330
59
100
AcDbEntity
  8
AM_VIS
  6
Continuous
 62
     7
100
AcDbLine
 10
273.0633
 20
-56.3494480485009
 30
0.0
 11
273.663318
 21
-56.3494480485009
 31
0.0
  0
LINE
  5
4B4
330
59
100
AcDbEntity
  8
AM_VIS
  6
Continuous
 62
     7
100
AcDbLine
 10
273.663318
 20
-56.3494480485009
 30
0.0
 11
286.6633
 21
-56.3494480485009
 31
0.0
  0
LINE
  5
4B5
330
59
100
AcDbEntity
  8
AM_VIS
  6
Continuous
 62
     7
100
AcDbLine
 10
264.971423
 20
-43.54944804850084
 30
0.0
 11
266.471423
 21
-43.54944804850084
 31
0.0
  0
LINE
  5
4B6
330
59
100
AcDbEntity
  8
AM_VIS
  6
Continuous
 62
     7
100
AcDbLine
 10
266.471423
 20
-47.54944804850084
 30
0.0
 11
264.971423
 21
-47.54944804850084
 31
0.0
  0
LINE
  5
4B7
330
59
100
AcDbEntity
  8
AM_VIS
  6
Continuous
 62
     7
100
AcDbLine
 10
266.471423
 20
-43.54944804850084
 30
0.0
 11
266.471423
 21
-47.54944804850084
 31
0.0
  0
LINE
  5
4B8
330
59
100
AcDbEntity
  8
AM_VIS
  6
Continuous
 62
     7
100
AcDbLine
 10
270.6633
 20
-33.99944804850088
 30
0.0
 11
270.6633
 21
-57.0994480485009
 31
0.0
  0
LINE
  5
4B9
330
59
100
AcDbEntity
  8
AM_VIS
  6
Continuous
 62
     7
100
AcDbLine
 10
271.4633
 20
-33.99944804850088
 30
0.0
 11
270.6633
 21
-33.99944804850088
 31
0.0
  0
LINE
  5
4BA
330
59
100
AcDbEntity
  8
AM_VIS
  6
Continuous
 62
     7
100
AcDbLine
 10
273.0633
 20
-34.9744480485009
 30
0.0
 11
271.4633
 21
-34.9744480485009
 31
0.0
  0
LINE
  5
4BB
330
59
100
AcDbEntity
  8
AM_VIS
  6
Continuous
 62
     7
100
AcDbLine
 10
286.6633
 20
-34.74944804850088
 30
0.0
 11
273.0633
 21
-34.74944804850088
 31
0.0
  0
LINE
  5
4BC
330
59
100
AcDbEntity
  8
AM_VIS
  6
Continuous
 62
     7
100
AcDbLine
 10
254.3752820070099
 20
-58.12285476268698
 30
0.0
 11
248.5836557578647
 21
-58.38618618388045
 31
0.0
  0
LINE
  5
4BD
330
59
100
AcDbEntity
  8
AM_VIS
  6
Continuous
 62
     7
100
AcDbLine
 10
254.3752819857877
 20
-32.97604133334983
 30
0.0
 11
258.0236557038647
 21
-33.14192417780441
 31
0.0
  0
LINE
  5
4BE
330
59
100
AcDbEntity
  8
AM_VIS
  6
Continuous
 62
     7
100
AcDbLine
 10
235.1367244304706
 20
-45.54944804850084
 30
0.0
 11
235.5924761293036
 21
-35.52579234463622
 31
0.0
  0
LINE
  5
4BF
330
59
100
AcDbEntity
  8
1
  6
DOT_CENTER
 62
     2
100
AcDbLine
 10
248.0
 20
-60.50484613392712
 30
0.0
 11
248.0
 21
-30.11786033432986
 31
0.0
  0
LINE
  5
4C0
330
59
100
AcDbEntity
  8
AM_VIS
  6
Continuous
 62
     7
100
AcDbLine
 10
235.5924761293036
 20
-55.57310375236557
 30
0.0
 11
235.1367244304706
 21
-45.54944804850084
 31
0.0
  0
LINE
  5
4C1
330
59
100
AcDbEntity
  8
AM_VIS
  6
Continuous
 62
     7
100
AcDbLine
 10
270.6633
 20
-33.04944804850084
 30
0.0
 11
260.771519
 21
-33.04944804850084
 31
0.0
  0
LINE
  5
4C2
330
59
100
AcDbEntity
  8
AM_VIS
  6
Continuous
 62
     2
100
AcDbLine
 10
243.5258226418167
 20
-58.04944804850084
 30
0.0
 11
254.3678868123995
 21
-58.04944804850084
 31
0.0
  0
LINE
  5
4C3
330
59
100
AcDbEntity
  8
AM_VIS
  6
Continuous
 62
     2
100
AcDbLine
 10
270.6633
 20
-38.14644704850082
 30
0.0
 11
237.3611031529002
 21
-38.14644704850082
 31
0.0
  0
LINE
  5
4C4
330
59
100
AcDbEntity
  8
AM_VIS
  6
Continuous
 62
     2
100
AcDbLine
 10
270.6633
 20
-37.21914804850087
 30
0.0
 11
238.0263840377598
 21
-37.21914804850087
 31
0.0
  0
LINE
  5
4C5
330
59
100
AcDbEntity
  8
AM_VIS
  6
Continuous
 62
     2
100
AcDbLine
 10
270.6633
 20
-34.28724704850083
 30
0.0
 11
260.6399184215949
 21
-34.28724704850083
 31
0.0
  0
LINE
  5
4C6
330
59
100
AcDbEntity
  8
AM_VIS
  6
Continuous
 62
     2
100
AcDbLine
 10
270.6633
 20
-35.56169204850085
 30
0.0
 11
259.8880356769292
 21
-35.56169204850085
 31
0.0
  0
LINE
  5
4C7
330
59
100
AcDbEntity
  8
AM_VIS
  6
Continuous
 62
     2
100
AcDbLine
 10
270.6633
 20
-36.22905904850086
 30
0.0
 11
258.9686867261248
 21
-36.22905904850086
 31
0.0
  0
LINE
  5
4C8
330
59
100
AcDbEntity
  8
AM_VIS
  6
Continuous
 62
     2
100
AcDbLine
 10
270.6633
 20
-52.95244804850086
 30
0.0
 11
237.37412
 21
-52.95244804850086
 31
0.0
  0
LINE
  5
4C9
330
59
100
AcDbEntity
  8
AM_VIS
  6
Continuous
 62
     2
100
AcDbLine
 10
270.6633
 20
-53.87974804850092
 30
0.0
 11
238.039924
 21
-53.87974804850092
 31
0.0
  0
LINE
  5
4CA
330
59
100
AcDbEntity
  8
AM_VIS
  6
Continuous
 62
     2
100
AcDbLine
 10
270.6633
 20
-54.86983704850081
 30
0.0
 11
258.9686867344339
 21
-54.86983704850081
 31
0.0
  0
LINE
  5
4CB
330
59
100
AcDbEntity
  8
AM_VIS
  6
Continuous
 62
     2
100
AcDbLine
 10
270.6633
 20
-55.53720304850083
 30
0.0
 11
259.8880347228499
 21
-55.53720304850083
 31
0.0
  0
LINE
  5
4CC
330
59
100
AcDbEntity
  8
AM_VIS
  6
Continuous
 62
     2
100
AcDbLine
 10
270.6633
 20
-56.31575104850083
 30
0.0
 11
260.4395123439785
 21
-56.31575104850083
 31
0.0
  0
LINE
  5
4CD
330
59
100
AcDbEntity
  8
AM_VIS
  6
Continuous
 62
     2
100
AcDbLine
 10
270.6633
 20
-56.81164804850084
 30
0.0
 11
260.6399181148483
 21
-56.81164804850084
 31
0.0
  0
LINE
  5
4CE
330
59
100
AcDbEntity
  8
AM_VIS
  6
Continuous
 62
     2
100
AcDbLine
 10
270.6633
 20
-57.34792504850088
 30
0.0
 11
260.7571843074505
 21
-57.34792366113572
 31
0.0
  0
LINE
  5
4CF
330
59
100
AcDbEntity
  8
AM_VIS
  6
Continuous
 62
     2
100
AcDbLine
 10
256.1707190651898
 20
-36.22905904850086
 30
0.0
 11
240.504554
 21
-36.22905904850086
 31
0.0
  0
LINE
  5
4D0
330
59
100
AcDbEntity
  8
AM_VIS
  6
Continuous
 62
     2
100
AcDbLine
 10
254.6998934519362
 20
-34.78314504850084
 30
0.0
 11
240.5019811018782
 21
-34.78314504850084
 31
0.0
  0
LINE
  5
4D1
330
59
100
AcDbEntity
  8
AM_VIS
  6
Continuous
 62
     2
100
AcDbLine
 10
254.359305726616
 20
-33.17221304850091
 30
0.0
 11
243.2493282968184
 21
-33.17221304850091
 31
0.0
  0
LINE
  5
4D2
330
59
100
AcDbEntity
  8
AM_VIS
  6
Continuous
 62
     2
100
AcDbLine
 10
254.3822218269477
 20
-33.75097504850089
 30
0.0
 11
242.0824057914783
 21
-33.75097504850089
 31
0.0
  0
LINE
  5
4D3
330
59
100
AcDbEntity
  8
AM_VIS
  6
Continuous
 62
     2
100
AcDbLine
 10
256.1707190779657
 20
-54.86983704850081
 30
0.0
 11
238.897014
 21
-54.86983704850081
 31
0.0
  0
LINE
  5
4D4
330
59
100
AcDbEntity
  8
AM_VIS
  6
Continuous
 62
     2
100
AcDbLine
 10
255.2513710895496
 20
-55.53720304850083
 30
0.0
 11
239.580638
 21
-55.53720304850083
 31
0.0
  0
LINE
  5
4D5
330
59
100
AcDbEntity
  8
AM_VIS
  6
Continuous
 62
     2
100
AcDbLine
 10
254.699893468421
 20
-56.31575104850083
 30
0.0
 11
240.518564
 21
-56.31575104850083
 31
0.0
  0
LINE
  5
4D6
330
59
100
AcDbEntity
  8
AM_VIS
  6
Continuous
 62
     2
100
AcDbLine
 10
254.4994876975512
 20
-56.81164804850084
 30
0.0
 11
241.21932
 21
-56.81164804850084
 31
0.0
  0
LINE
  5
4D7
330
59
100
AcDbEntity
  8
AM_VIS
  6
Continuous
 62
     2
100
AcDbLine
 10
254.3822216214833
 20
-57.34792276831342
 30
0.0
 11
242.0725322480885
 21
-57.34792104432438
 31
0.0
  0
LINE
  5
4D8
330
59
100
AcDbEntity
  8
AM_VIS
  6
Continuous
 62
     7
100
AcDbLine
 10
258.0236557038647
 20
-57.95697191919726
 30
0.0
 11
254.3752820070099
 21
-58.12285476268698
 31
0.0
  0
LINE
  5
4D9
330
59
100
AcDbEntity
  8
AM_VIS
  6
Continuous
 62
     7
100
AcDbLine
 10
243.992863978141
 20
-58.23052870797233
 30
0.0
 11
237.9763442961353
 21
-57.95697191919726
 31
0.0
  0
LINE
  5
4DA
330
59
100
AcDbEntity
  8
AM_VIS
  6
Continuous
 62
     7
100
AcDbLine
 10
271.4633
 20
-56.92444804850084
 30
0.0
 11
271.4633
 21
-56.12444804850088
 31
0.0
  0
LINE
  5
4DB
330
59
100
AcDbEntity
  8
AM_VIS
  6
Continuous
 62
     7
100
AcDbLine
 10
273.0633
 20
-34.9744480485009
 30
0.0
 11
273.0633
 21
-34.74944804850088
 31
0.0
  0
LINE
  5
4DC
330
59
100
AcDbEntity
  8
AM_VIS
  6
Continuous
 62
     2
100
AcDbLine
 10
270.6633
 20
-34.78314504850084
 30
0.0
 11
260.4395123393783
 21
-34.78314504850084
 31
0.0
  0
LINE
  5
4DD
330
59
100
AcDbEntity
  8
AM_VIS
  6
Continuous
 62
     2
100
AcDbLine
 10
270.6633
 20
-33.75097504850089
 30
0.0
 11
260.7571839643669
 21
-33.75097504850089
 31
0.0
  0
LINE
  5
4DE
330
59
100
AcDbEntity
  8
AM_VIS
  6
Continuous
 62
     7
100
AcDbLine
 10
270.6633
 20
-33.99944804850088
 30
0.0
 11
270.6633
 21
-33.04944804850084
 31
0.0
  0
LINE
  5
4DF
330
59
100
AcDbEntity
  8
1
  6
Continuous
 62
     2
100
AcDbLine
 10
254.4994873697194
 20
-34.28724704850083
 30
0.0
 11
241.1943376586066
 21
-34.28724704850083
 31
0.0
  0
LINE
  5
4E0
330
59
100
AcDbEntity
  8
1
  6
Continuous
 62
     2
100
AcDbLine
 10
254.4994873697194
 20
-62.28724704850083
 30
0.0
 11
241.1943376586066
 21
-62.28724704850083
 31
0.0
  0
LINE
  5
4E1
330
59
100
AcDbEntity
  8
AM_VIS
  6
Continuous
 62
     7
100
AcDbLine
 10
270.6633
 20
-61.99944804850088
 30
0.0
 11
270.6633
 21
-61.04944804850084
 31
0.0
  0
LINE
  5
4E2
330
59
100
AcDbEntity
  8
AM_VIS
  6
Continuous
 62
     2
100
AcDbLine
 10
270.6633
 20
-61.75097504850089
 30
0.0
 11
260.7571839643669
 21
-61.75097504850089
 31
0.0
  0
LINE
  5
4E3
330
59
100
AcDbEntity
  8
AM_VIS
  6
Continuous
 62
     2
100
AcDbLine
 10
270.6633
 20
-62.78314504850084
 30
0.0
 11
260.4395123393783
 21
-62.78314504850084
 31
0.0
  0
LINE
  5
4E4
330
59
100
AcDbEntity
  8
AM_VIS
  6
Continuous
 62
     7
100
AcDbLine
 10
273.0633
 20
-62.97444804850079
 30
0.0
 11
273.0633
 21
-62.74944804850088
 31
0.0
  0
LINE
  5
4E5
330
59
100
AcDbEntity
  8
AM_VIS
  6
Continuous
 62
     7
100
AcDbLine
 10
271.4633
 20
-84.92444804850084
 30
0.0
 11
271.4633
 21
-84.12444804850088
 31
0.0
  0
LINE
  5
4E6
330
59
100
AcDbEntity
  8
AM_VIS
  6
Continuous
 62
     7
100
AcDbLine
 10
243.992863978141
 20
-86.23052870797233
 30
0.0
 11
237.9763442961353
 21
-85.95697191919726
 31
0.0
  0
LINE
  5
4E7
330
59
100
AcDbEntity
  8
AM_VIS
  6
Continuous
 62
     7
100
AcDbLine
 10
258.0236557038647
 20
-85.95697191919726
 30
0.0
 11
254.3752820070099
 21
-86.12285476268698
 31
0.0
  0
LINE
  5
4E8
330
59
100
AcDbEntity
  8
AM_VIS
  6
Continuous
 62
     2
100
AcDbLine
 10
254.3822216214833
 20
-85.34792276831342
 30
0.0
 11
242.0725322480885
 21
-85.34792104432438
 31
0.0
  0
LINE
  5
4E9
330
59
100
AcDbEntity
  8
AM_VIS
  6
Continuous
 62
     2
100
AcDbLine
 10
254.4994876975512
 20
-84.81164804850084
 30
0.0
 11
241.21932
 21
-84.81164804850084
 31
0.0
  0
LINE
  5
4EA
330
59
100
AcDbEntity
  8
AM_VIS
  6
Continuous
 62
     2
100
AcDbLine
 10
254.699893468421
 20
-84.31575104850094
 30
0.0
 11
240.518564
 21
-84.31575104850094
 31
0.0
  0
LINE
  5
4EB
330
59
100
AcDbEntity
  8
AM_VIS
  6
Continuous
 62
     2
100
AcDbLine
 10
255.2513710895496
 20
-83.53720304850094
 30
0.0
 11
239.580638
 21
-83.53720304850094
 31
0.0
  0
LINE
  5
4EC
330
59
100
AcDbEntity
  8
AM_VIS
  6
Continuous
 62
     2
100
AcDbLine
 10
256.1707190779657
 20
-82.86983704850081
 30
0.0
 11
238.897014
 21
-82.86983704850081
 31
0.0
  0
LINE
  5
4ED
330
59
100
AcDbEntity
  8
AM_VIS
  6
Continuous
 62
     2
100
AcDbLine
 10
254.3822218269477
 20
-61.75097504850089
 30
0.0
 11
242.0824057914783
 21
-61.75097504850089
 31
0.0
  0
LINE
  5
4EE
330
59
100
AcDbEntity
  8
AM_VIS
  6
Continuous
 62
     2
100
AcDbLine
 10
254.359305726616
 20
-61.17221304850091
 30
0.0
 11
243.2493282968184
 21
-61.17221304850091
 31
0.0
  0
LINE
  5
4EF
330
59
100
AcDbEntity
  8
AM_VIS
  6
Continuous
 62
     2
100
AcDbLine
 10
254.6998934519362
 20
-62.78314504850084
 30
0.0
 11
240.5019811018782
 21
-62.78314504850084
 31
0.0
  0
LINE
  5
4F0
330
59
100
AcDbEntity
  8
AM_VIS
  6
Continuous
 62
     2
100
AcDbLine
 10
256.1707190651898
 20
-64.22905904850086
 30
0.0
 11
240.504554
 21
-64.22905904850086
 31
0.0
  0
LINE
  5
4F1
330
59
100
AcDbEntity
  8
AM_VIS
  6
Continuous
 62
     2
100
AcDbLine
 10
270.6633
 20
-85.34792504850088
 30
0.0
 11
260.7571843074505
 21
-85.34792366113572
 31
0.0
  0
LINE
  5
4F2
330
59
100
AcDbEntity
  8
AM_VIS
  6
Continuous
 62
     2
100
AcDbLine
 10
270.6633
 20
-84.81164804850084
 30
0.0
 11
260.6399181148483
 21
-84.81164804850084
 31
0.0
  0
LINE
  5
4F3
330
59
100
AcDbEntity
  8
AM_VIS
  6
Continuous
 62
     2
100
AcDbLine
 10
270.6633
 20
-84.31575104850094
 30
0.0
 11
260.4395123439785
 21
-84.31575104850094
 31
0.0
  0
LINE
  5
4F4
330
59
100
AcDbEntity
  8
AM_VIS
  6
Continuous
 62
     2
100
AcDbLine
 10
270.6633
 20
-83.53720304850094
 30
0.0
 11
259.8880347228499
 21
-83.53720304850094
 31
0.0
  0
LINE
  5
4F5
330
59
100
AcDbEntity
  8
AM_VIS
  6
Continuous
 62
     2
100
AcDbLine
 10
270.6633
 20
-82.86983704850081
 30
0.0
 11
258.9686867344339
 21
-82.86983704850081
 31
0.0
  0
LINE
  5
4F6
330
59
100
AcDbEntity
  8
AM_VIS
  6
Continuous
 62
     2
100
AcDbLine
 10
270.6633
 20
-81.87974804850091
 30
0.0
 11
238.039924
 21
-81.87974804850091
 31
0.0
  0
LINE
  5
4F7
330
59
100
AcDbEntity
  8
AM_VIS
  6
Continuous
 62
     2
100
AcDbLine
 10
270.6633
 20
-80.95244804850086
 30
0.0
 11
237.37412
 21
-80.95244804850086
 31
0.0
  0
LINE
  5
4F8
330
59
100
AcDbEntity
  8
AM_VIS
  6
Continuous
 62
     2
100
AcDbLine
 10
270.6633
 20
-64.22905904850086
 30
0.0
 11
258.9686867261248
 21
-64.22905904850086
 31
0.0
  0
LINE
  5
4F9
330
59
100
AcDbEntity
  8
AM_VIS
  6
Continuous
 62
     2
100
AcDbLine
 10
270.6633
 20
-63.56169204850085
 30
0.0
 11
259.8880356769292
 21
-63.56169204850085
 31
0.0
  0
LINE
  5
4FA
330
59
100
AcDbEntity
  8
AM_VIS
  6
Continuous
 62
     2
100
AcDbLine
 10
270.6633
 20
-62.28724704850083
 30
0.0
 11
260.6399184215949
 21
-62.28724704850083
 31
0.0
  0
LINE
  5
4FB
330
59
100
AcDbEntity
  8
AM_VIS
  6
Continuous
 62
     2
100
AcDbLine
 10
270.6633
 20
-65.21914804850087
 30
0.0
 11
238.0263840377598
 21
-65.21914804850087
 31
0.0
  0
LINE
  5
4FC
330
59
100
AcDbEntity
  8
AM_VIS
  6
Continuous
 62
     2
100
AcDbLine
 10
270.6633
 20
-66.14644704850093
 30
0.0
 11
237.3611031529002
 21
-66.14644704850093
 31
0.0
  0
LINE
  5
4FD
330
59
100
AcDbEntity
  8
AM_VIS
  6
Continuous
 62
     2
100
AcDbLine
 10
243.5258226418167
 20
-86.04944804850084
 30
0.0
 11
254.3678868123995
 21
-86.04944804850084
 31
0.0
  0
LINE
  5
4FE
330
59
100
AcDbEntity
  8
AM_VIS
  6
Continuous
 62
     7
100
AcDbLine
 10
270.6633
 20
-61.04944804850084
 30
0.0
 11
260.771519
 21
-61.04944804850084
 31
0.0
  0
LINE
  5
4FF
330
59
100
AcDbEntity
  8
AM_VIS
  6
Continuous
 62
     7
100
AcDbLine
 10
235.5924761293036
 20
-83.57310375236557
 30
0.0
 11
235.1367244304706
 21
-73.54944804850084
 31
0.0
  0
LINE
  5
500
330
59
100
AcDbEntity
  8
1
  6
DOT_CENTER
 62
     2
100
AcDbLine
 10
248.0
 20
-88.50484613392712
 30
0.0
 11
248.0
 21
-58.11786033432986
 31
0.0
  0
LINE
  5
501
330
59
100
AcDbEntity
  8
AM_VIS
  6
Continuous
 62
     7
100
AcDbLine
 10
235.1367244304706
 20
-73.54944804850084
 30
0.0
 11
235.5924761293036
 21
-63.52579234463622
 31
0.0
  0
LINE
  5
502
330
59
100
AcDbEntity
  8
AM_VIS
  6
Continuous
 62
     7
100
AcDbLine
 10
254.3752819857877
 20
-60.97604133334983
 30
0.0
 11
258.0236557038647
 21
-61.14192417780441
 31
0.0
  0
LINE
  5
503
330
59
100
AcDbEntity
  8
AM_VIS
  6
Continuous
 62
     7
100
AcDbLine
 10
254.3752820070099
 20
-86.12285476268698
 30
0.0
 11
248.5836557578647
 21
-86.38618618388045
 31
0.0
  0
LINE
  5
504
330
59
100
AcDbEntity
  8
AM_VIS
  6
Continuous
 62
     7
100
AcDbLine
 10
286.6633
 20
-62.74944804850088
 30
0.0
 11
273.0633
 21
-62.74944804850088
 31
0.0
  0
LINE
  5
505
330
59
100
AcDbEntity
  8
AM_VIS
  6
Continuous
 62
     7
100
AcDbLine
 10
273.0633
 20
-62.97444804850079
 30
0.0
 11
271.4633
 21
-62.97444804850079
 31
0.0
  0
LINE
  5
506
330
59
100
AcDbEntity
  8
AM_VIS
  6
Continuous
 62
     7
100
AcDbLine
 10
271.4633
 20
-61.99944804850088
 30
0.0
 11
270.6633
 21
-61.99944804850088
 31
0.0
  0
LINE
  5
507
330
59
100
AcDbEntity
  8
AM_VIS
  6
Continuous
 62
     7
100
AcDbLine
 10
270.6633
 20
-61.99944804850088
 30
0.0
 11
270.6633
 21
-85.0994480485009
 31
0.0
  0
LINE
  5
508
330
59
100
AcDbEntity
  8
AM_VIS
  6
Continuous
 62
     7
100
AcDbLine
 10
266.471423
 20
-71.54944804850084
 30
0.0
 11
266.471423
 21
-75.54944804850084
 31
0.0
  0
LINE
  5
509
330
59
100
AcDbEntity
  8
AM_VIS
  6
Continuous
 62
     7
100
AcDbLine
 10
266.471423
 20
-75.54944804850084
 30
0.0
 11
264.971423
 21
-75.54944804850084
 31
0.0
  0
LINE
  5
50A
330
59
100
AcDbEntity
  8
AM_VIS
  6
Continuous
 62
     7
100
AcDbLine
 10
264.971423
 20
-71.54944804850084
 30
0.0
 11
266.471423
 21
-71.54944804850084
 31
0.0
  0
LINE
  5
50B
330
59
100
AcDbEntity
  8
AM_VIS
  6
Continuous
 62
     7
100
AcDbLine
 10
273.663318
 20
-84.3494480485009
 30
0.0
 11
286.6633
 21
-84.3494480485009
 31
0.0
  0
LINE
  5
50C
330
59
100
AcDbEntity
  8
AM_VIS
  6
Continuous
 62
     7
100
AcDbLine
 10
273.0633
 20
-84.3494480485009
 30
0.0
 11
273.663318
 21
-84.3494480485009
 31
0.0
  0
LINE
  5
50D
330
59
100
AcDbEntity
  8
AM_VIS
  6
Continuous
 62
     7
100
AcDbLine
 10
271.4633
 20
-84.12444804850088
 30
0.0
 11
273.0633
 21
-84.12444804850088
 31
0.0
  0
LINE
  5
50E
330
59
100
AcDbEntity
  8
AM_VIS
  6
Continuous
 62
     7
100
AcDbLine
 10
270.6633
 20
-85.0994480485009
 30
0.0
 11
271.4633
 21
-85.0994480485009
 31
0.0
  0
LINE
  5
50F
330
59
100
AcDbEntity
  8
AM_VIS
  6
Continuous
 62
     7
100
AcDbLine
 10
270.6633
 20
-85.0994480485009
 30
0.0
 11
270.6633
 21
-86.04944804850084
 31
0.0
  0
LINE
  5
510
330
59
100
AcDbEntity
  8
AM_VIS
  6
Continuous
 62
     7
100
AcDbLine
 10
273.0633
 20
-84.3494480485009
 30
0.0
 11
273.0633
 21
-84.12444804850088
 31
0.0
  0
LINE
  5
511
330
59
100
AcDbEntity
  8
AM_VIS
  6
Continuous
 62
     7
100
AcDbLine
 10
273.663318
 20
-84.3494480485009
 30
0.0
 11
273.6633
 21
-62.74944804850088
 31
0.0
  0
LINE
  5
512
330
59
100
AcDbEntity
  8
AM_VIS
  6
Continuous
 62
     7
100
AcDbLine
 10
280.9633
 20
-84.3494480485009
 30
0.0
 11
280.9633
 21
-62.74944804850088
 31
0.0
  0
LINE
  5
513
330
59
100
AcDbEntity
  8
AM_VIS
  6
Continuous
 62
     7
100
AcDbLine
 10
281.6633
 20
-84.3494480485009
 30
0.0
 11
281.6633
 21
-62.74944804850088
 31
0.0
  0
LINE
  5
514
330
59
100
AcDbEntity
  8
AM_VIS
  6
Continuous
 62
     7
100
AcDbLine
 10
286.8633
 20
-84.14944804850086
 30
0.0
 11
286.8633
 21
-62.94944804850081
 31
0.0
  0
LINE
  5
515
330
59
100
AcDbEntity
  8
AM_VIS
  6
Continuous
 62
     7
100
AcDbLine
 10
271.4633
 20
-85.0994480485009
 30
0.0
 11
271.4633
 21
-84.92444804850084
 31
0.0
  0
LINE
  5
516
330
59
100
AcDbEntity
  8
AM_VIS
  6
Continuous
 62
     7
100
AcDbLine
 10
247.4163442421353
 20
-86.38618618388045
 30
0.0
 11
243.992863978141
 21
-86.23052870797233
 31
0.0
  0
LINE
  5
517
330
59
100
AcDbEntity
  8
AM_VIS
  6
Continuous
 62
     7
100
AcDbLine
 10
271.4633
 20
-62.97444804850079
 30
0.0
 11
271.4633
 21
-61.99944804850088
 31
0.0
  0
LINE
  5
518
330
59
100
AcDbEntity
  8
AM_VIS
  6
Continuous
 62
     7
100
AcDbLine
 10
271.4633
 20
-84.12444804850088
 30
0.0
 11
271.4633
 21
-62.97444804850079
 31
0.0
  0
LINE
  5
519
330
59
100
AcDbEntity
  8
AM_VIS
  6
Continuous
 62
     7
100
AcDbLine
 10
273.0633
 20
-84.12444804850088
 30
0.0
 11
273.0633
 21
-62.97444804850079
 31
0.0
  0
LINE
  5
51A
330
59
100
AcDbEntity
  8
AM_VIS
  6
Continuous
 62
     7
100
AcDbLine
 10
260.771519
 20
-86.04944804850084
 30
0.0
 11
270.6633
 21
-86.04944804850084
 31
0.0
  0
LINE
  5
51B
330
59
100
AcDbEntity
  8
AM_VIS
  6
Continuous
 62
     7
100
AcDbLine
 10
248.5836557578647
 20
-60.7127099131211
 30
0.0
 11
254.3752819857877
 21
-60.97604133334983
 31
0.0
  0
LINE
  5
51C
330
59
100
AcDbEntity
  8
AM_VIS
  6
Continuous
 62
     7
100
AcDbLine
 10
244.0099929490127
 20
-60.86758857560994
 30
0.0
 11
247.4163442421353
 21
-60.7127099131211
 31
0.0
  0
LINE
  5
51D
330
59
100
AcDbEntity
  8
1
  6
DOT_CENTER
 62
     2
100
AcDbLine
 10
256.425104
 20
-83.45955204850077
 30
0.0
 11
259.395104
 21
-83.45955204850077
 31
0.0
  0
LINE
  5
51E
330
59
100
AcDbEntity
  8
1
  6
DOT_CENTER
 62
     2
100
AcDbLine
 10
257.9101040000001
 20
-84.94455204850078
 30
0.0
 11
257.9101040000001
 21
-81.97455204850075
 31
0.0
  0
LINE
  5
51F
330
59
100
AcDbEntity
  8
1
  6
DOT_CENTER
 62
     2
100
AcDbLine
 10
256.425104
 20
-63.63934404850079
 30
0.0
 11
259.395104
 21
-63.63934404850079
 31
0.0
  0
LINE
  5
520
330
59
100
AcDbEntity
  8
1
  6
DOT_CENTER
 62
     2
100
AcDbLine
 10
257.9101040000001
 20
-65.1243440485008
 30
0.0
 11
257.9101040000001
 21
-62.15434404850078
 31
0.0
  0
LINE
  5
521
330
59
100
AcDbEntity
  8
1
  6
DOT_CENTER
 62
     2
100
AcDbLine
 10
238.089896
 20
-81.97455204850075
 30
0.0
 11
238.089896
 21
-84.9445520485009
 31
0.0
  0
LINE
  5
522
330
59
100
AcDbEntity
  8
1
  6
DOT_CENTER
 62
     2
100
AcDbLine
 10
236.604896
 20
-83.45955204850088
 30
0.0
 11
239.574896
 21
-83.45955204850088
 31
0.0
  0
LINE
  5
523
330
59
100
AcDbEntity
  8
1
  6
DOT_CENTER
 62
     2
100
AcDbLine
 10
238.089896
 20
-62.15434404850089
 30
0.0
 11
238.089896
 21
-65.1243440485008
 31
0.0
  0
LINE
  5
524
330
59
100
AcDbEntity
  8
1
  6
DOT_CENTER
 62
     2
100
AcDbLine
 10
236.604896
 20
-63.6393440485009
 30
0.0
 11
239.574896
 21
-63.6393440485009
 31
0.0
  0
LINE
  5
525
330
59
100
AcDbEntity
  8
1
  6
DOT_CENTER
 62
     2
100
AcDbLine
 10
288.092149312504
 20
-73.54944804850084
 30
0.0
 11
233.9146408228299
 21
-73.54944804850084
 31
0.0
  0
LINE
  5
526
330
59
100
AcDbEntity
  8
1
  6
Continuous
 62
     7
100
AcDbLine
 10
240.504554
 20
-62.77482809766855
 30
0.0
 11
240.504554
 21
-61.9825380225011
 31
0.0
  0
LINE
  5
527
330
59
100
AcDbEntity
  8
AM_VIS
  6
Continuous
 62
     2
100
AcDbLine
 10
240.504554
 20
-64.22905904850086
 30
0.0
 11
238.882636846725
 21
-64.22905904850086
 31
0.0
  0
LINE
  5
528
330
59
100
AcDbEntity
  8
AM_VIS
  6
Continuous
 62
     2
100
AcDbLine
 10
255.2513701143853
 20
-63.56169204850085
 30
0.0
 11
239.5654453877904
 21
-63.56169204850085
 31
0.0
  0
LINE
  5
529
330
59
100
AcDbEntity
  8
AM_VIS
  6
Continuous
 62
     7
100
AcDbLine
 10
237.9763442961353
 20
-61.14192417780441
 30
0.0
 11
240.504554
 21
-61.02697251729421
 31
0.0
  0
LINE
  5
52A
330
59
100
AcDbEntity
  8
1
  6
Continuous
 62
     7
100
AcDbLine
 10
240.504554
 20
-61.02697251729421
 30
0.0
 11
241.4591333118975
 21
-60.98357007452069
 31
0.0
  0
LINE
  5
52B
330
59
100
AcDbEntity
  8
AM_VIS
  6
Continuous
 62
     7
100
AcDbLine
 10
241.4591333118975
 20
-60.98357007452069
 30
0.0
 11
244.0099929490127
 21
-60.86758857560994
 31
0.0
  0
LINE
  5
52C
330
59
100
AcDbEntity
  8
1
  6
Continuous
 62
     7
100
AcDbLine
 10
264.971423
 20
-75.54944804850084
 30
0.0
 11
264.971423
 21
-71.54944804850084
 31
0.0
  0
ARC
  5
52D
330
59
100
AcDbEntity
  8
1
  6
Continuous
 62
     7
100
AcDbCircle
 10
248.6398676475718
 20
-45.55219123167456
 30
0.0
 40
13.50314349574199
100
AcDbArc
 50
110.0520611366418
 51
117.450303144635
  0
ARC
  5
52E
330
59
100
AcDbEntity
  8
1
  6
Continuous
 62
     7
100
AcDbCircle
 10
248.6398676475718
 20
-45.55219123167456
 30
0.0
 40
13.50314349574202
100
AcDbArc
 50
123.4625863459787
 51
127.0474015238571
  0
ARC
  5
52F
330
59
100
AcDbEntity
  8
1
  6
Continuous
 62
     7
100
AcDbCircle
 10
248.6398676475718
 20
-45.55219123167456
 30
0.0
 40
13.50314349574201
100
AcDbArc
 50
127.0474015238571
 51
-110.1294510278784
  0
ARC
  5
530
330
59
100
AcDbEntity
  8
1
  6
Continuous
 62
     7
100
AcDbCircle
 10
257.5697028956573
 20
-33.33493194939376
 30
0.0
 40
3.214518225752767
100
AcDbArc
 50
-60.12814939748521
 51
-31.01525511195853
  0
ARC
  5
531
330
59
100
AcDbEntity
  8
1
  6
Continuous
 62
     7
100
AcDbCircle
 10
257.5697028956573
 20
-33.33493194939376
 30
0.0
 40
3.214518225752755
100
AcDbArc
 50
-103.0662476850503
 51
-60.12814939748521
  0
ARC
  5
532
330
59
100
AcDbEntity
  8
1
  6
Continuous
 62
     7
100
AcDbCircle
 10
257.5697029061998
 20
-57.76396413797488
 30
0.0
 40
3.214518216107653
100
AcDbArc
 50
31.01525513646255
 51
-173.5897457680299
  0
ARC
  5
533
330
59
100
AcDbEntity
  8
AM_VIS
  6
Continuous
 62
     7
100
AcDbCircle
 10
286.6633
 20
-56.14944804850086
 30
0.0
 40
0.2000000000000455
100
AcDbArc
 50
-90.0
 51
0.0
  0
ARC
  5
534
330
59
100
AcDbEntity
  8
AM_VIS
  6
Continuous
 62
     7
100
AcDbCircle
 10
248.0
 20
-45.54944804850084
 30
0.0
 40
12.84999999999991
100
AcDbArc
 50
-92.60330899999998
 51
-87.39669100000003
  0
ARC
  5
535
330
59
100
AcDbEntity
  8
AM_VIS
  6
Continuous
 62
     7
100
AcDbCircle
 10
286.6633
 20
-34.94944804850081
 30
0.0
 40
0.1999999999999886
100
AcDbArc
 50
0.0
 51
90.0
  0
ARC
  5
536
330
59
100
AcDbEntity
  8
AM_VIS
  6
Continuous
 62
     7
100
AcDbCircle
 10
248.0
 20
-45.54944804850084
 30
0.0
 40
12.85000000000004
100
AcDbArc
 50
87.39669100000006
 51
92.60330899999995
  0
ARC
  5
537
330
59
100
AcDbEntity
  8
1
  6
Continuous
 62
     7
100
AcDbCircle
 10
257.5697029061998
 20
-57.76396413797488
 30
0.0
 40
3.214518216107567
100
AcDbArc
 50
-5.09519655802884
 51
31.01525513646255
  0
ARC
  5
538
330
59
100
AcDbEntity
  8
1
  6
Continuous
 62
     7
100
AcDbCircle
 10
257.5697028956573
 20
-33.33493194939376
 30
0.0
 40
3.214518225752903
100
AcDbArc
 50
-162.7672293561077
 51
-103.0662476850503
  0
ARC
  5
539
330
59
100
AcDbEntity
  8
AM_VIS
  6
Continuous
 62
     7
100
AcDbCircle
 10
238.089896
 20
-35.63934404850079
 30
0.0
 40
1.349999999999941
100
AcDbArc
 50
-1.40049034621908
 51
-84.67049171985715
  0
ARC
  5
53A
330
59
100
AcDbEntity
  8
AM_VIS
  6
Continuous
 62
     7
100
AcDbCircle
 10
238.089896
 20
-35.63934404850079
 30
0.0
 40
2.499999999999937
100
AcDbArc
 50
92.60330899999973
 51
177.3966910000038
  0
ARC
  5
53B
330
59
100
AcDbEntity
  8
AM_VIS
  6
Continuous
 62
     7
100
AcDbCircle
 10
238.089896
 20
-55.45955204850077
 30
0.0
 40
1.349999999999948
100
AcDbArc
 50
84.87860829878598
 51
1.40049034620974
  0
ARC
  5
53C
330
59
100
AcDbEntity
  8
AM_VIS
  6
Continuous
 62
     7
100
AcDbCircle
 10
238.089896
 20
-55.45955204850077
 30
0.0
 40
2.499999999999969
100
AcDbArc
 50
-177.3966909999984
 51
-92.6033089999996
  0
ARC
  5
53D
330
59
100
AcDbEntity
  8
AM_VIS
  6
Continuous
 62
     7
100
AcDbCircle
 10
257.9101040000001
 20
-35.63934404850079
 30
0.0
 40
1.349999999999895
100
AcDbArc
 50
-20.96515788105836
 51
-142.2292392014849
  0
ARC
  5
53E
330
59
100
AcDbEntity
  8
AM_VIS
  6
Continuous
 62
     7
100
AcDbCircle
 10
257.9101040000001
 20
-35.63934404850079
 30
0.0
 40
2.499999999999775
100
AcDbArc
 50
15.02447892484429
 51
87.39669100000354
  0
ARC
  5
53F
330
59
100
AcDbEntity
  8
1
  6
Continuous
 62
     7
100
AcDbCircle
 10
257.9101040000001
 20
-55.45955204850077
 30
0.0
 40
1.349999999999982
100
AcDbArc
 50
142.2292393792334
 51
-179.9999999999952
  0
ARC
  5
540
330
59
100
AcDbEntity
  8
1
  6
Continuous
 62
     7
100
AcDbCircle
 10
257.9101040000001
 20
-55.45955204850077
 30
0.0
 40
1.350000000000193
100
AcDbArc
 50
-179.9999999999952
 51
20.96515814710719
  0
ARC
  5
541
330
59
100
AcDbEntity
  8
AM_VIS
  6
Continuous
 62
     7
100
AcDbCircle
 10
257.9101040000001
 20
-55.45955204850077
 30
0.0
 40
2.500000000000044
100
AcDbArc
 50
-87.39669100000366
 51
-15.02447878623131
  0
ARC
  5
542
330
59
100
AcDbEntity
  8
1
  6
Continuous
 62
     7
100
AcDbCircle
 10
257.5697028956573
 20
-33.33493194939376
 30
0.0
 40
3.21451822575273
100
AcDbArc
 50
-31.01525511195853
 51
5.09519637031898
  0
ARC
  5
543
330
59
100
AcDbEntity
  8
1
  6
Continuous
 62
     7
100
AcDbCircle
 10
248.6398676475718
 20
-45.55219123167456
 30
0.0
 40
13.50314349574199
100
AcDbArc
 50
117.450303144635
 51
123.4625863459787
  0
ARC
  5
544
330
59
100
AcDbEntity
  8
1
  6
Continuous
 62
     7
100
AcDbCircle
 10
257.5697028956573
 20
-33.33493194939376
 30
0.0
 40
3.214518225752756
100
AcDbArc
 50
173.5897459428186
 51
-162.7672293561077
  0
ARC
  5
545
330
59
100
AcDbEntity
  8
1
  6
Continuous
 62
     7
100
AcDbCircle
 10
257.5697028956573
 20
-61.33493194939365
 30
0.0
 40
3.214518225752743
100
AcDbArc
 50
173.5897459428205
 51
-162.7672293561057
  0
ARC
  5
546
330
59
100
AcDbEntity
  8
1
  6
Continuous
 62
     7
100
AcDbCircle
 10
248.6398676475718
 20
-73.55219123167456
 30
0.0
 40
13.50314349574199
100
AcDbArc
 50
117.450303144635
 51
123.4625863459787
  0
ARC
  5
547
330
59
100
AcDbEntity
  8
1
  6
Continuous
 62
     7
100
AcDbCircle
 10
257.5697028956573
 20
-61.33493194939365
 30
0.0
 40
3.214518225752789
100
AcDbArc
 50
-31.01525511196026
 51
5.09519637031696
  0
ARC
  5
548
330
59
100
AcDbEntity
  8
AM_VIS
  6
Continuous
 62
     7
100
AcDbCircle
 10
257.9101040000001
 20
-83.45955204850077
 30
0.0
 40
2.500000000000044
100
AcDbArc
 50
-87.39669100000366
 51
-15.02447878623147
  0
ARC
  5
549
330
59
100
AcDbEntity
  8
1
  6
Continuous
 62
     7
100
AcDbCircle
 10
257.9101040000001
 20
-83.45955204850077
 30
0.0
 40
1.350000000000193
100
AcDbArc
 50
-179.9999999999952
 51
20.9651581471069
  0
ARC
  5
54A
330
59
100
AcDbEntity
  8
1
  6
Continuous
 62
     7
100
AcDbCircle
 10
257.9101040000001
 20
-83.45955204850077
 30
0.0
 40
1.349999999999987
100
AcDbArc
 50
142.2292393792332
 51
-179.9999999999952
  0
ARC
  5
54B
330
59
100
AcDbEntity
  8
AM_VIS
  6
Continuous
 62
     7
100
AcDbCircle
 10
257.9101040000001
 20
-63.63934404850079
 30
0.0
 40
2.499999999999775
100
AcDbArc
 50
15.02447892484429
 51
87.39669100000354
  0
ARC
  5
54C
330
59
100
AcDbEntity
  8
AM_VIS
  6
Continuous
 62
     7
100
AcDbCircle
 10
257.9101040000001
 20
-63.63934404850079
 30
0.0
 40
1.349999999999895
100
AcDbArc
 50
-20.96515788105836
 51
-142.2292392014852
  0
ARC
  5
54D
330
59
100
AcDbEntity
  8
AM_VIS
  6
Continuous
 62
     7
100
AcDbCircle
 10
238.089896
 20
-83.45955204850077
 30
0.0
 40
2.499999999999969
100
AcDbArc
 50
-177.3966909999984
 51
-92.6033089999996
  0
ARC
  5
54E
330
59
100
AcDbEntity
  8
AM_VIS
  6
Continuous
 62
     7
100
AcDbCircle
 10
238.089896
 20
-83.45955204850077
 30
0.0
 40
1.349999999999948
100
AcDbArc
 50
84.87860829878598
 51
1.40049034620974
  0
ARC
  5
54F
330
59
100
AcDbEntity
  8
AM_VIS
  6
Continuous
 62
     7
100
AcDbCircle
 10
238.089896
 20
-63.63934404850079
 30
0.0
 40
2.499999999999937
100
AcDbArc
 50
92.60330899999973
 51
177.3966910000038
  0
ARC
  5
550
330
59
100
AcDbEntity
  8
AM_VIS
  6
Continuous
 62
     7
100
AcDbCircle
 10
238.089896
 20
-63.63934404850079
 30
0.0
 40
1.349999999999941
100
AcDbArc
 50
-1.40049034621908
 51
-84.67049171985715
  0
ARC
  5
551
330
59
100
AcDbEntity
  8
1
  6
Continuous
 62
     7
100
AcDbCircle
 10
257.5697028956573
 20
-61.33493194939365
 30
0.0
 40
3.214518225752937
100
AcDbArc
 50
-162.7672293561057
 51
-103.0662476850499
  0
ARC
  5
552
330
59
100
AcDbEntity
  8
1
  6
Continuous
 62
     7
100
AcDbCircle
 10
257.5697029061998
 20
-85.76396413797488
 30
0.0
 40
3.214518216107566
100
AcDbArc
 50
-5.09519655802872
 51
31.01525513646244
  0
ARC
  5
553
330
59
100
AcDbEntity
  8
AM_VIS
  6
Continuous
 62
     7
100
AcDbCircle
 10
248.0
 20
-73.54944804850084
 30
0.0
 40
12.85000000000004
100
AcDbArc
 50
87.39669100000006
 51
92.60330899999995
  0
ARC
  5
554
330
59
100
AcDbEntity
  8
AM_VIS
  6
Continuous
 62
     7
100
AcDbCircle
 10
286.6633
 20
-62.94944804850081
 30
0.0
 40
0.1999999999999886
100
AcDbArc
 50
0.0
 51
90.0
  0
ARC
  5
555
330
59
100
AcDbEntity
  8
AM_VIS
  6
Continuous
 62
     7
100
AcDbCircle
 10
248.0
 20
-73.54944804850084
 30
0.0
 40
12.84999999999992
100
AcDbArc
 50
-92.60330899999998
 51
-87.39669100000003
  0
ARC
  5
556
330
59
100
AcDbEntity
  8
AM_VIS
  6
Continuous
 62
     7
100
AcDbCircle
 10
286.6633
 20
-84.14944804850086
 30
0.0
 40
0.2000000000000455
100
AcDbArc
 50
-90.0
 51
0.0
  0
ARC
  5
557
330
59
100
AcDbEntity
  8
1
  6
Continuous
 62
     7
100
AcDbCircle
 10
257.5697029061998
 20
-85.76396413797488
 30
0.0
 40
3.214518216107649
100
AcDbArc
 50
31.01525513646244
 51
-173.5897457680297
  0
ARC
  5
558
330
59
100
AcDbEntity
  8
1
  6
Continuous
 62
     7
100
AcDbCircle
 10
257.5697028956573
 20
-61.33493194939365
 30
0.0
 40
3.214518225752859
100
AcDbArc
 50
-103.0662476850499
 51
-60.12814939748622
  0
ARC
  5
559
330
59
100
AcDbEntity
  8
1
  6
Continuous
 62
     7
100
AcDbCircle
 10
257.5697028956573
 20
-61.33493194939365
 30
0.0
 40
3.214518225752866
100
AcDbArc
 50
-60.12814939748622
 51
-31.01525511196026
  0
ARC
  5
55A
330
59
100
AcDbEntity
  8
1
  6
Continuous
 62
     7
100
AcDbCircle
 10
248.6398676475718
 20
-73.55219123167456
 30
0.0
 40
13.503143495742
100
AcDbArc
 50
127.0474015238571
 51
-110.1294510278784
  0
ARC
  5
55B
330
59
100
AcDbEntity
  8
1
  6
Continuous
 62
     7
100
AcDbCircle
 10
248.6398676475718
 20
-73.55219123167456
 30
0.0
 40
13.50314349574201
100
AcDbArc
 50
123.4625863459787
 51
127.0474015238571
  0
ARC
  5
55C
330
59
100
AcDbEntity
  8
1
  6
Continuous
 62
     7
100
AcDbCircle
 10
248.6398676475718
 20
-73.55219123167456
 30
0.0
 40
13.50314349574199
100
AcDbArc
 50
110.0520611366418
 51
117.450303144635
  0
ARC
  5
55D
330
59
100
AcDbEntity
  8
1
  6
Continuous
 62
     7
100
AcDbCircle
 10
241.504554
 20
-33.9825380225011
 30
0.0
 40
0.9999999999999059
100
AcDbArc
 50
24.40506747161349
 51
92.6033093760556
  0
ARC
  5
55E
330
59
100
AcDbEntity
  8
1
  6
Continuous
 62
     7
100
AcDbCircle
 10
241.504554
 20
-33.9825380225011
 30
0.0
 40
0.9999999999999499
100
AcDbArc
 50
92.6033093760556
 51
180.0
  0
ARC
  5
55F
330
59
100
AcDbEntity
  8
1
  6
Continuous
 62
     7
100
AcDbCircle
 10
241.504554
 20
-61.9825380225011
 30
0.0
 40
0.9999999999999499
100
AcDbArc
 50
92.6033093760556
 51
180.0
  0
ARC
  5
560
330
59
100
AcDbEntity
  8
1
  6
Continuous
 62
     7
100
AcDbCircle
 10
241.504554
 20
-61.9825380225011
 30
0.0
 40
0.9999999999999059
100
AcDbArc
 50
24.40506747161349
 51
92.6033093760556
  0
ENDBLK
  5
5B
330
59
100
AcDbEntity
  8
0
100
AcDbBlockEnd
  0
BLOCK
  5
5E
330
5C
100
AcDbEntity
  8
0
100
AcDbBlockBegin
  2
Ma_blatt__8
 70
     0
 71
     0
 10
136.831969281518
 20
621.002555579474
 30
0.0
  3
Ma_blatt__8
  1

  0
INSERT
  5
5D
330
5C
100
AcDbEntity
  8
0
100
AcDbBlockReference
  2
Winkelflanschdose_8-polig_drehbar__7
 10
-43.01034272730198
 20
591.4360167952134
 30
0.0
  0
POINT
  5
561
330
5C
100
AcDbEntity
  8
1
 62
     3
 60
     1
100
AcDbPoint
 10
233.0
 20
-87.84944804850079
 30
0.0
  0
POINT
  5
562
330
5C
100
AcDbEntity
  8
1
 62
     3
 60
     1
100
AcDbPoint
 10
233.0
 20
-26.54944804850084
 30
0.0
  0
LINE
  5
563
330
5C
100
AcDbEntity
  8
1
  6
Continuous
 62
     7
100
AcDbLine
 10
263.0
 20
-89.54944804850084
 30
0.0
 11
263.0
 21
-86.04944804850084
 31
0.0
  0
LINE
  5
564
330
5C
100
AcDbEntity
  8
1
  6
Continuous
 62
     7
100
AcDbLine
 10
236.0
 20
-92.54944804850078
 30
0.0
 11
260.0
 21
-92.54944804850078
 31
0.0
  0
LINE
  5
565
330
5C
100
AcDbEntity
  8
1
  6
Continuous
 62
     7
100
AcDbLine
 10
233.0
 20
-87.84944804850079
 30
0.0
 11
233.0
 21
-89.54944804850084
 31
0.0
  0
LINE
  5
566
330
5C
100
AcDbEntity
  8
1
  6
Continuous
 62
     7
100
AcDbLine
 10
233.0
 20
-29.54944804850084
 30
0.0
 11
233.0
 21
-87.84944804850079
 31
0.0
  0
LINE
  5
567
330
5C
100
AcDbEntity
  8
1
  6
Continuous
 62
     7
100
AcDbLine
 10
260.0
 20
-26.54944804850084
 30
0.0
 11
236.0
 21
-26.54944804850084
 31
0.0
  0
LINE
  5
568
330
5C
100
AcDbEntity
  8
1
  6
Continuous
 62
     7
100
AcDbLine
 10
263.0
 20
-33.04944804850084
 30
0.0
 11
263.0
 21
-29.54944804850084
 31
0.0
  0
ARC
  5
569
330
5C
100
AcDbEntity
  8
1
  6
Continuous
 62
     7
100
AcDbCircle
 10
260.0
 20
-89.54944804850084
 30
0.0
 40
2.999999999999943
100
AcDbArc
 50
-90.0
 51
0.0
  0
ARC
  5
56A
330
5C
100
AcDbEntity
  8
1
  6
Continuous
 62
     7
100
AcDbCircle
 10
236.0
 20
-89.54944804850084
 30
0.0
 40
3.0
100
AcDbArc
 50
180.0
 51
-90.0
  0
ARC
  5
56B
330
5C
100
AcDbEntity
  8
1
  6
Continuous
 62
     7
100
AcDbCircle
 10
260.0
 20
-29.54944804850084
 30
0.0
 40
3.0
100
AcDbArc
 50
0.0
 51
90.0
  0
ARC
  5
56C
330
5C
100
AcDbEntity
  8
1
  6
Continuous
 62
     7
100
AcDbCircle
 10
236.0
 20
-29.54944804850084
 30
0.0
 40
3.0
100
AcDbArc
 50
90.0
 51
180.0
  0
ENDBLK
  5
5F
330
5C
100
AcDbEntity
  8
0
100
AcDbBlockEnd
  0
BLOCK
  5
42C
330
425
100
AcDbEntity
  8
0
100
AcDbBlockBegin
  2
*D15
 70
     1
 71
     0
 10
0.0
 20
0.0
 30
0.0
  3
*D15
  1

  0
LINE
  5
426
330
425
100
AcDbEntity
  8
1
  6
Continuous
 62
     2
100
AcDbLine
 10
83.27978225957007
 20
-157.5494480485008
 30
0.0
 11
83.27978225957007
 21
-121.5494480485008
 31
0.0
  0
LINE
  5
427
330
425
100
AcDbEntity
  8
1
  6
Continuous
 62
     2
100
AcDbLine
 10
30.5
 20
-121.5494480485008
 30
0.0
 11
85.27978225957007
 21
-121.5494480485008
 31
0.0
  0
LINE
  5
428
330
425
100
AcDbEntity
  8
1
  6
Continuous
 62
     2
100
AcDbLine
 10
30.5
 20
-157.5494480485008
 30
0.0
 11
85.27978225957007
 21
-157.5494480485008
 31
0.0
  0
SOLID
  5
429
330
425
100
AcDbEntity
  8
1
 62
     2
100
AcDbTrace
 10
82.3582147764583
 20
-150.5494480485008
 30
0.0
 11
84.20134974268184
 21
-150.5494480485008
 31
0.0
 12
83.27978225957007
 22
-157.5494480485008
 32
0.0
 13
83.27978225957007
 23
-157.5494480485008
 33
0.0
  0
SOLID
  5
42A
330
425
100
AcDbEntity
  8
1
 62
     2
100
AcDbTrace
 10
84.20134974268184
 20
-128.5494480485008
 30
0.0
 11
82.3582147764583
 21
-128.5494480485008
 31
0.0
 12
83.27978225957007
 22
-121.5494480485008
 32
0.0
 13
83.27978225957007
 23
-121.5494480485008
 33
0.0
  0
MTEXT
  5
42B
330
425
100
AcDbEntity
  8
1
 62
     3
100
AcDbMText
 10
79.27978225957007
 20
-145.8426645577126
 30
0.0
 40
7.0
 41
0.0
 71
     7
 72
     1
  1
36
  7
CONVERTER_15
 11
0.0
 21
1.0
 31
0.0
 73
     1
 44
0.60024009603842
  0
ENDBLK
  5
42D
330
425
100
AcDbEntity
  8
0
100
AcDbBlockEnd
  0
BLOCK
  5
439
330
430
100
AcDbEntity
  8
0
100
AcDbBlockBegin
  2
*D16
 70
     1
 71
     0
 10
0.0
 20
0.0
 30
0.0
  3
*D16
  1

  0
LINE
  5
431
330
430
100
AcDbEntity
  8
1
  6
Continuous
 62
     2
100
AcDbLine
 10
83.48764696740047
 20
-175.3871646821744
 30
0.0
 11
83.48764696740047
 21
-159.5494480485009
 31
0.0
  0
LINE
  5
432
330
430
100
AcDbEntity
  8
1
  6
Continuous
 62
     2
100
AcDbLine
 10
83.48764696740047
 20
-159.5494480485009
 30
0.0
 11
83.48764696740047
 21
-157.5494480485009
 31
0.0
  0
LINE
  5
433
330
430
100
AcDbEntity
  8
1
  6
Continuous
 62
     2
100
AcDbLine
 10
83.48764696740047
 20
-157.5494480485009
 30
0.0
 11
83.48764696740047
 21
-143.5494480485009
 31
0.0
  0
LINE
  5
434
330
430
100
AcDbEntity
  8
1
  6
Continuous
 62
     2
100
AcDbLine
 10
30.49999999999999
 20
-157.5494480485009
 30
0.0
 11
85.48764696740047
 21
-157.5494480485009
 31
0.0
  0
LINE
  5
435
330
430
100
AcDbEntity
  8
1
  6
Continuous
 62
     2
100
AcDbLine
 10
42.49999999999999
 20
-159.5494480485009
 30
0.0
 11
85.48764696740047
 21
-159.5494480485009
 31
0.0
  0
SOLID
  5
436
330
430
100
AcDbEntity
  8
1
 62
     2
100
AcDbTrace
 10
84.40921445051224
 20
-166.5494480485009
 30
0.0
 11
82.5660794842887
 21
-166.5494480485009
 31
0.0
 12
83.48764696740047
 22
-159.5494480485009
 32
0.0
 13
83.48764696740047
 23
-159.5494480485009
 33
0.0
  0
SOLID
  5
437
330
430
100
AcDbEntity
  8
1
 62
     2
100
AcDbTrace
 10
82.5660794842887
 20
-150.5494480485009
 30
0.0
 11
84.40921445051224
 21
-150.5494480485009
 31
0.0
 12
83.48764696740047
 22
-157.5494480485009
 32
0.0
 13
83.48764696740047
 23
-157.5494480485009
 33
0.0
  0
MTEXT
  5
438
330
430
100
AcDbEntity
  8
1
 62
     3
100
AcDbMText
 10
79.48764696740047
 20
-175.3871646821744
 30
0.0
 40
7.0
 41
0.0
 71
     7
 72
     1
  1
2
  7
CONVERTER_15
 11
0.0
 21
1.0
 31
0.0
 73
     1
 44
0.60024009603842
  0
ENDBLK
  5
43A
330
430
100
AcDbEntity
  8
0
100
AcDbBlockEnd
  0
BLOCK
  5
446
330
43D
100
AcDbEntity
  8
0
100
AcDbBlockBegin
  2
*D17
 70
     1
 71
     0
 10
0.0
 20
0.0
 30
0.0
  3
*D17
  1

  0
LINE
  5
43E
330
43D
100
AcDbEntity
  8
1
  6
Continuous
 62
     2
100
AcDbLine
 10
101.1033664928781
 20
-133.5494480485008
 30
0.0
 11
101.1033664928781
 21
-119.5494480485008
 31
0.0
  0
LINE
  5
43F
330
43D
100
AcDbEntity
  8
1
  6
Continuous
 62
     2
100
AcDbLine
 10
101.1033664928781
 20
-119.5494480485008
 30
0.0
 11
101.1033664928781
 21
-117.5494480485008
 31
0.0
  0
LINE
  5
440
330
43D
100
AcDbEntity
  8
1
  6
Continuous
 62
     2
100
AcDbLine
 10
101.1033664928781
 20
-117.5494480485008
 30
0.0
 11
101.1033664928781
 21
-103.5494480485008
 31
0.0
  0
LINE
  5
441
330
43D
100
AcDbEntity
  8
1
  6
Continuous
 62
     2
100
AcDbLine
 10
47.5
 20
-117.5494480485008
 30
0.0
 11
103.1033664928781
 21
-117.5494480485008
 31
0.0
  0
LINE
  5
442
330
43D
100
AcDbEntity
  8
1
  6
Continuous
 62
     2
100
AcDbLine
 10
42.5
 20
-119.5494480485008
 30
0.0
 11
103.1033664928781
 21
-119.5494480485008
 31
0.0
  0
SOLID
  5
443
330
43D
100
AcDbEntity
  8
1
 62
     2
100
AcDbTrace
 10
102.0249339759898
 20
-126.5494480485008
 30
0.0
 11
100.1817990097663
 21
-126.5494480485008
 31
0.0
 12
101.1033664928781
 22
-119.5494480485008
 32
0.0
 13
101.1033664928781
 23
-119.5494480485008
 33
0.0
  0
SOLID
  5
444
330
43D
100
AcDbEntity
  8
1
 62
     2
100
AcDbTrace
 10
100.1817990097663
 20
-110.5494480485008
 30
0.0
 11
102.0249339759898
 21
-110.5494480485008
 31
0.0
 12
101.1033664928781
 22
-117.5494480485008
 32
0.0
 13
101.1033664928781
 23
-117.5494480485008
 33
0.0
  0
MTEXT
  5
445
330
43D
100
AcDbEntity
  8
1
 62
     3
100
AcDbMText
 10
97.10336649287807
 20
-112.4296295912073
 30
0.0
 40
7.0
 41
0.0
 71
     7
 72
     1
  1
2
  7
CONVERTER_15
 11
0.0
 21
1.0
 31
0.0
 73
     1
 44
0.60024009603842
  0
ENDBLK
  5
447
330
43D
100
AcDbEntity
  8
0
100
AcDbBlockEnd
  0
BLOCK
  5
451
330
44A
100
AcDbEntity
  8
0
100
AcDbBlockBegin
  2
*D18
 70
     1
 71
     0
 10
0.0
 20
0.0
 30
0.0
  3
*D18
  1

  0
LINE
  5
44B
330
44A
100
AcDbEntity
  8
1
  6
Continuous
 62
     2
100
AcDbLine
 10
132.7040012084125
 20
-159.5494480485008
 30
0.0
 11
132.7040012084125
 21
-119.5494480485008
 31
0.0
  0
LINE
  5
44C
330
44A
100
AcDbEntity
  8
1
  6
Continuous
 62
     2
100
AcDbLine
 10
42.50000000000004
 20
-119.5494480485008
 30
0.0
 11
134.7040012084125
 21
-119.5494480485008
 31
0.0
  0
LINE
  5
44D
330
44A
100
AcDbEntity
  8
1
  6
Continuous
 62
     2
100
AcDbLine
 10
42.50000000000004
 20
-159.5494480485008
 30
0.0
 11
134.7040012084125
 21
-159.5494480485008
 31
0.0
  0
SOLID
  5
44E
330
44A
100
AcDbEntity
  8
1
 62
     2
100
AcDbTrace
 10
131.7824337253007
 20
-152.5494480485008
 30
0.0
 11
133.6255686915243
 21
-152.5494480485008
 31
0.0
 12
132.7040012084125
 22
-159.5494480485008
 32
0.0
 13
132.7040012084125
 23
-159.5494480485008
 33
0.0
  0
SOLID
  5
44F
330
44A
100
AcDbEntity
  8
1
 62
     2
100
AcDbTrace
 10
133.6255686915243
 20
-126.5494480485008
 30
0.0
 11
131.7824337253007
 21
-126.5494480485008
 31
0.0
 12
132.7040012084125
 22
-119.5494480485008
 32
0.0
 13
132.7040012084125
 23
-119.5494480485008
 33
0.0
  0
MTEXT
  5
450
330
44A
100
AcDbEntity
  8
1
 62
     3
100
AcDbMText
 10
128.7040012084125
 20
-143.5716701157448
 30
0.0
 40
7.0
 41
0.0
 71
     7
 72
     1
  1
40
  7
CONVERTER_15
 11
0.0
 21
1.0
 31
0.0
 73
     1
 44
0.60024009603842
  0
ENDBLK
  5
452
330
44A
100
AcDbEntity
  8
0
100
AcDbBlockEnd
  0
BLOCK
  5
45C
330
455
100
AcDbEntity
  8
0
100
AcDbBlockBegin
  2
*D19
 70
     1
 71
     0
 10
0.0
 20
0.0
 30
0.0
  3
*D19
  1

  0
LINE
  5
456
330
455
100
AcDbEntity
  8
1
  6
Continuous
 62
     2
100
AcDbLine
 10
-68.1377053184315
 20
-104.5494480485008
 30
0.0
 11
-68.1377053184315
 21
-17.54944804850079
 31
0.0
  0
LINE
  5
457
330
455
100
AcDbEntity
  8
1
  6
Continuous
 62
     2
100
AcDbLine
 10
-2.0
 20
-17.54944804850079
 30
0.0
 11
-70.1377053184315
 21
-17.54944804850079
 31
0.0
  0
LINE
  5
458
330
455
100
AcDbEntity
  8
1
  6
Continuous
 62
     2
100
AcDbLine
 10
-27.0
 20
-104.5494480485008
 30
0.0
 11
-70.1377053184315
 21
-104.5494480485008
 31
0.0
  0
SOLID
  5
459
330
455
100
AcDbEntity
  8
1
 62
     2
100
AcDbTrace
 10
-69.05927280154327
 20
-97.54944804850078
 30
0.0
 11
-67.21613783531973
 21
-97.54944804850078
 31
0.0
 12
-68.1377053184315
 22
-104.5494480485008
 32
0.0
 13
-68.1377053184315
 23
-104.5494480485008
 33
0.0
  0
SOLID
  5
45A
330
455
100
AcDbEntity
  8
1
 62
     2
100
AcDbTrace
 10
-67.21613783531973
 20
-24.54944804850079
 30
0.0
 11
-69.05927280154327
 21
-24.54944804850079
 31
0.0
 12
-68.1377053184315
 22
-17.54944804850079
 32
0.0
 13
-68.1377053184315
 23
-17.54944804850079
 33
0.0
  0
MTEXT
  5
45B
330
455
100
AcDbEntity
  8
1
 62
     3
100
AcDbMText
 10
-72.1377053184315
 20
-61.08311207793403
 30
0.0
 40
7.0
 41
0.0
 71
     7
 72
     1
  1
87
  7
CONVERTER_15
 11
0.0
 21
1.0
 31
0.0
 73
     1
 44
0.60024009603842
  0
ENDBLK
  5
45D
330
455
100
AcDbEntity
  8
0
100
AcDbBlockEnd
  0
BLOCK
  5
469
330
460
100
AcDbEntity
  8
0
100
AcDbBlockBegin
  2
*D20
 70
     1
 71
     0
 10
0.0
 20
0.0
 30
0.0
  3
*D20
  1

  0
LINE
  5
461
330
460
100
AcDbEntity
  8
1
  6
Continuous
 62
     2
100
AcDbLine
 10
-41.23926248001564
 20
-118.5494480485008
 30
0.0
 11
-41.23926248001564
 21
-104.5494480485008
 31
0.0
  0
LINE
  5
462
330
460
100
AcDbEntity
  8
1
  6
Continuous
 62
     2
100
AcDbLine
 10
-41.23926248001564
 20
-104.5494480485008
 30
0.0
 11
-41.23926248001564
 21
-93.54944804850078
 31
0.0
  0
LINE
  5
463
330
460
100
AcDbEntity
  8
1
  6
Continuous
 62
     2
100
AcDbLine
 10
-41.23926248001564
 20
-93.54944804850078
 30
0.0
 11
-41.23926248001564
 21
-76.47960952285433
 31
0.0
  0
LINE
  5
464
330
460
100
AcDbEntity
  8
1
  6
Continuous
 62
     2
100
AcDbLine
 10
-22.0
 20
-93.54944804850078
 30
0.0
 11
-43.23926248001564
 21
-93.54944804850078
 31
0.0
  0
LINE
  5
465
330
460
100
AcDbEntity
  8
1
  6
Continuous
 62
     2
100
AcDbLine
 10
-27.0
 20
-104.5494480485008
 30
0.0
 11
-43.23926248001564
 21
-104.5494480485008
 31
0.0
  0
SOLID
  5
466
330
460
100
AcDbEntity
  8
1
 62
     2
100
AcDbTrace
 10
-40.31769499690387
 20
-111.5494480485008
 30
0.0
 11
-42.16082996312741
 21
-111.5494480485008
 31
0.0
 12
-41.23926248001564
 22
-104.5494480485008
 32
0.0
 13
-41.23926248001564
 23
-104.5494480485008
 33
0.0
  0
SOLID
  5
467
330
460
100
AcDbEntity
  8
1
 62
     2
100
AcDbTrace
 10
-42.16082996312741
 20
-86.54944804850078
 30
0.0
 11
-40.31769499690387
 21
-86.54944804850078
 31
0.0
 12
-41.23926248001564
 22
-93.54944804850078
 32
0.0
 13
-41.23926248001564
 23
-93.54944804850078
 33
0.0
  0
MTEXT
  5
468
330
460
100
AcDbEntity
  8
1
 62
     3
100
AcDbMText
 10
-45.23926248001564
 20
-81.51960952285431
 30
0.0
 40
7.0
 41
0.0
 71
     7
 72
     1
  1
11
  7
CONVERTER_15
 11
0.0
 21
1.0
 31
0.0
 73
     1
 44
0.60024009603842
  0
ENDBLK
  5
46A
330
460
100
AcDbEntity
  8
0
100
AcDbBlockEnd
  0
BLOCK
  5
476
330
46D
100
AcDbEntity
  8
0
100
AcDbBlockBegin
  2
*D21
 70
     1
 71
     0
 10
0.0
 20
0.0
 30
0.0
  3
*D21
  1

  0
LINE
  5
46E
330
46D
100
AcDbEntity
  8
1
  6
Continuous
 62
     2
100
AcDbLine
 10
-68.1377053184315
 20
-131.5494480485007
 30
0.0
 11
-68.1377053184315
 21
-117.5494480485007
 31
0.0
  0
LINE
  5
46F
330
46D
100
AcDbEntity
  8
1
  6
Continuous
 62
     2
100
AcDbLine
 10
-68.1377053184315
 20
-117.5494480485007
 30
0.0
 11
-68.1377053184315
 21
-104.5494480485007
 31
0.0
  0
LINE
  5
470
330
46D
100
AcDbEntity
  8
1
  6
Continuous
 62
     2
100
AcDbLine
 10
-68.1377053184315
 20
-104.5494480485007
 30
0.0
 11
-68.1377053184315
 21
-90.54944804850074
 31
0.0
  0
LINE
  5
471
330
46D
100
AcDbEntity
  8
1
  6
Continuous
 62
     2
100
AcDbLine
 10
-27.0
 20
-104.5494480485007
 30
0.0
 11
-70.1377053184315
 21
-104.5494480485007
 31
0.0
  0
LINE
  5
472
330
46D
100
AcDbEntity
  8
1
  6
Continuous
 62
     2
100
AcDbLine
 10
-22.0
 20
-117.5494480485007
 30
0.0
 11
-70.1377053184315
 21
-117.5494480485007
 31
0.0
  0
SOLID
  5
473
330
46D
100
AcDbEntity
  8
1
 62
     2
100
AcDbTrace
 10
-67.21613783531973
 20
-124.5494480485007
 30
0.0
 11
-69.05927280154327
 21
-124.5494480485007
 31
0.0
 12
-68.1377053184315
 22
-117.5494480485007
 32
0.0
 13
-68.1377053184315
 23
-117.5494480485007
 33
0.0
  0
SOLID
  5
474
330
46D
100
AcDbEntity
  8
1
 62
     2
100
AcDbTrace
 10
-69.05927280154327
 20
-97.54944804850074
 30
0.0
 11
-67.21613783531973
 21
-97.54944804850074
 31
0.0
 12
-68.1377053184315
 22
-104.5494480485007
 32
0.0
 13
-68.1377053184315
 23
-104.5494480485007
 33
0.0
  0
MTEXT
  5
475
330
46D
100
AcDbEntity
  8
1
 62
     3
100
AcDbMText
 10
-72.1377053184315
 20
-116.4309704515153
 30
0.0
 40
7.0
 41
0.0
 71
     7
 72
     1
  1
13
  7
CONVERTER_15
 11
0.0
 21
1.0
 31
0.0
 73
     1
 44
0.60024009603842
  0
ENDBLK
  5
477
330
46D
100
AcDbEntity
  8
0
100
AcDbBlockEnd
  0
BLOCK
  5
483
330
47A
100
AcDbEntity
  8
0
100
AcDbBlockBegin
  2
*D22
 70
     1
 71
     0
 10
0.0
 20
0.0
 30
0.0
  3
*D22
  1

  0
LINE
  5
47B
330
47A
100
AcDbEntity
  8
1
  6
Continuous
 62
     2
100
AcDbLine
 10
8.24101814516109
 20
-142.134412726221
 30
0.0
 11
26.5
 21
-142.134412726221
 31
0.0
  0
LINE
  5
47C
330
47A
100
AcDbEntity
  8
1
  6
Continuous
 62
     2
100
AcDbLine
 10
26.5
 20
-142.134412726221
 30
0.0
 11
34.5
 21
-142.134412726221
 31
0.0
  0
LINE
  5
47D
330
47A
100
AcDbEntity
  8
1
  6
Continuous
 62
     2
100
AcDbLine
 10
34.5
 20
-142.134412726221
 30
0.0
 11
48.5
 21
-142.134412726221
 31
0.0
  0
LINE
  5
47E
330
47A
100
AcDbEntity
  8
1
  6
Continuous
 62
     2
100
AcDbLine
 10
34.5
 20
-153.5494480485008
 30
0.0
 11
34.5
 21
-140.134412726221
 31
0.0
  0
LINE
  5
47F
330
47A
100
AcDbEntity
  8
1
  6
Continuous
 62
     2
100
AcDbLine
 10
26.5
 20
-153.5494480485008
 30
0.0
 11
26.5
 21
-140.134412726221
 31
0.0
  0
SOLID
  5
480
330
47A
100
AcDbEntity
  8
1
 62
     2
100
AcDbTrace
 10
19.5
 20
-143.0559802093328
 30
0.0
 11
19.5
 21
-141.2128452431092
 31
0.0
 12
26.5
 22
-142.134412726221
 32
0.0
 13
26.5
 23
-142.134412726221
 33
0.0
  0
SOLID
  5
481
330
47A
100
AcDbEntity
  8
1
 62
     2
100
AcDbTrace
 10
41.50000000000001
 20
-141.2128452431092
 30
0.0
 11
41.50000000000001
 21
-143.0559802093328
 31
0.0
 12
34.5
 22
-142.134412726221
 32
0.0
 13
34.5
 23
-142.134412726221
 33
0.0
  0
MTEXT
  5
482
330
47A
100
AcDbEntity
  8
1
 62
     3
100
AcDbMText
 10
8.2410181451611
 20
-138.134412726221
 30
0.0
 40
7.0
 41
0.0
 71
     7
 72
     1
  1
8
  7
CONVERTER_15
 11
0.9999999999970621
 21
2.424068405545307E-6
 31
0.0
 73
     1
 44
0.60024009603842
  0
ENDBLK
  5
484
330
47A
100
AcDbEntity
  8
0
100
AcDbBlockEnd
  0
BLOCK
  5
48F
330
487
100
AcDbEntity
  8
0
100
AcDbBlockBegin
  2
*D23
 70
     1
 71
     0
 10
0.0
 20
0.0
 30
0.0
  3
*D23
  1

  0
LINE
  5
488
330
487
100
AcDbEntity
  8
1
  6
Continuous
 62
     2
100
AcDbLine
 10
-12.57201164583592
 20
-175.5635927119224
 30
0.0
 11
18.49999999999997
 21
-175.5635927119224
 31
0.0
  0
LINE
  5
489
330
487
100
AcDbEntity
  8
1
  6
Continuous
 62
     2
100
AcDbLine
 10
18.49999999999997
 20
-175.5635927119224
 30
0.0
 11
42.5
 21
-175.5635927119224
 31
0.0
  0
LINE
  5
48A
330
487
100
AcDbEntity
  8
1
  6
Continuous
 62
     2
100
AcDbLine
 10
42.5
 20
-159.5494480485008
 30
0.0
 11
42.5
 21
-177.5635927119224
 31
0.0
  0
LINE
  5
48B
330
487
100
AcDbEntity
  8
1
  6
Continuous
 62
     2
100
AcDbLine
 10
18.5
 20
-159.5494480485008
 30
0.0
 11
18.5
 21
-177.5635927119224
 31
0.0
  0
SOLID
  5
48C
330
487
100
AcDbEntity
  8
1
 62
     2
100
AcDbTrace
 10
25.49999999999998
 20
-174.6420252288106
 30
0.0
 11
25.49999999999998
 21
-176.4851601950342
 31
0.0
 12
18.49999999999997
 22
-175.5635927119224
 32
0.0
 13
18.49999999999997
 23
-175.5635927119224
 33
0.0
  0
SOLID
  5
48D
330
487
100
AcDbEntity
  8
1
 62
     2
100
AcDbTrace
 10
35.49999999999999
 20
-176.4851601950342
 30
0.0
 11
35.49999999999999
 21
-174.6420252288106
 31
0.0
 12
42.5
 22
-175.5635927119224
 32
0.0
 13
42.5
 23
-175.5635927119224
 33
0.0
  0
MTEXT
  5
48E
330
487
100
AcDbEntity
  8
1
 62
     3
100
AcDbMText
 10
-16.63201164580219
 20
-169.8136205402277
 30
0.0
 40
7.0
 41
0.0
 71
     7
 72
     1
  1
\C3;{\Fgdt;n}\C3;\C3;24\C2;\H4.2;\S^ k6;
  7
CONVERTER_15
 11
0.9999999999970621
 21
2.424068405545307E-6
 31
0.0
 73
     1
 44
0.60024009603842
  0
ENDBLK
  5
490
330
487
100
AcDbEntity
  8
0
100
AcDbBlockEnd
  0
BLOCK
  5
5BE
330
5B7
100
AcDbEntity
  8
0
100
AcDbBlockBegin
  2
*D24
 70
     1
 71
     0
 10
0.0
 20
0.0
 30
0.0
  3
*D24
  1

  0
LINE
  5
5B8
330
5B7
100
AcDbEntity
  8
1
  6
Continuous
 62
     2
100
AcDbLine
 10
-224.9999999999999
 20
203.801759165933
 30
0.0
 11
-197.0000000000009
 21
203.801759165933
 31
0.0
  0
LINE
  5
5B9
330
5B7
100
AcDbEntity
  8
1
  6
Continuous
 62
     2
100
AcDbLine
 10
-224.9999999999999
 20
190.2500000000001
 30
0.0
 11
-224.9999999999999
 21
205.801759165933
 31
0.0
  0
LINE
  5
5BA
330
5B7
100
AcDbEntity
  8
1
  6
Continuous
 62
     2
100
AcDbLine
 10
-197.0000000000009
 20
190.2500000000001
 30
0.0
 11
-197.0000000000009
 21
205.801759165933
 31
0.0
  0
SOLID
  5
5BB
330
5B7
100
AcDbEntity
  8
1
 62
     2
100
AcDbTrace
 10
-217.9999999999999
 20
204.7233266490448
 30
0.0
 11
-217.9999999999999
 21
202.8801916828212
 31
0.0
 12
-224.9999999999999
 22
203.801759165933
 32
0.0
 13
-224.9999999999999
 23
203.801759165933
 33
0.0
  0
SOLID
  5
5BC
330
5B7
100
AcDbEntity
  8
1
 62
     2
100
AcDbTrace
 10
-204.0000000000009
 20
202.8801916828212
 30
0.0
 11
-204.0000000000009
 21
204.7233266490448
 31
0.0
 12
-197.0000000000009
 22
203.801759165933
 32
0.0
 13
-197.0000000000009
 23
203.801759165933
 33
0.0
  0
MTEXT
  5
5BD
330
5B7
100
AcDbEntity
  8
1
 62
     3
100
AcDbMText
 10
-215.1819381805584
 20
207.801759165933
 30
0.0
 40
7.0
 41
0.0
 71
     7
 72
     1
  1
28
  7
CONVERTER_15
 11
0.9999999999970621
 21
2.424068405545307E-6
 31
0.0
 73
     1
 44
0.60024009603842
  0
ENDBLK
  5
5BF
330
5B7
100
AcDbEntity
  8
0
100
AcDbBlockEnd
  0
BLOCK
  5
5C9
330
5C2
100
AcDbEntity
  8
0
100
AcDbBlockBegin
  2
*D25
 70
     1
 71
     0
 10
0.0
 20
0.0
 30
0.0
  3
*D25
  1

  0
LINE
  5
5C3
330
5C2
100
AcDbEntity
  8
1
  6
Continuous
 62
     2
100
AcDbLine
 10
-255.0
 20
15.3466169729934
 30
0.0
 11
-167.0
 21
15.3466169729934
 31
0.0
  0
LINE
  5
5C4
330
5C2
100
AcDbEntity
  8
1
  6
Continuous
 62
     2
100
AcDbLine
 10
-255.0
 20
69.55638280310532
 30
0.0
 11
-255.0
 21
13.3466169729934
 31
0.0
  0
LINE
  5
5C5
330
5C2
100
AcDbEntity
  8
1
  6
Continuous
 62
     2
100
AcDbLine
 10
-167.0
 20
69.55638280310532
 30
0.0
 11
-167.0
 21
13.3466169729934
 31
0.0
  0
SOLID
  5
5C6
330
5C2
100
AcDbEntity
  8
1
 62
     2
100
AcDbTrace
 10
-248.0
 20
16.26818445610517
 30
0.0
 11
-248.0
 21
14.42504948988163
 31
0.0
 12
-255.0
 22
15.3466169729934
 32
0.0
 13
-255.0
 23
15.3466169729934
 33
0.0
  0
SOLID
  5
5C7
330
5C2
100
AcDbEntity
  8
1
 62
     2
100
AcDbTrace
 10
-174.0
 20
14.42504948988163
 30
0.0
 11
-174.0
 21
16.26818445610517
 31
0.0
 12
-167.0
 22
15.3466169729934
 32
0.0
 13
-167.0
 23
15.3466169729934
 33
0.0
  0
MTEXT
  5
5C8
330
5C2
100
AcDbEntity
  8
1
 62
     3
100
AcDbMText
 10
-213.968056427303
 20
19.3466169729934
 30
0.0
 40
7.0
 41
0.0
 71
     7
 72
     1
  1
88
  7
CONVERTER_15
 11
0.9999999999970621
 21
2.424068405545307E-6
 31
0.0
 73
     1
 44
0.60024009603842
  0
ENDBLK
  5
5CA
330
5C2
100
AcDbEntity
  8
0
100
AcDbBlockEnd
  0
BLOCK
  5
5D4
330
5CD
100
AcDbEntity
  8
0
100
AcDbBlockBegin
  2
*D26
 70
     1
 71
     0
 10
0.0
 20
0.0
 30
0.0
  3
*D26
  1

  0
LINE
  5
5CE
330
5CD
100
AcDbEntity
  8
1
  6
Continuous
 62
     2
100
AcDbLine
 10
-330.329419354841
 20
38.49999999999999
 30
0.0
 11
-330.329419354841
 21
143.5
 31
0.0
  0
LINE
  5
5CF
330
5CD
100
AcDbEntity
  8
1
  6
Continuous
 62
     2
100
AcDbLine
 10
-269.0000000000001
 20
143.5
 30
0.0
 11
-332.329419354841
 21
143.5
 31
0.0
  0
LINE
  5
5D0
330
5CD
100
AcDbEntity
  8
1
  6
Continuous
 62
     2
100
AcDbLine
 10
-269.0000000000001
 20
38.49999999999999
 30
0.0
 11
-332.329419354841
 21
38.49999999999999
 31
0.0
  0
SOLID
  5
5D1
330
5CD
100
AcDbEntity
  8
1
 62
     2
100
AcDbTrace
 10
-331.2509868379528
 20
45.49999999999999
 30
0.0
 11
-329.4078518717293
 21
45.49999999999999
 31
0.0
 12
-330.329419354841
 22
38.49999999999999
 32
0.0
 13
-330.329419354841
 23
38.49999999999999
 33
0.0
  0
SOLID
  5
5D2
330
5CD
100
AcDbEntity
  8
1
 62
     2
100
AcDbTrace
 10
-329.4078518717293
 20
136.5
 30
0.0
 11
-331.2509868379528
 21
136.5
 31
0.0
 12
-330.329419354841
 22
143.5
 32
0.0
 13
-330.329419354841
 23
143.5
 33
0.0
  0
MTEXT
  5
5D3
330
5CD
100
AcDbEntity
  8
1
 62
     3
100
AcDbMText
 10
-337.654419354841
 20
77.3262568808269
 30
0.0
 40
7.0
 41
0.0
 71
     7
 72
     1
  1
\C3;{\Fgdt;n}\C3;\C3;105\C2;\H4.2;\S^ g6;
  7
CONVERTER_15
 11
0.0
 21
1.0
 31
0.0
 73
     1
 44
0.60024009603842
  0
ENDBLK
  5
5D5
330
5CD
100
AcDbEntity
  8
0
100
AcDbBlockEnd
  0
BLOCK
  5
5DF
330
5D8
100
AcDbEntity
  8
0
100
AcDbBlockBegin
  2
*D27
 70
     1
 71
     0
 10
0.0
 20
0.0
 30
0.0
  3
*D27
  1

  0
LINE
  5
5D9
330
5D8
100
AcDbEntity
  8
1
  6
Continuous
 62
     2
100
AcDbLine
 10
-18.5
 20
16.9116379741436
 30
0.0
 11
30.5
 21
16.9116379741436
 31
0.0
  0
LINE
  5
5DA
330
5D8
100
AcDbEntity
  8
1
  6
Continuous
 62
     2
100
AcDbLine
 10
30.5
 20
33.25
 30
0.0
 11
30.5
 21
14.9116379741436
 31
0.0
  0
LINE
  5
5DB
330
5D8
100
AcDbEntity
  8
1
  6
Continuous
 62
     2
100
AcDbLine
 10
-18.5
 20
46.95
 30
0.0
 11
-18.5
 21
14.9116379741436
 31
0.0
  0
SOLID
  5
5DC
330
5D8
100
AcDbEntity
  8
1
 62
     2
100
AcDbTrace
 10
-11.5
 20
17.83320545725537
 30
0.0
 11
-11.5
 21
15.99007049103183
 31
0.0
 12
-18.5
 22
16.9116379741436
 32
0.0
 13
-18.5
 23
16.9116379741436
 33
0.0
  0
SOLID
  5
5DD
330
5D8
100
AcDbEntity
  8
1
 62
     2
100
AcDbTrace
 10
23.5
 20
15.99007049103183
 30
0.0
 11
23.5
 21
17.83320545725537
 31
0.0
 12
30.5
 22
16.9116379741436
 32
0.0
 13
30.5
 23
16.9116379741436
 33
0.0
  0
MTEXT
  5
5DE
330
5D8
100
AcDbEntity
  8
1
 62
     3
100
AcDbMText
 10
1.28593986414727
 20
20.9116379741436
 30
0.0
 40
7.0
 41
0.0
 71
     7
 72
     1
  1
49
  7
CONVERTER_15
 11
0.9999999999970621
 21
2.424068405545307E-6
 31
0.0
 73
     1
 44
0.60024009603842
  0
ENDBLK
  5
5E0
330
5D8
100
AcDbEntity
  8
0
100
AcDbBlockEnd
  0
BLOCK
  5
5EA
330
5E3
100
AcDbEntity
  8
0
100
AcDbBlockBegin
  2
*D28
 70
     1
 71
     0
 10
0.0
 20
0.0
 30
0.0
  3
*D28
  1

  0
LINE
  5
5E4
330
5E3
100
AcDbEntity
  8
1
  6
Continuous
 62
     2
100
AcDbLine
 10
30.5
 20
16.6657390980822
 30
0.0
 11
79.5
 21
16.6657390980822
 31
0.0
  0
LINE
  5
5E5
330
5E3
100
AcDbEntity
  8
1
  6
Continuous
 62
     2
100
AcDbLine
 10
79.5
 20
37.05
 30
0.0
 11
79.5
 21
14.6657390980822
 31
0.0
  0
LINE
  5
5E6
330
5E3
100
AcDbEntity
  8
1
  6
Continuous
 62
     2
100
AcDbLine
 10
30.5
 20
33.25
 30
0.0
 11
30.5
 21
14.6657390980822
 31
0.0
  0
SOLID
  5
5E7
330
5E3
100
AcDbEntity
  8
1
 62
     2
100
AcDbTrace
 10
37.5
 20
17.58730658119397
 30
0.0
 11
37.5
 21
15.74417161497043
 31
0.0
 12
30.5
 22
16.6657390980822
 32
0.0
 13
30.5
 23
16.6657390980822
 33
0.0
  0
SOLID
  5
5E8
330
5E3
100
AcDbEntity
  8
1
 62
     2
100
AcDbTrace
 10
72.5
 20
15.74417161497043
 30
0.0
 11
72.5
 21
17.58730658119397
 31
0.0
 12
79.5
 22
16.6657390980822
 32
0.0
 13
79.5
 23
16.6657390980822
 33
0.0
  0
MTEXT
  5
5E9
330
5E3
100
AcDbEntity
  8
1
 62
     3
100
AcDbMText
 10
50.7116139524957
 20
20.6657390980822
 30
0.0
 40
7.0
 41
0.0
 71
     7
 72
     1
  1
49
  7
CONVERTER_15
 11
0.9999999999970621
 21
2.424068405545307E-6
 31
0.0
 73
     1
 44
0.60024009603842
  0
ENDBLK
  5
5EB
330
5E3
100
AcDbEntity
  8
0
100
AcDbBlockEnd
  0
BLOCK
  5
5F5
330
5EE
100
AcDbEntity
  8
0
100
AcDbBlockBegin
  2
*D29
 70
     1
 71
     0
 10
0.0
 20
0.0
 30
0.0
  3
*D29
  1

  0
LINE
  5
5EF
330
5EE
100
AcDbEntity
  8
1
  6
Continuous
 62
     2
100
AcDbLine
 10
-27.0
 20
-2.76027211077118
 30
0.0
 11
88.0
 21
-2.76027211077118
 31
0.0
  0
LINE
  5
5F0
330
5EE
100
AcDbEntity
  8
1
  6
Continuous
 62
     2
100
AcDbLine
 10
88.0
 20
38.5
 30
0.0
 11
88.0
 21
-4.76027211077118
 31
0.0
  0
LINE
  5
5F1
330
5EE
100
AcDbEntity
  8
1
  6
Continuous
 62
     2
100
AcDbLine
 10
-27.0
 20
38.5
 30
0.0
 11
-27.0
 21
-4.76027211077118
 31
0.0
  0
SOLID
  5
5F2
330
5EE
100
AcDbEntity
  8
1
 62
     2
100
AcDbTrace
 10
-20.0
 20
-1.83870462765941
 30
0.0
 11
-20.0
 21
-3.68183959388295
 31
0.0
 12
-27.0
 22
-2.76027211077118
 32
0.0
 13
-27.0
 23
-2.76027211077118
 33
0.0
  0
SOLID
  5
5F3
330
5EE
100
AcDbEntity
  8
1
 62
     2
100
AcDbTrace
 10
81.0
 20
-3.68183959388295
 30
0.0
 11
81.0
 21
-1.83870462765941
 31
0.0
 12
88.0
 22
-2.76027211077118
 32
0.0
 13
88.0
 23
-2.76027211077118
 33
0.0
  0
MTEXT
  5
5F4
330
5EE
100
AcDbEntity
  8
1
 62
     3
100
AcDbMText
 10
26.0194229745365
 20
1.23972788922882
 30
0.0
 40
7.0
 41
0.0
 71
     7
 72
     1
  1
115
  7
CONVERTER_15
 11
0.9999999999970621
 21
2.424068405545307E-6
 31
0.0
 73
     1
 44
0.60024009603842
  0
ENDBLK
  5
5F6
330
5EE
100
AcDbEntity
  8
0
100
AcDbBlockEnd
  0
BLOCK
  5
602
330
5F9
100
AcDbEntity
  8
0
100
AcDbBlockBegin
  2
*D30
 70
     1
 71
     0
 10
0.0
 20
0.0
 30
0.0
  3
*D30
  1

  0
LINE
  5
5FA
330
5F9
100
AcDbEntity
  8
1
  6
Continuous
 62
     2
100
AcDbLine
 10
12.5
 20
114.727087559045
 30
0.0
 11
26.5
 21
114.727087559045
 31
0.0
  0
LINE
  5
5FB
330
5F9
100
AcDbEntity
  8
1
  6
Continuous
 62
     2
100
AcDbLine
 10
26.5
 20
114.727087559045
 30
0.0
 11
34.5
 21
114.727087559045
 31
0.0
  0
LINE
  5
5FC
330
5F9
100
AcDbEntity
  8
1
  6
Continuous
 62
     2
100
AcDbLine
 10
34.5
 20
114.727087559045
 30
0.0
 11
48.5
 21
114.727087559045
 31
0.0
  0
LINE
  5
5FD
330
5F9
100
AcDbEntity
  8
1
  6
Continuous
 62
     2
100
AcDbLine
 10
34.5
 20
105.0
 30
0.0
 11
34.5
 21
116.727087559045
 31
0.0
  0
LINE
  5
5FE
330
5F9
100
AcDbEntity
  8
1
  6
Continuous
 62
     2
100
AcDbLine
 10
26.5
 20
105.0
 30
0.0
 11
26.5
 21
116.727087559045
 31
0.0
  0
SOLID
  5
5FF
330
5F9
100
AcDbEntity
  8
1
 62
     2
100
AcDbTrace
 10
19.5
 20
113.8055200759332
 30
0.0
 11
19.5
 21
115.6486550421568
 31
0.0
 12
26.5
 22
114.727087559045
 32
0.0
 13
26.5
 23
114.727087559045
 33
0.0
  0
SOLID
  5
600
330
5F9
100
AcDbEntity
  8
1
 62
     2
100
AcDbTrace
 10
41.5
 20
115.6486550421568
 30
0.0
 11
41.5
 21
113.8055200759332
 31
0.0
 12
34.5
 22
114.727087559045
 32
0.0
 13
34.5
 23
114.727087559045
 33
0.0
  0
MTEXT
  5
601
330
5F9
100
AcDbEntity
  8
1
 62
     3
100
AcDbMText
 10
13.9418320437361
 20
118.727087559045
 30
0.0
 40
7.0
 41
0.0
 71
     7
 72
     1
  1
8
  7
CONVERTER_15
 11
0.9999999999970621
 21
2.424068405545307E-6
 31
0.0
 73
     1
 44
0.60024009603842
  0
ENDBLK
  5
603
330
5F9
100
AcDbEntity
  8
0
100
AcDbBlockEnd
  0
BLOCK
  5
60D
330
606
100
AcDbEntity
  8
0
100
AcDbBlockBegin
  2
*D31
 70
     1
 71
     0
 10
0.0
 20
0.0
 30
0.0
  3
*D31
  1

  0
LINE
  5
607
330
606
100
AcDbEntity
  8
1
  6
Continuous
 62
     2
100
AcDbLine
 10
-43.8167005060442
 20
42.0
 30
0.0
 11
-43.8167005060442
 21
91.0
 31
0.0
  0
LINE
  5
608
330
606
100
AcDbEntity
  8
1
  6
Continuous
 62
     2
100
AcDbLine
 10
-27.25
 20
91.0
 30
0.0
 11
-45.8167005060442
 21
91.0
 31
0.0
  0
LINE
  5
609
330
606
100
AcDbEntity
  8
1
  6
Continuous
 62
     2
100
AcDbLine
 10
-23.45
 20
42.0
 30
0.0
 11
-45.8167005060442
 21
42.0
 31
0.0
  0
SOLID
  5
60A
330
606
100
AcDbEntity
  8
1
 62
     2
100
AcDbTrace
 10
-44.73826798915597
 20
49.0
 30
0.0
 11
-42.89513302293243
 21
49.0
 31
0.0
 12
-43.8167005060442
 22
42.0
 32
0.0
 13
-43.8167005060442
 23
42.0
 33
0.0
  0
SOLID
  5
60B
330
606
100
AcDbEntity
  8
1
 62
     2
100
AcDbTrace
 10
-42.89513302293243
 20
84.0
 30
0.0
 11
-44.73826798915597
 21
84.0
 31
0.0
 12
-43.8167005060442
 22
91.0
 32
0.0
 13
-43.8167005060442
 23
91.0
 33
0.0
  0
MTEXT
  5
60C
330
606
100
AcDbEntity
  8
1
 62
     3
100
AcDbMText
 10
-47.8167005060442
 20
66.68652554975479
 30
0.0
 40
7.0
 41
0.0
 71
     7
 72
     1
  1
49
  7
CONVERTER_15
 11
0.0
 21
1.0
 31
0.0
 73
     1
 44
0.60024009603842
  0
ENDBLK
  5
60E
330
606
100
AcDbEntity
  8
0
100
AcDbBlockEnd
  0
BLOCK
  5
618
330
611
100
AcDbEntity
  8
0
100
AcDbBlockBegin
  2
*D32
 70
     1
 71
     0
 10
0.0
 20
0.0
 30
0.0
  3
*D32
  1

  0
LINE
  5
612
330
611
100
AcDbEntity
  8
1
  6
Continuous
 62
     2
100
AcDbLine
 10
-44.0625993821056
 20
91.0
 30
0.0
 11
-44.0625993821056
 21
140.0
 31
0.0
  0
LINE
  5
613
330
611
100
AcDbEntity
  8
1
  6
Continuous
 62
     2
100
AcDbLine
 10
-13.54999999999999
 20
140.0
 30
0.0
 11
-46.0625993821056
 21
140.0
 31
0.0
  0
LINE
  5
614
330
611
100
AcDbEntity
  8
1
  6
Continuous
 62
     2
100
AcDbLine
 10
-27.25
 20
91.0
 30
0.0
 11
-46.0625993821056
 21
91.0
 31
0.0
  0
SOLID
  5
615
330
611
100
AcDbEntity
  8
1
 62
     2
100
AcDbTrace
 10
-44.98416686521738
 20
98.0
 30
0.0
 11
-43.14103189899383
 21
98.0
 31
0.0
 12
-44.0625993821056
 22
91.0
 32
0.0
 13
-44.0625993821056
 23
91.0
 33
0.0
  0
SOLID
  5
616
330
611
100
AcDbEntity
  8
1
 62
     2
100
AcDbTrace
 10
-43.14103189899384
 20
133.0
 30
0.0
 11
-44.98416686521738
 21
133.0
 31
0.0
 12
-44.0625993821056
 22
140.0
 32
0.0
 13
-44.0625993821056
 23
140.0
 33
0.0
  0
MTEXT
  5
617
330
611
100
AcDbEntity
  8
1
 62
     3
100
AcDbMText
 10
-48.0625993821056
 20
113.653210877489
 30
0.0
 40
7.0
 41
0.0
 71
     7
 72
     1
  1
49
  7
CONVERTER_15
 11
0.0
 21
1.0
 31
0.0
 73
     1
 44
0.60024009603842
  0
ENDBLK
  5
619
330
611
100
AcDbEntity
  8
0
100
AcDbBlockEnd
  0
BLOCK
  5
625
330
61C
100
AcDbEntity
  8
0
100
AcDbBlockBegin
  2
*D33
 70
     1
 71
     0
 10
0.0
 20
0.0
 30
0.0
  3
*D33
  1

  0
LINE
  5
61D
330
61C
100
AcDbEntity
  8
1
  6
Continuous
 62
     2
100
AcDbLine
 10
118.476557694503
 20
77.0
 30
0.0
 11
118.476557694503
 21
91.0
 31
0.0
  0
LINE
  5
61E
330
61C
100
AcDbEntity
  8
1
  6
Continuous
 62
     2
100
AcDbLine
 10
118.476557694503
 20
91.0
 30
0.0
 11
118.476557694503
 21
105.0
 31
0.0
  0
LINE
  5
61F
330
61C
100
AcDbEntity
  8
1
  6
Continuous
 62
     2
100
AcDbLine
 10
118.476557694503
 20
105.0
 30
0.0
 11
118.476557694503
 21
119.0
 31
0.0
  0
LINE
  5
620
330
61C
100
AcDbEntity
  8
1
  6
Continuous
 62
     2
100
AcDbLine
 10
81.43378151674268
 20
105.0
 30
0.0
 11
120.476557694503
 21
105.0
 31
0.0
  0
LINE
  5
621
330
61C
100
AcDbEntity
  8
1
  6
Continuous
 62
     2
100
AcDbLine
 10
88.25
 20
91.0
 30
0.0
 11
120.476557694503
 21
91.0
 31
0.0
  0
SOLID
  5
622
330
61C
100
AcDbEntity
  8
1
 62
     2
100
AcDbTrace
 10
119.3981251776148
 20
84.0
 30
0.0
 11
117.5549902113912
 21
84.0
 31
0.0
 12
118.476557694503
 22
91.0
 32
0.0
 13
118.476557694503
 23
91.0
 33
0.0
  0
SOLID
  5
623
330
61C
100
AcDbEntity
  8
1
 62
     2
100
AcDbTrace
 10
117.5549902113912
 20
112.0
 30
0.0
 11
119.3981251776148
 21
112.0
 31
0.0
 12
118.476557694503
 22
105.0
 32
0.0
 13
118.476557694503
 23
105.0
 33
0.0
  0
MTEXT
  5
624
330
61C
100
AcDbEntity
  8
1
 62
     3
100
AcDbMText
 10
114.476557694503
 20
109.821132232322
 30
0.0
 40
7.0
 41
0.0
 71
     7
 72
     1
  1
14
  7
CONVERTER_15
 11
0.0
 21
1.0
 31
0.0
 73
     1
 44
0.60024009603842
  0
ENDBLK
  5
626
330
61C
100
AcDbEntity
  8
0
100
AcDbBlockEnd
  0
BLOCK
  5
630
330
629
100
AcDbEntity
  8
0
100
AcDbBlockBegin
  2
*D34
 70
     1
 71
     0
 10
0.0
 20
0.0
 30
0.0
  3
*D34
  1

  0
LINE
  5
62A
330
629
100
AcDbEntity
  8
1
  6
Continuous
 62
     2
100
AcDbLine
 10
321.74135483871
 20
61.5
 30
0.0
 11
321.74135483871
 21
189.9999756716066
 31
0.0
  0
LINE
  5
62B
330
629
100
AcDbEntity
  8
1
  6
Continuous
 62
     2
100
AcDbLine
 10
265.0
 20
189.9999756716066
 30
0.0
 11
323.74135483871
 21
189.9999756716066
 31
0.0
  0
LINE
  5
62C
330
629
100
AcDbEntity
  8
1
  6
Continuous
 62
     2
100
AcDbLine
 10
271.0000000000001
 20
61.5
 30
0.0
 11
323.74135483871
 21
61.5
 31
0.0
  0
SOLID
  5
62D
330
629
100
AcDbEntity
  8
1
 62
     2
100
AcDbTrace
 10
320.8197873555982
 20
68.5
 30
0.0
 11
322.6629223218217
 21
68.5
 31
0.0
 12
321.74135483871
 22
61.5
 32
0.0
 13
321.74135483871
 23
61.5
 33
0.0
  0
SOLID
  5
62E
330
629
100
AcDbEntity
  8
1
 62
     2
100
AcDbTrace
 10
322.6629223218217
 20
182.9999756716066
 30
0.0
 11
320.8197873555982
 21
182.9999756716066
 31
0.0
 12
321.74135483871
 22
189.9999756716066
 32
0.0
 13
321.74135483871
 23
189.9999756716066
 33
0.0
  0
MTEXT
  5
62F
330
629
100
AcDbEntity
  8
1
 62
     3
100
AcDbMText
 10
317.74135483871
 20
120.868619784053
 30
0.0
 40
7.0
 41
0.0
 71
     7
 72
     1
  1
128.5
  7
CONVERTER_15
 11
0.0
 21
1.0
 31
0.0
 73
     1
 44
0.60024009603842
  0
ENDBLK
  5
631
330
629
100
AcDbEntity
  8
0
100
AcDbBlockEnd
  0
BLOCK
  5
63B
330
634
100
AcDbEntity
  8
0
100
AcDbBlockBegin
  2
*D35
 70
     1
 71
     0
 10
0.0
 20
0.0
 30
0.0
  3
*D35
  1

  0
LINE
  5
635
330
634
100
AcDbEntity
  8
1
  6
Continuous
 62
     2
100
AcDbLine
 10
30.5
 20
210.457377848569
 30
0.0
 11
274.0
 21
210.457377848569
 31
0.0
  0
LINE
  5
636
330
634
100
AcDbEntity
  8
1
  6
Continuous
 62
     2
100
AcDbLine
 10
274.0
 20
140.317279836453
 30
0.0
 11
274.0
 21
212.457377848569
 31
0.0
  0
LINE
  5
637
330
634
100
AcDbEntity
  8
1
  6
Continuous
 62
     2
100
AcDbLine
 10
30.5
 20
148.75
 30
0.0
 11
30.5
 21
212.457377848569
 31
0.0
  0
SOLID
  5
638
330
634
100
AcDbEntity
  8
1
 62
     2
100
AcDbTrace
 10
37.5
 20
211.3789453316808
 30
0.0
 11
37.5
 21
209.5358103654572
 31
0.0
 12
30.5
 22
210.457377848569
 32
0.0
 13
30.5
 23
210.457377848569
 33
0.0
  0
SOLID
  5
639
330
634
100
AcDbEntity
  8
1
 62
     2
100
AcDbTrace
 10
267.0
 20
209.5358103654572
 30
0.0
 11
267.0
 21
211.3789453316808
 31
0.0
 12
274.0
 22
210.457377848569
 32
0.0
 13
274.0
 23
210.457377848569
 33
0.0
  0
MTEXT
  5
63A
330
634
100
AcDbEntity
  8
1
 62
     3
100
AcDbMText
 10
153.126467741935
 20
214.457377848569
 30
0.0
 40
7.0
 41
0.0
 71
     7
 72
     1
  1
k
  7
CONVERTER_15
 11
0.9999999999970621
 21
2.424068405545307E-6
 31
0.0
 73
     1
 44
0.60024009603842
  0
ENDBLK
  5
63C
330
634
100
AcDbEntity
  8
0
100
AcDbBlockEnd
  0
BLOCK
  5
646
330
63F
100
AcDbEntity
  8
0
100
AcDbBlockBegin
  2
*D36
 70
     1
 71
     0
 10
0.0
 20
0.0
 30
0.0
  3
*D36
  1

  0
LINE
  5
640
330
63F
100
AcDbEntity
  8
1
  6
Continuous
 62
     2
100
AcDbLine
 10
30.49999999999999
 20
191.197084396111
 30
0.0
 11
248.0
 21
191.197084396111
 31
0.0
  0
LINE
  5
641
330
63F
100
AcDbEntity
  8
1
  6
Continuous
 62
     2
100
AcDbLine
 10
248.0
 20
146.5
 30
0.0
 11
248.0
 21
193.197084396111
 31
0.0
  0
LINE
  5
642
330
63F
100
AcDbEntity
  8
1
  6
Continuous
 62
     2
100
AcDbLine
 10
30.49999999999999
 20
148.75
 30
0.0
 11
30.49999999999999
 21
193.197084396111
 31
0.0
  0
SOLID
  5
643
330
63F
100
AcDbEntity
  8
1
 62
     2
100
AcDbTrace
 10
37.49999999999999
 20
192.1186518792228
 30
0.0
 11
37.49999999999999
 21
190.2755169129992
 31
0.0
 12
30.49999999999999
 22
191.197084396111
 32
0.0
 13
30.49999999999999
 23
191.197084396111
 33
0.0
  0
SOLID
  5
644
330
63F
100
AcDbEntity
  8
1
 62
     2
100
AcDbTrace
 10
241.0
 20
190.2755169129992
 30
0.0
 11
241.0
 21
192.1186518792228
 31
0.0
 12
248.0
 22
191.197084396111
 32
0.0
 13
248.0
 23
191.197084396111
 33
0.0
  0
MTEXT
  5
645
330
63F
100
AcDbEntity
  8
1
 62
     3
100
AcDbMText
 10
141.271965246162
 20
197.297084396111
 30
0.0
 40
7.0
 41
0.0
 71
     7
 72
     1
  1
q
  7
CONVERTER_15
 11
0.9999999999970621
 21
2.424068405545307E-6
 31
0.0
 73
     1
 44
0.60024009603842
  0
ENDBLK
  5
647
330
63F
100
AcDbEntity
  8
0
100
AcDbBlockEnd
  0
BLOCK
  5
651
330
64A
100
AcDbEntity
  8
0
100
AcDbBlockBegin
  2
*D37
 70
     1
 71
     0
 10
0.0
 20
0.0
 30
0.0
  3
*D37
  1

  0
LINE
  5
64B
330
64A
100
AcDbEntity
  8
1
  6
Continuous
 62
     2
100
AcDbLine
 10
5.65437317719338
 20
79.01183337496785
 30
0.0
 11
5.66723501301472
 21
106.0137339328668
 31
0.0
  0
LINE
  5
64C
330
64A
100
AcDbEntity
  8
1
  6
Continuous
 62
     2
100
AcDbLine
 10
34.5
 20
106.0
 30
0.0
 11
3.66723523990567
 21
106.0146865942792
 31
0.0
  0
LINE
  5
64D
330
64A
100
AcDbEntity
  8
1
  6
Continuous
 62
     2
100
AcDbLine
 10
30.49428403152527
 20
79.0000013613457
 30
0.0
 11
3.65437340408433
 21
79.0127860363803
 31
0.0
  0
SOLID
  5
64E
330
64A
100
AcDbEntity
  8
1
 62
     2
100
AcDbTrace
 10
4.73614011357286
 20
86.01227155173957
 30
0.0
 11
6.57927487070107
 21
86.01139360995944
 31
0.0
 12
5.65437317719338
 22
79.01183337496785
 32
0.0
 13
5.65437317719338
 23
79.01183337496785
 33
0.0
  0
SOLID
  5
64F
330
64A
100
AcDbEntity
  8
1
 62
     2
100
AcDbTrace
 10
6.58546807663524
 20
99.01329575609505
 30
0.0
 11
4.74233331950702
 21
99.01417369787518
 31
0.0
 12
5.66723501301472
 22
106.0137339328668
 32
0.0
 13
5.66723501301472
 23
106.0137339328668
 33
0.0
  0
MTEXT
  5
650
330
64A
100
AcDbEntity
  8
1
 62
     3
100
AcDbMText
 10
1.65877991996525
 20
88.26422041666551
 30
0.0
 40
7.0
 41
0.0
 71
     7
 72
     1
  1
27
  7
CONVERTER_15
 11
0.000476330706227454
 21
0.9999998865545228
 31
0.0
 73
     1
 44
0.60024009603842
  0
ENDBLK
  5
652
330
64A
100
AcDbEntity
  8
0
100
AcDbBlockEnd
  0
BLOCK
  5
65D
330
654
100
AcDbEntity
  8
0
100
AcDbBlockBegin
  2
*D38
 70
     1
 71
     0
 10
0.0
 20
0.0
 30
0.0
  3
*D38
  1

  0
LINE
  5
655
330
654
100
AcDbEntity
  8
1
  6
Continuous
 62
     2
100
AcDbLine
 10
-37.06194039449365
 20
159.4466527070026
 30
0.0
 11
-23.06201119559184
 21
159.4911771467708
 31
0.0
  0
LINE
  5
656
330
654
100
AcDbEntity
  8
1
  6
Continuous
 62
     2
100
AcDbLine
 10
-23.06201119559184
 20
159.4911771467708
 30
0.0
 11
-14.06205671058354
 21
159.5198000009075
 31
0.0
  0
LINE
  5
657
330
654
100
AcDbEntity
  8
1
  6
Continuous
 62
     2
100
AcDbLine
 10
-14.06205671058354
 20
159.5198000009075
 30
0.0
 11
-0.06212751168173
 21
159.5643244406758
 31
0.0
  0
LINE
  5
658
330
654
100
AcDbEntity
  8
1
  6
Continuous
 62
     2
100
AcDbLine
 10
-14.00002275749585
 20
140.0143114270683
 30
0.0
 11
-14.06841734483614
 21
161.5197898864649
 31
0.0
  0
LINE
  5
659
330
654
100
AcDbEntity
  8
1
  6
Continuous
 62
     2
100
AcDbLine
 10
-22.99997724250415
 20
139.9856885729317
 30
0.0
 11
-23.06837182984445
 21
161.4911670323282
 31
0.0
  0
SOLID
  5
65A
330
654
100
AcDbEntity
  8
1
 62
     2
100
AcDbTrace
 10
-30.05904491819317
 20
158.5473521043457
 30
0.0
 11
-30.06490667189232
 21
160.3904777494278
 31
0.0
 12
-23.06201119559184
 22
159.4911771467708
 32
0.0
 13
-23.06201119559184
 23
159.4911771467708
 33
0.0
  0
SOLID
  5
65B
330
654
100
AcDbEntity
  8
1
 62
     2
100
AcDbTrace
 10
-7.06502298798221
 20
160.4636250433327
 30
0.0
 11
-7.05916123428306
 21
158.6204993982505
 31
0.0
 12
-14.06205671058354
 22
159.5198000009075
 32
0.0
 13
-14.06205671058354
 23
159.5198000009075
 33
0.0
  0
MTEXT
  5
65C
330
654
100
AcDbEntity
  8
1
 62
     3
100
AcDbMText
 10
-28.42954545769426
 20
163.474126828289
 30
0.0
 40
7.0
 41
0.0
 71
     7
 72
     1
  1
\C3;{\Fgdt;n}\C3;9
  7
CONVERTER_15
 11
0.9999949427787004
 21
0.003180317126301751
 31
0.0
 73
     1
 44
0.60024009603842
  0
ENDBLK
  5
65E
330
654
100
AcDbEntity
  8
0
100
AcDbBlockEnd
  0
ENDSEC
  0
SECTION
  2
ENTITIES
  0
INSERT
  5
60
330
1F
100
AcDbEntity
  8
1
100
AcDbBlockReference
  2
Flanschlagerschild
 10
252.9960508442671
 20
273.539584626464
 30
0.0
  0
INSERT
  5
61
330
1F
100
AcDbEntity
  8
1
100
AcDbBlockReference
  2
Deckel
 10
372.740257612901
 20
250.537107208105
 30
0.0
  0
INSERT
  5
62
330
1F
100
AcDbEntity
  8
1
100
AcDbBlockReference
  2
Zwischenst_ck__1
 10
484.46868736308
 20
-172.93644081309
 30
0.0
  0
INSERT
  5
63
330
1F
100
AcDbEntity
  8
0
100
AcDbBlockReference
  2
Winkelflanschdose_8-polig_drehbar__2
 10
354.5238149551591
 20
-12.66173146347131
 30
0.0
  0
INSERT
  5
64
330
1F
100
AcDbEntity
  8
1
100
AcDbBlockReference
  2
Linsenschraube_DIN_7985_-_M2_5_x_6_-__-___3
 10
183.4763440000001
 20
-68.55955924482868
 30
0.0
  0
INSERT
  5
65
330
1F
100
AcDbEntity
  8
1
100
AcDbBlockReference
  2
Linsenschraube_DIN_7985_-_M2_5_x_6_-__-___4
 10
-49.58989599999997
 20
152.4999756716065
 30
0.0
  0
INSERT
  5
66
330
1F
100
AcDbEntity
  8
0
100
AcDbBlockReference
  2
Winkelflanschdose_8-polig_drehbar__5
 10
602.8254836891306
 20
569.51293335638
 30
0.0
  0
INSERT
  5
67
330
1F
100
AcDbEntity
  8
1
100
AcDbBlockReference
  2
Zwischenst_ck__6
 10
264.1360832837569
 20
298.100979177073
 30
0.0
  0
INSERT
  5
68
330
1F
100
AcDbEntity
  8
1
100
AcDbBlockReference
  2
tb_frame_A3
 10
0.0
 20
0.0
 30
0.0
 41
2.0
 42
2.0
 43
2.0
  0
INSERT
  5
69
330
1F
100
AcDbEntity
  8
0
100
AcDbBlockReference
  2
Angebotszeichnung
 10
-225.578877595279
 20
548.162942145618
 30
0.0
  0
INSERT
  5
6A
330
1F
100
AcDbEntity
  8
0
100
AcDbBlockReference
  2
Ma_blatt__8
 10
136.831969281518
 20
621.002555579474
 30
0.0
  0
POINT
  5
56D
330
1F
100
AcDbEntity
  8
1
 62
     3
 60
     1
100
AcDbPoint
 10
-71.85228084555963
 20
-232.1807834417551
 30
0.0
  0
POINT
  5
56E
330
1F
100
AcDbEntity
  8
1
 62
     3
 60
     1
100
AcDbPoint
 10
-223.091778354301
 20
24.7494238290457
 30
0.0
  0
POINT
  5
56F
330
1F
100
AcDbEntity
  8
1
 62
     3
 60
     1
100
AcDbPoint
 10
-353.6042280845578
 20
-284.830783441755
 30
0.0
  0
POINT
  5
570
330
1F
100
AcDbEntity
  8
1
 62
     3
 60
     1
100
AcDbPoint
 10
-337.8022808455597
 20
-232.180783441755
 30
0.0
  0
POINT
  5
571
330
1F
100
AcDbEntity
  8
1
 62
     3
 60
     1
100
AcDbPoint
 10
-337.8022808455597
 20
-290.2307834417549
 30
0.0
  0
POINT
  5
572
330
1F
100
AcDbEntity
  8
1
 62
     3
 60
     1
100
AcDbPoint
 10
-337.8022808455597
 20
-277.405783441755
 30
0.0
  0
POINT
  5
573
330
1F
100
AcDbEntity
  8
1
 62
     3
 60
     1
100
AcDbPoint
 10
-337.8022808455597
 20
-264.580783441755
 30
0.0
  0
POINT
  5
574
330
1F
100
AcDbEntity
  8
1
 62
     3
 60
     1
100
AcDbPoint
 10
-353.6042280845578
 20
-232.180783441755
 30
0.0
  0
POINT
  5
575
330
1F
100
AcDbEntity
  8
1
 62
     3
 60
     1
100
AcDbPoint
 10
-353.6042280845578
 20
-277.405783441755
 30
0.0
  0
POINT
  5
576
330
1F
100
AcDbEntity
  8
1
 62
     3
 60
     1
100
AcDbPoint
 10
-353.6042280845578
 20
-264.580783441755
 30
0.0
  0
POINT
  5
577
330
1F
100
AcDbEntity
  8
1
 62
     3
 60
     1
100
AcDbPoint
 10
-353.6042280845578
 20
-290.2307834417549
 30
0.0
  0
POINT
  5
578
330
1F
100
AcDbEntity
  8
1
 62
     3
 60
     1
100
AcDbPoint
 10
17.0431870390347
 20
6.46102002165887
 30
0.0
  0
POINT
  5
579
330
1F
100
AcDbEntity
  8
1
 62
     3
 60
     1
100
AcDbPoint
 10
-353.6042280845578
 20
-303.055783441755
 30
0.0
  0
POINT
  5
57A
330
1F
100
AcDbEntity
  8
1
 62
     3
 60
     1
100
AcDbPoint
 10
29.39771915444037
 20
-303.055783441755
 30
0.0
  0
LINE
  5
57B
330
1F
100
AcDbEntity
  8
1
  6
Continuous
 62
     7
100
AcDbLine
 10
29.39771915444044
 20
-232.1807834417551
 30
0.0
 11
29.39771915444029
 21
-277.405783441755
 31
0.0
  0
LINE
  5
57C
330
1F
100
AcDbEntity
  8
1
  6
Continuous
 62
     7
100
AcDbLine
 10
-251.4022808455598
 20
-232.180783441755
 30
0.0
 11
-251.4022808455598
 21
-303.055783441755
 31
0.0
  0
LINE
  5
57D
330
1F
100
AcDbEntity
  8
1
  6
Continuous
 62
     7
100
AcDbLine
 10
-201.4522808455597
 20
-232.180783441755
 30
0.0
 11
-201.4522808455597
 21
-303.055783441755
 31
0.0
  0
LINE
  5
57E
330
1F
100
AcDbEntity
  8
1
  6
Continuous
 62
     7
100
AcDbLine
 10
7.79771915444036
 20
-232.1807834417551
 30
0.0
 11
7.79771915444036
 21
-303.055783441755
 31
0.0
  0
LINE
  5
57F
330
1F
100
AcDbEntity
  8
1
  6
Continuous
 62
     2
100
AcDbLine
 10
29.39771915444044
 20
-290.2307834417549
 30
0.0
 11
-337.8022808455597
 21
-290.2307834417549
 31
0.0
  0
LINE
  5
580
330
1F
100
AcDbEntity
  8
1
  6
Continuous
 62
     7
100
AcDbLine
 10
29.39771915444029
 20
-277.405783441755
 30
0.0
 11
-337.8022808455597
 21
-277.405783441755
 31
0.0
  0
LINE
  5
581
330
1F
100
AcDbEntity
  8
1
  6
Continuous
 62
     7
100
AcDbLine
 10
-121.8022808455596
 20
-232.180783441755
 30
0.0
 11
-121.8022808455597
 21
-303.055783441755
 31
0.0
  0
LINE
  5
582
330
1F
100
AcDbEntity
  8
1
  6
Continuous
 62
     2
100
AcDbLine
 10
29.39771915444044
 20
-264.580783441755
 30
0.0
 11
-337.8022808455597
 21
-264.580783441755
 31
0.0
  0
LINE
  5
583
330
1F
100
AcDbEntity
  8
1
  6
Continuous
 62
     7
100
AcDbLine
 10
-176.7780625495732
 20
-256.0190806524903
 30
0.0
 11
-176.1030625495733
 21
-255.3440806524903
 31
0.0
  0
LINE
  5
584
330
1F
100
AcDbEntity
  8
1
  6
Continuous
 62
     7
100
AcDbLine
 10
-226.7280625495733
 20
-255.3440806524903
 30
0.0
 11
-226.0530625495732
 21
-254.6690806524903
 31
0.0
  0
LINE
  5
585
330
1F
100
AcDbEntity
  8
1
  6
Continuous
 62
     7
100
AcDbLine
 10
29.39771915444029
 20
-277.405783441755
 30
0.0
 11
29.39771915444044
 21
-290.2307834417549
 31
0.0
  0
LINE
  5
586
330
1F
100
AcDbEntity
  8
1
  6
Continuous
 62
     7
100
AcDbLine
 10
29.39771915444044
 20
-290.2307834417549
 30
0.0
 11
29.39771915444037
 21
-303.055783441755
 31
0.0
  0
LINE
  5
587
330
1F
100
AcDbEntity
  8
1
  6
Continuous
 62
     7
100
AcDbLine
 10
29.39771915444044
 20
-232.1807834417551
 30
0.0
 11
7.79771915444036
 21
-232.1807834417551
 31
0.0
  0
LINE
  5
588
330
1F
100
AcDbEntity
  8
1
  6
Continuous
 62
     7
100
AcDbLine
 10
-251.4022808455598
 20
-232.180783441755
 30
0.0
 11
-337.8022808455597
 21
-232.180783441755
 31
0.0
  0
LINE
  5
589
330
1F
100
AcDbEntity
  8
1
  6
Continuous
 62
     7
100
AcDbLine
 10
-201.4522808455597
 20
-232.180783441755
 30
0.0
 11
-251.4022808455598
 21
-232.180783441755
 31
0.0
  0
LINE
  5
58A
330
1F
100
AcDbEntity
  8
1
  6
Continuous
 62
     7
100
AcDbLine
 10
-121.8022808455596
 20
-232.180783441755
 30
0.0
 11
-201.4522808455597
 21
-232.180783441755
 31
0.0
  0
LINE
  5
58B
330
1F
100
AcDbEntity
  8
1
  6
Continuous
 62
     7
100
AcDbLine
 10
7.79771915444036
 20
-232.1807834417551
 30
0.0
 11
-71.85228084555963
 21
-232.1807834417551
 31
0.0
  0
LINE
  5
58C
330
1F
100
AcDbEntity
  8
1
  6
Continuous
 62
     7
100
AcDbLine
 10
-71.85228084555963
 20
-232.1807834417551
 30
0.0
 11
-71.85228084555963
 21
-303.055783441755
 31
0.0
  0
LINE
  5
58D
330
1F
100
AcDbEntity
  8
1
  6
Continuous
 62
     7
100
AcDbLine
 10
-71.85228084555963
 20
-232.1807834417551
 30
0.0
 11
-121.8022808455596
 21
-232.180783441755
 31
0.0
  0
LINE
  5
58E
330
1F
100
AcDbEntity
  8
1
  6
Continuous
 62
     2
100
AcDbLine
 10
-223.091778354301
 20
24.7494238290457
 30
0.0
 11
-218.091778354301
 21
24.7494238290457
 31
0.0
  0
LINE
  5
58F
330
1F
100
AcDbEntity
  8
1
  6
Continuous
 62
     2
100
AcDbLine
 10
-218.091778354301
 20
24.7494238290457
 30
0.0
 11
-218.091778354301
 21
19.7494238290457
 31
0.0
  0
LINE
  5
590
330
1F
100
AcDbEntity
  8
1
  6
Continuous
 62
     2
100
AcDbLine
 10
-218.091778354301
 20
19.7494238290457
 30
0.0
 11
-223.091778354301
 21
19.7494238290457
 31
0.0
  0
LINE
  5
591
330
1F
100
AcDbEntity
  8
1
  6
Continuous
 62
     2
100
AcDbLine
 10
-223.091778354301
 20
19.7494238290457
 30
0.0
 11
-223.091778354301
 21
24.7494238290457
 31
0.0
  0
LINE
  5
592
330
1F
100
AcDbEntity
  8
1
  6
Continuous
 62
     7
100
AcDbLine
 10
-337.8022808455597
 20
-232.180783441755
 30
0.0
 11
-353.6042280845578
 21
-232.180783441755
 31
0.0
  0
LINE
  5
593
330
1F
100
AcDbEntity
  8
1
  6
Continuous
 62
     7
100
AcDbLine
 10
-353.6042280845578
 20
-232.180783441755
 30
0.0
 11
-353.6042280845578
 21
-264.580783441755
 31
0.0
  0
LINE
  5
594
330
1F
100
AcDbEntity
  8
1
  6
Continuous
 62
     7
100
AcDbLine
 10
-337.8022808455597
 20
-277.405783441755
 30
0.0
 11
-353.6042280845578
 21
-277.405783441755
 31
0.0
  0
LINE
  5
595
330
1F
100
AcDbEntity
  8
1
  6
Continuous
 62
     7
100
AcDbLine
 10
-353.6042280845578
 20
-277.405783441755
 30
0.0
 11
-353.6042280845578
 21
-290.2307834417549
 31
0.0
  0
LINE
  5
596
330
1F
100
AcDbEntity
  8
1
  6
Continuous
 62
     2
100
AcDbLine
 10
-353.6042280845578
 20
-264.580783441755
 30
0.0
 11
-337.8022808455597
 21
-264.580783441755
 31
0.0
  0
LINE
  5
597
330
1F
100
AcDbEntity
  8
1
  6
Continuous
 62
     7
100
AcDbLine
 10
-353.6042280845578
 20
-264.580783441755
 30
0.0
 11
-353.6042280845578
 21
-277.405783441755
 31
0.0
  0
LINE
  5
598
330
1F
100
AcDbEntity
  8
1
  6
Continuous
 62
     2
100
AcDbLine
 10
-353.6042280845578
 20
-290.2307834417549
 30
0.0
 11
-337.8022808455597
 21
-290.2307834417549
 31
0.0
  0
LINE
  5
599
330
1F
100
AcDbEntity
  8
1
  6
Continuous
 62
     7
100
AcDbLine
 10
-353.6042280845578
 20
-290.2307834417549
 30
0.0
 11
-353.6042280845578
 21
-303.055783441755
 31
0.0
  0
LINE
  5
59A
330
1F
100
AcDbEntity
  8
1
  6
Continuous
 62
     2
100
AcDbLine
 10
17.0431870390347
 20
6.46102002165887
 30
0.0
 11
22.0431870390347
 21
6.46102002165887
 31
0.0
  0
LINE
  5
59B
330
1F
100
AcDbEntity
  8
1
  6
Continuous
 62
     2
100
AcDbLine
 10
22.0431870390347
 20
6.46102002165887
 30
0.0
 11
22.0431870390347
 21
1.46102002165887
 31
0.0
  0
LINE
  5
59C
330
1F
100
AcDbEntity
  8
1
  6
Continuous
 62
     2
100
AcDbLine
 10
22.0431870390347
 20
1.46102002165887
 30
0.0
 11
17.0431870390347
 21
1.46102002165887
 31
0.0
  0
LINE
  5
59D
330
1F
100
AcDbEntity
  8
1
  6
Continuous
 62
     2
100
AcDbLine
 10
17.0431870390347
 20
1.46102002165887
 30
0.0
 11
17.0431870390347
 21
6.46102002165887
 31
0.0
  0
LINE
  5
59E
330
1F
100
AcDbEntity
  8
1
  6
Continuous
 62
     7
100
AcDbLine
 10
-353.6042280845578
 20
-303.055783441755
 30
0.0
 11
29.39771915444037
 21
-303.055783441755
 31
0.0
  0
MTEXT
  5
59F
330
1F
100
AcDbEntity
  8
1
 62
     3
100
AcDbMText
 10
-233.707427419356
 20
-172.4070725806461
 30
0.0
 40
7.0
 41
0.0
 71
     5
 72
     1
  1
Welle ohne Passfedernut Sonderausführung/S22
  7
CONVERTER_15
 73
     1
 44
1.32052821128451
  0
MTEXT
  5
5A0
330
1F
100
AcDbEntity
  8
1
 62
     3
100
AcDbMText
 10
-233.707427419356
 20
-152.407072580646
 30
0.0
 40
7.0
 41
0.0
 71
     5
 72
     1
  1
Welle mit Passfedernut nach DIN 6885-1(Standard)
  7
CONVERTER_15
 73
     1
 44
1.32052821128451
  0
MTEXT
  5
5A1
330
1F
100
AcDbEntity
  8
1
 62
     3
100
AcDbMText
 10
-226.4272808455597
 20
-283.818283441755
 30
0.0
 40
4.725
 41
0.0
 71
     5
 72
     1
  1
244
  7
CONVERTER_15
 73
     1
 44
1.32052821128451
  0
MTEXT
  5
5A2
330
1F
100
AcDbEntity
  8
1
 62
     7
100
AcDbMText
 10
-161.6272808455596
 20
-270.993283441755
 30
0.0
 40
4.725
 41
0.0
 71
     5
 72
     1
  1
k
  7
CONVERTER_15
 73
     1
 44
1.32052821128451
  0
MTEXT
  5
5A3
330
1F
100
AcDbEntity
  8
1
 62
     3
100
AcDbMText
 10
18.59771915444042
 20
-283.818283441755
 30
0.0
 40
4.725
 41
0.0
 71
     5
 72
     1
  1
218
  7
CONVERTER_15
 73
     1
 44
1.32052821128451
  0
MTEXT
  5
5A4
330
1F
100
AcDbEntity
  8
1
 62
     3
100
AcDbMText
 10
18.59771915444042
 20
-296.6432834417549
 30
0.0
 40
4.725
 41
0.0
 71
     5
 72
     1
  1
258
  7
CONVERTER_15
 73
     1
 44
1.32052821128451
  0
MTEXT
  5
5A5
330
1F
100
AcDbEntity
  8
1
 62
     7
100
AcDbMText
 10
18.59771915444042
 20
-270.318283441755
 30
0.0
 40
4.725
 41
0.0
 71
     5
 72
     1
  1
q
  7
CONVERTER_15
 73
     1
 44
1.32052821128451
  0
MTEXT
  5
5A6
330
1F
100
AcDbEntity
  8
1
 62
     3
100
AcDbMText
 10
-349.3966755855515
 20
-296.0641450675445
 30
0.0
 40
4.725
 41
0.0
 71
     4
 72
     1
  1
KSG 3612...D(-MF)-R..(/S23)/DED75
  7
CONVERTER_15
 73
     1
 44
1.32052821128451
  0
MTEXT
  5
5A7
330
1F
100
AcDbEntity
  8
1
 62
     3
100
AcDbMText
 10
-161.6272808455596
 20
-283.818283441755
 30
0.0
 40
4.725
 41
0.0
 71
     5
 72
     1
  1
292
  7
CONVERTER_15
 73
     1
 44
1.32052821128451
  0
MTEXT
  5
5A8
330
1F
100
AcDbEntity
  8
1
 62
     3
100
AcDbMText
 10
-161.6272808455596
 20
-296.6432834417549
 30
0.0
 40
4.725
 41
0.0
 71
     5
 72
     1
  1
332
  7
CONVERTER_15
 73
     1
 44
1.32052821128451
  0
MTEXT
  5
5A9
330
1F
100
AcDbEntity
  8
1
 62
     7
100
AcDbMText
 10
-226.4272808455597
 20
-270.993283441755
 30
0.0
 40
4.725
 41
0.0
 71
     5
 72
     1
  1
k
  7
CONVERTER_15
 73
     1
 44
1.32052821128451
  0
MTEXT
  5
5AA
330
1F
100
AcDbEntity
  8
1
 62
     7
100
AcDbMText
 10
-333.1966755855515
 20
-249.3932834417551
 30
0.0
 40
4.725
 41
0.0
 71
     4
 72
     1
  1
Motor - Typ
  7
CONVERTER_15
 73
     1
 44
1.32052821128451
  0
MTEXT
  5
5AB
330
1F
100
AcDbEntity
  8
1
 62
     7
100
AcDbMText
 10
-202.2545868163497
 20
-249.252006861793
 30
0.0
 40
4.725
 41
0.0
 71
     4
 72
     1
  1
mit Resolver und Bremse\Pwith resolver and Brake\Pavec resolveur et frein
  7
CONVERTER_15
 73
     1
 44
1.08043217286915
  0
MTEXT
  5
5AC
330
1F
100
AcDbEntity
  8
1
 62
     7
100
AcDbMText
 10
-122.4695868163499
 20
-249.252006861793
 30
0.0
 40
4.725
 41
0.0
 71
     4
 72
     1
  1
mit Drehgeber\Pwith encoder\Pavec codeur
  7
CONVERTER_15
 73
     1
 44
1.08043217286915
  0
MTEXT
  5
5AD
330
1F
100
AcDbEntity
  8
1
 62
     7
100
AcDbMText
 10
-73.00558681634998
 20
-249.252006861793
 30
0.0
 40
4.725
 41
0.0
 71
     4
 72
     1
  1
mit Drehgeber und Bremse\Pwith encoder and brake\Pavec codeur et frein
  7
CONVERTER_15
 73
     1
 44
1.08043217286915
  0
MTEXT
  5
5AE
330
1F
100
AcDbEntity
  8
1
 62
     7
100
AcDbMText
 10
-249.7205868163496
 20
-249.252006861793
 30
0.0
 40
4.725
 41
0.0
 71
     4
 72
     1
  1
mit Resolver\Pwith resolver\Pavec resolveur
  7
CONVERTER_15
 73
     1
 44
1.08043217286915
  0
MTEXT
  5
5AF
330
1F
100
AcDbEntity
  8
1
 62
     7
100
AcDbMText
 10
-96.82728084555959
 20
-270.318283441755
 30
0.0
 40
4.725
 41
0.0
 71
     5
 72
     1
  1
k
  7
CONVERTER_15
 73
     1
 44
1.32052821128451
  0
MTEXT
  5
5B0
330
1F
100
AcDbEntity
  8
1
 62
     7
100
AcDbMText
 10
-32.02728084555956
 20
-270.318283441755
 30
0.0
 40
4.725
 41
0.0
 71
     5
 72
     1
  1
k
  7
CONVERTER_15
 73
     1
 44
1.32052821128451
  0
MTEXT
  5
5B1
330
1F
100
AcDbEntity
  8
1
 62
     3
100
AcDbMText
 10
-96.82728084555966
 20
-283.818283441755
 30
0.0
 40
4.725
 41
0.0
 71
     5
 72
     1
  1
max.288
  7
CONVERTER_15
 73
     1
 44
1.32052821128451
  0
MTEXT
  5
5B2
330
1F
100
AcDbEntity
  8
1
 62
     3
100
AcDbMText
 10
-96.82728084555966
 20
-296.6432834417549
 30
0.0
 40
4.725
 41
0.0
 71
     5
 72
     1
  1
max.328
  7
CONVERTER_15
 73
     1
 44
1.32052821128451
  0
MTEXT
  5
5B3
330
1F
100
AcDbEntity
  8
1
 62
     3
100
AcDbMText
 10
-32.02728084555956
 20
-283.818283441755
 30
0.0
 40
4.725
 41
0.0
 71
     5
 72
     1
  1
max.338
  7
CONVERTER_15
 73
     1
 44
1.32052821128451
  0
MTEXT
  5
5B4
330
1F
100
AcDbEntity
  8
1
 62
     3
100
AcDbMText
 10
-32.02728084555956
 20
-296.6432834417549
 30
0.0
 40
4.725
 41
0.0
 71
     5
 72
     1
  1
max.378
  7
CONVERTER_15
 73
     1
 44
1.32052821128451
  0
MTEXT
  5
5B5
330
1F
100
AcDbEntity
  8
1
 62
     3
100
AcDbMText
 10
-348.7216755855515
 20
-283.818283441755
 30
0.0
 40
4.725
 41
0.0
 71
     4
 72
     1
  1
KSG 368... D(-MF)-R..(/S23)/DED75
  7
CONVERTER_15
 73
     1
 44
1.32052821128451
  0
MTEXT
  5
5B6
330
1F
100
AcDbEntity
  8
1
 62
     3
100
AcDbMText
 10
-226.4272808455598
 20
-296.6432834417549
 30
0.0
 40
4.725
 41
0.0
 71
     5
 72
     1
  1
284
  7
CONVERTER_15
 73
     1
 44
1.32052821128451
  0
DIMENSION
  5
5C1
330
1F
100
AcDbEntity
  8
1
100
AcDbDimension
  2
*D24
 10
-224.9999999999999
 20
203.801759165933
 30
0.0
 11
-210.9819381805584
 21
211.301759165933
 31
0.0
 70
    32
  1
<>
 71
     5
 42
-1.0
 53
0.00013888888889
  3
ME10_DIM_19
100
AcDbAlignedDimension
 13
-197.0000000000009
 23
190.2500000000001
 33
0.0
 14
-224.9999999999999
 24
190.2500000000001
 34
0.0
100
AcDbRotatedDimension
  0
DIMENSION
  5
5CC
330
1F
100
AcDbEntity
  8
1
100
AcDbDimension
  2
*D25
 10
-255.0
 20
15.3466169729934
 30
0.0
 11
-209.768056427303
 21
22.8466169729934
 31
0.0
 70
    32
  1
<>
 71
     5
 42
-1.0
 53
0.00013888888889
  3
ME10_DIM_20
100
AcDbAlignedDimension
 13
-167.0
 23
69.55638280310532
 33
0.0
 14
-255.0
 24
69.55638280310532
 34
0.0
100
AcDbRotatedDimension
  0
DIMENSION
  5
5D7
330
1F
100
AcDbEntity
  8
1
100
AcDbDimension
  2
*D26
 10
-330.329419354841
 20
38.49999999999999
 30
0.0
 11
-341.154419354841
 21
95.2462568808269
 31
0.0
 70
    32
  1
<>
 71
     5
 42
-1.0
 53
90.0
  3
ME10_DIM_21
100
AcDbAlignedDimension
 13
-269.0
 23
143.5
 33
0.0
 14
-269.0
 24
38.5
 34
0.0
 50
90.0
100
AcDbRotatedDimension
  0
DIMENSION
  5
5E2
330
1F
100
AcDbEntity
  8
1
100
AcDbDimension
  2
*D27
 10
-18.5
 20
16.9116379741436
 30
0.0
 11
5.48593986414727
 21
24.4116379741436
 31
0.0
 70
    32
  1
<>
 71
     5
 42
-1.0
 53
0.00013888888889
  3
ME10_DIM_22
100
AcDbAlignedDimension
 13
30.5
 23
33.25
 33
0.0
 14
-18.5
 24
46.95
 34
0.0
100
AcDbRotatedDimension
  0
DIMENSION
  5
5ED
330
1F
100
AcDbEntity
  8
1
100
AcDbDimension
  2
*D28
 10
30.5
 20
16.6657390980822
 30
0.0
 11
54.9116139524957
 21
24.1657390980822
 31
0.0
 70
    32
  1
<>
 71
     5
 42
-1.0
 53
0.00013888888889
  3
ME10_DIM_23
100
AcDbAlignedDimension
 13
79.5
 23
37.05
 33
0.0
 14
30.5
 24
33.25
 34
0.0
100
AcDbRotatedDimension
  0
DIMENSION
  5
5F8
330
1F
100
AcDbEntity
  8
1
100
AcDbDimension
  2
*D29
 10
-27.0
 20
-2.76027211077118
 30
0.0
 11
31.0594229745365
 21
4.73972788922882
 31
0.0
 70
    32
  1
<>
 71
     5
 42
-1.0
 53
0.00013888888889
  3
ME10_DIM_24
100
AcDbAlignedDimension
 13
88.0
 23
38.49999999999999
 33
0.0
 14
-27.0
 24
38.5
 34
0.0
100
AcDbRotatedDimension
  0
DIMENSION
  5
605
330
1F
100
AcDbEntity
  8
1
100
AcDbDimension
  2
*D30
 10
26.5
 20
114.727087559045
 30
0.0
 11
15.6218320437361
 21
122.227087559045
 31
0.0
 70
    32
  1
<>
 71
     5
 42
-1.0
 53
0.00013888888889
  3
ME10_DIM_25
100
AcDbAlignedDimension
 13
34.5
 23
105.0
 33
0.0
 14
26.5
 24
105.0
 34
0.0
100
AcDbRotatedDimension
  0
DIMENSION
  5
610
330
1F
100
AcDbEntity
  8
1
100
AcDbDimension
  2
*D31
 10
-43.8167005060442
 20
42.0
 30
0.0
 11
-51.3167005060442
 21
70.8865255497548
 31
0.0
 70
    32
  1
<>
 71
     5
 42
-1.0
 53
90.0
  3
ME10_DIM_26
100
AcDbAlignedDimension
 13
-27.25
 23
91.0
 33
0.0
 14
-23.45
 24
42.0
 34
0.0
 50
90.0
100
AcDbRotatedDimension
  0
DIMENSION
  5
61B
330
1F
100
AcDbEntity
  8
1
100
AcDbDimension
  2
*D32
 10
-44.0625993821056
 20
91.0
 30
0.0
 11
-51.5625993821056
 21
117.853210877489
 31
0.0
 70
    32
  1
<>
 71
     5
 42
-1.0
 53
90.0
  3
ME10_DIM_27
100
AcDbAlignedDimension
 13
-13.55
 23
140.0
 33
0.0
 14
-27.25
 24
91.0
 34
0.0
 50
90.0
100
AcDbRotatedDimension
  0
DIMENSION
  5
628
330
1F
100
AcDbEntity
  8
1
100
AcDbDimension
  2
*D33
 10
118.476557694503
 20
91.0
 30
0.0
 11
110.976557694503
 21
113.181132232322
 31
0.0
 70
    32
  1
<>
 71
     5
 42
-1.0
 53
90.0
  3
ME10_DIM_28
100
AcDbAlignedDimension
 13
81.43378151674268
 23
105.0
 33
0.0
 14
88.25
 24
91.0
 34
0.0
 50
90.0
100
AcDbRotatedDimension
  0
DIMENSION
  5
633
330
1F
100
AcDbEntity
  8
1
100
AcDbDimension
  2
*D34
 10
321.74135483871
 20
61.5
 30
0.0
 11
314.24135483871
 21
130.178619784053
 31
0.0
 70
    32
  1
<>
 71
     5
 42
-1.0
 53
90.0
  3
ME10_DIM_29
100
AcDbAlignedDimension
 13
265.0
 23
189.9999756716066
 33
0.0
 14
271.0000000000001
 24
61.50000000000001
 34
0.0
 50
90.0
100
AcDbRotatedDimension
  0
DIMENSION
  5
63E
330
1F
100
AcDbEntity
  8
1
100
AcDbDimension
  2
*D35
 10
30.5
 20
210.457377848569
 30
0.0
 11
154.806467741935
 21
217.957377848569
 31
0.0
 70
    32
  1
k
 71
     5
 42
-1.0
 53
0.00013888888889
  3
ME10_DIM_30
100
AcDbAlignedDimension
 13
274.0
 23
140.317279836453
 33
0.0
 14
30.5
 24
148.75
 34
0.0
100
AcDbRotatedDimension
  0
DIMENSION
  5
649
330
1F
100
AcDbEntity
  8
1
100
AcDbDimension
  2
*D36
 10
30.49999999999999
 20
191.197084396111
 30
0.0
 11
142.951965246162
 21
198.697084396111
 31
0.0
 70
    32
  1
q
 71
     5
 42
-1.0
 53
0.00013888888889
  3
ME10_DIM_31
100
AcDbAlignedDimension
 13
248.0
 23
146.5
 33
0.0
 14
30.5
 24
148.75
 34
0.0
100
AcDbRotatedDimension
  0
INSERT
  5
653
330
1F
100
AcDbEntity
  8
1
100
AcDbBlockReference
  2
*D37
 10
0.0
 20
0.0
 30
0.0
  0
INSERT
  5
65F
330
1F
100
AcDbEntity
  8
1
100
AcDbBlockReference
  2
*D38
 10
0.0
 20
0.0
 30
0.0
  0
ENDSEC
  0
SECTION
  2
OBJECTS
  0
DICTIONARY
  5
C
330
0
100
AcDbDictionary
281
     1
  3
ACAD_GROUP
350
D
  3
ACAD_LAYOUT
350
1A
  3
ACAD_MLINESTYLE
350
17
  3
ACAD_PLOTSETTINGS
350
19
  3
ACAD_PLOTSTYLENAME
350
E
  0
DICTIONARY
  5
D
102
{ACAD_REACTORS
330
C
102
}
330
C
100
AcDbDictionary
281
     1
  0
DICTIONARY
  5
1A
102
{ACAD_REACTORS
330
C
102
}
330
C
100
AcDbDictionary
281
     1
  3
Layout1
350
1E
  3
Layout2
350
26
  3
Model
350
22
  0
DICTIONARY
  5
17
102
{ACAD_REACTORS
330
C
102
}
330
C
100
AcDbDictionary
281
     1
  3
Standard
350
18
  0
DICTIONARY
  5
19
102
{ACAD_REACTORS
330
C
102
}
330
C
100
AcDbDictionary
281
     1
  0
ACDBDICTIONARYWDFLT
  5
E
102
{ACAD_REACTORS
330
C
102
}
330
C
100
AcDbDictionary
281
     1
  3
Normal
350
F
100
AcDbDictionaryWithDefault
340
F
  0
LAYOUT
  5
1E
102
{ACAD_REACTORS
330
1A
102
}
330
1A
100
AcDbPlotSettings
  1

  2

  4

  6

 40
0.0
 41
0.0
 42
0.0
 43
0.0
 44
0.0
 45
0.0
 46
0.0
 47
0.0
 48
0.0
 49
0.0
140
0.0
141
0.0
142
1.0
143
1.0
 70
   688
 72
     0
 73
     0
 74
     5
  7

 75
    16
 76
     0
 77
     2
 78
   300
147
1.0
148
0.0
149
0.0
100
AcDbLayout
  1
Layout1
 70
     1
 71
     1
 10
0.0
 20
0.0
 11
0.0
 21
0.0
 12
0.0
 22
0.0
 32
0.0
 14
0.0
 24
0.0
 34
0.0
 15
0.0
 25
0.0
 35
0.0
146
0.0
 13
0.0
 23
0.0
 33
0.0
 16
1.0
 26
0.0
 36
0.0
 17
0.0
 27
1.0
 37
0.0
 76
     0
330
1B
  0
LAYOUT
  5
26
102
{ACAD_REACTORS
330
1A
102
}
330
1A
100
AcDbPlotSettings
  1

  2

  4

  6

 40
0.0
 41
0.0
 42
0.0
 43
0.0
 44
0.0
 45
0.0
 46
0.0
 47
0.0
 48
0.0
 49
0.0
140
0.0
141
0.0
142
1.0
143
1.0
 70
   688
 72
     0
 73
     0
 74
     5
  7

 75
    16
 76
     0
 77
     2
 78
   300
147
1.0
148
0.0
149
0.0
100
AcDbLayout
  1
Layout2
 70
     1
 71
     2
 10
0.0
 20
0.0
 11
0.0
 21
0.0
 12
0.0
 22
0.0
 32
0.0
 14
0.0
 24
0.0
 34
0.0
 15
0.0
 25
0.0
 35
0.0
146
0.0
 13
0.0
 23
0.0
 33
0.0
 16
1.0
 26
0.0
 36
0.0
 17
0.0
 27
1.0
 37
0.0
 76
     0
330
23
  0
LAYOUT
  5
22
102
{ACAD_REACTORS
330
1A
102
}
330
1A
100
AcDbPlotSettings
  1

  2

  4

  6

 40
0.0
 41
0.0
 42
0.0
 43
0.0
 44
0.0
 45
0.0
 46
0.0
 47
0.0
 48
0.0
 49
0.0
140
0.0
141
0.0
142
1.0
143
1.0
 70
  1712
 72
     0
 73
     0
 74
     0
  7

 75
     0
 76
     0
 77
     2
 78
   300
147
1.0
148
0.0
149
0.0
100
AcDbLayout
  1
Model
 70
     1
 71
     0
 10
0.0
 20
0.0
 11
0.0
 21
0.0
 12
0.0
 22
0.0
 32
0.0
 14
-397.760000000002
 24
-334.357404409496
 34
0.0
 15
410.0
 25
234.642595590504
 35
0.0
146
0.0
 13
0.0
 23
0.0
 33
0.0
 16
1.0
 26
0.0
 36
0.0
 17
0.0
 27
1.0
 37
0.0
 76
     0
330
1F
  0
MLINESTYLE
  5
18
102
{ACAD_REACTORS
330
17
102
}
330
17
100
AcDbMlineStyle
  2
Standard
 70
     0
  3

 62
   256
 51
90.0
 52
90.0
 71
     2
 49
0.5
 62
   256
  6
BYLAYER
 49
-0.5
 62
   256
  6
BYLAYER
  0
ACDBPLACEHOLDER
  5
F
102
{ACAD_REACTORS
330
E
102
}
330
E
  0
ENDSEC
  0
EOF
