  0
SECTION
  2
HEADER
  9
$ACADVER
  1
AC1018
  9
$ACADMAINTVER
 70
     0
  9
$DWGCODEPAGE
  3
ANSI_1252
  9
$INSBASE
 10
0.0
 20
0.0
 30
0.0
  9
$EXTMIN
 10
-346.5503127827985
 20
-136.5877436881775
 30
0.0
  9
$EXTMAX
 10
157.2269274193539
 20
123.0209976495214
 30
0.0
  9
$LIMMIN
 10
0.0
 20
0.0
  9
$LIMMAX
 10
12.0
 20
9.0
  9
$ORTHOMODE
 70
     0
  9
$REGENMODE
 70
     1
  9
$FILLMODE
 70
     1
  9
$QTEXTMODE
 70
     0
  9
$MIRRTEXT
 70
     1
  9
$LTSCALE
 40
1.0
  9
$ATTMODE
 70
     1
  9
$TEXTSIZE
 40
0.2
  9
$TRACEWID
 40
0.05
  9
$TEXTSTYLE
  7
Standard
  9
$CLAYER
  8
0
  9
$CELTYPE
  6
ByLayer
  9
$CECOLOR
 62
   256
  9
$CELTSCALE
 40
1.0
  9
$DISPSILH
 70
     0
  9
$DIMSCALE
 40
1.0
  9
$DIMASZ
 40
0.18
  9
$DIMEXO
 40
0.0625
  9
$DIMDLI
 40
0.38
  9
$DIMRND
 40
0.0
  9
$DIMDLE
 40
0.0
  9
$DIMEXE
 40
0.18
  9
$DIMTP
 40
0.0
  9
$DIMTM
 40
0.0
  9
$DIMTXT
 40
0.18
  9
$DIMCEN
 40
0.09
  9
$DIMTSZ
 40
0.0
  9
$DIMTOL
 70
     0
  9
$DIMLIM
 70
     0
  9
$DIMTIH
 70
     1
  9
$DIMTOH
 70
     1
  9
$DIMSE1
 70
     0
  9
$DIMSE2
 70
     0
  9
$DIMTAD
 70
     0
  9
$DIMZIN
 70
     0
  9
$DIMBLK
  1

  9
$DIMASO
 70
     1
  9
$DIMSHO
 70
     1
  9
$DIMPOST
  1

  9
$DIMAPOST
  1

  9
$DIMALT
 70
     0
  9
$DIMALTD
 70
     2
  9
$DIMALTF
 40
25.4
  9
$DIMLFAC
 40
1.0
  9
$DIMTOFL
 70
     0
  9
$DIMTVP
 40
0.0
  9
$DIMTIX
 70
     0
  9
$DIMSOXD
 70
     0
  9
$DIMSAH
 70
     0
  9
$DIMBLK1
  1

  9
$DIMBLK2
  1

  9
$DIMSTYLE
  2
Standard
  9
$DIMCLRD
 70
     0
  9
$DIMCLRE
 70
     0
  9
$DIMCLRT
 70
     0
  9
$DIMTFAC
 40
1.0
  9
$DIMGAP
 40
0.09
  9
$DIMJUST
 70
     0
  9
$DIMSD1
 70
     0
  9
$DIMSD2
 70
     0
  9
$DIMTOLJ
 70
     1
  9
$DIMTZIN
 70
     0
  9
$DIMALTZ
 70
     0
  9
$DIMALTTZ
 70
     0
  9
$DIMUPT
 70
     0
  9
$DIMDEC
 70
     4
  9
$DIMTDEC
 70
     4
  9
$DIMALTU
 70
     2
  9
$DIMALTTD
 70
     2
  9
$DIMTXSTY
  7
Standard
  9
$DIMAUNIT
 70
     0
  9
$DIMADEC
 70
     0
  9
$DIMALTRND
 40
0.0
  9
$DIMAZIN
 70
     0
  9
$DIMDSEP
 70
    46
  9
$DIMATFIT
 70
     3
  9
$DIMFRAC
 70
     0
  9
$DIMLDRBLK
  1

  9
$DIMLUNIT
 70
     2
  9
$DIMLWD
 70
    -2
  9
$DIMLWE
 70
    -2
  9
$DIMTMOVE
 70
     0
  9
$LUNITS
 70
     2
  9
$LUPREC
 70
     4
  9
$SKETCHINC
 40
0.1
  9
$FILLETRAD
 40
0.5
  9
$AUNITS
 70
     0
  9
$AUPREC
 70
     0
  9
$MENU
  1
.
  9
$ELEVATION
 40
0.0
  9
$PELEVATION
 40
0.0
  9
$THICKNESS
 40
0.0
  9
$LIMCHECK
 70
     0
  9
$CHAMFERA
 40
0.5
  9
$CHAMFERB
 40
0.5
  9
$CHAMFERC
 40
1.0
  9
$CHAMFERD
 40
0.0
  9
$SKPOLY
 70
     0
  9
$TDCREATE
 40
2454966.430282674
  9
$TDUCREATE
 40
2454966.34694934
  9
$TDUPDATE
 40
2454966.430282685
  9
$TDUUPDATE
 40
2454966.346949352
  9
$TDINDWG
 40
0.0000000116
  9
$TDUSRTIMER
 40
0.0000000116
  9
$USRTIMER
 70
     1
  9
$ANGBASE
 50
0.0
  9
$ANGDIR
 70
     0
  9
$PDMODE
 70
     0
  9
$PDSIZE
 40
0.0
  9
$PLINEWID
 40
0.0
  9
$SPLFRAME
 70
     0
  9
$SPLINETYPE
 70
     6
  9
$SPLINESEGS
 70
     8
  9
$HANDSEED
  5
26B
  9
$SURFTAB1
 70
     6
  9
$SURFTAB2
 70
     6
  9
$SURFTYPE
 70
     6
  9
$SURFU
 70
     6
  9
$SURFV
 70
     6
  9
$UCSBASE
  2

  9
$UCSNAME
  2

  9
$UCSORG
 10
0.0
 20
0.0
 30
0.0
  9
$UCSXDIR
 10
1.0
 20
0.0
 30
0.0
  9
$UCSYDIR
 10
0.0
 20
1.0
 30
0.0
  9
$UCSORTHOREF
  2

  9
$UCSORTHOVIEW
 70
     0
  9
$UCSORGTOP
 10
0.0
 20
0.0
 30
0.0
  9
$UCSORGBOTTOM
 10
0.0
 20
0.0
 30
0.0
  9
$UCSORGLEFT
 10
0.0
 20
0.0
 30
0.0
  9
$UCSORGRIGHT
 10
0.0
 20
0.0
 30
0.0
  9
$UCSORGFRONT
 10
0.0
 20
0.0
 30
0.0
  9
$UCSORGBACK
 10
0.0
 20
0.0
 30
0.0
  9
$PUCSBASE
  2

  9
$PUCSNAME
  2

  9
$PUCSORG
 10
0.0
 20
0.0
 30
0.0
  9
$PUCSXDIR
 10
1.0
 20
0.0
 30
0.0
  9
$PUCSYDIR
 10
0.0
 20
1.0
 30
0.0
  9
$PUCSORTHOREF
  2

  9
$PUCSORTHOVIEW
 70
     0
  9
$PUCSORGTOP
 10
0.0
 20
0.0
 30
0.0
  9
$PUCSORGBOTTOM
 10
0.0
 20
0.0
 30
0.0
  9
$PUCSORGLEFT
 10
0.0
 20
0.0
 30
0.0
  9
$PUCSORGRIGHT
 10
0.0
 20
0.0
 30
0.0
  9
$PUCSORGFRONT
 10
0.0
 20
0.0
 30
0.0
  9
$PUCSORGBACK
 10
0.0
 20
0.0
 30
0.0
  9
$USERI1
 70
     0
  9
$USERI2
 70
     0
  9
$USERI3
 70
     0
  9
$USERI4
 70
     0
  9
$USERI5
 70
     0
  9
$USERR1
 40
14.5
  9
$USERR2
 40
0.0
  9
$USERR3
 40
0.0
  9
$USERR4
 40
0.0
  9
$USERR5
 40
0.0
  9
$WORLDVIEW
 70
     1
  9
$SHADEDGE
 70
     3
  9
$SHADEDIF
 70
    70
  9
$TILEMODE
 70
     1
  9
$MAXACTVP
 70
    64
  9
$PINSBASE
 10
0.0
 20
0.0
 30
0.0
  9
$PLIMCHECK
 70
     0
  9
$PEXTMIN
 10
1.00000000000000E+20
 20
1.00000000000000E+20
 30
1.00000000000000E+20
  9
$PEXTMAX
 10
-1.00000000000000E+20
 20
-1.00000000000000E+20
 30
-1.00000000000000E+20
  9
$PLIMMIN
 10
0.0
 20
0.0
  9
$PLIMMAX
 10
12.0
 20
9.0
  9
$UNITMODE
 70
     0
  9
$VISRETAIN
 70
     1
  9
$PLINEGEN
 70
     0
  9
$PSLTSCALE
 70
     1
  9
$TREEDEPTH
 70
  3020
  9
$CMLSTYLE
  2
Standard
  9
$CMLJUST
 70
     0
  9
$CMLSCALE
 40
1.0
  9
$PROXYGRAPHICS
 70
     1
  9
$MEASUREMENT
 70
     1
  9
$CELWEIGHT
370
    -1
  9
$ENDCAPS
280
     0
  9
$JOINSTYLE
280
     0
  9
$LWDISPLAY
290
     0
  9
$INSUNITS
 70
     1
  9
$HYPERLINKBASE
  1

  9
$STYLESHEET
  1

  9
$XEDIT
290
     1
  9
$CEPSNTYPE
380
     0
  9
$PSTYLEMODE
290
     1
  9
$FINGERPRINTGUID
  2
{B6607000-1E13-4D19-BEC9-2C0A3323773C}
  9
$VERSIONGUID
  2
{FAEB1C32-E019-11D5-929B-00C0DF256EC4}
  9
$EXTNAMES
290
     1
  9
$PSVPSCALE
 40
0.0
  9
$OLESTARTUP
290
     0
  9
$SORTENTS
280
   127
  9
$INDEXCTL
280
     0
  9
$HIDETEXT
280
     1
  9
$XCLIPFRAME
290
     0
  9
$HALOGAP
280
     0
  9
$OBSCOLOR
 70
   257
  9
$OBSLTYPE
280
     0
  9
$INTERSECTIONDISPLAY
280
     0
  9
$INTERSECTIONCOLOR
 70
   257
  9
$DIMASSOC
280
     2
  9
$PROJECTNAME
  1

  0
ENDSEC
  0
SECTION
  2
CLASSES
  0
CLASS
  1
ACDBDICTIONARYWDFLT
  2
AcDbDictionaryWithDefault
  3
ObjectDBX Classes
 90
        0
 91
        3
280
     0
281
     0
  0
ENDSEC
  0
SECTION
  2
TABLES
  0
TABLE
  2
VPORT
  5
8
330
0
100
AcDbSymbolTable
 70
     1
  0
VPORT
  5
29
330
8
100
AcDbSymbolTableRecord
100
AcDbViewportTableRecord
  2
*Active
 70
     0
 10
0.0
 20
0.0
 11
1.0
 21
1.0
 12
-94.66169268172231
 22
-6.78337301932805
 13
0.0
 23
0.0
 14
0.5
 24
0.5
 15
0.5
 25
0.5
 16
0.0
 26
0.0
 36
1.0
 17
0.0
 27
0.0
 37
0.0
 40
345.7679999604747
 41
1.60267857142857
 42
50.0
 43
0.0
 44
0.0
 50
0.0
 51
0.0
 71
     0
 72
   100
 73
     1
 74
     3
 75
     0
 76
     0
 77
     0
 78
     0
281
     0
 65
     1
110
0.0
120
0.0
130
0.0
111
1.0
121
0.0
131
0.0
112
0.0
122
1.0
132
0.0
 79
     0
146
0.0
  0
ENDTAB
  0
TABLE
  2
LTYPE
  5
5
330
0
100
AcDbSymbolTable
 70
     8
  0
LTYPE
  5
14
330
5
100
AcDbSymbolTableRecord
100
AcDbLinetypeTableRecord
  2
ByBlock
 70
     0
  3

 72
    65
 73
     0
 40
0.0
  0
LTYPE
  5
15
330
5
100
AcDbSymbolTableRecord
100
AcDbLinetypeTableRecord
  2
ByLayer
 70
     0
  3

 72
    65
 73
     0
 40
0.0
  0
LTYPE
  5
16
330
5
100
AcDbSymbolTableRecord
100
AcDbLinetypeTableRecord
  2
Continuous
 70
     0
  3
Solid line
 72
    65
 73
     0
 40
0.0
  0
LTYPE
  5
2A
330
5
100
AcDbSymbolTableRecord
100
AcDbLinetypeTableRecord
  2
DASHED
 70
     0
  3
Dashed
 72
    65
 73
     2
 40
15.0
 49
7.0
 74
     0
 49
-8.0
 74
     0
  0
LTYPE
  5
2B
330
5
100
AcDbSymbolTableRecord
100
AcDbLinetypeTableRecord
  2
DOTTED
 70
     0
  3
Dotted
 72
    65
 73
     2
 40
1.0
 49
0.0
 74
     0
 49
-1.0
 74
     0
  0
LTYPE
  5
2C
330
5
100
AcDbSymbolTableRecord
100
AcDbLinetypeTableRecord
  2
DOT_CENTER
 70
     0
  3
Dot_Center
 72
    65
 73
     4
 40
14.0
 49
12.0
 74
     0
 49
-1.0
 74
     0
 49
0.0
 74
     0
 49
-1.0
 74
     0
  0
LTYPE
  5
2D
330
5
100
AcDbSymbolTableRecord
100
AcDbLinetypeTableRecord
  2
LONG_DASHED
 70
     0
  3
Long_Dashed
 72
    65
 73
     2
 40
15.0
 49
10.0
 74
     0
 49
-5.0
 74
     0
  0
LTYPE
  5
2E
330
5
100
AcDbSymbolTableRecord
100
AcDbLinetypeTableRecord
  2
DASH_CENTER
 70
     0
  3
Dash_Center
 72
    65
 73
     4
 40
14.0
 49
11.0
 74
     0
 49
-1.0
 74
     0
 49
1.0
 74
     0
 49
-1.0
 74
     0
  0
LTYPE
  5
2F
330
5
100
AcDbSymbolTableRecord
100
AcDbLinetypeTableRecord
  2
PHANTOM
 70
     0
  3
Phantom
 72
    65
 73
     6
 40
13.0
 49
10.0
 74
     0
 49
-1.0
 74
     0
 49
0.0
 74
     0
 49
-1.0
 74
     0
 49
0.0
 74
     0
 49
-1.0
 74
     0
  0
LTYPE
  5
30
330
5
100
AcDbSymbolTableRecord
100
AcDbLinetypeTableRecord
  2
CENTER_DASH_DASH
 70
     0
  3
Center_Dash_Dash
 72
    65
 73
     6
 40
14.0
 49
9.0
 74
     0
 49
-1.0
 74
     0
 49
1.0
 74
     0
 49
-1.0
 74
     0
 49
1.0
 74
     0
 49
-1.0
 74
     0
  0
ENDTAB
  0
TABLE
  2
LAYER
  5
2
330
0
100
AcDbSymbolTable
 70
     2
  0
LAYER
  5
10
330
2
100
AcDbSymbolTableRecord
100
AcDbLayerTableRecord
  2
0
 70
     0
 62
     7
  6
Continuous
370
    -3
390
F
  0
LAYER
  5
31
330
2
100
AcDbSymbolTableRecord
100
AcDbLayerTableRecord
  2
1
 70
     0
 62
     7
  6
Continuous
370
    -3
390
F
  0
ENDTAB
  0
TABLE
  2
STYLE
  5
3
330
0
100
AcDbSymbolTable
 70
     2
  0
STYLE
  5
11
330
3
100
AcDbSymbolTableRecord
100
AcDbTextStyleTableRecord
  2
Standard
 70
     0
 40
0.0
 41
1.0
 50
0.0
 71
     0
 42
0.2
  3
txt
  4

  0
STYLE
  5
152
330
3
100
AcDbSymbolTableRecord
100
AcDbTextStyleTableRecord
  2
CONVERTER_11
 70
     0
 40
0.0
 41
0.72
 50
0.0
 71
     0
 42
0.2
  3
txt.shx
  4

  0
ENDTAB
  0
TABLE
  2
VIEW
  5
6
330
0
100
AcDbSymbolTable
 70
     0
  0
ENDTAB
  0
TABLE
  2
UCS
  5
7
330
0
100
AcDbSymbolTable
 70
     0
  0
ENDTAB
  0
TABLE
  2
APPID
  5
9
330
0
100
AcDbSymbolTable
 70
     1
  0
APPID
  5
12
330
9
100
AcDbSymbolTableRecord
100
AcDbRegAppTableRecord
  2
ACAD
 70
     0
  0
ENDTAB
  0
TABLE
  2
DIMSTYLE
  5
A
330
0
100
AcDbSymbolTable
 70
    24
100
AcDbDimStyleTable
  0
DIMSTYLE
105
27
330
A
100
AcDbSymbolTableRecord
100
AcDbDimStyleTableRecord
  2
Standard
 70
     0
340
11
  0
DIMSTYLE
105
15E
102
{ACAD_REACTORS
330
15F
102
}
330
A
100
AcDbSymbolTableRecord
100
AcDbDimStyleTableRecord
  2
ME10_DIM_10
 70
     0
  3
{\Fgdt;n}<>
 41
8.13953488372093
 42
0.0
 44
2.32558139534884
 47
7.0
 71
     1
 73
     0
 74
     0
 77
     1
 78
     8
140
8.13953488372093
146
0.6
147
4.65116279069768
172
     1
173
     1
176
     2
177
     2
178
     3
271
     3
272
     0
340
152
  0
DIMSTYLE
105
169
102
{ACAD_REACTORS
330
16A
102
}
330
A
100
AcDbSymbolTableRecord
100
AcDbDimStyleTableRecord
  2
ME10_DIM_11
 70
     0
  3
{\Fgdt;n}<>
 41
8.13953488372093
 42
0.0
 44
2.32558139534884
 48
-7.0
 71
     1
 73
     0
 74
     0
 77
     1
 78
     8
140
8.13953488372093
146
0.6
147
4.65116279069768
172
     1
173
     1
176
     2
177
     2
178
     3
271
     3
272
     0
340
152
  0
DIMSTYLE
105
175
102
{ACAD_REACTORS
330
176
102
}
330
A
100
AcDbSymbolTableRecord
100
AcDbDimStyleTableRecord
  2
ME10_DIM_12
 70
     0
  3
{\Fgdt;n}<>
 41
8.13953488372093
 42
0.0
 44
2.32558139534884
 48
-6.0
 71
     1
 73
     0
 74
     0
 77
     1
 78
     8
140
8.13953488372093
146
0.6
147
4.65116279069768
172
     1
173
     1
176
     2
177
     2
178
     3
271
     3
272
     0
340
152
  0
DIMSTYLE
105
181
102
{ACAD_REACTORS
330
182
102
}
330
A
100
AcDbSymbolTableRecord
100
AcDbDimStyleTableRecord
  2
ME10_DIM_13
 70
     0
  3
{\Fgdt;n}<>
 41
8.13953488372093
 42
0.0
 44
2.32558139534884
 48
-6.0
 71
     1
 73
     0
 74
     0
 77
     1
 78
     8
140
8.13953488372093
146
0.6
147
4.65116279069768
172
     1
173
     1
176
     2
177
     2
178
     3
271
     3
272
     0
340
152
  0
DIMSTYLE
105
18E
102
{ACAD_REACTORS
330
18F
102
}
330
A
100
AcDbSymbolTableRecord
100
AcDbDimStyleTableRecord
  2
ME10_DIM_14
 70
     0
 41
8.13953488372093
 42
0.0
 44
2.32558139534884
 73
     0
 74
     0
 77
     1
 78
     8
140
8.13953488372093
147
4.65116279069768
172
     1
173
     1
176
     2
177
     2
178
     3
271
     3
340
152
  0
DIMSTYLE
105
19B
102
{ACAD_REACTORS
330
19C
102
}
330
A
100
AcDbSymbolTableRecord
100
AcDbDimStyleTableRecord
  2
ME10_DIM_15
 70
     0
 41
8.13953488372093
 42
0.0
 44
2.32558139534884
 73
     0
 74
     0
 77
     1
 78
     8
140
8.13953488372093
147
4.65116279069768
172
     1
173
     1
176
     2
177
     2
178
     3
271
     3
340
152
  0
DIMSTYLE
105
1A8
102
{ACAD_REACTORS
330
1A9
102
}
330
A
100
AcDbSymbolTableRecord
100
AcDbDimStyleTableRecord
  2
ME10_DIM_16
 70
     0
 41
8.13953488372093
 42
0.0
 44
2.32558139534884
 73
     0
 74
     0
 77
     1
 78
     8
140
8.13953488372093
147
4.65116279069768
172
     1
173
     1
176
     2
177
     2
178
     3
271
     3
340
152
  0
DIMSTYLE
105
1B3
102
{ACAD_REACTORS
330
1B4
102
}
330
A
100
AcDbSymbolTableRecord
100
AcDbDimStyleTableRecord
  2
ME10_DIM_17
 70
     0
 41
8.13953488372093
 42
0.0
 44
2.32558139534884
 73
     0
 74
     0
 77
     1
 78
     8
140
8.13953488372093
147
4.65116279069768
172
     1
173
     1
176
     2
177
     2
178
     3
271
     3
340
152
  0
DIMSTYLE
105
1BE
102
{ACAD_REACTORS
330
1BF
102
}
330
A
100
AcDbSymbolTableRecord
100
AcDbDimStyleTableRecord
  2
ME10_DIM_18
 70
     0
 41
8.13953488372093
 42
0.0
 44
2.32558139534884
 73
     0
 74
     0
 77
     1
 78
     8
140
8.13953488372093
147
4.65116279069768
172
     1
173
     1
176
     2
177
     2
178
     3
271
     3
340
152
  0
DIMSTYLE
105
1CB
102
{ACAD_REACTORS
330
1CC
102
}
330
A
100
AcDbSymbolTableRecord
100
AcDbDimStyleTableRecord
  2
ME10_DIM_19
 70
     0
 41
8.13953488372093
 42
0.0
 44
2.32558139534884
 73
     0
 74
     0
 77
     1
 78
     8
140
8.13953488372093
147
4.65116279069768
172
     1
173
     1
176
     2
177
     2
178
     3
271
     3
340
152
  0
DIMSTYLE
105
1D8
102
{ACAD_REACTORS
330
1D9
102
}
330
A
100
AcDbSymbolTableRecord
100
AcDbDimStyleTableRecord
  2
ME10_DIM_20
 70
     0
 41
8.13953488372093
 42
0.0
 44
2.32558139534884
 73
     0
 74
     0
 77
     1
 78
     8
140
8.13953488372093
147
4.65116279069768
172
     1
173
     1
176
     2
177
     2
178
     3
271
     3
340
152
  0
DIMSTYLE
105
1E5
102
{ACAD_REACTORS
330
1E6
102
}
330
A
100
AcDbSymbolTableRecord
100
AcDbDimStyleTableRecord
  2
ME10_DIM_21
 70
     0
 41
8.13953488372093
 42
0.0
 44
2.32558139534884
 73
     0
 74
     0
 77
     1
 78
     8
140
8.13953488372093
147
4.65116279069768
172
     1
173
     1
176
     2
177
     2
178
     3
271
     3
340
152
  0
DIMSTYLE
105
1F2
102
{ACAD_REACTORS
330
1F3
102
}
330
A
100
AcDbSymbolTableRecord
100
AcDbDimStyleTableRecord
  2
ME10_DIM_22
 70
     0
 41
8.13953488372093
 42
0.0
 44
2.32558139534884
 73
     0
 74
     0
 77
     1
 78
     8
140
8.13953488372093
147
4.65116279069768
172
     1
173
     1
176
     2
177
     2
178
     3
271
     3
340
152
  0
DIMSTYLE
105
1FD
102
{ACAD_REACTORS
330
1FE
102
}
330
A
100
AcDbSymbolTableRecord
100
AcDbDimStyleTableRecord
  2
ME10_DIM_23
 70
     0
 41
8.13953488372093
 42
0.0
 44
2.32558139534884
 73
     0
 74
     0
 77
     1
 78
     8
140
8.13953488372093
147
4.65116279069768
172
     1
173
     1
176
     2
177
     2
178
     3
271
     3
340
152
  0
DIMSTYLE
105
208
102
{ACAD_REACTORS
330
209
102
}
330
A
100
AcDbSymbolTableRecord
100
AcDbDimStyleTableRecord
  2
ME10_DIM_24
 70
     0
 41
8.13953488372093
 42
0.0
 44
2.32558139534884
 73
     0
 74
     0
 77
     1
 78
     8
140
8.13953488372093
147
4.65116279069768
172
     1
173
     1
176
     2
177
     2
178
     3
271
     3
340
152
  0
DIMSTYLE
105
215
102
{ACAD_REACTORS
330
216
102
}
330
A
100
AcDbSymbolTableRecord
100
AcDbDimStyleTableRecord
  2
ME10_DIM_25
 70
     0
 41
8.13953488372093
 42
0.0
 44
2.32558139534884
 73
     0
 74
     0
 77
     1
 78
     8
140
8.13953488372093
147
4.65116279069768
172
     1
173
     1
176
     2
177
     2
178
     3
271
     3
340
152
  0
DIMSTYLE
105
222
102
{ACAD_REACTORS
330
223
102
}
330
A
100
AcDbSymbolTableRecord
100
AcDbDimStyleTableRecord
  2
ME10_DIM_26
 70
     0
 41
8.13953488372093
 42
0.0
 44
2.32558139534884
 73
     0
 74
     0
 77
     1
 78
     8
140
8.13953488372093
147
4.65116279069768
172
     1
173
     1
176
     2
177
     2
178
     3
271
     3
340
152
  0
DIMSTYLE
105
22D
102
{ACAD_REACTORS
330
22E
102
}
330
A
100
AcDbSymbolTableRecord
100
AcDbDimStyleTableRecord
  2
ME10_DIM_27
 70
     0
 41
8.13953488372093
 42
0.0
 44
2.32558139534884
 73
     0
 74
     0
 77
     1
 78
     8
140
8.13953488372093
147
4.65116279069768
172
     1
173
     1
176
     2
177
     2
178
     3
271
     3
340
152
  0
DIMSTYLE
105
23A
102
{ACAD_REACTORS
330
23B
102
}
330
A
100
AcDbSymbolTableRecord
100
AcDbDimStyleTableRecord
  2
ME10_DIM_28
 70
     0
 41
8.13953488372093
 42
0.0
 44
2.32558139534884
 73
     0
 74
     0
 77
     1
 78
     8
140
8.13953488372093
147
4.65116279069768
172
     1
173
     1
176
     2
177
     2
178
     3
271
     3
340
152
  0
DIMSTYLE
105
245
102
{ACAD_REACTORS
330
246
102
}
330
A
100
AcDbSymbolTableRecord
100
AcDbDimStyleTableRecord
  2
ME10_DIM_29
 70
     0
 41
8.13953488372093
 42
0.0
 44
2.32558139534884
 73
     0
 74
     0
 77
     1
 78
     8
140
8.13953488372093
147
4.65116279069768
172
     1
173
     1
176
     2
177
     2
178
     3
271
     3
340
152
  0
DIMSTYLE
105
252
102
{ACAD_REACTORS
330
253
102
}
330
A
100
AcDbSymbolTableRecord
100
AcDbDimStyleTableRecord
  2
ME10_DIM_30
 70
     0
 41
8.13953488372093
 42
0.0
 44
2.32558139534884
 73
     0
 74
     0
 77
     1
 78
     8
140
8.13953488372093
147
4.65116279069768
172
     1
173
     1
176
     2
177
     2
178
     3
271
     3
340
152
  0
DIMSTYLE
105
25D
102
{ACAD_REACTORS
330
25E
102
}
330
A
100
AcDbSymbolTableRecord
100
AcDbDimStyleTableRecord
  2
ME10_DIM_31
 70
     0
 41
8.13953488372093
 42
0.0
 44
2.32558139534884
 73
     0
 74
     0
 77
     1
 78
     8
140
8.13953488372093
147
4.65116279069768
172
     1
173
     1
176
     2
177
     2
178
     3
271
     3
340
152
  0
DIMSTYLE
105
269
102
{ACAD_REACTORS
330
26A
102
}
330
A
100
AcDbSymbolTableRecord
100
AcDbDimStyleTableRecord
  2
ME10_DIM_32
 70
     0
  3
{\Fgdt;n}<>
 41
8.13953488372093
 42
0.0
 44
2.32558139534884
 47
7.0
 71
     1
 73
     0
 74
     0
 77
     1
 78
     8
140
8.13953488372093
146
0.6
147
4.65116279069768
172
     1
173
     1
176
     2
177
     2
178
     3
271
     3
272
     0
340
152
  0
ENDTAB
  0
TABLE
  2
BLOCK_RECORD
  5
1
330
0
100
AcDbSymbolTable
 70
    25
  0
BLOCK_RECORD
  5
1F
330
1
100
AcDbSymbolTableRecord
100
AcDbBlockTableRecord
  2
*Model_Space
340
22
  0
BLOCK_RECORD
  5
1B
330
1
100
AcDbSymbolTableRecord
100
AcDbBlockTableRecord
  2
*Paper_Space
340
1E
  0
BLOCK_RECORD
  5
23
330
1
100
AcDbSymbolTableRecord
100
AcDbBlockTableRecord
  2
*Paper_Space0
340
26
  0
BLOCK_RECORD
  5
32
330
1
100
AcDbSymbolTableRecord
100
AcDbBlockTableRecord
  2
TOP
340
0
102
{BLKREFS
331
35
102
}
  0
BLOCK_RECORD
  5
154
330
1
100
AcDbSymbolTableRecord
100
AcDbBlockTableRecord
  2
*D2
340
0
  0
BLOCK_RECORD
  5
160
330
1
100
AcDbSymbolTableRecord
100
AcDbBlockTableRecord
  2
*D3
340
0
  0
BLOCK_RECORD
  5
16B
330
1
100
AcDbSymbolTableRecord
100
AcDbBlockTableRecord
  2
*D4
340
0
  0
BLOCK_RECORD
  5
177
330
1
100
AcDbSymbolTableRecord
100
AcDbBlockTableRecord
  2
*D5
340
0
  0
BLOCK_RECORD
  5
183
330
1
100
AcDbSymbolTableRecord
100
AcDbBlockTableRecord
  2
*D6
340
0
  0
BLOCK_RECORD
  5
190
330
1
100
AcDbSymbolTableRecord
100
AcDbBlockTableRecord
  2
*D7
340
0
  0
BLOCK_RECORD
  5
19D
330
1
100
AcDbSymbolTableRecord
100
AcDbBlockTableRecord
  2
*D8
340
0
  0
BLOCK_RECORD
  5
1AA
330
1
100
AcDbSymbolTableRecord
100
AcDbBlockTableRecord
  2
*D9
340
0
  0
BLOCK_RECORD
  5
1B5
330
1
100
AcDbSymbolTableRecord
100
AcDbBlockTableRecord
  2
*D10
340
0
  0
BLOCK_RECORD
  5
1C0
330
1
100
AcDbSymbolTableRecord
100
AcDbBlockTableRecord
  2
*D11
340
0
  0
BLOCK_RECORD
  5
1CD
330
1
100
AcDbSymbolTableRecord
100
AcDbBlockTableRecord
  2
*D12
340
0
  0
BLOCK_RECORD
  5
1DA
330
1
100
AcDbSymbolTableRecord
100
AcDbBlockTableRecord
  2
*D13
340
0
  0
BLOCK_RECORD
  5
1E7
330
1
100
AcDbSymbolTableRecord
100
AcDbBlockTableRecord
  2
*D14
340
0
  0
BLOCK_RECORD
  5
1F4
330
1
100
AcDbSymbolTableRecord
100
AcDbBlockTableRecord
  2
*D15
340
0
  0
BLOCK_RECORD
  5
1FF
330
1
100
AcDbSymbolTableRecord
100
AcDbBlockTableRecord
  2
*D16
340
0
  0
BLOCK_RECORD
  5
20A
330
1
100
AcDbSymbolTableRecord
100
AcDbBlockTableRecord
  2
*D17
340
0
  0
BLOCK_RECORD
  5
217
330
1
100
AcDbSymbolTableRecord
100
AcDbBlockTableRecord
  2
*D18
340
0
  0
BLOCK_RECORD
  5
224
330
1
100
AcDbSymbolTableRecord
100
AcDbBlockTableRecord
  2
*D19
340
0
  0
BLOCK_RECORD
  5
22F
330
1
100
AcDbSymbolTableRecord
100
AcDbBlockTableRecord
  2
*D20
340
0
  0
BLOCK_RECORD
  5
23C
330
1
100
AcDbSymbolTableRecord
100
AcDbBlockTableRecord
  2
*D21
340
0
  0
BLOCK_RECORD
  5
247
330
1
100
AcDbSymbolTableRecord
100
AcDbBlockTableRecord
  2
*D22
340
0
  0
BLOCK_RECORD
  5
254
330
1
100
AcDbSymbolTableRecord
100
AcDbBlockTableRecord
  2
*D23
340
0
  0
BLOCK_RECORD
  5
25F
330
1
100
AcDbSymbolTableRecord
100
AcDbBlockTableRecord
  2
*D24
340
0
  0
ENDTAB
  0
ENDSEC
  0
SECTION
  2
BLOCKS
  0
BLOCK
  5
20
330
1F
100
AcDbEntity
  8
0
100
AcDbBlockBegin
  2
*Model_Space
 70
     0
 71
     0
 10
0.0
 20
0.0
 30
0.0
  3
*Model_Space
  1

  0
ENDBLK
  5
21
330
1F
100
AcDbEntity
  8
0
100
AcDbBlockEnd
  0
BLOCK
  5
1C
330
1B
100
AcDbEntity
 67
     1
  8
0
100
AcDbBlockBegin
  2
*Paper_Space
 70
     0
 71
     0
 10
0.0
 20
0.0
 30
0.0
  3
*Paper_Space
  1

  0
ENDBLK
  5
1D
330
1B
100
AcDbEntity
 67
     1
  8
0
100
AcDbBlockEnd
  0
BLOCK
  5
24
330
23
100
AcDbEntity
  8
0
100
AcDbBlockBegin
  2
*Paper_Space0
 70
     0
 71
     0
 10
0.0
 20
0.0
 30
0.0
  3
*Paper_Space0
  1

  0
ENDBLK
  5
25
330
23
100
AcDbEntity
  8
0
100
AcDbBlockEnd
  0
BLOCK
  5
33
330
32
100
AcDbEntity
  8
0
100
AcDbBlockBegin
  2
TOP
 70
     0
 71
     0
 10
-271.6530725806461
 20
-140.9664999999998
 30
0.0
  3
TOP
  1

  0
POINT
  5
36
330
32
100
AcDbEntity
  8
1
 62
     3
 60
     1
100
AcDbPoint
 10
-288.2730725806461
 20
-75.59685483870938
 30
0.0
  0
POINT
  5
37
330
32
100
AcDbEntity
  8
1
 62
     3
 60
     1
100
AcDbPoint
 10
-183.2730725806461
 20
-75.59685483870938
 30
0.0
  0
POINT
  5
38
330
32
100
AcDbEntity
  8
1
 62
     3
 60
     1
100
AcDbPoint
 10
-183.2730725806461
 20
-62.59685483870938
 30
0.0
  0
POINT
  5
39
330
32
100
AcDbEntity
  8
1
 62
     3
 60
     1
100
AcDbPoint
 10
-288.2730725806461
 20
-62.59685483870938
 30
0.0
  0
POINT
  5
3A
330
32
100
AcDbEntity
  8
1
 62
     3
 60
     1
100
AcDbPoint
 10
-293.2730725806461
 20
-62.59685483870938
 30
0.0
  0
POINT
  5
3B
330
32
100
AcDbEntity
  8
1
 62
     3
 60
     1
100
AcDbPoint
 10
-178.2730725806461
 20
-62.59685483870938
 30
0.0
  0
POINT
  5
3C
330
32
100
AcDbEntity
  8
1
 62
     3
 60
     1
100
AcDbPoint
 10
-293.2730725806461
 20
-51.59685483870938
 30
0.0
  0
POINT
  5
3D
330
32
100
AcDbEntity
  8
1
 62
     3
 60
     1
100
AcDbPoint
 10
-178.2730725806461
 20
-51.59685483870938
 30
0.0
  0
POINT
  5
3E
330
32
100
AcDbEntity
  8
1
 62
     3
 60
     1
100
AcDbPoint
 10
-288.2730725806461
 20
-51.59685483870938
 30
0.0
  0
POINT
  5
3F
330
32
100
AcDbEntity
  8
1
 62
     3
 60
     1
100
AcDbPoint
 10
-183.2730725806461
 20
-51.59685483870938
 30
0.0
  0
POINT
  5
40
330
32
100
AcDbEntity
  8
1
 62
     3
 60
     1
100
AcDbPoint
 10
-121.7730725806461
 20
26.40314516129062
 30
0.0
  0
POINT
  5
41
330
32
100
AcDbEntity
  8
1
 62
     3
 60
     1
100
AcDbPoint
 10
-121.7730725806461
 20
-61.59685483870938
 30
0.0
  0
POINT
  5
42
330
32
100
AcDbEntity
  8
1
 62
     3
 60
     1
100
AcDbPoint
 10
-288.2730725806461
 20
6.40314516129062
 30
0.0
  0
POINT
  5
43
330
32
100
AcDbEntity
  8
1
 62
     3
 60
     1
100
AcDbPoint
 10
-138.7730725806461
 20
26.40314516129062
 30
0.0
  0
POINT
  5
44
330
32
100
AcDbEntity
  8
1
 62
     3
 60
     1
100
AcDbPoint
 10
-178.2730725806461
 20
17.40314516129062
 30
0.0
  0
POINT
  5
45
330
32
100
AcDbEntity
  8
1
 62
     3
 60
     1
100
AcDbPoint
 10
-138.7730725806461
 20
-61.59685483870938
 30
0.0
  0
POINT
  5
46
330
32
100
AcDbEntity
  8
1
 62
     3
 60
     1
100
AcDbPoint
 10
-172.2730725806461
 20
-51.59685483870938
 30
0.0
  0
POINT
  5
47
330
32
100
AcDbEntity
  8
1
 62
     3
 60
     1
100
AcDbPoint
 10
-121.7730725806461
 20
17.90314516129062
 30
0.0
  0
POINT
  5
48
330
32
100
AcDbEntity
  8
1
 62
     3
 60
     1
100
AcDbPoint
 10
-121.7730725806461
 20
-53.09685483870938
 30
0.0
  0
POINT
  5
49
330
32
100
AcDbEntity
  8
1
 62
     3
 60
     1
100
AcDbPoint
 10
-178.2730725806461
 20
-39.59685483870938
 30
0.0
  0
POINT
  5
4A
330
32
100
AcDbEntity
  8
1
 62
     3
 60
     1
100
AcDbPoint
 10
-178.2730725806461
 20
4.40314516129062
 30
0.0
  0
POINT
  5
4B
330
32
100
AcDbEntity
  8
1
 62
     3
 60
     1
100
AcDbPoint
 10
-178.2730725806461
 20
-33.59685483870938
 30
0.0
  0
POINT
  5
4C
330
32
100
AcDbEntity
  8
1
 62
     3
 60
     1
100
AcDbPoint
 10
-178.2730725806461
 20
-1.59685483870938
 30
0.0
  0
POINT
  5
4D
330
32
100
AcDbEntity
  8
1
 62
     3
 60
     1
100
AcDbPoint
 10
-180.809210220068
 20
4.40314516129062
 30
0.0
  0
POINT
  5
4E
330
32
100
AcDbEntity
  8
1
 62
     3
 60
     1
100
AcDbPoint
 10
-180.4841612395139
 20
-1.59685483870938
 30
0.0
  0
POINT
  5
4F
330
32
100
AcDbEntity
  8
1
 62
     3
 60
     1
100
AcDbPoint
 10
-180.5654234846524
 20
-33.59685483870938
 30
0.0
  0
POINT
  5
50
330
32
100
AcDbEntity
  8
1
 62
     3
 60
     1
100
AcDbPoint
 10
-180.2299620715736
 20
-39.59685483870938
 30
0.0
  0
POINT
  5
51
330
32
100
AcDbEntity
  8
1
 62
     3
 60
     1
100
AcDbPoint
 10
93.7269274193539
 20
-75.59685483870938
 30
0.0
  0
POINT
  5
52
330
32
100
AcDbEntity
  8
1
 62
     3
 60
     1
100
AcDbPoint
 10
-11.2730725806461
 20
-75.59685483870938
 30
0.0
  0
POINT
  5
53
330
32
100
AcDbEntity
  8
1
 62
     3
 60
     1
100
AcDbPoint
 10
93.7269274193539
 20
-62.59685483870938
 30
0.0
  0
POINT
  5
54
330
32
100
AcDbEntity
  8
1
 62
     3
 60
     1
100
AcDbPoint
 10
-11.2730725806461
 20
-62.59685483870938
 30
0.0
  0
POINT
  5
55
330
32
100
AcDbEntity
  8
1
 62
     3
 60
     1
100
AcDbPoint
 10
98.7269274193539
 20
-62.59685483870938
 30
0.0
  0
POINT
  5
56
330
32
100
AcDbEntity
  8
1
 62
     3
 60
     1
100
AcDbPoint
 10
-16.2730725806461
 20
-62.59685483870938
 30
0.0
  0
POINT
  5
57
330
32
100
AcDbEntity
  8
1
 62
     3
 60
     1
100
AcDbPoint
 10
-11.2730725806461
 20
6.40314516129062
 30
0.0
  0
POINT
  5
58
330
32
100
AcDbEntity
  8
1
 62
     3
 60
     1
100
AcDbPoint
 10
93.7269274193539
 20
-51.59685483870938
 30
0.0
  0
POINT
  5
59
330
32
100
AcDbEntity
  8
1
 62
     3
 60
     1
100
AcDbPoint
 10
-11.2730725806461
 20
-51.59685483870938
 30
0.0
  0
POINT
  5
5A
330
32
100
AcDbEntity
  8
1
 62
     3
 60
     1
100
AcDbPoint
 10
-16.2730725806461
 20
-51.59685483870938
 30
0.0
  0
POINT
  5
5B
330
32
100
AcDbEntity
  8
1
 62
     3
 60
     1
100
AcDbPoint
 10
98.7269274193539
 20
17.40314516129062
 30
0.0
  0
POINT
  5
5C
330
32
100
AcDbEntity
  8
1
 62
     3
 60
     1
100
AcDbPoint
 10
104.7269274193539
 20
-51.59685483870938
 30
0.0
  0
POINT
  5
5D
330
32
100
AcDbEntity
  8
1
 62
     3
 60
     1
100
AcDbPoint
 10
98.7269274193539
 20
-51.59685483870938
 30
0.0
  0
POINT
  5
5E
330
32
100
AcDbEntity
  8
1
 62
     3
 60
     1
100
AcDbPoint
 10
155.2269274193539
 20
-53.09685483870938
 30
0.0
  0
POINT
  5
5F
330
32
100
AcDbEntity
  8
1
 62
     3
 60
     1
100
AcDbPoint
 10
155.2269274193539
 20
-61.59685483870938
 30
0.0
  0
POINT
  5
60
330
32
100
AcDbEntity
  8
1
 62
     3
 60
     1
100
AcDbPoint
 10
155.2269274193539
 20
26.40314516129062
 30
0.0
  0
POINT
  5
61
330
32
100
AcDbEntity
  8
1
 62
     3
 60
     1
100
AcDbPoint
 10
155.2269274193539
 20
17.90314516129062
 30
0.0
  0
POINT
  5
62
330
32
100
AcDbEntity
  8
1
 62
     3
 60
     1
100
AcDbPoint
 10
138.2269274193539
 20
-61.59685483870938
 30
0.0
  0
POINT
  5
63
330
32
100
AcDbEntity
  8
1
 62
     3
 60
     1
100
AcDbPoint
 10
96.190789779932
 20
4.40314516129062
 30
0.0
  0
POINT
  5
64
330
32
100
AcDbEntity
  8
1
 62
     3
 60
     1
100
AcDbPoint
 10
98.7269274193539
 20
4.40314516129062
 30
0.0
  0
POINT
  5
65
330
32
100
AcDbEntity
  8
1
 62
     3
 60
     1
100
AcDbPoint
 10
96.5158387604861
 20
-1.59685483870938
 30
0.0
  0
POINT
  5
66
330
32
100
AcDbEntity
  8
1
 62
     3
 60
     1
100
AcDbPoint
 10
98.7269274193539
 20
-1.59685483870938
 30
0.0
  0
POINT
  5
67
330
32
100
AcDbEntity
  8
1
 62
     3
 60
     1
100
AcDbPoint
 10
96.4345765153476
 20
-33.59685483870938
 30
0.0
  0
POINT
  5
68
330
32
100
AcDbEntity
  8
1
 62
     3
 60
     1
100
AcDbPoint
 10
98.7269274193539
 20
-33.59685483870938
 30
0.0
  0
POINT
  5
69
330
32
100
AcDbEntity
  8
1
 62
     3
 60
     1
100
AcDbPoint
 10
138.2269274193539
 20
26.40314516129062
 30
0.0
  0
POINT
  5
6A
330
32
100
AcDbEntity
  8
1
 62
     3
 60
     1
100
AcDbPoint
 10
96.7700379284264
 20
-39.59685483870938
 30
0.0
  0
POINT
  5
6B
330
32
100
AcDbEntity
  8
1
 62
     3
 60
     1
100
AcDbPoint
 10
98.7269274193539
 20
-39.59685483870938
 30
0.0
  0
POINT
  5
6C
330
32
100
AcDbEntity
  8
1
 62
     3
 60
     1
100
AcDbPoint
 10
24.22692741935391
 20
-75.59685483870938
 30
0.0
  0
POINT
  5
6D
330
32
100
AcDbEntity
  8
1
 62
     3
 60
     1
100
AcDbPoint
 10
24.22692741935391
 20
-77.59685483870938
 30
0.0
  0
POINT
  5
6E
330
32
100
AcDbEntity
  8
1
 62
     3
 60
     1
100
AcDbPoint
 10
58.22692741935391
 20
-77.59685483870938
 30
0.0
  0
POINT
  5
6F
330
32
100
AcDbEntity
  8
1
 62
     3
 60
     1
100
AcDbPoint
 10
58.22692741935391
 20
-75.59685483870938
 30
0.0
  0
POINT
  5
70
330
32
100
AcDbEntity
  8
1
 62
     3
 60
     1
100
AcDbPoint
 10
53.72692741935391
 20
-75.59685483870938
 30
0.0
  0
POINT
  5
71
330
32
100
AcDbEntity
  8
1
 62
     3
 60
     1
100
AcDbPoint
 10
53.72692741935391
 20
-77.59685483870938
 30
0.0
  0
POINT
  5
72
330
32
100
AcDbEntity
  8
1
 62
     3
 60
     1
100
AcDbPoint
 10
28.72692741935391
 20
-75.59685483870938
 30
0.0
  0
POINT
  5
73
330
32
100
AcDbEntity
  8
1
 62
     3
 60
     1
100
AcDbPoint
 10
28.72692741935391
 20
-77.59685483870938
 30
0.0
  0
POINT
  5
74
330
32
100
AcDbEntity
  8
1
 62
     3
 60
     1
100
AcDbPoint
 10
24.22692741935391
 20
24.40314516129062
 30
0.0
  0
POINT
  5
75
330
32
100
AcDbEntity
  8
1
 62
     3
 60
     1
100
AcDbPoint
 10
24.22692741935391
 20
26.40314516129062
 30
0.0
  0
POINT
  5
76
330
32
100
AcDbEntity
  8
1
 62
     3
 60
     1
100
AcDbPoint
 10
58.22692741935391
 20
26.40314516129062
 30
0.0
  0
POINT
  5
77
330
32
100
AcDbEntity
  8
1
 62
     3
 60
     1
100
AcDbPoint
 10
58.22692741935391
 20
24.40314516129062
 30
0.0
  0
POINT
  5
78
330
32
100
AcDbEntity
  8
1
 62
     3
 60
     1
100
AcDbPoint
 10
57.22692741935391
 20
26.40314516129062
 30
0.0
  0
POINT
  5
79
330
32
100
AcDbEntity
  8
1
 62
     3
 60
     1
100
AcDbPoint
 10
57.22692741935391
 20
33.90314516129062
 30
0.0
  0
POINT
  5
7A
330
32
100
AcDbEntity
  8
1
 62
     3
 60
     1
100
AcDbPoint
 10
25.2269274193539
 20
33.90314516129062
 30
0.0
  0
POINT
  5
7B
330
32
100
AcDbEntity
  8
1
 62
     3
 60
     1
100
AcDbPoint
 10
25.22692741935391
 20
26.40314516129062
 30
0.0
  0
POINT
  5
7C
330
32
100
AcDbEntity
  8
1
 62
     3
 60
     1
100
AcDbPoint
 10
56.22692741935391
 20
33.90314516129062
 30
0.0
  0
POINT
  5
7D
330
32
100
AcDbEntity
  8
1
 62
     3
 60
     1
100
AcDbPoint
 10
28.7269274193539
 20
55.90314516129062
 30
0.0
  0
POINT
  5
7E
330
32
100
AcDbEntity
  8
1
 62
     3
 60
     1
100
AcDbPoint
 10
26.22692741935391
 20
55.90314516129062
 30
0.0
  0
POINT
  5
7F
330
32
100
AcDbEntity
  8
1
 62
     3
 60
     1
100
AcDbPoint
 10
26.22692741935391
 20
33.90314516129062
 30
0.0
  0
POINT
  5
80
330
32
100
AcDbEntity
  8
1
 62
     3
 60
     1
100
AcDbPoint
 10
28.72692741935391
 20
24.40314516129062
 30
0.0
  0
POINT
  5
81
330
32
100
AcDbEntity
  8
1
 62
     3
 60
     1
100
AcDbPoint
 10
53.72692741935391
 20
55.90314516129062
 30
0.0
  0
POINT
  5
82
330
32
100
AcDbEntity
  8
1
 62
     3
 60
     1
100
AcDbPoint
 10
53.72692741935391
 20
24.40314516129062
 30
0.0
  0
POINT
  5
83
330
32
100
AcDbEntity
  8
1
 62
     3
 60
     1
100
AcDbPoint
 10
26.22692741935391
 20
53.90314516129062
 30
0.0
  0
POINT
  5
84
330
32
100
AcDbEntity
  8
1
 62
     3
 60
     1
100
AcDbPoint
 10
56.22692741935391
 20
53.90314516129062
 30
0.0
  0
POINT
  5
85
330
32
100
AcDbEntity
  8
1
 62
     3
 60
     1
100
AcDbPoint
 10
55.22692741935391
 20
55.90314516129062
 30
0.0
  0
POINT
  5
86
330
32
100
AcDbEntity
  8
1
 62
     3
 60
     1
100
AcDbPoint
 10
27.22692741935391
 20
55.90314516129062
 30
0.0
  0
POINT
  5
87
330
32
100
AcDbEntity
  8
1
 62
     3
 60
     1
100
AcDbPoint
 10
-252.7730725806461
 20
-75.59685483870938
 30
0.0
  0
POINT
  5
88
330
32
100
AcDbEntity
  8
1
 62
     3
 60
     1
100
AcDbPoint
 10
-252.7730725806461
 20
-77.59685483870938
 30
0.0
  0
POINT
  5
89
330
32
100
AcDbEntity
  8
1
 62
     3
 60
     1
100
AcDbPoint
 10
-218.7730725806461
 20
-77.59685483870938
 30
0.0
  0
POINT
  5
8A
330
32
100
AcDbEntity
  8
1
 62
     3
 60
     1
100
AcDbPoint
 10
-218.7730725806461
 20
-75.59685483870938
 30
0.0
  0
POINT
  5
8B
330
32
100
AcDbEntity
  8
1
 62
     3
 60
     1
100
AcDbPoint
 10
-247.7730725806461
 20
-77.59685483870938
 30
0.0
  0
POINT
  5
8C
330
32
100
AcDbEntity
  8
1
 62
     3
 60
     1
100
AcDbPoint
 10
-247.7730725806461
 20
-117.5968548387094
 30
0.0
  0
POINT
  5
8D
330
32
100
AcDbEntity
  8
1
 62
     3
 60
     1
100
AcDbPoint
 10
-223.7730725806461
 20
-117.5968548387094
 30
0.0
  0
POINT
  5
8E
330
32
100
AcDbEntity
  8
1
 62
     3
 60
     1
100
AcDbPoint
 10
-223.7730725806461
 20
-77.59685483870938
 30
0.0
  0
POINT
  5
8F
330
32
100
AcDbEntity
  8
1
 62
     3
 60
     1
100
AcDbPoint
 10
-252.7730725806461
 20
24.40314516129062
 30
0.0
  0
POINT
  5
90
330
32
100
AcDbEntity
  8
1
 62
     3
 60
     1
100
AcDbPoint
 10
-252.7730725806461
 20
26.40314516129062
 30
0.0
  0
POINT
  5
91
330
32
100
AcDbEntity
  8
1
 62
     3
 60
     1
100
AcDbPoint
 10
-218.7730725806461
 20
26.40314516129062
 30
0.0
  0
POINT
  5
92
330
32
100
AcDbEntity
  8
1
 62
     3
 60
     1
100
AcDbPoint
 10
-218.7730725806461
 20
24.40314516129062
 30
0.0
  0
POINT
  5
93
330
32
100
AcDbEntity
  8
1
 62
     3
 60
     1
100
AcDbPoint
 10
-247.7730725806461
 20
26.40314516129062
 30
0.0
  0
POINT
  5
94
330
32
100
AcDbEntity
  8
1
 62
     3
 60
     1
100
AcDbPoint
 10
-247.7730725806461
 20
66.40314516129062
 30
0.0
  0
POINT
  5
95
330
32
100
AcDbEntity
  8
1
 62
     3
 60
     1
100
AcDbPoint
 10
-223.7730725806461
 20
66.40314516129062
 30
0.0
  0
POINT
  5
96
330
32
100
AcDbEntity
  8
1
 62
     3
 60
     1
100
AcDbPoint
 10
-223.7730725806461
 20
26.40314516129062
 30
0.0
  0
POINT
  5
97
330
32
100
AcDbEntity
  8
1
 62
     3
 60
     1
100
AcDbPoint
 10
-239.7730725806461
 20
60.40314516129062
 30
0.0
  0
POINT
  5
98
330
32
100
AcDbEntity
  8
1
 62
     3
 60
     1
100
AcDbPoint
 10
-239.7730725806461
 20
32.40314516129062
 30
0.0
  0
POINT
  5
99
330
32
100
AcDbEntity
  8
1
 62
     3
 60
     1
100
AcDbPoint
 10
-231.7730725806461
 20
60.40314516129062
 30
0.0
  0
POINT
  5
9A
330
32
100
AcDbEntity
  8
1
 62
     3
 60
     1
100
AcDbPoint
 10
-231.7730725806461
 20
32.40314516129062
 30
0.0
  0
POINT
  5
9B
330
32
100
AcDbEntity
  8
1
 62
     3
 60
     1
100
AcDbPoint
 10
-235.7730725806461
 20
64.40314516129062
 30
0.0
  0
POINT
  5
9C
330
32
100
AcDbEntity
  8
1
 62
     3
 60
     1
100
AcDbPoint
 10
-235.7730725806461
 20
28.40314516129062
 30
0.0
  0
POINT
  5
9D
330
32
100
AcDbEntity
  8
1
 62
     3
 60
     1
100
AcDbPoint
 10
-239.7730725806461
 20
-83.59685483870938
 30
0.0
  0
POINT
  5
9E
330
32
100
AcDbEntity
  8
1
 62
     3
 60
     1
100
AcDbPoint
 10
-239.7730725806461
 20
-111.5968548387094
 30
0.0
  0
POINT
  5
9F
330
32
100
AcDbEntity
  8
1
 62
     3
 60
     1
100
AcDbPoint
 10
-231.7730725806461
 20
-83.59685483870938
 30
0.0
  0
POINT
  5
A0
330
32
100
AcDbEntity
  8
1
 62
     3
 60
     1
100
AcDbPoint
 10
-231.7730725806461
 20
-111.5968548387094
 30
0.0
  0
POINT
  5
A1
330
32
100
AcDbEntity
  8
1
 62
     3
 60
     1
100
AcDbPoint
 10
-235.7730725806461
 20
-79.59685483870938
 30
0.0
  0
POINT
  5
A2
330
32
100
AcDbEntity
  8
1
 62
     3
 60
     1
100
AcDbPoint
 10
-235.7730725806461
 20
-115.5968548387094
 30
0.0
  0
LINE
  5
A3
330
32
100
AcDbEntity
  8
1
  6
Continuous
 62
     7
100
AcDbLine
 10
-280.1730725806461
 20
-75.59685483870938
 30
0.0
 11
-280.2730725806461
 21
-75.59685483870938
 31
0.0
  0
LINE
  5
A4
330
32
100
AcDbEntity
  8
1
  6
Continuous
 62
     7
100
AcDbLine
 10
-288.2730725806461
 20
-75.59685483870938
 30
0.0
 11
-252.7730725806461
 21
-75.59685483870938
 31
0.0
  0
LINE
  5
A5
330
32
100
AcDbEntity
  8
1
  6
Continuous
 62
     7
100
AcDbLine
 10
-183.2730725806461
 20
-75.59685483870938
 30
0.0
 11
-183.2730725806461
 21
-62.59685483870938
 31
0.0
  0
LINE
  5
A6
330
32
100
AcDbEntity
  8
1
  6
Continuous
 62
     7
100
AcDbLine
 10
-288.2730725806461
 20
-75.59685483870938
 30
0.0
 11
-288.2730725806461
 21
-62.59685483870938
 31
0.0
  0
LINE
  5
A7
330
32
100
AcDbEntity
  8
1
  6
Continuous
 62
     7
100
AcDbLine
 10
-293.2730725806461
 20
-62.59685483870938
 30
0.0
 11
-178.2730725806461
 21
-62.59685483870938
 31
0.0
  0
LINE
  5
A8
330
32
100
AcDbEntity
  8
1
  6
Continuous
 62
     7
100
AcDbLine
 10
-178.2730725806461
 20
-57.59685483870938
 30
0.0
 11
-178.2730725806461
 21
-62.59685483870938
 31
0.0
  0
LINE
  5
A9
330
32
100
AcDbEntity
  8
1
  6
Continuous
 62
     7
100
AcDbLine
 10
-293.2730725806461
 20
-51.59685483870938
 30
0.0
 11
-293.2730725806461
 21
-62.59685483870938
 31
0.0
  0
LINE
  5
AA
330
32
100
AcDbEntity
  8
1
  6
Continuous
 62
     7
100
AcDbLine
 10
-288.2730725806461
 20
-46.59685483870938
 30
0.0
 11
-288.2730725806461
 21
1.40314516129063
 31
0.0
  0
LINE
  5
AB
330
32
100
AcDbEntity
  8
1
  6
Continuous
 62
     7
100
AcDbLine
 10
-288.2730725806461
 20
-51.59685483870938
 30
0.0
 11
-183.2730725806461
 21
-51.59685483870938
 31
0.0
  0
LINE
  5
AC
330
32
100
AcDbEntity
  8
1
  6
Continuous
 62
     7
100
AcDbLine
 10
-121.7730725806461
 20
26.40314516129062
 30
0.0
 11
-121.7730725806461
 21
17.90314516129062
 31
0.0
  0
LINE
  5
AD
330
32
100
AcDbEntity
  8
1
  6
Continuous
 62
     7
100
AcDbLine
 10
-283.2730725806461
 20
6.40314516129062
 30
0.0
 11
-278.2730725806461
 21
6.40314516129062
 31
0.0
  0
LINE
  5
AE
330
32
100
AcDbEntity
  8
1
  6
Continuous
 62
     7
100
AcDbLine
 10
-273.2730725806461
 20
11.40314516129062
 30
0.0
 11
-273.2730725806461
 21
19.40314516129062
 31
0.0
  0
LINE
  5
AF
330
32
100
AcDbEntity
  8
1
  6
Continuous
 62
     7
100
AcDbLine
 10
-268.2730725806461
 20
24.40314516129062
 30
0.0
 11
-252.7730725806461
 21
24.40314516129062
 31
0.0
  0
LINE
  5
B0
330
32
100
AcDbEntity
  8
1
  6
Continuous
 62
     7
100
AcDbLine
 10
-198.2730725806461
 20
19.40314516129062
 30
0.0
 11
-198.2730725806461
 21
18.8592027327011
 31
0.0
  0
LINE
  5
B1
330
32
100
AcDbEntity
  8
1
  6
Continuous
 62
     7
100
AcDbLine
 10
-178.2730725806461
 20
-51.59685483870938
 30
0.0
 11
-183.2730725806461
 21
-51.59685483870938
 31
0.0
  0
LINE
  5
B2
330
32
100
AcDbEntity
  8
1
  6
Continuous
 62
     7
100
AcDbLine
 10
-288.2730725806461
 20
-51.59685483870938
 30
0.0
 11
-293.2730725806461
 21
-51.59685483870938
 31
0.0
  0
LINE
  5
B3
330
32
100
AcDbEntity
  8
1
  6
Continuous
 62
     7
100
AcDbLine
 10
-121.7730725806461
 20
26.40314516129062
 30
0.0
 11
-135.6566818672753
 21
26.40314516129062
 31
0.0
  0
LINE
  5
B4
330
32
100
AcDbEntity
  8
1
  6
Continuous
 62
     7
100
AcDbLine
 10
-140.0891350040527
 20
26.10328283697014
 30
0.0
 11
-178.2730725806461
 21
17.40314516129062
 31
0.0
  0
LINE
  5
B5
330
32
100
AcDbEntity
  8
1
  6
Continuous
 62
     7
100
AcDbLine
 10
-178.2730725806461
 20
17.40314516129062
 30
0.0
 11
-194.3371035519413
 21
15.3864615954998
 31
0.0
  0
LINE
  5
B6
330
32
100
AcDbEntity
  8
1
  6
Continuous
 62
     7
100
AcDbLine
 10
-121.7730725806461
 20
-61.59685483870938
 30
0.0
 11
-135.6566818672753
 21
-61.59685483870938
 31
0.0
  0
LINE
  5
B7
330
32
100
AcDbEntity
  8
1
  6
Continuous
 62
     7
100
AcDbLine
 10
-140.4526682419153
 20
-61.09548299952454
 30
0.0
 11
-172.2730725806461
 21
-51.59685483870938
 31
0.0
  0
LINE
  5
B8
330
32
100
AcDbEntity
  8
1
  6
Continuous
 62
     7
100
AcDbLine
 10
-178.2730725806461
 20
-51.59685483870938
 30
0.0
 11
-178.2730725806461
 21
-57.59685483870938
 31
0.0
  0
LINE
  5
B9
330
32
100
AcDbEntity
  8
1
  6
Continuous
 62
     7
100
AcDbLine
 10
-121.7730725806461
 20
17.90314516129062
 30
0.0
 11
-135.9723915449332
 21
17.90314516129062
 31
0.0
  0
LINE
  5
BA
330
32
100
AcDbEntity
  8
1
  6
Continuous
 62
     7
100
AcDbLine
 10
-121.7730725806461
 20
17.90314516129062
 30
0.0
 11
-121.7730725806461
 21
-53.09685483870938
 31
0.0
  0
LINE
  5
BB
330
32
100
AcDbEntity
  8
1
  6
Continuous
 62
     7
100
AcDbLine
 10
-121.7730725806461
 20
-53.09685483870938
 30
0.0
 11
-135.9723915449332
 21
-53.09685483870938
 31
0.0
  0
LINE
  5
BC
330
32
100
AcDbEntity
  8
1
  6
Continuous
 62
     7
100
AcDbLine
 10
-121.7730725806461
 20
-53.09685483870938
 30
0.0
 11
-121.7730725806461
 21
-61.59685483870938
 31
0.0
  0
LINE
  5
BD
330
32
100
AcDbEntity
  8
1
  6
Continuous
 62
     7
100
AcDbLine
 10
-141.4956610064566
 20
-60.08047647496681
 30
0.0
 11
-177.5924254741935
 21
-39.97594942964502
 31
0.0
  0
LINE
  5
BE
330
32
100
AcDbEntity
  8
1
  6
Continuous
 62
     7
100
AcDbLine
 10
-141.4956610064566
 20
24.88676679754806
 30
0.0
 11
-177.5924254741935
 21
4.78223975222627
 31
0.0
  0
LINE
  5
BF
330
32
100
AcDbEntity
  8
1
  6
Continuous
 62
     7
100
AcDbLine
 10
-141.2844033789089
 20
-51.85708393830117
 30
0.0
 11
-177.6452398810804
 21
-33.90679756381142
 31
0.0
  0
LINE
  5
C0
330
32
100
AcDbEntity
  8
1
  6
Continuous
 62
     7
100
AcDbLine
 10
-141.2844033789089
 20
16.66337426088242
 30
0.0
 11
-177.6452398810804
 21
-1.28691211360732
 31
0.0
  0
LINE
  5
C1
330
32
100
AcDbEntity
  8
1
  6
Continuous
 62
     7
100
AcDbLine
 10
-179.0521702589888
 20
4.40314516129062
 30
0.0
 11
-180.809210220068
 21
4.40314516129062
 31
0.0
  0
LINE
  5
C2
330
32
100
AcDbEntity
  8
1
  6
Continuous
 62
     7
100
AcDbLine
 10
-178.9732428395743
 20
-1.59685483870938
 30
0.0
 11
-180.4841612395139
 21
-1.59685483870938
 31
0.0
  0
LINE
  5
C3
330
32
100
AcDbEntity
  8
1
  6
Continuous
 62
     7
100
AcDbLine
 10
-178.9732428395743
 20
-33.59685483870938
 30
0.0
 11
-180.5654234846524
 21
-33.59685483870938
 31
0.0
  0
LINE
  5
C4
330
32
100
AcDbEntity
  8
1
  6
Continuous
 62
     7
100
AcDbLine
 10
-135.6566818672753
 20
26.40314516129062
 30
0.0
 11
-137.4232808501004
 21
26.40314516129062
 31
0.0
  0
LINE
  5
C5
330
32
100
AcDbEntity
  8
1
  6
Continuous
 62
     7
100
AcDbLine
 10
-179.0521702589888
 20
-39.59685483870938
 30
0.0
 11
-180.2299620715736
 21
-39.59685483870938
 31
0.0
  0
LINE
  5
C6
330
32
100
AcDbEntity
  8
1
  6
DOT_CENTER
 62
     2
100
AcDbLine
 10
-119.7730725806461
 20
-17.59685483870938
 30
0.0
 11
-292.545250000001
 21
-17.59685483870937
 31
0.0
  0
LINE
  5
C7
330
32
100
AcDbEntity
  8
1
  6
DOT_CENTER
 62
     2
100
AcDbLine
 10
-235.7730725806461
 20
-121.655509032559
 30
0.0
 11
-235.7730725806461
 21
68.10982870907598
 31
0.0
  0
LINE
  5
C8
330
32
100
AcDbEntity
  8
1
  6
Continuous
 62
     7
100
AcDbLine
 10
97.94782974101122
 20
-39.59685483870938
 30
0.0
 11
96.7700379284264
 21
-39.59685483870938
 31
0.0
  0
LINE
  5
C9
330
32
100
AcDbEntity
  8
1
  6
Continuous
 62
     7
100
AcDbLine
 10
141.3433181327247
 20
26.40314516129062
 30
0.0
 11
139.5767191498997
 21
26.40314516129062
 31
0.0
  0
LINE
  5
CA
330
32
100
AcDbEntity
  8
1
  6
Continuous
 62
     7
100
AcDbLine
 10
98.02675716042566
 20
-33.59685483870938
 30
0.0
 11
96.4345765153476
 21
-33.59685483870938
 31
0.0
  0
LINE
  5
CB
330
32
100
AcDbEntity
  8
1
  6
Continuous
 62
     7
100
AcDbLine
 10
98.02675716042566
 20
-1.59685483870938
 30
0.0
 11
96.5158387604861
 21
-1.59685483870938
 31
0.0
  0
LINE
  5
CC
330
32
100
AcDbEntity
  8
1
  6
Continuous
 62
     7
100
AcDbLine
 10
97.94782974101122
 20
4.40314516129062
 30
0.0
 11
96.190789779932
 21
4.40314516129062
 31
0.0
  0
LINE
  5
CD
330
32
100
AcDbEntity
  8
1
  6
Continuous
 62
     7
100
AcDbLine
 10
135.7155966210911
 20
16.66337426088242
 30
0.0
 11
99.35476011891961
 21
-1.28691211360732
 31
0.0
  0
LINE
  5
CE
330
32
100
AcDbEntity
  8
1
  6
Continuous
 62
     7
100
AcDbLine
 10
135.7155966210911
 20
-51.85708393830117
 30
0.0
 11
99.35476011891959
 21
-33.90679756381142
 31
0.0
  0
LINE
  5
CF
330
32
100
AcDbEntity
  8
1
  6
Continuous
 62
     7
100
AcDbLine
 10
135.5043389935434
 20
24.88676679754806
 30
0.0
 11
99.40757452580652
 21
4.78223975222627
 31
0.0
  0
LINE
  5
D0
330
32
100
AcDbEntity
  8
1
  6
Continuous
 62
     7
100
AcDbLine
 10
135.5043389935434
 20
-60.08047647496681
 30
0.0
 11
99.40757452580652
 21
-39.97594942964502
 31
0.0
  0
LINE
  5
D1
330
32
100
AcDbEntity
  8
1
  6
Continuous
 62
     7
100
AcDbLine
 10
155.2269274193539
 20
-53.09685483870938
 30
0.0
 11
155.2269274193539
 21
-61.59685483870938
 31
0.0
  0
LINE
  5
D2
330
32
100
AcDbEntity
  8
1
  6
Continuous
 62
     7
100
AcDbLine
 10
155.2269274193539
 20
-53.09685483870938
 30
0.0
 11
141.0276084550668
 21
-53.09685483870938
 31
0.0
  0
LINE
  5
D3
330
32
100
AcDbEntity
  8
1
  6
Continuous
 62
     7
100
AcDbLine
 10
155.2269274193539
 20
17.90314516129062
 30
0.0
 11
155.2269274193539
 21
-53.09685483870938
 31
0.0
  0
LINE
  5
D4
330
32
100
AcDbEntity
  8
1
  6
Continuous
 62
     7
100
AcDbLine
 10
155.2269274193539
 20
17.90314516129062
 30
0.0
 11
141.0276084550668
 21
17.90314516129062
 31
0.0
  0
LINE
  5
D5
330
32
100
AcDbEntity
  8
1
  6
Continuous
 62
     7
100
AcDbLine
 10
98.7269274193539
 20
-51.59685483870938
 30
0.0
 11
98.7269274193539
 21
-57.59685483870938
 31
0.0
  0
LINE
  5
D6
330
32
100
AcDbEntity
  8
1
  6
Continuous
 62
     7
100
AcDbLine
 10
136.5473317580847
 20
-61.09548299952454
 30
0.0
 11
104.7269274193539
 21
-51.59685483870938
 31
0.0
  0
LINE
  5
D7
330
32
100
AcDbEntity
  8
1
  6
Continuous
 62
     7
100
AcDbLine
 10
155.2269274193539
 20
-61.59685483870938
 30
0.0
 11
141.3433181327247
 21
-61.59685483870938
 31
0.0
  0
LINE
  5
D8
330
32
100
AcDbEntity
  8
1
  6
Continuous
 62
     7
100
AcDbLine
 10
98.7269274193539
 20
17.40314516129062
 30
0.0
 11
82.66289644805872
 21
15.3864615954998
 31
0.0
  0
LINE
  5
D9
330
32
100
AcDbEntity
  8
1
  6
Continuous
 62
     7
100
AcDbLine
 10
136.9108649959474
 20
26.10328283697014
 30
0.0
 11
98.7269274193539
 21
17.40314516129062
 31
0.0
  0
LINE
  5
DA
330
32
100
AcDbEntity
  8
1
  6
Continuous
 62
     7
100
AcDbLine
 10
155.2269274193539
 20
26.40314516129062
 30
0.0
 11
141.3433181327247
 21
26.40314516129062
 31
0.0
  0
LINE
  5
DB
330
32
100
AcDbEntity
  8
1
  6
Continuous
 62
     7
100
AcDbLine
 10
-11.2730725806461
 20
-51.59685483870938
 30
0.0
 11
-16.2730725806461
 21
-51.59685483870938
 31
0.0
  0
LINE
  5
DC
330
32
100
AcDbEntity
  8
1
  6
Continuous
 62
     7
100
AcDbLine
 10
98.7269274193539
 20
-51.59685483870938
 30
0.0
 11
93.7269274193539
 21
-51.59685483870938
 31
0.0
  0
LINE
  5
DD
330
32
100
AcDbEntity
  8
1
  6
Continuous
 62
     7
100
AcDbLine
 10
78.7269274193539
 20
19.40314516129062
 30
0.0
 11
78.7269274193539
 21
18.8592027327011
 31
0.0
  0
LINE
  5
DE
330
32
100
AcDbEntity
  8
1
  6
Continuous
 62
     7
100
AcDbLine
 10
8.7269274193539
 20
24.40314516129062
 30
0.0
 11
24.22692741935391
 21
24.40314516129062
 31
0.0
  0
LINE
  5
DF
330
32
100
AcDbEntity
  8
1
  6
Continuous
 62
     7
100
AcDbLine
 10
3.7269274193539
 20
11.40314516129062
 30
0.0
 11
3.72692741935391
 21
19.40314516129062
 31
0.0
  0
LINE
  5
E0
330
32
100
AcDbEntity
  8
1
  6
Continuous
 62
     7
100
AcDbLine
 10
-6.2730725806461
 20
6.40314516129062
 30
0.0
 11
-1.2730725806461
 21
6.40314516129062
 31
0.0
  0
LINE
  5
E1
330
32
100
AcDbEntity
  8
1
  6
Continuous
 62
     7
100
AcDbLine
 10
155.2269274193539
 20
26.40314516129062
 30
0.0
 11
155.2269274193539
 21
17.90314516129062
 31
0.0
  0
LINE
  5
E2
330
32
100
AcDbEntity
  8
1
  6
Continuous
 62
     7
100
AcDbLine
 10
-11.2730725806461
 20
-51.59685483870938
 30
0.0
 11
93.7269274193539
 21
-51.59685483870938
 31
0.0
  0
LINE
  5
E3
330
32
100
AcDbEntity
  8
1
  6
Continuous
 62
     7
100
AcDbLine
 10
-11.2730725806461
 20
-46.59685483870938
 30
0.0
 11
-11.27307258064609
 21
1.40314516129063
 31
0.0
  0
LINE
  5
E4
330
32
100
AcDbEntity
  8
1
  6
Continuous
 62
     7
100
AcDbLine
 10
-16.2730725806461
 20
-51.59685483870938
 30
0.0
 11
-16.2730725806461
 21
-62.59685483870938
 31
0.0
  0
LINE
  5
E5
330
32
100
AcDbEntity
  8
1
  6
Continuous
 62
     7
100
AcDbLine
 10
98.7269274193539
 20
-57.59685483870938
 30
0.0
 11
98.7269274193539
 21
-62.59685483870938
 31
0.0
  0
LINE
  5
E6
330
32
100
AcDbEntity
  8
1
  6
Continuous
 62
     7
100
AcDbLine
 10
-16.2730725806461
 20
-62.59685483870938
 30
0.0
 11
98.7269274193539
 21
-62.59685483870938
 31
0.0
  0
LINE
  5
E7
330
32
100
AcDbEntity
  8
1
  6
Continuous
 62
     7
100
AcDbLine
 10
-11.2730725806461
 20
-75.59685483870938
 30
0.0
 11
-11.2730725806461
 21
-62.59685483870938
 31
0.0
  0
LINE
  5
E8
330
32
100
AcDbEntity
  8
1
  6
Continuous
 62
     7
100
AcDbLine
 10
93.7269274193539
 20
-75.59685483870938
 30
0.0
 11
93.7269274193539
 21
-62.59685483870938
 31
0.0
  0
LINE
  5
E9
330
32
100
AcDbEntity
  8
1
  6
Continuous
 62
     7
100
AcDbLine
 10
-11.2730725806461
 20
-75.59685483870938
 30
0.0
 11
24.22692741935391
 21
-75.59685483870938
 31
0.0
  0
LINE
  5
EA
330
32
100
AcDbEntity
  8
1
  6
Continuous
 62
     7
100
AcDbLine
 10
-3.17307258064614
 20
-75.59685483870938
 30
0.0
 11
-3.2730725806461
 21
-75.59685483870938
 31
0.0
  0
LINE
  5
EB
330
32
100
AcDbEntity
  8
1
  6
DOT_CENTER
 62
     2
100
AcDbLine
 10
157.2269274193539
 20
-17.59685483870938
 30
0.0
 11
-15.54525000000098
 21
-17.59685483870937
 31
0.0
  0
LINE
  5
EC
330
32
100
AcDbEntity
  8
1
  6
DOT_CENTER
 62
     2
100
AcDbLine
 10
41.2269274193539
 20
-81.2135079844724
 30
0.0
 11
41.2269274193539
 21
68.10982870907598
 31
0.0
  0
LINE
  5
ED
330
32
100
AcDbEntity
  8
1
  6
Continuous
 62
     7
100
AcDbLine
 10
24.22692741935391
 20
-75.59685483870938
 30
0.0
 11
24.22692741935391
 21
-77.59685483870938
 31
0.0
  0
LINE
  5
EE
330
32
100
AcDbEntity
  8
1
  6
Continuous
 62
     7
100
AcDbLine
 10
24.22692741935391
 20
-75.59685483870938
 30
0.0
 11
28.72692741935391
 21
-75.59685483870938
 31
0.0
  0
LINE
  5
EF
330
32
100
AcDbEntity
  8
1
  6
Continuous
 62
     7
100
AcDbLine
 10
24.22692741935391
 20
-77.59685483870938
 30
0.0
 11
28.72692741935391
 21
-77.59685483870938
 31
0.0
  0
LINE
  5
F0
330
32
100
AcDbEntity
  8
1
  6
Continuous
 62
     7
100
AcDbLine
 10
58.22692741935391
 20
-77.59685483870938
 30
0.0
 11
58.22692741935391
 21
-75.59685483870938
 31
0.0
  0
LINE
  5
F1
330
32
100
AcDbEntity
  8
1
  6
Continuous
 62
     7
100
AcDbLine
 10
58.22692741935391
 20
-75.59685483870938
 30
0.0
 11
93.7269274193539
 21
-75.59685483870938
 31
0.0
  0
LINE
  5
F2
330
32
100
AcDbEntity
  8
1
  6
DASHED
 62
     7
100
AcDbLine
 10
53.72692741935391
 20
-75.59685483870938
 30
0.0
 11
53.72692741935391
 21
-77.59685483870938
 31
0.0
  0
LINE
  5
F3
330
32
100
AcDbEntity
  8
1
  6
Continuous
 62
     7
100
AcDbLine
 10
53.72692741935391
 20
-75.59685483870938
 30
0.0
 11
58.22692741935391
 21
-75.59685483870938
 31
0.0
  0
LINE
  5
F4
330
32
100
AcDbEntity
  8
1
  6
Continuous
 62
     7
100
AcDbLine
 10
53.72692741935391
 20
-77.59685483870938
 30
0.0
 11
58.22692741935391
 21
-77.59685483870938
 31
0.0
  0
LINE
  5
F5
330
32
100
AcDbEntity
  8
1
  6
DASHED
 62
     7
100
AcDbLine
 10
28.72692741935391
 20
-75.59685483870938
 30
0.0
 11
28.72692741935391
 21
-77.59685483870938
 31
0.0
  0
LINE
  5
F6
330
32
100
AcDbEntity
  8
1
  6
Continuous
 62
     7
100
AcDbLine
 10
28.72692741935391
 20
-75.59685483870938
 30
0.0
 11
53.72692741935391
 21
-75.59685483870938
 31
0.0
  0
LINE
  5
F7
330
32
100
AcDbEntity
  8
1
  6
Continuous
 62
     7
100
AcDbLine
 10
28.72692741935391
 20
-77.59685483870938
 30
0.0
 11
53.72692741935391
 21
-77.59685483870938
 31
0.0
  0
LINE
  5
F8
330
32
100
AcDbEntity
  8
1
  6
Continuous
 62
     7
100
AcDbLine
 10
24.22692741935391
 20
24.40314516129062
 30
0.0
 11
24.22692741935391
 21
26.40314516129062
 31
0.0
  0
LINE
  5
F9
330
32
100
AcDbEntity
  8
1
  6
Continuous
 62
     7
100
AcDbLine
 10
24.22692741935391
 20
24.40314516129062
 30
0.0
 11
28.72692741935391
 21
24.40314516129062
 31
0.0
  0
LINE
  5
FA
330
32
100
AcDbEntity
  8
1
  6
Continuous
 62
     7
100
AcDbLine
 10
24.22692741935391
 20
26.40314516129062
 30
0.0
 11
25.22692741935391
 21
26.40314516129062
 31
0.0
  0
LINE
  5
FB
330
32
100
AcDbEntity
  8
1
  6
Continuous
 62
     7
100
AcDbLine
 10
58.22692741935391
 20
26.40314516129062
 30
0.0
 11
58.22692741935391
 21
24.40314516129062
 31
0.0
  0
LINE
  5
FC
330
32
100
AcDbEntity
  8
1
  6
Continuous
 62
     7
100
AcDbLine
 10
58.22692741935391
 20
24.40314516129062
 30
0.0
 11
73.7269274193539
 21
24.40314516129062
 31
0.0
  0
LINE
  5
FD
330
32
100
AcDbEntity
  8
1
  6
Continuous
 62
     7
100
AcDbLine
 10
57.22692741935391
 20
26.40314516129062
 30
0.0
 11
57.22692741935391
 21
33.90314516129062
 31
0.0
  0
LINE
  5
FE
330
32
100
AcDbEntity
  8
1
  6
Continuous
 62
     7
100
AcDbLine
 10
57.22692741935391
 20
26.40314516129062
 30
0.0
 11
58.22692741935391
 21
26.40314516129062
 31
0.0
  0
LINE
  5
FF
330
32
100
AcDbEntity
  8
1
  6
Continuous
 62
     7
100
AcDbLine
 10
57.22692741935391
 20
33.90314516129062
 30
0.0
 11
56.22692741935391
 21
33.90314516129062
 31
0.0
  0
LINE
  5
100
330
32
100
AcDbEntity
  8
1
  6
Continuous
 62
     7
100
AcDbLine
 10
25.2269274193539
 20
33.90314516129062
 30
0.0
 11
25.22692741935391
 21
26.40314516129062
 31
0.0
  0
LINE
  5
101
330
32
100
AcDbEntity
  8
1
  6
Continuous
 62
     7
100
AcDbLine
 10
25.22692741935391
 20
26.40314516129062
 30
0.0
 11
57.22692741935391
 21
26.40314516129062
 31
0.0
  0
LINE
  5
102
330
32
100
AcDbEntity
  8
1
  6
Continuous
 62
     7
100
AcDbLine
 10
56.22692741935391
 20
33.90314516129062
 30
0.0
 11
56.22692741935391
 21
53.90314516129062
 31
0.0
  0
LINE
  5
103
330
32
100
AcDbEntity
  8
1
  6
Continuous
 62
     7
100
AcDbLine
 10
56.22692741935391
 20
33.90314516129062
 30
0.0
 11
26.22692741935391
 21
33.90314516129062
 31
0.0
  0
LINE
  5
104
330
32
100
AcDbEntity
  8
1
  6
Continuous
 62
     7
100
AcDbLine
 10
28.7269274193539
 20
55.90314516129062
 30
0.0
 11
27.22692741935391
 21
55.90314516129062
 31
0.0
  0
LINE
  5
105
330
32
100
AcDbEntity
  8
1
  6
Continuous
 62
     7
100
AcDbLine
 10
26.22692741935391
 20
33.90314516129062
 30
0.0
 11
25.2269274193539
 21
33.90314516129062
 31
0.0
  0
LINE
  5
106
330
32
100
AcDbEntity
  8
1
  6
DASHED
 62
     7
100
AcDbLine
 10
28.7269274193539
 20
55.90314516129062
 30
0.0
 11
28.72692741935391
 21
24.40314516129062
 31
0.0
  0
LINE
  5
107
330
32
100
AcDbEntity
  8
1
  6
Continuous
 62
     7
100
AcDbLine
 10
28.72692741935391
 20
24.40314516129062
 30
0.0
 11
53.72692741935391
 21
24.40314516129062
 31
0.0
  0
LINE
  5
108
330
32
100
AcDbEntity
  8
1
  6
DASHED
 62
     7
100
AcDbLine
 10
53.72692741935391
 20
55.90314516129062
 30
0.0
 11
53.72692741935391
 21
24.40314516129062
 31
0.0
  0
LINE
  5
109
330
32
100
AcDbEntity
  8
1
  6
Continuous
 62
     7
100
AcDbLine
 10
53.72692741935391
 20
55.90314516129062
 30
0.0
 11
28.7269274193539
 21
55.90314516129062
 31
0.0
  0
LINE
  5
10A
330
32
100
AcDbEntity
  8
1
  6
Continuous
 62
     7
100
AcDbLine
 10
53.72692741935391
 20
24.40314516129062
 30
0.0
 11
58.22692741935391
 21
24.40314516129062
 31
0.0
  0
LINE
  5
10B
330
32
100
AcDbEntity
  8
1
  6
Continuous
 62
     7
100
AcDbLine
 10
26.22692741935391
 20
53.90314516129062
 30
0.0
 11
56.22692741935391
 21
53.90314516129062
 31
0.0
  0
LINE
  5
10C
330
32
100
AcDbEntity
  8
1
  6
Continuous
 62
     7
100
AcDbLine
 10
26.22692741935391
 20
53.90314516129062
 30
0.0
 11
26.22692741935391
 21
33.90314516129062
 31
0.0
  0
LINE
  5
10D
330
32
100
AcDbEntity
  8
1
  6
Continuous
 62
     7
100
AcDbLine
 10
56.22692741935391
 20
53.90314516129062
 30
0.0
 11
55.22692741935391
 21
55.90314516129062
 31
0.0
  0
LINE
  5
10E
330
32
100
AcDbEntity
  8
1
  6
Continuous
 62
     7
100
AcDbLine
 10
55.22692741935391
 20
55.90314516129062
 30
0.0
 11
53.72692741935391
 21
55.90314516129062
 31
0.0
  0
LINE
  5
10F
330
32
100
AcDbEntity
  8
1
  6
Continuous
 62
     7
100
AcDbLine
 10
26.22692741935391
 20
53.90314516129062
 30
0.0
 11
27.22692741935391
 21
55.90314516129062
 31
0.0
  0
LINE
  5
110
330
32
100
AcDbEntity
  8
1
  6
Continuous
 62
     7
100
AcDbLine
 10
-252.7730725806461
 20
-75.59685483870938
 30
0.0
 11
-252.7730725806461
 21
-77.59685483870938
 31
0.0
  0
LINE
  5
111
330
32
100
AcDbEntity
  8
1
  6
Continuous
 62
     7
100
AcDbLine
 10
-252.7730725806461
 20
-75.59685483870938
 30
0.0
 11
-218.7730725806461
 21
-75.59685483870938
 31
0.0
  0
LINE
  5
112
330
32
100
AcDbEntity
  8
1
  6
Continuous
 62
     7
100
AcDbLine
 10
-252.7730725806461
 20
-77.59685483870938
 30
0.0
 11
-247.7730725806461
 21
-77.59685483870938
 31
0.0
  0
LINE
  5
113
330
32
100
AcDbEntity
  8
1
  6
Continuous
 62
     7
100
AcDbLine
 10
-218.7730725806461
 20
-77.59685483870938
 30
0.0
 11
-218.7730725806461
 21
-75.59685483870938
 31
0.0
  0
LINE
  5
114
330
32
100
AcDbEntity
  8
1
  6
Continuous
 62
     7
100
AcDbLine
 10
-218.7730725806461
 20
-75.59685483870938
 30
0.0
 11
-183.2730725806461
 21
-75.59685483870938
 31
0.0
  0
LINE
  5
115
330
32
100
AcDbEntity
  8
1
  6
Continuous
 62
     7
100
AcDbLine
 10
-247.7730725806461
 20
-77.59685483870938
 30
0.0
 11
-247.7730725806461
 21
-117.5968548387094
 31
0.0
  0
LINE
  5
116
330
32
100
AcDbEntity
  8
1
  6
Continuous
 62
     7
100
AcDbLine
 10
-247.7730725806461
 20
-77.59685483870938
 30
0.0
 11
-223.7730725806461
 21
-77.59685483870938
 31
0.0
  0
LINE
  5
117
330
32
100
AcDbEntity
  8
1
  6
Continuous
 62
     7
100
AcDbLine
 10
-247.7730725806461
 20
-117.5968548387094
 30
0.0
 11
-223.7730725806461
 21
-117.5968548387094
 31
0.0
  0
LINE
  5
118
330
32
100
AcDbEntity
  8
1
  6
Continuous
 62
     7
100
AcDbLine
 10
-223.7730725806461
 20
-117.5968548387094
 30
0.0
 11
-223.7730725806461
 21
-77.59685483870938
 31
0.0
  0
LINE
  5
119
330
32
100
AcDbEntity
  8
1
  6
Continuous
 62
     7
100
AcDbLine
 10
-223.7730725806461
 20
-77.59685483870938
 30
0.0
 11
-218.7730725806461
 21
-77.59685483870938
 31
0.0
  0
LINE
  5
11A
330
32
100
AcDbEntity
  8
1
  6
Continuous
 62
     7
100
AcDbLine
 10
-252.7730725806461
 20
24.40314516129062
 30
0.0
 11
-252.7730725806461
 21
26.40314516129062
 31
0.0
  0
LINE
  5
11B
330
32
100
AcDbEntity
  8
1
  6
Continuous
 62
     7
100
AcDbLine
 10
-252.7730725806461
 20
24.40314516129062
 30
0.0
 11
-218.7730725806461
 21
24.40314516129062
 31
0.0
  0
LINE
  5
11C
330
32
100
AcDbEntity
  8
1
  6
Continuous
 62
     7
100
AcDbLine
 10
-252.7730725806461
 20
26.40314516129062
 30
0.0
 11
-247.7730725806461
 21
26.40314516129062
 31
0.0
  0
LINE
  5
11D
330
32
100
AcDbEntity
  8
1
  6
Continuous
 62
     7
100
AcDbLine
 10
-218.7730725806461
 20
26.40314516129062
 30
0.0
 11
-218.7730725806461
 21
24.40314516129062
 31
0.0
  0
LINE
  5
11E
330
32
100
AcDbEntity
  8
1
  6
Continuous
 62
     7
100
AcDbLine
 10
-218.7730725806461
 20
24.40314516129062
 30
0.0
 11
-203.2730725806461
 21
24.40314516129062
 31
0.0
  0
LINE
  5
11F
330
32
100
AcDbEntity
  8
1
  6
Continuous
 62
     7
100
AcDbLine
 10
-247.7730725806461
 20
26.40314516129062
 30
0.0
 11
-247.7730725806461
 21
66.40314516129062
 31
0.0
  0
LINE
  5
120
330
32
100
AcDbEntity
  8
1
  6
Continuous
 62
     7
100
AcDbLine
 10
-247.7730725806461
 20
26.40314516129062
 30
0.0
 11
-223.7730725806461
 21
26.40314516129062
 31
0.0
  0
LINE
  5
121
330
32
100
AcDbEntity
  8
1
  6
Continuous
 62
     7
100
AcDbLine
 10
-247.7730725806461
 20
66.40314516129062
 30
0.0
 11
-223.7730725806461
 21
66.40314516129062
 31
0.0
  0
LINE
  5
122
330
32
100
AcDbEntity
  8
1
  6
Continuous
 62
     7
100
AcDbLine
 10
-223.7730725806461
 20
66.40314516129062
 30
0.0
 11
-223.7730725806461
 21
26.40314516129062
 31
0.0
  0
LINE
  5
123
330
32
100
AcDbEntity
  8
1
  6
Continuous
 62
     7
100
AcDbLine
 10
-223.7730725806461
 20
26.40314516129062
 30
0.0
 11
-218.7730725806461
 21
26.40314516129062
 31
0.0
  0
LINE
  5
124
330
32
100
AcDbEntity
  8
1
  6
Continuous
 62
     7
100
AcDbLine
 10
-239.7730725806461
 20
60.40314516129062
 30
0.0
 11
-239.7730725806461
 21
32.40314516129062
 31
0.0
  0
LINE
  5
125
330
32
100
AcDbEntity
  8
1
  6
Continuous
 62
     7
100
AcDbLine
 10
-231.7730725806461
 20
60.40314516129062
 30
0.0
 11
-231.7730725806461
 21
32.40314516129062
 31
0.0
  0
LINE
  5
126
330
32
100
AcDbEntity
  8
1
  6
Continuous
 62
     7
100
AcDbLine
 10
-239.7730725806461
 20
-83.59685483870938
 30
0.0
 11
-239.7730725806461
 21
-111.5968548387094
 31
0.0
  0
LINE
  5
127
330
32
100
AcDbEntity
  8
1
  6
Continuous
 62
     7
100
AcDbLine
 10
-231.7730725806461
 20
-83.59685483870938
 30
0.0
 11
-231.7730725806461
 21
-111.5968548387094
 31
0.0
  0
ARC
  5
128
330
32
100
AcDbEntity
  8
1
  6
Continuous
 62
     7
100
AcDbCircle
 10
-235.7730725806464
 20
60.40314516129097
 30
0.0
 40
3.999999999999652
100
AcDbArc
 50
89.99999999999552
 51
-179.9999999999949
  0
ARC
  5
129
330
32
100
AcDbEntity
  8
1
  6
Continuous
 62
     7
100
AcDbCircle
 10
-235.7730725806464
 20
60.40314516129097
 30
0.0
 40
4.000000000000313
100
AcDbArc
 50
-0.00000000000509
 51
89.99999999999552
  0
ARC
  5
12A
330
32
100
AcDbEntity
  8
1
  6
Continuous
 62
     7
100
AcDbCircle
 10
-235.7730725806461
 20
32.4031451612906
 30
0.0
 40
4.0
100
AcDbArc
 50
179.9999999999998
 51
-90.0
  0
ARC
  5
12B
330
32
100
AcDbEntity
  8
1
  6
Continuous
 62
     7
100
AcDbCircle
 10
-235.7730725806461
 20
32.4031451612906
 30
0.0
 40
3.999999999999982
100
AcDbArc
 50
-90.0
 51
0.0000000000002
  0
ARC
  5
12C
330
32
100
AcDbEntity
  8
1
  6
Continuous
 62
     7
100
AcDbCircle
 10
-235.7730725806461
 20
-83.59685483870936
 30
0.0
 40
3.999999999999986
100
AcDbArc
 50
90.0
 51
-179.9999999999998
  0
ARC
  5
12D
330
32
100
AcDbEntity
  8
1
  6
Continuous
 62
     7
100
AcDbCircle
 10
-235.7730725806461
 20
-83.59685483870936
 30
0.0
 40
4.0
100
AcDbArc
 50
-0.0000000000002
 51
90.0
  0
ARC
  5
12E
330
32
100
AcDbEntity
  8
1
  6
Continuous
 62
     7
100
AcDbCircle
 10
-235.7730725806452
 20
-111.5968548387085
 30
0.0
 40
4.000000000000909
100
AcDbArc
 50
-179.999999999987
 51
-90.00000000001303
  0
ARC
  5
12F
330
32
100
AcDbEntity
  8
1
  6
Continuous
 62
     7
100
AcDbCircle
 10
-235.7730725806464
 20
-111.596854838709
 30
0.0
 40
4.000000000000398
100
AcDbArc
 50
-89.99999999999552
 51
-0.0000000000057
  0
ARC
  5
130
330
32
100
AcDbEntity
  8
1
  6
Continuous
 62
     7
100
AcDbCircle
 10
-283.2730725806461
 20
1.40314516129063
 30
0.0
 40
4.999999999999996
100
AcDbArc
 50
90.0
 51
180.0
  0
ARC
  5
131
330
32
100
AcDbEntity
  8
1
  6
Continuous
 62
     7
100
AcDbCircle
 10
-278.2730725806461
 20
11.40314516129062
 30
0.0
 40
4.999999999999996
100
AcDbArc
 50
-90.0
 51
0.0
  0
ARC
  5
132
330
32
100
AcDbEntity
  8
1
  6
Continuous
 62
     7
100
AcDbCircle
 10
-268.2730725806461
 20
19.40314516129062
 30
0.0
 40
5.0
100
AcDbArc
 50
90.0
 51
180.0
  0
ARC
  5
133
330
32
100
AcDbEntity
  8
1
  6
Continuous
 62
     7
100
AcDbCircle
 10
-203.2730725806461
 20
19.40314516129062
 30
0.0
 40
5.0
100
AcDbArc
 50
0.0
 51
90.0
  0
ARC
  5
134
330
32
100
AcDbEntity
  8
1
  6
Continuous
 62
     7
100
AcDbCircle
 10
-293.2730725806461
 20
-46.59685483870938
 30
0.0
 40
5.0
100
AcDbArc
 50
-90.0
 51
0.0
  0
ARC
  5
135
330
32
100
AcDbEntity
  8
1
  6
Continuous
 62
     7
100
AcDbCircle
 10
-172.2730725806461
 20
-57.59685483870938
 30
0.0
 40
6.0
100
AcDbArc
 50
90.0
 51
180.0
  0
ARC
  5
136
330
32
100
AcDbEntity
  8
1
  6
Continuous
 62
     7
100
AcDbCircle
 10
-194.7730725806461
 20
18.8592027327011
 30
0.0
 40
3.5
100
AcDbArc
 50
180.0
 51
-82.84450398328097
  0
ARC
  5
137
330
32
100
AcDbEntity
  8
1
  6
Continuous
 62
     7
100
AcDbCircle
 10
-178.9732428395743
 20
1.40314516129062
 30
0.0
 40
3.0
100
AcDbArc
 50
-90.0
 51
-63.72578784527302
  0
ARC
  5
138
330
32
100
AcDbEntity
  8
1
  6
Continuous
 62
     7
100
AcDbCircle
 10
-179.0521702589888
 20
7.40314516129062
 30
0.0
 40
3.0
100
AcDbArc
 50
-90.0
 51
-60.88385373392162
  0
ARC
  5
139
330
32
100
AcDbEntity
  8
1
  6
Continuous
 62
     7
100
AcDbCircle
 10
-135.9723915449332
 20
5.90314516129062
 30
0.0
 40
12.0
100
AcDbArc
 50
90.0
 51
116.2742121547275
  0
ARC
  5
13A
330
32
100
AcDbEntity
  8
1
  6
Continuous
 62
     7
100
AcDbCircle
 10
-135.6566818672753
 20
14.40314516129062
 30
0.0
 40
12.0
100
AcDbArc
 50
90.0
 51
119.1161462660787
  0
ARC
  5
13B
330
32
100
AcDbEntity
  8
1
  6
Continuous
 62
     7
100
AcDbCircle
 10
-137.4232808501004
 20
14.40314516129062
 30
0.0
 40
12.0
100
AcDbArc
 50
90.0
 51
102.8356094864014
  0
ARC
  5
13C
330
32
100
AcDbEntity
  8
1
  6
Continuous
 62
     7
100
AcDbCircle
 10
-179.0521702589888
 20
-42.59685483870938
 30
0.0
 40
2.999999999999988
100
AcDbArc
 50
60.88385373392169
 51
90.0
  0
ARC
  5
13D
330
32
100
AcDbEntity
  8
1
  6
Continuous
 62
     7
100
AcDbCircle
 10
-178.9732428395743
 20
-36.59685483870938
 30
0.0
 40
2.999999999999997
100
AcDbArc
 50
63.72578784527312
 51
90.0
  0
ARC
  5
13E
330
32
100
AcDbEntity
  8
1
  6
Continuous
 62
     7
100
AcDbCircle
 10
-135.9723915449332
 20
-41.09685483870938
 30
0.0
 40
11.99999999999999
100
AcDbArc
 50
-116.2742121547275
 51
-90.0
  0
ARC
  5
13F
330
32
100
AcDbEntity
  8
1
  6
Continuous
 62
     7
100
AcDbCircle
 10
-137.0202419252541
 20
-49.59685483870938
 30
0.0
 40
11.99999999999998
100
AcDbArc
 50
-106.6207569138918
 51
-90.0
  0
ARC
  5
140
330
32
100
AcDbEntity
  8
1
  6
Continuous
 62
     7
100
AcDbCircle
 10
-135.6566818672753
 20
-49.59685483870938
 30
0.0
 40
11.99999999999997
100
AcDbArc
 50
-119.1161462660787
 51
-90.0
  0
ARC
  5
141
330
32
100
AcDbEntity
  8
1
  6
Continuous
 62
     7
100
AcDbCircle
 10
141.3433181327247
 20
-49.59685483870938
 30
0.0
 40
11.99999999999997
100
AcDbArc
 50
-119.1161462660787
 51
-90.0
  0
ARC
  5
142
330
32
100
AcDbEntity
  8
1
  6
Continuous
 62
     7
100
AcDbCircle
 10
139.9797580747459
 20
-49.59685483870938
 30
0.0
 40
11.99999999999998
100
AcDbArc
 50
-106.6207569138918
 51
-90.0
  0
ARC
  5
143
330
32
100
AcDbEntity
  8
1
  6
Continuous
 62
     7
100
AcDbCircle
 10
141.0276084550668
 20
-41.09685483870938
 30
0.0
 40
11.99999999999999
100
AcDbArc
 50
-116.2742121547275
 51
-90.0
  0
ARC
  5
144
330
32
100
AcDbEntity
  8
1
  6
Continuous
 62
     7
100
AcDbCircle
 10
98.02675716042566
 20
-36.59685483870938
 30
0.0
 40
3.000000000000009
100
AcDbArc
 50
63.72578784527263
 51
90.0
  0
ARC
  5
145
330
32
100
AcDbEntity
  8
1
  6
Continuous
 62
     7
100
AcDbCircle
 10
97.94782974101122
 20
-42.59685483870938
 30
0.0
 40
2.999999999999988
100
AcDbArc
 50
60.88385373392169
 51
90.0
  0
ARC
  5
146
330
32
100
AcDbEntity
  8
1
  6
Continuous
 62
     7
100
AcDbCircle
 10
139.5767191498997
 20
14.40314516129062
 30
0.0
 40
12.0
100
AcDbArc
 50
90.0
 51
102.8356094864014
  0
ARC
  5
147
330
32
100
AcDbEntity
  8
1
  6
Continuous
 62
     7
100
AcDbCircle
 10
141.3433181327247
 20
14.40314516129062
 30
0.0
 40
12.0
100
AcDbArc
 50
90.0
 51
119.1161462660787
  0
ARC
  5
148
330
32
100
AcDbEntity
  8
1
  6
Continuous
 62
     7
100
AcDbCircle
 10
141.0276084550668
 20
5.90314516129062
 30
0.0
 40
12.0
100
AcDbArc
 50
90.0
 51
116.2742121547275
  0
ARC
  5
149
330
32
100
AcDbEntity
  8
1
  6
Continuous
 62
     7
100
AcDbCircle
 10
97.94782974101122
 20
7.40314516129062
 30
0.0
 40
3.0
100
AcDbArc
 50
-90.0
 51
-60.88385373392162
  0
ARC
  5
14A
330
32
100
AcDbEntity
  8
1
  6
Continuous
 62
     7
100
AcDbCircle
 10
98.02675716042566
 20
1.40314516129062
 30
0.0
 40
3.0
100
AcDbArc
 50
-90.0
 51
-63.72578784527205
  0
ARC
  5
14B
330
32
100
AcDbEntity
  8
1
  6
Continuous
 62
     7
100
AcDbCircle
 10
82.2269274193539
 20
18.8592027327011
 30
0.0
 40
3.5
100
AcDbArc
 50
180.0
 51
-82.84450398328052
  0
ARC
  5
14C
330
32
100
AcDbEntity
  8
1
  6
Continuous
 62
     7
100
AcDbCircle
 10
104.7269274193539
 20
-57.59685483870938
 30
0.0
 40
6.0
100
AcDbArc
 50
90.0
 51
180.0
  0
ARC
  5
14D
330
32
100
AcDbEntity
  8
1
  6
Continuous
 62
     7
100
AcDbCircle
 10
-16.2730725806461
 20
-46.59685483870938
 30
0.0
 40
5.0
100
AcDbArc
 50
-90.0
 51
0.0
  0
ARC
  5
14E
330
32
100
AcDbEntity
  8
1
  6
Continuous
 62
     7
100
AcDbCircle
 10
73.72692741935391
 20
19.40314516129062
 30
0.0
 40
4.999999999999986
100
AcDbArc
 50
0.0
 51
90.00000000000017
  0
ARC
  5
14F
330
32
100
AcDbEntity
  8
1
  6
Continuous
 62
     7
100
AcDbCircle
 10
8.7269274193539
 20
19.40314516129062
 30
0.0
 40
5.0
100
AcDbArc
 50
90.0
 51
180.0
  0
ARC
  5
150
330
32
100
AcDbEntity
  8
1
  6
Continuous
 62
     7
100
AcDbCircle
 10
-1.2730725806461
 20
11.40314516129062
 30
0.0
 40
4.999999999999996
100
AcDbArc
 50
-90.0
 51
0.0
  0
ARC
  5
151
330
32
100
AcDbEntity
  8
1
  6
Continuous
 62
     7
100
AcDbCircle
 10
-6.2730725806461
 20
1.40314516129063
 30
0.0
 40
4.999999999999996
100
AcDbArc
 50
90.0
 51
180.0
  0
MTEXT
  5
153
330
32
100
AcDbEntity
  8
1
 62
     3
100
AcDbMText
 10
123.071124869854
 20
-105.386240180738
 30
0.0
 40
4.65116279069768
 41
0.0
 71
     5
 72
     1
  1
K3016
  7
CONVERTER_11
 73
     1
 44
1.32052821128451
  0
DIMENSION
  5
15F
330
32
100
AcDbEntity
  8
1
100
AcDbDimension
  2
*D2
 10
28.7269274193539
 20
76.27337382389094
 30
0.0
 11
88.5219468790024
 21
87.0291877773793
 31
0.0
 70
    32
  1
<>
 71
     5
 42
-1.0
 53
0.00013888888889
  3
ME10_DIM_10
100
AcDbAlignedDimension
 13
53.72692741935391
 23
55.90314516129062
 33
0.0
 14
28.7269274193539
 24
55.90314516129062
 34
0.0
100
AcDbRotatedDimension
  0
DIMENSION
  5
16A
330
32
100
AcDbEntity
  8
1
100
AcDbDimension
  2
*D3
 10
26.2269274193539
 20
106.1605325332423
 30
0.0
 11
39.5070065956655
 21
116.9163464867307
 31
0.0
 70
    32
  1
<>
 71
     5
 42
-1.0
 53
0.00013888888889
  3
ME10_DIM_11
100
AcDbAlignedDimension
 13
56.22692741935391
 23
53.90314516129062
 33
0.0
 14
26.22692741935391
 24
53.90314516129062
 34
0.0
100
AcDbRotatedDimension
  0
DIMENSION
  5
176
330
32
100
AcDbEntity
  8
1
100
AcDbDimension
  2
*D4
 10
-247.7730725806461
 20
83.35460867439983
 30
0.0
 11
-269.62989037045
 21
94.1104226278882
 31
0.0
 70
    32
  1
<>
 71
     5
 42
-1.0
 53
0.00013888888889
  3
ME10_DIM_12
100
AcDbAlignedDimension
 13
-223.7730725806461
 23
66.40314516129062
 33
0.0
 14
-247.7730725806461
 24
66.40314516129062
 34
0.0
100
AcDbRotatedDimension
  0
DIMENSION
  5
182
330
32
100
AcDbEntity
  8
1
100
AcDbDimension
  2
*D5
 10
-247.7730725806461
 20
-134.2621622928287
 30
0.0
 11
-266.665084226482
 21
-123.5063483393403
 31
0.0
 70
    32
  1
<>
 71
     5
 42
-1.0
 53
0.00013888888889
  3
ME10_DIM_13
100
AcDbAlignedDimension
 13
-223.7730725806461
 23
-117.5968548387094
 33
0.0
 14
-247.7730725806461
 24
-117.5968548387094
 34
0.0
100
AcDbRotatedDimension
  0
DIMENSION
  5
18F
330
32
100
AcDbEntity
  8
1
100
AcDbDimension
  2
*D6
 10
-239.7730725806461
 20
44.03546527351793
 30
0.0
 11
-259.848879032259
 21
52.75639550607607
 31
0.0
 70
    32
  1
<>
 71
     5
 42
-1.0
 53
0.00013888888889
  3
ME10_DIM_14
100
AcDbAlignedDimension
 13
-231.7730725806461
 23
32.40314516129062
 33
0.0
 14
-239.7730725806461
 24
60.40314516129062
 34
0.0
100
AcDbRotatedDimension
  0
DIMENSION
  5
19C
330
32
100
AcDbEntity
  8
1
100
AcDbDimension
  2
*D7
 10
-239.7730725806461
 20
-100.8329823071273
 30
0.0
 11
-256.352054435485
 21
-92.11205207456915
 31
0.0
 70
    32
  1
<>
 71
     5
 42
-1.0
 53
0.00013888888889
  3
ME10_DIM_15
100
AcDbAlignedDimension
 13
-231.7730725806461
 23
-111.5968548387094
 33
0.0
 14
-239.7730725806461
 24
-111.5968548387094
 34
0.0
100
AcDbRotatedDimension
  0
DIMENSION
  5
1A9
330
32
100
AcDbEntity
  8
1
100
AcDbDimension
  2
*D8
 10
-57.60226863396987
 20
-75.59685483870939
 30
0.0
 11
-66.32319886652802
 21
-70.5206340675369
 31
0.0
 70
    32
  1
<>
 71
     5
 42
-1.0
 53
90.0
  3
ME10_DIM_16
100
AcDbAlignedDimension
 13
-16.2730725806461
 23
-62.59685483870938
 33
0.0
 14
-11.2730725806461
 24
-75.59685483870938
 34
0.0
 50
90.0
100
AcDbRotatedDimension
  0
DIMENSION
  5
1B4
330
32
100
AcDbEntity
  8
1
100
AcDbDimension
  2
*D9
 10
-57.60226863396987
 20
-62.59685483870938
 30
0.0
 11
-66.32319886652802
 21
-17.9192347390778
 31
0.0
 70
    32
  1
<>
 71
     5
 42
-1.0
 53
90.0
  3
ME10_DIM_17
100
AcDbAlignedDimension
 13
24.22692741935391
 23
24.40314516129062
 33
0.0
 14
-16.2730725806461
 24
-62.59685483870938
 34
0.0
 50
90.0
100
AcDbRotatedDimension
  0
DIMENSION
  5
1BF
330
32
100
AcDbEntity
  8
1
100
AcDbDimension
  2
*D10
 10
-23.40502470930323
 20
-17.59685483870936
 30
0.0
 11
-32.12595494186137
 21
41.696154273893
 31
0.0
 70
    32
  1
<>
 71
     5
 42
-1.0
 53
90.0
  3
ME10_DIM_18
100
AcDbAlignedDimension
 13
28.7269274193539
 23
55.90314516129062
 33
0.0
 14
-15.54525000000098
 24
-17.59685483870937
 34
0.0
 50
90.0
100
AcDbRotatedDimension
  0
DIMENSION
  5
1CC
330
32
100
AcDbEntity
  8
1
100
AcDbDimension
  2
*D11
 10
8.56594303263222
 20
55.90314516129062
 30
0.0
 11
-0.15498719992592
 21
44.1938861287317
 31
0.0
 70
    32
  1
<>
 71
     5
 42
-1.0
 53
90.0
  3
ME10_DIM_19
100
AcDbAlignedDimension
 13
26.22692741935391
 23
33.90314516129062
 33
0.0
 14
28.7269274193539
 24
55.90314516129062
 34
0.0
 50
90.0
100
AcDbRotatedDimension
  0
DIMENSION
  5
1D9
330
32
100
AcDbEntity
  8
1
100
AcDbDimension
  2
*D12
 10
-25.32413722786989
 20
-62.59685483870938
 30
0.0
 11
-34.04506746042804
 21
-38.242502661437
 31
0.0
 70
    32
  1
<>
 71
     5
 42
-1.0
 53
90.0
  3
ME10_DIM_20
100
AcDbAlignedDimension
 13
-11.2730725806461
 23
-51.59685483870938
 33
0.0
 14
-16.2730725806461
 24
-62.59685483870938
 34
0.0
 50
90.0
100
AcDbRotatedDimension
  0
DIMENSION
  5
1E6
330
32
100
AcDbEntity
  8
1
100
AcDbDimension
  2
*D13
 10
-333.7596151083799
 20
-75.59685483870939
 30
0.0
 11
-342.4805453409381
 21
-71.1183772417239
 31
0.0
 70
    32
  1
<>
 71
     5
 42
-1.0
 53
90.0
  3
ME10_DIM_21
100
AcDbAlignedDimension
 13
-293.2730725806461
 23
-62.59685483870938
 33
0.0
 14
-288.2730725806461
 24
-75.59685483870938
 34
0.0
 50
90.0
100
AcDbRotatedDimension
  0
DIMENSION
  5
1F3
330
32
100
AcDbEntity
  8
1
100
AcDbDimension
  2
*D14
 10
-306.8611722699641
 20
-62.59685483870938
 30
0.0
 11
-315.5821025025222
 21
-37.0470163130629
 31
0.0
 70
    32
  1
<>
 71
     5
 42
-1.0
 53
90.0
  3
ME10_DIM_22
100
AcDbAlignedDimension
 13
-288.2730725806461
 23
-51.59685483870938
 33
0.0
 14
-293.2730725806461
 24
-62.59685483870938
 34
0.0
 50
90.0
100
AcDbRotatedDimension
  0
DIMENSION
  5
1FE
330
32
100
AcDbEntity
  8
1
100
AcDbDimension
  2
*D15
 10
-333.7596151083799
 20
-62.59685483870938
 30
0.0
 11
-342.4805453409381
 21
-14.9305188681426
 31
0.0
 70
    32
  1
<>
 71
     5
 42
-1.0
 53
90.0
  3
ME10_DIM_23
100
AcDbAlignedDimension
 13
-268.2730725806461
 23
24.40314516129062
 33
0.0
 14
-293.2730725806461
 24
-62.59685483870938
 34
0.0
 50
90.0
100
AcDbRotatedDimension
  0
DIMENSION
  5
209
330
32
100
AcDbEntity
  8
1
100
AcDbDimension
  2
*D16
 10
-132.917908581536
 20
-117.5968548387094
 30
0.0
 11
-141.6388388140941
 21
-97.4190769059534
 31
0.0
 70
    32
  1
<>
 71
     5
 42
-1.0
 53
90.0
  3
ME10_DIM_24
100
AcDbAlignedDimension
 13
-223.7730725806461
 23
-77.59685483870938
 33
0.0
 14
-223.7730725806461
 24
-117.5968548387094
 34
0.0
 50
90.0
100
AcDbRotatedDimension
  0
DIMENSION
  5
216
330
32
100
AcDbEntity
  8
1
100
AcDbDimension
  2
*D17
 10
-164.5185432970704
 20
-77.59685483870938
 30
0.0
 11
-173.2394735296285
 21
-68.7970363814159
 31
0.0
 70
    32
  1
<>
 71
     5
 42
-1.0
 53
90.0
  3
ME10_DIM_25
100
AcDbAlignedDimension
 13
-218.7730725806461
 23
-75.59685483870938
 33
0.0
 14
-223.7730725806461
 24
-77.59685483870938
 34
0.0
 50
90.0
100
AcDbRotatedDimension
  0
DIMENSION
  5
223
330
32
100
AcDbEntity
  8
1
100
AcDbDimension
  2
*D18
 10
-161.011837768327
 20
24.40314516129062
 30
0.0
 11
-169.7327680008851
 21
39.4641099828776
 31
0.0
 70
    32
  1
<>
 71
     5
 42
-1.0
 53
90.0
  3
ME10_DIM_26
100
AcDbAlignedDimension
 13
-223.7730725806461
 23
26.40314516129062
 33
0.0
 14
-218.7730725806461
 24
24.40314516129062
 34
0.0
 50
90.0
100
AcDbRotatedDimension
  0
DIMENSION
  5
22E
330
32
100
AcDbEntity
  8
1
100
AcDbDimension
  2
*D19
 10
-137.102110800846
 20
26.40314516129062
 30
0.0
 11
-145.8230410334041
 21
47.8325144214961
 31
0.0
 70
    32
  1
<>
 71
     5
 42
-1.0
 53
90.0
  3
ME10_DIM_27
100
AcDbAlignedDimension
 13
-223.7730725806461
 23
66.40314516129062
 33
0.0
 14
-223.7730725806461
 24
26.40314516129062
 34
0.0
 50
90.0
100
AcDbRotatedDimension
  0
DIMENSION
  5
23B
330
32
100
AcDbEntity
  8
1
100
AcDbDimension
  2
*D20
 10
-182.134262822548
 20
-117.5968548387094
 30
0.0
 11
-190.8551930551061
 21
-131.754571472383
 31
0.0
 70
    32
  1
<>
 71
     5
 42
-1.0
 53
90.0
  3
ME10_DIM_28
100
AcDbAlignedDimension
 13
-235.7730725806461
 23
-115.5968548387094
 33
0.0
 14
-223.7730725806461
 24
-117.5968548387094
 34
0.0
 50
90.0
100
AcDbRotatedDimension
  0
DIMENSION
  5
246
330
32
100
AcDbEntity
  8
1
100
AcDbDimension
  2
*D21
 10
-182.3421275303783
 20
-115.5968548387094
 30
0.0
 11
-191.0630577629365
 21
-99.6900713479212
 31
0.0
 70
    32
  1
<>
 71
     5
 42
-1.0
 53
90.0
  3
ME10_DIM_29
100
AcDbAlignedDimension
 13
-235.7730725806461
 23
-79.59685483870938
 33
0.0
 14
-235.7730725806461
 24
-115.5968548387094
 34
0.0
 50
90.0
100
AcDbRotatedDimension
  0
DIMENSION
  5
253
330
32
100
AcDbEntity
  8
1
100
AcDbDimension
  2
*D22
 10
-184.3238215616211
 20
66.40314516129062
 30
0.0
 11
-193.0447517941792
 21
87.2835639178405
 31
0.0
 70
    32
  1
<>
 71
     5
 42
-1.0
 53
90.0
  3
ME10_DIM_30
100
AcDbAlignedDimension
 13
-235.7730725806461
 23
64.40314516129062
 33
0.0
 14
-223.7730725806461
 24
66.40314516129062
 34
0.0
 50
90.0
100
AcDbRotatedDimension
  0
DIMENSION
  5
25E
330
32
100
AcDbEntity
  8
1
100
AcDbDimension
  2
*D23
 10
-184.3238215616211
 20
64.40314516129062
 30
0.0
 11
-193.0447517941792
 21
45.441541724748
 31
0.0
 70
    32
  1
<>
 71
     5
 42
-1.0
 53
90.0
  3
ME10_DIM_31
100
AcDbAlignedDimension
 13
-235.7730725806461
 23
28.40314516129062
 33
0.0
 14
-235.7730725806461
 24
64.40314516129062
 34
0.0
 50
90.0
100
AcDbRotatedDimension
  0
DIMENSION
  5
26A
330
32
100
AcDbEntity
  8
1
100
AcDbDimension
  2
*D24
 10
28.7269274193539
 20
-119.8416552174527
 30
0.0
 11
-0.23175819981115
 21
-109.0858412639643
 31
0.0
 70
    32
  1
<>
 71
     5
 42
-1.0
 53
0.00013888888889
  3
ME10_DIM_32
100
AcDbAlignedDimension
 13
53.72692741935391
 23
-77.59685483870938
 33
0.0
 14
28.72692741935391
 24
-77.59685483870938
 34
0.0
100
AcDbRotatedDimension
  0
ENDBLK
  5
34
330
32
100
AcDbEntity
  8
0
100
AcDbBlockEnd
  0
BLOCK
  5
15C
330
154
100
AcDbEntity
  8
0
100
AcDbBlockBegin
  2
*D2
 70
     1
 71
     0
 10
0.0
 20
0.0
 30
0.0
  3
*D2
  1

  0
LINE
  5
155
330
154
100
AcDbEntity
  8
1
  6
Continuous
 62
     2
100
AcDbLine
 10
28.7269274193539
 20
76.27337382389094
 30
0.0
 11
53.7269274193539
 21
76.27337382389094
 31
0.0
  0
LINE
  5
156
330
154
100
AcDbEntity
  8
1
  6
Continuous
 62
     2
100
AcDbLine
 10
53.7269274193539
 20
76.27337382389094
 30
0.0
 11
102.8800864138861
 21
76.27337382389094
 31
0.0
  0
LINE
  5
157
330
154
100
AcDbEntity
  8
1
  6
Continuous
 62
     2
100
AcDbLine
 10
53.7269274193539
 20
55.90314516129062
 30
0.0
 11
53.7269274193539
 21
78.59895521923977
 31
0.0
  0
LINE
  5
158
330
154
100
AcDbEntity
  8
1
  6
Continuous
 62
     2
100
AcDbLine
 10
28.7269274193539
 20
55.90314516129062
 30
0.0
 11
28.7269274193539
 21
78.59895521923977
 31
0.0
  0
SOLID
  5
159
330
154
100
AcDbEntity
  8
1
 62
     2
100
AcDbTrace
 10
36.86646230307483
 20
77.34496392053254
 30
0.0
 11
36.86646230307483
 21
75.20178372724934
 31
0.0
 12
28.7269274193539
 22
76.27337382389094
 32
0.0
 13
28.7269274193539
 23
76.27337382389094
 33
0.0
  0
SOLID
  5
15A
330
154
100
AcDbEntity
  8
1
 62
     2
100
AcDbTrace
 10
45.58739253563297
 20
75.20178372724935
 30
0.0
 11
45.58739253563297
 21
77.34496392053254
 31
0.0
 12
53.7269274193539
 22
76.27337382389094
 32
0.0
 13
53.7269274193539
 23
76.27337382389094
 33
0.0
  0
MTEXT
  5
15B
330
154
100
AcDbEntity
  8
1
 62
     3
100
AcDbMText
 10
69.44287711159976
 20
82.9593879770243
 30
0.0
 40
8.13953488372093
 41
0.0
 71
     7
 72
     1
  1
\C3;{\Fgdt;n}\C3;\C3;25\C2;\H4.88372;\SH7^ ;
  7
CONVERTER_11
 11
0.9999999999970621
 21
2.424068405545307E-6
 31
0.0
 73
     1
 44
0.60024009603842
  0
ENDBLK
  5
15D
330
154
100
AcDbEntity
  8
0
100
AcDbBlockEnd
  0
BLOCK
  5
167
330
160
100
AcDbEntity
  8
0
100
AcDbBlockBegin
  2
*D3
 70
     1
 71
     0
 10
0.0
 20
0.0
 30
0.0
  3
*D3
  1

  0
LINE
  5
161
330
160
100
AcDbEntity
  8
1
  6
Continuous
 62
     2
100
AcDbLine
 10
26.2269274193539
 20
106.1605325332423
 30
0.0
 11
56.22692741935391
 21
106.1605325332423
 31
0.0
  0
LINE
  5
162
330
160
100
AcDbEntity
  8
1
  6
Continuous
 62
     2
100
AcDbLine
 10
56.22692741935391
 20
53.90314516129062
 30
0.0
 11
56.22692741935391
 21
108.4861139285912
 31
0.0
  0
LINE
  5
163
330
160
100
AcDbEntity
  8
1
  6
Continuous
 62
     2
100
AcDbLine
 10
26.2269274193539
 20
53.90314516129062
 30
0.0
 11
26.2269274193539
 21
108.4861139285912
 31
0.0
  0
SOLID
  5
164
330
160
100
AcDbEntity
  8
1
 62
     2
100
AcDbTrace
 10
34.36646230307483
 20
107.2321226298839
 30
0.0
 11
34.36646230307483
 21
105.0889424366007
 31
0.0
 12
26.2269274193539
 22
106.1605325332423
 32
0.0
 13
26.2269274193539
 23
106.1605325332423
 33
0.0
  0
SOLID
  5
165
330
160
100
AcDbEntity
  8
1
 62
     2
100
AcDbTrace
 10
48.08739253563298
 20
105.0889424366007
 30
0.0
 11
48.08739253563298
 21
107.2321226298839
 31
0.0
 12
56.22692741935391
 22
106.1605325332423
 32
0.0
 13
56.22692741935391
 23
106.1605325332423
 33
0.0
  0
MTEXT
  5
166
330
160
100
AcDbEntity
  8
1
 62
     3
100
AcDbMText
 10
21.20933217710007
 20
112.8465466863757
 30
0.0
 40
8.13953488372093
 41
0.0
 71
     7
 72
     1
  1
\C3;{\Fgdt;n}\C3;\C3;30\C2;\H4.88372;\S^ f7;
  7
CONVERTER_11
 11
0.9999999999970621
 21
2.424068405545307E-6
 31
0.0
 73
     1
 44
0.60024009603842
  0
ENDBLK
  5
168
330
160
100
AcDbEntity
  8
0
100
AcDbBlockEnd
  0
BLOCK
  5
173
330
16B
100
AcDbEntity
  8
0
100
AcDbBlockBegin
  2
*D4
 70
     1
 71
     0
 10
0.0
 20
0.0
 30
0.0
  3
*D4
  1

  0
LINE
  5
16C
330
16B
100
AcDbEntity
  8
1
  6
Continuous
 62
     2
100
AcDbLine
 10
-283.7926810681245
 20
83.35460867439983
 30
0.0
 11
-247.7730725806461
 21
83.35460867439983
 31
0.0
  0
LINE
  5
16D
330
16B
100
AcDbEntity
  8
1
  6
Continuous
 62
     2
100
AcDbLine
 10
-247.7730725806461
 20
83.35460867439983
 30
0.0
 11
-223.7730725806461
 21
83.35460867439983
 31
0.0
  0
LINE
  5
16E
330
16B
100
AcDbEntity
  8
1
  6
Continuous
 62
     2
100
AcDbLine
 10
-223.7730725806461
 20
66.40314516129062
 30
0.0
 11
-223.7730725806461
 21
85.68019006974866
 31
0.0
  0
LINE
  5
16F
330
16B
100
AcDbEntity
  8
1
  6
Continuous
 62
     2
100
AcDbLine
 10
-247.7730725806461
 20
66.40314516129062
 30
0.0
 11
-247.7730725806461
 21
85.68019006974866
 31
0.0
  0
SOLID
  5
170
330
16B
100
AcDbEntity
  8
1
 62
     2
100
AcDbTrace
 10
-239.6335376969252
 20
84.42619877104143
 30
0.0
 11
-239.6335376969252
 21
82.28301857775823
 31
0.0
 12
-247.7730725806461
 22
83.35460867439983
 32
0.0
 13
-247.7730725806461
 23
83.35460867439983
 33
0.0
  0
SOLID
  5
171
330
16B
100
AcDbEntity
  8
1
 62
     2
100
AcDbTrace
 10
-231.912607464367
 20
82.28301857775824
 30
0.0
 11
-231.912607464367
 21
84.42619877104143
 31
0.0
 12
-223.7730725806461
 22
83.35460867439983
 32
0.0
 13
-223.7730725806461
 23
83.35460867439983
 33
0.0
  0
MTEXT
  5
172
330
16B
100
AcDbEntity
  8
1
 62
     3
100
AcDbMText
 10
-288.5136113006433
 20
90.0406228275332
 30
0.0
 40
8.13953488372093
 41
0.0
 71
     7
 72
     1
  1
\C3;{\Fgdt;n}\C3;\C3;24\C2;\H4.88372;\S^ k6;
  7
CONVERTER_11
 11
0.9999999999970621
 21
2.424068405545307E-6
 31
0.0
 73
     1
 44
0.60024009603842
  0
ENDBLK
  5
174
330
16B
100
AcDbEntity
  8
0
100
AcDbBlockEnd
  0
BLOCK
  5
17F
330
177
100
AcDbEntity
  8
0
100
AcDbBlockBegin
  2
*D5
 70
     1
 71
     0
 10
0.0
 20
0.0
 30
0.0
  3
*D5
  1

  0
LINE
  5
178
330
177
100
AcDbEntity
  8
1
  6
Continuous
 62
     2
100
AcDbLine
 10
-280.8278749241564
 20
-134.2621622928287
 30
0.0
 11
-247.7730725806461
 21
-134.2621622928287
 31
0.0
  0
LINE
  5
179
330
177
100
AcDbEntity
  8
1
  6
Continuous
 62
     2
100
AcDbLine
 10
-247.7730725806461
 20
-134.2621622928287
 30
0.0
 11
-223.7730725806461
 21
-134.2621622928287
 31
0.0
  0
LINE
  5
17A
330
177
100
AcDbEntity
  8
1
  6
Continuous
 62
     2
100
AcDbLine
 10
-223.7730725806461
 20
-117.5968548387094
 30
0.0
 11
-223.7730725806461
 21
-136.5877436881775
 31
0.0
  0
LINE
  5
17B
330
177
100
AcDbEntity
  8
1
  6
Continuous
 62
     2
100
AcDbLine
 10
-247.7730725806461
 20
-117.5968548387094
 30
0.0
 11
-247.7730725806461
 21
-136.5877436881775
 31
0.0
  0
SOLID
  5
17C
330
177
100
AcDbEntity
  8
1
 62
     2
100
AcDbTrace
 10
-239.6335376969252
 20
-133.1905721961871
 30
0.0
 11
-239.6335376969252
 21
-135.3337523894703
 31
0.0
 12
-247.7730725806461
 22
-134.2621622928287
 32
0.0
 13
-247.7730725806461
 23
-134.2621622928287
 33
0.0
  0
SOLID
  5
17D
330
177
100
AcDbEntity
  8
1
 62
     2
100
AcDbTrace
 10
-231.912607464367
 20
-135.3337523894703
 30
0.0
 11
-231.912607464367
 21
-133.1905721961871
 31
0.0
 12
-223.7730725806461
 22
-134.2621622928287
 32
0.0
 13
-223.7730725806461
 23
-134.2621622928287
 33
0.0
  0
MTEXT
  5
17E
330
177
100
AcDbEntity
  8
1
 62
     3
100
AcDbMText
 10
-285.5488051566754
 20
-127.5761481396953
 30
0.0
 40
8.13953488372093
 41
0.0
 71
     7
 72
     1
  1
\C3;{\Fgdt;n}\C3;\C3;24\C2;\H4.88372;\S^ k6;
  7
CONVERTER_11
 11
0.9999999999970621
 21
2.424068405545307E-6
 31
0.0
 73
     1
 44
0.60024009603842
  0
ENDBLK
  5
180
330
177
100
AcDbEntity
  8
0
100
AcDbBlockEnd
  0
BLOCK
  5
18C
330
183
100
AcDbEntity
  8
0
100
AcDbBlockBegin
  2
*D6
 70
     1
 71
     0
 10
0.0
 20
0.0
 30
0.0
  3
*D6
  1

  0
LINE
  5
184
330
183
100
AcDbEntity
  8
1
  6
Continuous
 62
     2
100
AcDbLine
 10
-261.802367404352
 20
44.03546527351793
 30
0.0
 11
-239.7730725806461
 21
44.03546527351793
 31
0.0
  0
LINE
  5
185
330
183
100
AcDbEntity
  8
1
  6
Continuous
 62
     2
100
AcDbLine
 10
-239.7730725806461
 20
44.03546527351793
 30
0.0
 11
-231.7730725806461
 21
44.03546527351793
 31
0.0
  0
LINE
  5
186
330
183
100
AcDbEntity
  8
1
  6
Continuous
 62
     2
100
AcDbLine
 10
-231.7730725806461
 20
44.03546527351793
 30
0.0
 11
-215.4940028132042
 21
44.03546527351793
 31
0.0
  0
LINE
  5
187
330
183
100
AcDbEntity
  8
1
  6
Continuous
 62
     2
100
AcDbLine
 10
-231.7730725806461
 20
32.40314516129062
 30
0.0
 11
-231.7730725806461
 21
46.36104666886676
 31
0.0
  0
LINE
  5
188
330
183
100
AcDbEntity
  8
1
  6
Continuous
 62
     2
100
AcDbLine
 10
-239.7730725806461
 20
60.40314516129062
 30
0.0
 11
-239.7730725806461
 21
41.70988387816909
 31
0.0
  0
SOLID
  5
189
330
183
100
AcDbEntity
  8
1
 62
     2
100
AcDbTrace
 10
-247.912607464367
 20
42.96387517687634
 30
0.0
 11
-247.912607464367
 21
45.10705537015952
 31
0.0
 12
-239.7730725806461
 22
44.03546527351793
 32
0.0
 13
-239.7730725806461
 23
44.03546527351793
 33
0.0
  0
SOLID
  5
18A
330
183
100
AcDbEntity
  8
1
 62
     2
100
AcDbTrace
 10
-223.6335376969252
 20
45.10705537015952
 30
0.0
 11
-223.6335376969252
 21
42.96387517687634
 31
0.0
 12
-231.7730725806461
 22
44.03546527351793
 32
0.0
 13
-231.7730725806461
 23
44.03546527351793
 33
0.0
  0
MTEXT
  5
18B
330
183
100
AcDbEntity
  8
1
 62
     3
100
AcDbMText
 10
-261.802367404352
 20
48.6866280642156
 30
0.0
 40
8.13953488372093
 41
0.0
 71
     7
 72
     1
  1
8
  7
CONVERTER_11
 11
0.9999999999970621
 21
2.424068405545307E-6
 31
0.0
 73
     1
 44
0.60024009603842
  0
ENDBLK
  5
18D
330
183
100
AcDbEntity
  8
0
100
AcDbBlockEnd
  0
BLOCK
  5
199
330
190
100
AcDbEntity
  8
0
100
AcDbBlockBegin
  2
*D7
 70
     1
 71
     0
 10
0.0
 20
0.0
 30
0.0
  3
*D7
  1

  0
LINE
  5
191
330
190
100
AcDbEntity
  8
1
  6
Continuous
 62
     2
100
AcDbLine
 10
-258.305542807578
 20
-100.8329823071273
 30
0.0
 11
-239.7730725806461
 21
-100.8329823071273
 31
0.0
  0
LINE
  5
192
330
190
100
AcDbEntity
  8
1
  6
Continuous
 62
     2
100
AcDbLine
 10
-239.7730725806461
 20
-100.8329823071273
 30
0.0
 11
-231.7730725806461
 21
-100.8329823071273
 31
0.0
  0
LINE
  5
193
330
190
100
AcDbEntity
  8
1
  6
Continuous
 62
     2
100
AcDbLine
 10
-231.7730725806461
 20
-100.8329823071273
 30
0.0
 11
-215.4940028132042
 21
-100.8329823071273
 31
0.0
  0
LINE
  5
194
330
190
100
AcDbEntity
  8
1
  6
Continuous
 62
     2
100
AcDbLine
 10
-231.7730725806461
 20
-111.5968548387094
 30
0.0
 11
-231.7730725806461
 21
-98.50740091177846
 31
0.0
  0
LINE
  5
195
330
190
100
AcDbEntity
  8
1
  6
Continuous
 62
     2
100
AcDbLine
 10
-239.7730725806461
 20
-111.5968548387094
 30
0.0
 11
-239.7730725806461
 21
-98.50740091177846
 31
0.0
  0
SOLID
  5
196
330
190
100
AcDbEntity
  8
1
 62
     2
100
AcDbTrace
 10
-247.912607464367
 20
-101.9045724037689
 30
0.0
 11
-247.912607464367
 21
-99.7613922104857
 31
0.0
 12
-239.7730725806461
 22
-100.8329823071273
 32
0.0
 13
-239.7730725806461
 23
-100.8329823071273
 33
0.0
  0
SOLID
  5
197
330
190
100
AcDbEntity
  8
1
 62
     2
100
AcDbTrace
 10
-223.6335376969252
 20
-99.7613922104857
 30
0.0
 11
-223.6335376969252
 21
-101.9045724037689
 31
0.0
 12
-231.7730725806461
 22
-100.8329823071273
 32
0.0
 13
-231.7730725806461
 23
-100.8329823071273
 33
0.0
  0
MTEXT
  5
198
330
190
100
AcDbEntity
  8
1
 62
     3
100
AcDbMText
 10
-258.305542807578
 20
-96.18181951642961
 30
0.0
 40
8.13953488372093
 41
0.0
 71
     7
 72
     1
  1
8
  7
CONVERTER_11
 11
0.9999999999970621
 21
2.424068405545307E-6
 31
0.0
 73
     1
 44
0.60024009603842
  0
ENDBLK
  5
19A
330
190
100
AcDbEntity
  8
0
100
AcDbBlockEnd
  0
BLOCK
  5
1A6
330
19D
100
AcDbEntity
  8
0
100
AcDbBlockBegin
  2
*D8
 70
     1
 71
     0
 10
0.0
 20
0.0
 30
0.0
  3
*D8
  1

  0
LINE
  5
19E
330
19D
100
AcDbEntity
  8
1
  6
Continuous
 62
     2
100
AcDbLine
 10
-57.60226863396987
 20
-91.87592460615126
 30
0.0
 11
-57.60226863396987
 21
-75.59685483870939
 31
0.0
  0
LINE
  5
19F
330
19D
100
AcDbEntity
  8
1
  6
Continuous
 62
     2
100
AcDbLine
 10
-57.60226863396987
 20
-75.59685483870939
 30
0.0
 11
-57.60226863396987
 21
-62.59685483870938
 31
0.0
  0
LINE
  5
1A0
330
19D
100
AcDbEntity
  8
1
  6
Continuous
 62
     2
100
AcDbLine
 10
-57.60226863396987
 20
-62.59685483870938
 30
0.0
 11
-57.60226863396987
 21
-46.31778507126751
 31
0.0
  0
LINE
  5
1A1
330
19D
100
AcDbEntity
  8
1
  6
Continuous
 62
     2
100
AcDbLine
 10
-16.27307258064609
 20
-62.59685483870938
 30
0.0
 11
-59.92785002931871
 21
-62.59685483870938
 31
0.0
  0
LINE
  5
1A2
330
19D
100
AcDbEntity
  8
1
  6
Continuous
 62
     2
100
AcDbLine
 10
-11.27307258064609
 20
-75.59685483870939
 30
0.0
 11
-59.92785002931871
 21
-75.59685483870939
 31
0.0
  0
SOLID
  5
1A3
330
19D
100
AcDbEntity
  8
1
 62
     2
100
AcDbTrace
 10
-56.53067853732828
 20
-83.73638972243032
 30
0.0
 11
-58.67385873061146
 21
-83.73638972243032
 31
0.0
 12
-57.60226863396987
 22
-75.59685483870939
 32
0.0
 13
-57.60226863396987
 23
-75.59685483870939
 33
0.0
  0
SOLID
  5
1A4
330
19D
100
AcDbEntity
  8
1
 62
     2
100
AcDbTrace
 10
-58.67385873061146
 20
-54.45731995498844
 30
0.0
 11
-56.53067853732828
 21
-54.45731995498844
 31
0.0
 12
-57.60226863396987
 22
-62.59685483870938
 32
0.0
 13
-57.60226863396987
 23
-62.59685483870938
 33
0.0
  0
MTEXT
  5
1A5
330
19D
100
AcDbEntity
  8
1
 62
     3
100
AcDbMText
 10
-62.25343142466755
 20
-74.42761081172296
 30
0.0
 40
8.13953488372093
 41
0.0
 71
     7
 72
     1
  1
13
  7
CONVERTER_11
 11
0.0
 21
1.0
 31
0.0
 73
     1
 44
0.60024009603842
  0
ENDBLK
  5
1A7
330
19D
100
AcDbEntity
  8
0
100
AcDbBlockEnd
  0
BLOCK
  5
1B1
330
1AA
100
AcDbEntity
  8
0
100
AcDbBlockBegin
  2
*D9
 70
     1
 71
     0
 10
0.0
 20
0.0
 30
0.0
  3
*D9
  1

  0
LINE
  5
1AB
330
1AA
100
AcDbEntity
  8
1
  6
Continuous
 62
     2
100
AcDbLine
 10
-57.60226863396987
 20
-62.59685483870938
 30
0.0
 11
-57.60226863396987
 21
24.40314516129063
 31
0.0
  0
LINE
  5
1AC
330
1AA
100
AcDbEntity
  8
1
  6
Continuous
 62
     2
100
AcDbLine
 10
24.22692741935391
 20
24.40314516129062
 30
0.0
 11
-59.92785002931871
 21
24.40314516129062
 31
0.0
  0
LINE
  5
1AD
330
1AA
100
AcDbEntity
  8
1
  6
Continuous
 62
     2
100
AcDbLine
 10
-16.27307258064609
 20
-62.59685483870938
 30
0.0
 11
-59.92785002931871
 21
-62.59685483870938
 31
0.0
  0
SOLID
  5
1AE
330
1AA
100
AcDbEntity
  8
1
 62
     2
100
AcDbTrace
 10
-58.67385873061146
 20
-54.45731995498845
 30
0.0
 11
-56.53067853732828
 21
-54.45731995498845
 31
0.0
 12
-57.60226863396987
 22
-62.59685483870938
 32
0.0
 13
-57.60226863396987
 23
-62.59685483870938
 33
0.0
  0
SOLID
  5
1AF
330
1AA
100
AcDbEntity
  8
1
 62
     2
100
AcDbTrace
 10
-56.53067853732828
 20
16.2636102775697
 30
0.0
 11
-58.67385873061146
 21
16.2636102775697
 31
0.0
 12
-57.60226863396987
 22
24.40314516129063
 32
0.0
 13
-57.60226863396987
 23
24.40314516129063
 33
0.0
  0
MTEXT
  5
1B0
330
1AA
100
AcDbEntity
  8
1
 62
     3
100
AcDbMText
 10
-62.25343142466755
 20
-22.80295566931036
 30
0.0
 40
8.13953488372093
 41
0.0
 71
     7
 72
     1
  1
87
  7
CONVERTER_11
 11
0.0
 21
1.0
 31
0.0
 73
     1
 44
0.60024009603842
  0
ENDBLK
  5
1B2
330
1AA
100
AcDbEntity
  8
0
100
AcDbBlockEnd
  0
BLOCK
  5
1BC
330
1B5
100
AcDbEntity
  8
0
100
AcDbBlockBegin
  2
*D10
 70
     1
 71
     0
 10
0.0
 20
0.0
 30
0.0
  3
*D10
  1

  0
LINE
  5
1B6
330
1B5
100
AcDbEntity
  8
1
  6
Continuous
 62
     2
100
AcDbLine
 10
-23.40502470930323
 20
-17.59685483870936
 30
0.0
 11
-23.40502470930323
 21
55.90314516129064
 31
0.0
  0
LINE
  5
1B7
330
1B5
100
AcDbEntity
  8
1
  6
Continuous
 62
     2
100
AcDbLine
 10
28.7269274193539
 20
55.90314516129063
 30
0.0
 11
-25.73060610465207
 21
55.90314516129063
 31
0.0
  0
LINE
  5
1B8
330
1B5
100
AcDbEntity
  8
1
  6
Continuous
 62
     2
100
AcDbLine
 10
-15.54525000000098
 20
-17.59685483870936
 30
0.0
 11
-25.73060610465207
 21
-17.59685483870936
 31
0.0
  0
SOLID
  5
1B9
330
1B5
100
AcDbEntity
  8
1
 62
     2
100
AcDbTrace
 10
-24.47661480594483
 20
-9.45731995498843
 30
0.0
 11
-22.33343461266163
 21
-9.45731995498843
 31
0.0
 12
-23.40502470930323
 22
-17.59685483870936
 32
0.0
 13
-23.40502470930323
 23
-17.59685483870936
 33
0.0
  0
SOLID
  5
1BA
330
1B5
100
AcDbEntity
  8
1
 62
     2
100
AcDbTrace
 10
-22.33343461266164
 20
47.7636102775697
 30
0.0
 11
-24.47661480594483
 21
47.7636102775697
 31
0.0
 12
-23.40502470930323
 22
55.90314516129064
 32
0.0
 13
-23.40502470930323
 23
55.90314516129064
 33
0.0
  0
MTEXT
  5
1BB
330
1B5
100
AcDbEntity
  8
1
 62
     3
100
AcDbMText
 10
-28.05618750000091
 20
32.82406125063719
 30
0.0
 40
8.13953488372093
 41
0.0
 71
     7
 72
     1
  1
73.5
  7
CONVERTER_11
 11
0.0
 21
1.0
 31
0.0
 73
     1
 44
0.60024009603842
  0
ENDBLK
  5
1BD
330
1B5
100
AcDbEntity
  8
0
100
AcDbBlockEnd
  0
BLOCK
  5
1C9
330
1C0
100
AcDbEntity
  8
0
100
AcDbBlockBegin
  2
*D11
 70
     1
 71
     0
 10
0.0
 20
0.0
 30
0.0
  3
*D11
  1

  0
LINE
  5
1C1
330
1C0
100
AcDbEntity
  8
1
  6
Continuous
 62
     2
100
AcDbLine
 10
8.56594303263222
 20
72.18221492873249
 30
0.0
 11
8.56594303263222
 21
55.90314516129062
 31
0.0
  0
LINE
  5
1C2
330
1C0
100
AcDbEntity
  8
1
  6
Continuous
 62
     2
100
AcDbLine
 10
8.56594303263222
 20
55.90314516129062
 30
0.0
 11
8.56594303263222
 21
33.90314516129062
 31
0.0
  0
LINE
  5
1C3
330
1C0
100
AcDbEntity
  8
1
  6
Continuous
 62
     2
100
AcDbLine
 10
8.56594303263222
 20
33.90314516129062
 30
0.0
 11
8.56594303263222
 21
17.62407539384876
 31
0.0
  0
LINE
  5
1C4
330
1C0
100
AcDbEntity
  8
1
  6
Continuous
 62
     2
100
AcDbLine
 10
26.22692741935391
 20
33.90314516129062
 30
0.0
 11
6.24036163728338
 21
33.90314516129062
 31
0.0
  0
LINE
  5
1C5
330
1C0
100
AcDbEntity
  8
1
  6
Continuous
 62
     2
100
AcDbLine
 10
28.7269274193539
 20
55.90314516129062
 30
0.0
 11
6.24036163728338
 21
55.90314516129062
 31
0.0
  0
SOLID
  5
1C6
330
1C0
100
AcDbEntity
  8
1
 62
     2
100
AcDbTrace
 10
7.49435293599063
 20
64.04268004501156
 30
0.0
 11
9.63753312927382
 21
64.04268004501156
 31
0.0
 12
8.56594303263222
 22
55.90314516129062
 32
0.0
 13
8.56594303263222
 23
55.90314516129062
 33
0.0
  0
SOLID
  5
1C7
330
1C0
100
AcDbEntity
  8
1
 62
     2
100
AcDbTrace
 10
9.63753312927381
 20
25.76361027756969
 30
0.0
 11
7.49435293599063
 21
25.76361027756969
 31
0.0
 12
8.56594303263222
 22
33.90314516129062
 32
0.0
 13
8.56594303263222
 23
33.90314516129062
 33
0.0
  0
MTEXT
  5
1C8
330
1C0
100
AcDbEntity
  8
1
 62
     3
100
AcDbMText
 10
3.91478024193455
 20
39.31016519849913
 30
0.0
 40
8.13953488372093
 41
0.0
 71
     7
 72
     1
  1
22
  7
CONVERTER_11
 11
0.0
 21
1.0
 31
0.0
 73
     1
 44
0.60024009603842
  0
ENDBLK
  5
1CA
330
1C0
100
AcDbEntity
  8
0
100
AcDbBlockEnd
  0
BLOCK
  5
1D6
330
1CD
100
AcDbEntity
  8
0
100
AcDbBlockBegin
  2
*D12
 70
     1
 71
     0
 10
0.0
 20
0.0
 30
0.0
  3
*D12
  1

  0
LINE
  5
1CE
330
1CD
100
AcDbEntity
  8
1
  6
Continuous
 62
     2
100
AcDbLine
 10
-25.32413722786989
 20
-78.87592460615124
 30
0.0
 11
-25.32413722786989
 21
-62.59685483870938
 31
0.0
  0
LINE
  5
1CF
330
1CD
100
AcDbEntity
  8
1
  6
Continuous
 62
     2
100
AcDbLine
 10
-25.32413722786989
 20
-62.59685483870938
 30
0.0
 11
-25.32413722786989
 21
-51.59685483870938
 31
0.0
  0
LINE
  5
1D0
330
1CD
100
AcDbEntity
  8
1
  6
Continuous
 62
     2
100
AcDbLine
 10
-25.32413722786989
 20
-51.59685483870938
 30
0.0
 11
-25.32413722786989
 21
-35.31227010329746
 31
0.0
  0
LINE
  5
1D1
330
1CD
100
AcDbEntity
  8
1
  6
Continuous
 62
     2
100
AcDbLine
 10
-11.2730725806461
 20
-51.59685483870938
 30
0.0
 11
-27.64971862321873
 21
-51.59685483870938
 31
0.0
  0
LINE
  5
1D2
330
1CD
100
AcDbEntity
  8
1
  6
Continuous
 62
     2
100
AcDbLine
 10
-16.2730725806461
 20
-62.59685483870938
 30
0.0
 11
-27.64971862321873
 21
-62.59685483870938
 31
0.0
  0
SOLID
  5
1D3
330
1CD
100
AcDbEntity
  8
1
 62
     2
100
AcDbTrace
 10
-24.2525471312283
 20
-70.73638972243032
 30
0.0
 11
-26.39572732451149
 21
-70.73638972243032
 31
0.0
 12
-25.32413722786989
 22
-62.59685483870938
 32
0.0
 13
-25.32413722786989
 23
-62.59685483870938
 33
0.0
  0
SOLID
  5
1D4
330
1CD
100
AcDbEntity
  8
1
 62
     2
100
AcDbTrace
 10
-26.39572732451149
 20
-43.45731995498845
 30
0.0
 11
-24.2525471312283
 21
-43.45731995498845
 31
0.0
 12
-25.32413722786989
 22
-51.59685483870938
 32
0.0
 13
-25.32413722786989
 23
-51.59685483870938
 33
0.0
  0
MTEXT
  5
1D5
330
1CD
100
AcDbEntity
  8
1
 62
     3
100
AcDbMText
 10
-29.97530001856757
 20
-41.17273521957654
 30
0.0
 40
8.13953488372093
 41
0.0
 71
     7
 72
     1
  1
11
  7
CONVERTER_11
 11
0.0
 21
1.0
 31
0.0
 73
     1
 44
0.60024009603842
  0
ENDBLK
  5
1D7
330
1CD
100
AcDbEntity
  8
0
100
AcDbBlockEnd
  0
BLOCK
  5
1E3
330
1DA
100
AcDbEntity
  8
0
100
AcDbBlockBegin
  2
*D13
 70
     1
 71
     0
 10
0.0
 20
0.0
 30
0.0
  3
*D13
  1

  0
LINE
  5
1DB
330
1DA
100
AcDbEntity
  8
1
  6
Continuous
 62
     2
100
AcDbLine
 10
-333.7596151083799
 20
-91.87592460615126
 30
0.0
 11
-333.7596151083799
 21
-75.59685483870939
 31
0.0
  0
LINE
  5
1DC
330
1DA
100
AcDbEntity
  8
1
  6
Continuous
 62
     2
100
AcDbLine
 10
-333.7596151083799
 20
-75.59685483870939
 30
0.0
 11
-333.7596151083799
 21
-62.59685483870938
 31
0.0
  0
LINE
  5
1DD
330
1DA
100
AcDbEntity
  8
1
  6
Continuous
 62
     2
100
AcDbLine
 10
-333.7596151083799
 20
-62.59685483870938
 30
0.0
 11
-333.7596151083799
 21
-46.31778507126751
 31
0.0
  0
LINE
  5
1DE
330
1DA
100
AcDbEntity
  8
1
  6
Continuous
 62
     2
100
AcDbLine
 10
-293.273072580646
 20
-62.59685483870938
 30
0.0
 11
-336.0851965037288
 21
-62.59685483870938
 31
0.0
  0
LINE
  5
1DF
330
1DA
100
AcDbEntity
  8
1
  6
Continuous
 62
     2
100
AcDbLine
 10
-288.273072580646
 20
-75.59685483870939
 30
0.0
 11
-336.0851965037288
 21
-75.59685483870939
 31
0.0
  0
SOLID
  5
1E0
330
1DA
100
AcDbEntity
  8
1
 62
     2
100
AcDbTrace
 10
-332.6880250117383
 20
-83.73638972243032
 30
0.0
 11
-334.8312052050215
 21
-83.73638972243032
 31
0.0
 12
-333.7596151083799
 22
-75.59685483870939
 32
0.0
 13
-333.7596151083799
 23
-75.59685483870939
 33
0.0
  0
SOLID
  5
1E1
330
1DA
100
AcDbEntity
  8
1
 62
     2
100
AcDbTrace
 10
-334.8312052050215
 20
-54.45731995498844
 30
0.0
 11
-332.6880250117383
 21
-54.45731995498844
 31
0.0
 12
-333.7596151083799
 22
-62.59685483870938
 32
0.0
 13
-333.7596151083799
 23
-62.59685483870938
 33
0.0
  0
MTEXT
  5
1E2
330
1DA
100
AcDbEntity
  8
1
 62
     3
100
AcDbMText
 10
-338.4107778990776
 20
-75.02535398590996
 30
0.0
 40
8.13953488372093
 41
0.0
 71
     7
 72
     1
  1
13
  7
CONVERTER_11
 11
0.0
 21
1.0
 31
0.0
 73
     1
 44
0.60024009603842
  0
ENDBLK
  5
1E4
330
1DA
100
AcDbEntity
  8
0
100
AcDbBlockEnd
  0
BLOCK
  5
1F0
330
1E7
100
AcDbEntity
  8
0
100
AcDbBlockBegin
  2
*D14
 70
     1
 71
     0
 10
0.0
 20
0.0
 30
0.0
  3
*D14
  1

  0
LINE
  5
1E8
330
1E7
100
AcDbEntity
  8
1
  6
Continuous
 62
     2
100
AcDbLine
 10
-306.8611722699641
 20
-78.87592460615124
 30
0.0
 11
-306.8611722699641
 21
-62.59685483870938
 31
0.0
  0
LINE
  5
1E9
330
1E7
100
AcDbEntity
  8
1
  6
Continuous
 62
     2
100
AcDbLine
 10
-306.8611722699641
 20
-62.59685483870938
 30
0.0
 11
-306.8611722699641
 21
-51.59685483870938
 31
0.0
  0
LINE
  5
1EA
330
1E7
100
AcDbEntity
  8
1
  6
Continuous
 62
     2
100
AcDbLine
 10
-306.8611722699641
 20
-51.59685483870938
 30
0.0
 11
-306.8611722699641
 21
-34.11678375492336
 31
0.0
  0
LINE
  5
1EB
330
1E7
100
AcDbEntity
  8
1
  6
Continuous
 62
     2
100
AcDbLine
 10
-288.2730725806461
 20
-51.59685483870938
 30
0.0
 11
-309.1867536653129
 21
-51.59685483870938
 31
0.0
  0
LINE
  5
1EC
330
1E7
100
AcDbEntity
  8
1
  6
Continuous
 62
     2
100
AcDbLine
 10
-293.2730725806462
 20
-62.59685483870938
 30
0.0
 11
-309.1867536653129
 21
-62.59685483870938
 31
0.0
  0
SOLID
  5
1ED
330
1E7
100
AcDbEntity
  8
1
 62
     2
100
AcDbTrace
 10
-305.7895821733225
 20
-70.73638972243032
 30
0.0
 11
-307.9327623666057
 21
-70.73638972243032
 31
0.0
 12
-306.8611722699641
 22
-62.59685483870938
 32
0.0
 13
-306.8611722699641
 23
-62.59685483870938
 33
0.0
  0
SOLID
  5
1EE
330
1E7
100
AcDbEntity
  8
1
 62
     2
100
AcDbTrace
 10
-307.9327623666057
 20
-43.45731995498844
 30
0.0
 11
-305.7895821733225
 21
-43.45731995498844
 31
0.0
 12
-306.8611722699641
 22
-51.59685483870938
 32
0.0
 13
-306.8611722699641
 23
-51.59685483870938
 33
0.0
  0
MTEXT
  5
1EF
330
1E7
100
AcDbEntity
  8
1
 62
     3
100
AcDbMText
 10
-311.5123350606618
 20
-39.97724887120243
 30
0.0
 40
8.13953488372093
 41
0.0
 71
     7
 72
     1
  1
11
  7
CONVERTER_11
 11
0.0
 21
1.0
 31
0.0
 73
     1
 44
0.60024009603842
  0
ENDBLK
  5
1F1
330
1E7
100
AcDbEntity
  8
0
100
AcDbBlockEnd
  0
BLOCK
  5
1FB
330
1F4
100
AcDbEntity
  8
0
100
AcDbBlockBegin
  2
*D15
 70
     1
 71
     0
 10
0.0
 20
0.0
 30
0.0
  3
*D15
  1

  0
LINE
  5
1F5
330
1F4
100
AcDbEntity
  8
1
  6
Continuous
 62
     2
100
AcDbLine
 10
-333.7596151083799
 20
-62.59685483870938
 30
0.0
 11
-333.7596151083799
 21
24.40314516129062
 31
0.0
  0
LINE
  5
1F6
330
1F4
100
AcDbEntity
  8
1
  6
Continuous
 62
     2
100
AcDbLine
 10
-268.273072580646
 20
24.40314516129063
 30
0.0
 11
-336.0851965037288
 21
24.40314516129063
 31
0.0
  0
LINE
  5
1F7
330
1F4
100
AcDbEntity
  8
1
  6
Continuous
 62
     2
100
AcDbLine
 10
-293.273072580646
 20
-62.59685483870938
 30
0.0
 11
-336.0851965037288
 21
-62.59685483870938
 31
0.0
  0
SOLID
  5
1F8
330
1F4
100
AcDbEntity
  8
1
 62
     2
100
AcDbTrace
 10
-334.8312052050215
 20
-54.45731995498844
 30
0.0
 11
-332.6880250117383
 21
-54.45731995498844
 31
0.0
 12
-333.7596151083799
 22
-62.59685483870938
 32
0.0
 13
-333.7596151083799
 23
-62.59685483870938
 33
0.0
  0
SOLID
  5
1F9
330
1F4
100
AcDbEntity
  8
1
 62
     2
100
AcDbTrace
 10
-332.6880250117383
 20
16.26361027756969
 30
0.0
 11
-334.8312052050215
 21
16.26361027756969
 31
0.0
 12
-333.7596151083799
 22
24.40314516129062
 32
0.0
 13
-333.7596151083799
 23
24.40314516129062
 33
0.0
  0
MTEXT
  5
1FA
330
1F4
100
AcDbEntity
  8
1
 62
     3
100
AcDbMText
 10
-338.4107778990776
 20
-19.81423979837516
 30
0.0
 40
8.13953488372093
 41
0.0
 71
     7
 72
     1
  1
87
  7
CONVERTER_11
 11
0.0
 21
1.0
 31
0.0
 73
     1
 44
0.60024009603842
  0
ENDBLK
  5
1FC
330
1F4
100
AcDbEntity
  8
0
100
AcDbBlockEnd
  0
BLOCK
  5
206
330
1FF
100
AcDbEntity
  8
0
100
AcDbBlockBegin
  2
*D16
 70
     1
 71
     0
 10
0.0
 20
0.0
 30
0.0
  3
*D16
  1

  0
LINE
  5
200
330
1FF
100
AcDbEntity
  8
1
  6
Continuous
 62
     2
100
AcDbLine
 10
-132.917908581536
 20
-117.5968548387094
 30
0.0
 11
-132.917908581536
 21
-77.59685483870938
 31
0.0
  0
LINE
  5
201
330
1FF
100
AcDbEntity
  8
1
  6
Continuous
 62
     2
100
AcDbLine
 10
-223.7730725806461
 20
-77.59685483870938
 30
0.0
 11
-130.5923271861871
 21
-77.59685483870938
 31
0.0
  0
LINE
  5
202
330
1FF
100
AcDbEntity
  8
1
  6
Continuous
 62
     2
100
AcDbLine
 10
-223.7730725806461
 20
-117.5968548387094
 30
0.0
 11
-130.5923271861871
 21
-117.5968548387094
 31
0.0
  0
SOLID
  5
203
330
1FF
100
AcDbEntity
  8
1
 62
     2
100
AcDbTrace
 10
-133.9894986781775
 20
-109.4573199549884
 30
0.0
 11
-131.8463184848944
 21
-109.4573199549884
 31
0.0
 12
-132.917908581536
 22
-117.5968548387094
 32
0.0
 13
-132.917908581536
 23
-117.5968548387094
 33
0.0
  0
SOLID
  5
204
330
1FF
100
AcDbEntity
  8
1
 62
     2
100
AcDbTrace
 10
-131.8463184848944
 20
-85.73638972243032
 30
0.0
 11
-133.9894986781775
 21
-85.73638972243032
 31
0.0
 12
-132.917908581536
 22
-77.59685483870938
 32
0.0
 13
-132.917908581536
 23
-77.59685483870938
 33
0.0
  0
MTEXT
  5
205
330
1FF
100
AcDbEntity
  8
1
 62
     3
100
AcDbMText
 10
-137.5690713722336
 20
-102.302797836186
 30
0.0
 40
8.13953488372093
 41
0.0
 71
     7
 72
     1
  1
40
  7
CONVERTER_11
 11
0.0
 21
1.0
 31
0.0
 73
     1
 44
0.60024009603842
  0
ENDBLK
  5
207
330
1FF
100
AcDbEntity
  8
0
100
AcDbBlockEnd
  0
BLOCK
  5
213
330
20A
100
AcDbEntity
  8
0
100
AcDbBlockBegin
  2
*D17
 70
     1
 71
     0
 10
0.0
 20
0.0
 30
0.0
  3
*D17
  1

  0
LINE
  5
20B
330
20A
100
AcDbEntity
  8
1
  6
Continuous
 62
     2
100
AcDbLine
 10
-164.5185432970704
 20
-93.87592460615124
 30
0.0
 11
-164.5185432970704
 21
-77.59685483870938
 31
0.0
  0
LINE
  5
20C
330
20A
100
AcDbEntity
  8
1
  6
Continuous
 62
     2
100
AcDbLine
 10
-164.5185432970704
 20
-77.59685483870938
 30
0.0
 11
-164.5185432970704
 21
-75.59685483870939
 31
0.0
  0
LINE
  5
20D
330
20A
100
AcDbEntity
  8
1
  6
Continuous
 62
     2
100
AcDbLine
 10
-164.5185432970704
 20
-75.59685483870939
 30
0.0
 11
-164.5185432970704
 21
-59.31778507126752
 31
0.0
  0
LINE
  5
20E
330
20A
100
AcDbEntity
  8
1
  6
Continuous
 62
     2
100
AcDbLine
 10
-218.7730725806462
 20
-75.59685483870939
 30
0.0
 11
-162.1929619017215
 21
-75.59685483870939
 31
0.0
  0
LINE
  5
20F
330
20A
100
AcDbEntity
  8
1
  6
Continuous
 62
     2
100
AcDbLine
 10
-223.7730725806461
 20
-77.59685483870938
 30
0.0
 11
-162.1929619017215
 21
-77.59685483870938
 31
0.0
  0
SOLID
  5
210
330
20A
100
AcDbEntity
  8
1
 62
     2
100
AcDbTrace
 10
-163.4469532004288
 20
-85.73638972243032
 30
0.0
 11
-165.5901333937119
 21
-85.73638972243032
 31
0.0
 12
-164.5185432970704
 22
-77.59685483870938
 32
0.0
 13
-164.5185432970704
 23
-77.59685483870938
 33
0.0
  0
SOLID
  5
211
330
20A
100
AcDbEntity
  8
1
 62
     2
100
AcDbTrace
 10
-165.5901333937119
 20
-67.45731995498846
 30
0.0
 11
-163.4469532004288
 21
-67.45731995498846
 31
0.0
 12
-164.5185432970704
 22
-75.59685483870939
 32
0.0
 13
-164.5185432970704
 23
-75.59685483870939
 33
0.0
  0
MTEXT
  5
212
330
20A
100
AcDbEntity
  8
1
 62
     3
100
AcDbMText
 10
-169.169706087768
 20
-70.75052475350891
 30
0.0
 40
8.13953488372093
 41
0.0
 71
     7
 72
     1
  1
2
  7
CONVERTER_11
 11
0.0
 21
1.0
 31
0.0
 73
     1
 44
0.60024009603842
  0
ENDBLK
  5
214
330
20A
100
AcDbEntity
  8
0
100
AcDbBlockEnd
  0
BLOCK
  5
220
330
217
100
AcDbEntity
  8
0
100
AcDbBlockBegin
  2
*D18
 70
     1
 71
     0
 10
0.0
 20
0.0
 30
0.0
  3
*D18
  1

  0
LINE
  5
218
330
217
100
AcDbEntity
  8
1
  6
Continuous
 62
     2
100
AcDbLine
 10
-161.011837768327
 20
8.12407539384875
 30
0.0
 11
-161.011837768327
 21
24.40314516129062
 31
0.0
  0
LINE
  5
219
330
217
100
AcDbEntity
  8
1
  6
Continuous
 62
     2
100
AcDbLine
 10
-161.011837768327
 20
24.40314516129062
 30
0.0
 11
-161.011837768327
 21
26.40314516129062
 31
0.0
  0
LINE
  5
21A
330
217
100
AcDbEntity
  8
1
  6
Continuous
 62
     2
100
AcDbLine
 10
-161.011837768327
 20
26.40314516129062
 30
0.0
 11
-161.011837768327
 21
42.68221492873249
 31
0.0
  0
LINE
  5
21B
330
217
100
AcDbEntity
  8
1
  6
Continuous
 62
     2
100
AcDbLine
 10
-223.7730725806461
 20
26.40314516129062
 30
0.0
 11
-158.6862563729781
 21
26.40314516129062
 31
0.0
  0
LINE
  5
21C
330
217
100
AcDbEntity
  8
1
  6
Continuous
 62
     2
100
AcDbLine
 10
-218.7730725806461
 20
24.40314516129062
 30
0.0
 11
-158.6862563729781
 21
24.40314516129062
 31
0.0
  0
SOLID
  5
21D
330
217
100
AcDbEntity
  8
1
 62
     2
100
AcDbTrace
 10
-159.9402476716854
 20
16.26361027756969
 30
0.0
 11
-162.0834278649685
 21
16.26361027756969
 31
0.0
 12
-161.011837768327
 22
24.40314516129062
 32
0.0
 13
-161.011837768327
 23
24.40314516129062
 33
0.0
  0
SOLID
  5
21E
330
217
100
AcDbEntity
  8
1
 62
     2
100
AcDbTrace
 10
-162.0834278649685
 20
34.54268004501156
 30
0.0
 11
-159.9402476716854
 21
34.54268004501156
 31
0.0
 12
-161.011837768327
 22
26.40314516129062
 32
0.0
 13
-161.011837768327
 23
26.40314516129062
 33
0.0
  0
MTEXT
  5
21F
330
217
100
AcDbEntity
  8
1
 62
     3
100
AcDbMText
 10
-165.6630005590246
 20
37.51062161078458
 30
0.0
 40
8.13953488372093
 41
0.0
 71
     7
 72
     1
  1
2
  7
CONVERTER_11
 11
0.0
 21
1.0
 31
0.0
 73
     1
 44
0.60024009603842
  0
ENDBLK
  5
221
330
217
100
AcDbEntity
  8
0
100
AcDbBlockEnd
  0
BLOCK
  5
22B
330
224
100
AcDbEntity
  8
0
100
AcDbBlockBegin
  2
*D19
 70
     1
 71
     0
 10
0.0
 20
0.0
 30
0.0
  3
*D19
  1

  0
LINE
  5
225
330
224
100
AcDbEntity
  8
1
  6
Continuous
 62
     2
100
AcDbLine
 10
-137.102110800846
 20
26.40314516129062
 30
0.0
 11
-137.102110800846
 21
66.40314516129062
 31
0.0
  0
LINE
  5
226
330
224
100
AcDbEntity
  8
1
  6
Continuous
 62
     2
100
AcDbLine
 10
-223.7730725806461
 20
66.40314516129062
 30
0.0
 11
-134.7765294054971
 21
66.40314516129062
 31
0.0
  0
LINE
  5
227
330
224
100
AcDbEntity
  8
1
  6
Continuous
 62
     2
100
AcDbLine
 10
-223.7730725806461
 20
26.40314516129062
 30
0.0
 11
-134.7765294054971
 21
26.40314516129062
 31
0.0
  0
SOLID
  5
228
330
224
100
AcDbEntity
  8
1
 62
     2
100
AcDbTrace
 10
-138.1737008974875
 20
34.54268004501155
 30
0.0
 11
-136.0305207042044
 21
34.54268004501155
 31
0.0
 12
-137.102110800846
 22
26.40314516129062
 32
0.0
 13
-137.102110800846
 23
26.40314516129062
 33
0.0
  0
SOLID
  5
229
330
224
100
AcDbEntity
  8
1
 62
     2
100
AcDbTrace
 10
-136.0305207042044
 20
58.26361027756969
 30
0.0
 11
-138.1737008974875
 21
58.26361027756969
 31
0.0
 12
-137.102110800846
 22
66.40314516129062
 32
0.0
 13
-137.102110800846
 23
66.40314516129062
 33
0.0
  0
MTEXT
  5
22A
330
224
100
AcDbEntity
  8
1
 62
     3
100
AcDbMText
 10
-141.7532735915436
 20
42.94879349126354
 30
0.0
 40
8.13953488372093
 41
0.0
 71
     7
 72
     1
  1
40
  7
CONVERTER_11
 11
0.0
 21
1.0
 31
0.0
 73
     1
 44
0.60024009603842
  0
ENDBLK
  5
22C
330
224
100
AcDbEntity
  8
0
100
AcDbBlockEnd
  0
BLOCK
  5
238
330
22F
100
AcDbEntity
  8
0
100
AcDbBlockBegin
  2
*D20
 70
     1
 71
     0
 10
0.0
 20
0.0
 30
0.0
  3
*D20
  1

  0
LINE
  5
230
330
22F
100
AcDbEntity
  8
1
  6
Continuous
 62
     2
100
AcDbLine
 10
-182.134262822548
 20
-133.8759246061512
 30
0.0
 11
-182.134262822548
 21
-117.5968548387094
 31
0.0
  0
LINE
  5
231
330
22F
100
AcDbEntity
  8
1
  6
Continuous
 62
     2
100
AcDbLine
 10
-182.134262822548
 20
-117.5968548387094
 30
0.0
 11
-182.134262822548
 21
-115.5968548387094
 31
0.0
  0
LINE
  5
232
330
22F
100
AcDbEntity
  8
1
  6
Continuous
 62
     2
100
AcDbLine
 10
-182.134262822548
 20
-115.5968548387094
 30
0.0
 11
-182.134262822548
 21
-99.3177850712675
 31
0.0
  0
LINE
  5
233
330
22F
100
AcDbEntity
  8
1
  6
Continuous
 62
     2
100
AcDbLine
 10
-235.773072580646
 20
-115.5968548387094
 30
0.0
 11
-179.8086814271991
 21
-115.5968548387094
 31
0.0
  0
LINE
  5
234
330
22F
100
AcDbEntity
  8
1
  6
Continuous
 62
     2
100
AcDbLine
 10
-223.7730725806461
 20
-117.5968548387094
 30
0.0
 11
-179.8086814271991
 21
-117.5968548387094
 31
0.0
  0
SOLID
  5
235
330
22F
100
AcDbEntity
  8
1
 62
     2
100
AcDbTrace
 10
-181.0626727259064
 20
-125.7363897224303
 30
0.0
 11
-183.2058529191895
 21
-125.7363897224303
 31
0.0
 12
-182.134262822548
 22
-117.5968548387094
 32
0.0
 13
-182.134262822548
 23
-117.5968548387094
 33
0.0
  0
SOLID
  5
236
330
22F
100
AcDbEntity
  8
1
 62
     2
100
AcDbTrace
 10
-183.2058529191895
 20
-107.4573199549884
 30
0.0
 11
-181.0626727259064
 21
-107.4573199549884
 31
0.0
 12
-182.134262822548
 22
-115.5968548387094
 32
0.0
 13
-182.134262822548
 23
-115.5968548387094
 33
0.0
  0
MTEXT
  5
237
330
22F
100
AcDbEntity
  8
1
 62
     3
100
AcDbMText
 10
-186.7854256132456
 20
-133.708059844476
 30
0.0
 40
8.13953488372093
 41
0.0
 71
     7
 72
     1
  1
2
  7
CONVERTER_11
 11
0.0
 21
1.0
 31
0.0
 73
     1
 44
0.60024009603842
  0
ENDBLK
  5
239
330
22F
100
AcDbEntity
  8
0
100
AcDbBlockEnd
  0
BLOCK
  5
243
330
23C
100
AcDbEntity
  8
0
100
AcDbBlockBegin
  2
*D21
 70
     1
 71
     0
 10
0.0
 20
0.0
 30
0.0
  3
*D21
  1

  0
LINE
  5
23D
330
23C
100
AcDbEntity
  8
1
  6
Continuous
 62
     2
100
AcDbLine
 10
-182.3421275303783
 20
-115.5968548387094
 30
0.0
 11
-182.3421275303783
 21
-79.59685483870936
 31
0.0
  0
LINE
  5
23E
330
23C
100
AcDbEntity
  8
1
  6
Continuous
 62
     2
100
AcDbLine
 10
-235.7730725806461
 20
-79.59685483870936
 30
0.0
 11
-180.0165461350295
 21
-79.59685483870936
 31
0.0
  0
LINE
  5
23F
330
23C
100
AcDbEntity
  8
1
  6
Continuous
 62
     2
100
AcDbLine
 10
-235.7730725806461
 20
-115.5968548387094
 30
0.0
 11
-180.0165461350295
 21
-115.5968548387094
 31
0.0
  0
SOLID
  5
240
330
23C
100
AcDbEntity
  8
1
 62
     2
100
AcDbTrace
 10
-183.4137176270199
 20
-107.4573199549884
 30
0.0
 11
-181.2705374337368
 21
-107.4573199549884
 31
0.0
 12
-182.3421275303783
 22
-115.5968548387094
 32
0.0
 13
-182.3421275303783
 23
-115.5968548387094
 33
0.0
  0
SOLID
  5
241
330
23C
100
AcDbEntity
  8
1
 62
     2
100
AcDbTrace
 10
-181.2705374337368
 20
-87.73638972243029
 30
0.0
 11
-183.4137176270199
 21
-87.73638972243029
 31
0.0
 12
-182.3421275303783
 22
-79.59685483870936
 32
0.0
 13
-182.3421275303783
 23
-79.59685483870936
 33
0.0
  0
MTEXT
  5
242
330
23C
100
AcDbEntity
  8
1
 62
     3
100
AcDbMText
 10
-186.993290321076
 20
-104.5737922781538
 30
0.0
 40
8.13953488372093
 41
0.0
 71
     7
 72
     1
  1
36
  7
CONVERTER_11
 11
0.0
 21
1.0
 31
0.0
 73
     1
 44
0.60024009603842
  0
ENDBLK
  5
244
330
23C
100
AcDbEntity
  8
0
100
AcDbBlockEnd
  0
BLOCK
  5
250
330
247
100
AcDbEntity
  8
0
100
AcDbBlockBegin
  2
*D22
 70
     1
 71
     0
 10
0.0
 20
0.0
 30
0.0
  3
*D22
  1

  0
LINE
  5
248
330
247
100
AcDbEntity
  8
1
  6
Continuous
 62
     2
100
AcDbLine
 10
-184.3238215616211
 20
89.23705228993352
 30
0.0
 11
-184.3238215616211
 21
66.40314516129062
 31
0.0
  0
LINE
  5
249
330
247
100
AcDbEntity
  8
1
  6
Continuous
 62
     2
100
AcDbLine
 10
-184.3238215616211
 20
66.40314516129062
 30
0.0
 11
-184.3238215616211
 21
64.40314516129062
 31
0.0
  0
LINE
  5
24A
330
247
100
AcDbEntity
  8
1
  6
Continuous
 62
     2
100
AcDbLine
 10
-184.3238215616211
 20
64.40314516129062
 30
0.0
 11
-184.3238215616211
 21
48.12407539384876
 31
0.0
  0
LINE
  5
24B
330
247
100
AcDbEntity
  8
1
  6
Continuous
 62
     2
100
AcDbLine
 10
-235.7730725806461
 20
64.40314516129062
 30
0.0
 11
-181.9982401662722
 21
64.40314516129062
 31
0.0
  0
LINE
  5
24C
330
247
100
AcDbEntity
  8
1
  6
Continuous
 62
     2
100
AcDbLine
 10
-223.7730725806462
 20
66.40314516129062
 30
0.0
 11
-181.9982401662722
 21
66.40314516129062
 31
0.0
  0
SOLID
  5
24D
330
247
100
AcDbEntity
  8
1
 62
     2
100
AcDbTrace
 10
-185.3954116582626
 20
74.54268004501156
 30
0.0
 11
-183.2522314649795
 21
74.54268004501156
 31
0.0
 12
-184.3238215616211
 22
66.40314516129062
 32
0.0
 13
-184.3238215616211
 23
66.40314516129062
 33
0.0
  0
SOLID
  5
24E
330
247
100
AcDbEntity
  8
1
 62
     2
100
AcDbTrace
 10
-183.2522314649795
 20
56.26361027756969
 30
0.0
 11
-185.3954116582626
 21
56.26361027756969
 31
0.0
 12
-184.3238215616211
 22
64.40314516129062
 32
0.0
 13
-184.3238215616211
 23
64.40314516129062
 33
0.0
  0
MTEXT
  5
24F
330
247
100
AcDbEntity
  8
1
 62
     3
100
AcDbMText
 10
-188.9749843523187
 20
85.33007554574748
 30
0.0
 40
8.13953488372093
 41
0.0
 71
     7
 72
     1
  1
2
  7
CONVERTER_11
 11
0.0
 21
1.0
 31
0.0
 73
     1
 44
0.60024009603842
  0
ENDBLK
  5
251
330
247
100
AcDbEntity
  8
0
100
AcDbBlockEnd
  0
BLOCK
  5
25B
330
254
100
AcDbEntity
  8
0
100
AcDbBlockBegin
  2
*D23
 70
     1
 71
     0
 10
0.0
 20
0.0
 30
0.0
  3
*D23
  1

  0
LINE
  5
255
330
254
100
AcDbEntity
  8
1
  6
Continuous
 62
     2
100
AcDbLine
 10
-184.3238215616211
 20
64.40314516129062
 30
0.0
 11
-184.3238215616211
 21
28.40314516129062
 31
0.0
  0
LINE
  5
256
330
254
100
AcDbEntity
  8
1
  6
Continuous
 62
     2
100
AcDbLine
 10
-235.7730725806461
 20
28.40314516129063
 30
0.0
 11
-181.9982401662722
 21
28.40314516129063
 31
0.0
  0
LINE
  5
257
330
254
100
AcDbEntity
  8
1
  6
Continuous
 62
     2
100
AcDbLine
 10
-235.7730725806461
 20
64.40314516129062
 30
0.0
 11
-181.9982401662722
 21
64.40314516129062
 31
0.0
  0
SOLID
  5
258
330
254
100
AcDbEntity
  8
1
 62
     2
100
AcDbTrace
 10
-183.2522314649795
 20
56.26361027756969
 30
0.0
 11
-185.3954116582626
 21
56.26361027756969
 31
0.0
 12
-184.3238215616211
 22
64.40314516129062
 32
0.0
 13
-184.3238215616211
 23
64.40314516129062
 33
0.0
  0
SOLID
  5
259
330
254
100
AcDbEntity
  8
1
 62
     2
100
AcDbTrace
 10
-185.3954116582626
 20
36.54268004501155
 30
0.0
 11
-183.2522314649795
 21
36.54268004501155
 31
0.0
 12
-184.3238215616211
 22
28.40314516129062
 32
0.0
 13
-184.3238215616211
 23
28.40314516129062
 33
0.0
  0
MTEXT
  5
25A
330
254
100
AcDbEntity
  8
1
 62
     3
100
AcDbMText
 10
-188.9749843523187
 20
40.55782079451544
 30
0.0
 40
8.13953488372093
 41
0.0
 71
     7
 72
     1
  1
36
  7
CONVERTER_11
 11
0.0
 21
1.0
 31
0.0
 73
     1
 44
0.60024009603842
  0
ENDBLK
  5
25C
330
254
100
AcDbEntity
  8
0
100
AcDbBlockEnd
  0
BLOCK
  5
267
330
25F
100
AcDbEntity
  8
0
100
AcDbBlockBegin
  2
*D24
 70
     1
 71
     0
 10
0.0
 20
0.0
 30
0.0
  3
*D24
  1

  0
LINE
  5
260
330
25F
100
AcDbEntity
  8
1
  6
Continuous
 62
     2
100
AcDbLine
 10
-14.58989773469488
 20
-119.8416552174527
 30
0.0
 11
28.7269274193539
 21
-119.8416552174527
 31
0.0
  0
LINE
  5
261
330
25F
100
AcDbEntity
  8
1
  6
Continuous
 62
     2
100
AcDbLine
 10
28.7269274193539
 20
-119.8416552174527
 30
0.0
 11
53.72692741935391
 21
-119.8416552174527
 31
0.0
  0
LINE
  5
262
330
25F
100
AcDbEntity
  8
1
  6
Continuous
 62
     2
100
AcDbLine
 10
53.72692741935391
 20
-77.59685483870938
 30
0.0
 11
53.72692741935391
 21
-122.1672366128015
 31
0.0
  0
LINE
  5
263
330
25F
100
AcDbEntity
  8
1
  6
Continuous
 62
     2
100
AcDbLine
 10
28.7269274193539
 20
-77.59685483870938
 30
0.0
 11
28.7269274193539
 21
-122.1672366128015
 31
0.0
  0
SOLID
  5
264
330
25F
100
AcDbEntity
  8
1
 62
     2
100
AcDbTrace
 10
36.86646230307484
 20
-118.7700651208111
 30
0.0
 11
36.86646230307484
 21
-120.9132453140943
 31
0.0
 12
28.7269274193539
 22
-119.8416552174527
 32
0.0
 13
28.7269274193539
 23
-119.8416552174527
 33
0.0
  0
SOLID
  5
265
330
25F
100
AcDbEntity
  8
1
 62
     2
100
AcDbTrace
 10
45.58739253563297
 20
-120.9132453140943
 30
0.0
 11
45.58739253563297
 21
-118.7700651208111
 31
0.0
 12
53.72692741935391
 22
-119.8416552174527
 32
0.0
 13
53.72692741935391
 23
-119.8416552174527
 33
0.0
  0
MTEXT
  5
266
330
25F
100
AcDbEntity
  8
1
 62
     3
100
AcDbMText
 10
-19.3108279672138
 20
-113.1556410643193
 30
0.0
 40
8.13953488372093
 41
0.0
 71
     7
 72
     1
  1
\C3;{\Fgdt;n}\C3;\C3;25\C2;\H4.88372;\SH7^ ;
  7
CONVERTER_11
 11
0.9999999999970621
 21
2.424068405545307E-6
 31
0.0
 73
     1
 44
0.60024009603842
  0
ENDBLK
  5
268
330
25F
100
AcDbEntity
  8
0
100
AcDbBlockEnd
  0
ENDSEC
  0
SECTION
  2
ENTITIES
  0
INSERT
  5
35
330
1F
100
AcDbEntity
  8
0
100
AcDbBlockReference
  2
TOP
 10
-271.6530725806461
 20
-140.9664999999998
 30
0.0
  0
ENDSEC
  0
SECTION
  2
OBJECTS
  0
DICTIONARY
  5
C
330
0
100
AcDbDictionary
281
     1
  3
ACAD_GROUP
350
D
  3
ACAD_LAYOUT
350
1A
  3
ACAD_MLINESTYLE
350
17
  3
ACAD_PLOTSETTINGS
350
19
  3
ACAD_PLOTSTYLENAME
350
E
  0
DICTIONARY
  5
D
102
{ACAD_REACTORS
330
C
102
}
330
C
100
AcDbDictionary
281
     1
  0
DICTIONARY
  5
1A
102
{ACAD_REACTORS
330
C
102
}
330
C
100
AcDbDictionary
281
     1
  3
Layout1
350
1E
  3
Layout2
350
26
  3
Model
350
22
  0
DICTIONARY
  5
17
102
{ACAD_REACTORS
330
C
102
}
330
C
100
AcDbDictionary
281
     1
  3
Standard
350
18
  0
DICTIONARY
  5
19
102
{ACAD_REACTORS
330
C
102
}
330
C
100
AcDbDictionary
281
     1
  0
ACDBDICTIONARYWDFLT
  5
E
102
{ACAD_REACTORS
330
C
102
}
330
C
100
AcDbDictionary
281
     1
  3
Normal
350
F
100
AcDbDictionaryWithDefault
340
F
  0
LAYOUT
  5
1E
102
{ACAD_REACTORS
330
1A
102
}
330
1A
100
AcDbPlotSettings
  1

  2

  4

  6

 40
0.0
 41
0.0
 42
0.0
 43
0.0
 44
0.0
 45
0.0
 46
0.0
 47
0.0
 48
0.0
 49
0.0
140
0.0
141
0.0
142
1.0
143
1.0
 70
   688
 72
     0
 73
     0
 74
     5
  7

 75
    16
 76
     0
 77
     2
 78
   300
147
1.0
148
0.0
149
0.0
100
AcDbLayout
  1
Layout1
 70
     1
 71
     1
 10
0.0
 20
0.0
 11
0.0
 21
0.0
 12
0.0
 22
0.0
 32
0.0
 14
0.0
 24
0.0
 34
0.0
 15
0.0
 25
0.0
 35
0.0
146
0.0
 13
0.0
 23
0.0
 33
0.0
 16
1.0
 26
0.0
 36
0.0
 17
0.0
 27
1.0
 37
0.0
 76
     0
330
1B
  0
LAYOUT
  5
26
102
{ACAD_REACTORS
330
1A
102
}
330
1A
100
AcDbPlotSettings
  1

  2

  4

  6

 40
0.0
 41
0.0
 42
0.0
 43
0.0
 44
0.0
 45
0.0
 46
0.0
 47
0.0
 48
0.0
 49
0.0
140
0.0
141
0.0
142
1.0
143
1.0
 70
   688
 72
     0
 73
     0
 74
     5
  7

 75
    16
 76
     0
 77
     2
 78
   300
147
1.0
148
0.0
149
0.0
100
AcDbLayout
  1
Layout2
 70
     1
 71
     2
 10
0.0
 20
0.0
 11
0.0
 21
0.0
 12
0.0
 22
0.0
 32
0.0
 14
0.0
 24
0.0
 34
0.0
 15
0.0
 25
0.0
 35
0.0
146
0.0
 13
0.0
 23
0.0
 33
0.0
 16
1.0
 26
0.0
 36
0.0
 17
0.0
 27
1.0
 37
0.0
 76
     0
330
23
  0
LAYOUT
  5
22
102
{ACAD_REACTORS
330
1A
102
}
330
1A
100
AcDbPlotSettings
  1

  2

  4

  6

 40
0.0
 41
0.0
 42
0.0
 43
0.0
 44
0.0
 45
0.0
 46
0.0
 47
0.0
 48
0.0
 49
0.0
140
0.0
141
0.0
142
1.0
143
1.0
 70
  1712
 72
     0
 73
     0
 74
     0
  7

 75
     0
 76
     0
 77
     2
 78
   300
147
1.0
148
0.0
149
0.0
100
AcDbLayout
  1
Model
 70
     1
 71
     0
 10
0.0
 20
0.0
 11
0.0
 21
0.0
 12
0.0
 22
0.0
 32
0.0
 14
-346.5503127827985
 24
-136.5877436881775
 34
0.0
 15
157.2269274193539
 25
123.0209976495214
 35
0.0
146
0.0
 13
0.0
 23
0.0
 33
0.0
 16
1.0
 26
0.0
 36
0.0
 17
0.0
 27
1.0
 37
0.0
 76
     0
330
1F
  0
MLINESTYLE
  5
18
102
{ACAD_REACTORS
330
17
102
}
330
17
100
AcDbMlineStyle
  2
Standard
 70
     0
  3

 62
   256
 51
90.0
 52
90.0
 71
     2
 49
0.5
 62
   256
  6
BYLAYER
 49
-0.5
 62
   256
  6
BYLAYER
  0
ACDBPLACEHOLDER
  5
F
102
{ACAD_REACTORS
330
E
102
}
330
E
  0
ENDSEC
  0
EOF
