  0
SECTION
  2
HEADER
  9
$ACADVER
  1
AC1018
  9
$ACADMAINTVER
 70
     0
  9
$DWGCODEPAGE
  3
ANSI_1252
  9
$INSBASE
 10
0.0
 20
0.0
 30
0.0
  9
$EXTMIN
 10
-463.185731722164
 20
-356.816543175809
 30
0.0
  9
$EXTMAX
 10
211.642862
 20
-21.9414356057955
 30
0.0
  9
$LIMMIN
 10
0.0
 20
0.0
  9
$LIMMAX
 10
12.0
 20
9.0
  9
$ORTHOMODE
 70
     0
  9
$REGENMODE
 70
     1
  9
$FILLMODE
 70
     1
  9
$QTEXTMODE
 70
     0
  9
$MIRRTEXT
 70
     1
  9
$LTSCALE
 40
1.0
  9
$ATTMODE
 70
     1
  9
$TEXTSIZE
 40
0.2
  9
$TRACEWID
 40
0.05
  9
$TEXTSTYLE
  7
Standard
  9
$CLAYER
  8
0
  9
$CELTYPE
  6
ByLayer
  9
$CECOLOR
 62
   256
  9
$CELTSCALE
 40
1.0
  9
$DISPSILH
 70
     0
  9
$DIMSCALE
 40
1.0
  9
$DIMASZ
 40
0.18
  9
$DIMEXO
 40
0.0625
  9
$DIMDLI
 40
0.38
  9
$DIMRND
 40
0.0
  9
$DIMDLE
 40
0.0
  9
$DIMEXE
 40
0.18
  9
$DIMTP
 40
0.0
  9
$DIMTM
 40
0.0
  9
$DIMTXT
 40
0.18
  9
$DIMCEN
 40
0.09
  9
$DIMTSZ
 40
0.0
  9
$DIMTOL
 70
     0
  9
$DIMLIM
 70
     0
  9
$DIMTIH
 70
     1
  9
$DIMTOH
 70
     1
  9
$DIMSE1
 70
     0
  9
$DIMSE2
 70
     0
  9
$DIMTAD
 70
     0
  9
$DIMZIN
 70
     0
  9
$DIMBLK
  1

  9
$DIMASO
 70
     1
  9
$DIMSHO
 70
     1
  9
$DIMPOST
  1

  9
$DIMAPOST
  1

  9
$DIMALT
 70
     0
  9
$DIMALTD
 70
     2
  9
$DIMALTF
 40
25.4
  9
$DIMLFAC
 40
1.0
  9
$DIMTOFL
 70
     0
  9
$DIMTVP
 40
0.0
  9
$DIMTIX
 70
     0
  9
$DIMSOXD
 70
     0
  9
$DIMSAH
 70
     0
  9
$DIMBLK1
  1

  9
$DIMBLK2
  1

  9
$DIMSTYLE
  2
Standard
  9
$DIMCLRD
 70
     0
  9
$DIMCLRE
 70
     0
  9
$DIMCLRT
 70
     0
  9
$DIMTFAC
 40
1.0
  9
$DIMGAP
 40
0.09
  9
$DIMJUST
 70
     0
  9
$DIMSD1
 70
     0
  9
$DIMSD2
 70
     0
  9
$DIMTOLJ
 70
     1
  9
$DIMTZIN
 70
     0
  9
$DIMALTZ
 70
     0
  9
$DIMALTTZ
 70
     0
  9
$DIMUPT
 70
     0
  9
$DIMDEC
 70
     4
  9
$DIMTDEC
 70
     4
  9
$DIMALTU
 70
     2
  9
$DIMALTTD
 70
     2
  9
$DIMTXSTY
  7
Standard
  9
$DIMAUNIT
 70
     0
  9
$DIMADEC
 70
     0
  9
$DIMALTRND
 40
0.0
  9
$DIMAZIN
 70
     0
  9
$DIMDSEP
 70
    46
  9
$DIMATFIT
 70
     3
  9
$DIMFRAC
 70
     0
  9
$DIMLDRBLK
  1

  9
$DIMLUNIT
 70
     2
  9
$DIMLWD
 70
    -2
  9
$DIMLWE
 70
    -2
  9
$DIMTMOVE
 70
     0
  9
$LUNITS
 70
     2
  9
$LUPREC
 70
     4
  9
$SKETCHINC
 40
0.1
  9
$FILLETRAD
 40
0.5
  9
$AUNITS
 70
     0
  9
$AUPREC
 70
     0
  9
$MENU
  1
.
  9
$ELEVATION
 40
0.0
  9
$PELEVATION
 40
0.0
  9
$THICKNESS
 40
0.0
  9
$LIMCHECK
 70
     0
  9
$CHAMFERA
 40
0.5
  9
$CHAMFERB
 40
0.5
  9
$CHAMFERC
 40
1.0
  9
$CHAMFERD
 40
0.0
  9
$SKPOLY
 70
     0
  9
$TDCREATE
 40
2454966.433674306
  9
$TDUCREATE
 40
2454966.350340972
  9
$TDUPDATE
 40
2454966.433674317
  9
$TDUUPDATE
 40
2454966.350340984
  9
$TDINDWG
 40
0.0000000116
  9
$TDUSRTIMER
 40
0.0000000116
  9
$USRTIMER
 70
     1
  9
$ANGBASE
 50
0.0
  9
$ANGDIR
 70
     0
  9
$PDMODE
 70
     0
  9
$PDSIZE
 40
0.0
  9
$PLINEWID
 40
0.0
  9
$SPLFRAME
 70
     0
  9
$SPLINETYPE
 70
     6
  9
$SPLINESEGS
 70
     8
  9
$HANDSEED
  5
26C
  9
$SURFTAB1
 70
     6
  9
$SURFTAB2
 70
     6
  9
$SURFTYPE
 70
     6
  9
$SURFU
 70
     6
  9
$SURFV
 70
     6
  9
$UCSBASE
  2

  9
$UCSNAME
  2

  9
$UCSORG
 10
0.0
 20
0.0
 30
0.0
  9
$UCSXDIR
 10
1.0
 20
0.0
 30
0.0
  9
$UCSYDIR
 10
0.0
 20
1.0
 30
0.0
  9
$UCSORTHOREF
  2

  9
$UCSORTHOVIEW
 70
     0
  9
$UCSORGTOP
 10
0.0
 20
0.0
 30
0.0
  9
$UCSORGBOTTOM
 10
0.0
 20
0.0
 30
0.0
  9
$UCSORGLEFT
 10
0.0
 20
0.0
 30
0.0
  9
$UCSORGRIGHT
 10
0.0
 20
0.0
 30
0.0
  9
$UCSORGFRONT
 10
0.0
 20
0.0
 30
0.0
  9
$UCSORGBACK
 10
0.0
 20
0.0
 30
0.0
  9
$PUCSBASE
  2

  9
$PUCSNAME
  2

  9
$PUCSORG
 10
0.0
 20
0.0
 30
0.0
  9
$PUCSXDIR
 10
1.0
 20
0.0
 30
0.0
  9
$PUCSYDIR
 10
0.0
 20
1.0
 30
0.0
  9
$PUCSORTHOREF
  2

  9
$PUCSORTHOVIEW
 70
     0
  9
$PUCSORGTOP
 10
0.0
 20
0.0
 30
0.0
  9
$PUCSORGBOTTOM
 10
0.0
 20
0.0
 30
0.0
  9
$PUCSORGLEFT
 10
0.0
 20
0.0
 30
0.0
  9
$PUCSORGRIGHT
 10
0.0
 20
0.0
 30
0.0
  9
$PUCSORGFRONT
 10
0.0
 20
0.0
 30
0.0
  9
$PUCSORGBACK
 10
0.0
 20
0.0
 30
0.0
  9
$USERI1
 70
     0
  9
$USERI2
 70
     0
  9
$USERI3
 70
     0
  9
$USERI4
 70
     0
  9
$USERI5
 70
     0
  9
$USERR1
 40
14.5
  9
$USERR2
 40
0.0
  9
$USERR3
 40
0.0
  9
$USERR4
 40
0.0
  9
$USERR5
 40
0.0
  9
$WORLDVIEW
 70
     1
  9
$SHADEDGE
 70
     3
  9
$SHADEDIF
 70
    70
  9
$TILEMODE
 70
     1
  9
$MAXACTVP
 70
    64
  9
$PINSBASE
 10
0.0
 20
0.0
 30
0.0
  9
$PLIMCHECK
 70
     0
  9
$PEXTMIN
 10
1.00000000000000E+20
 20
1.00000000000000E+20
 30
1.00000000000000E+20
  9
$PEXTMAX
 10
-1.00000000000000E+20
 20
-1.00000000000000E+20
 30
-1.00000000000000E+20
  9
$PLIMMIN
 10
0.0
 20
0.0
  9
$PLIMMAX
 10
12.0
 20
9.0
  9
$UNITMODE
 70
     0
  9
$VISRETAIN
 70
     1
  9
$PLINEGEN
 70
     0
  9
$PSLTSCALE
 70
     1
  9
$TREEDEPTH
 70
  3020
  9
$CMLSTYLE
  2
Standard
  9
$CMLJUST
 70
     0
  9
$CMLSCALE
 40
1.0
  9
$PROXYGRAPHICS
 70
     1
  9
$MEASUREMENT
 70
     1
  9
$CELWEIGHT
370
    -1
  9
$ENDCAPS
280
     0
  9
$JOINSTYLE
280
     0
  9
$LWDISPLAY
290
     0
  9
$INSUNITS
 70
     1
  9
$HYPERLINKBASE
  1

  9
$STYLESHEET
  1

  9
$XEDIT
290
     1
  9
$CEPSNTYPE
380
     0
  9
$PSTYLEMODE
290
     1
  9
$FINGERPRINTGUID
  2
{E27669E6-6984-445D-9C9C-A290C5741824}
  9
$VERSIONGUID
  2
{FAEB1C32-E019-11D5-929B-00C0DF256EC4}
  9
$EXTNAMES
290
     1
  9
$PSVPSCALE
 40
0.0
  9
$OLESTARTUP
290
     0
  9
$SORTENTS
280
   127
  9
$INDEXCTL
280
     0
  9
$HIDETEXT
280
     1
  9
$XCLIPFRAME
290
     0
  9
$HALOGAP
280
     0
  9
$OBSCOLOR
 70
   257
  9
$OBSLTYPE
280
     0
  9
$INTERSECTIONDISPLAY
280
     0
  9
$INTERSECTIONCOLOR
 70
   257
  9
$DIMASSOC
280
     2
  9
$PROJECTNAME
  1

  0
ENDSEC
  0
SECTION
  2
CLASSES
  0
CLASS
  1
ACDBDICTIONARYWDFLT
  2
AcDbDictionaryWithDefault
  3
ObjectDBX Classes
 90
        0
 91
        3
280
     0
281
     0
  0
ENDSEC
  0
SECTION
  2
TABLES
  0
TABLE
  2
VPORT
  5
8
330
0
100
AcDbSymbolTable
 70
     1
  0
VPORT
  5
29
330
8
100
AcDbSymbolTableRecord
100
AcDbViewportTableRecord
  2
*Active
 70
     0
 10
0.0
 20
0.0
 11
1.0
 21
1.0
 12
-125.771434861082
 22
-189.3789893908022
 13
0.0
 23
0.0
 14
0.5
 24
0.5
 15
0.5
 25
0.5
 16
0.0
 26
0.0
 36
1.0
 17
0.0
 27
0.0
 37
0.0
 40
463.1692632120927
 41
1.60267857142857
 42
50.0
 43
0.0
 44
0.0
 50
0.0
 51
0.0
 71
     0
 72
   100
 73
     1
 74
     3
 75
     0
 76
     0
 77
     0
 78
     0
281
     0
 65
     1
110
0.0
120
0.0
130
0.0
111
1.0
121
0.0
131
0.0
112
0.0
122
1.0
132
0.0
 79
     0
146
0.0
  0
ENDTAB
  0
TABLE
  2
LTYPE
  5
5
330
0
100
AcDbSymbolTable
 70
     8
  0
LTYPE
  5
14
330
5
100
AcDbSymbolTableRecord
100
AcDbLinetypeTableRecord
  2
ByBlock
 70
     0
  3

 72
    65
 73
     0
 40
0.0
  0
LTYPE
  5
15
330
5
100
AcDbSymbolTableRecord
100
AcDbLinetypeTableRecord
  2
ByLayer
 70
     0
  3

 72
    65
 73
     0
 40
0.0
  0
LTYPE
  5
16
330
5
100
AcDbSymbolTableRecord
100
AcDbLinetypeTableRecord
  2
Continuous
 70
     0
  3
Solid line
 72
    65
 73
     0
 40
0.0
  0
LTYPE
  5
2A
330
5
100
AcDbSymbolTableRecord
100
AcDbLinetypeTableRecord
  2
DASHED
 70
     0
  3
Dashed
 72
    65
 73
     2
 40
15.0
 49
7.0
 74
     0
 49
-8.0
 74
     0
  0
LTYPE
  5
2B
330
5
100
AcDbSymbolTableRecord
100
AcDbLinetypeTableRecord
  2
DOTTED
 70
     0
  3
Dotted
 72
    65
 73
     2
 40
1.0
 49
0.0
 74
     0
 49
-1.0
 74
     0
  0
LTYPE
  5
2C
330
5
100
AcDbSymbolTableRecord
100
AcDbLinetypeTableRecord
  2
DOT_CENTER
 70
     0
  3
Dot_Center
 72
    65
 73
     4
 40
14.0
 49
12.0
 74
     0
 49
-1.0
 74
     0
 49
0.0
 74
     0
 49
-1.0
 74
     0
  0
LTYPE
  5
2D
330
5
100
AcDbSymbolTableRecord
100
AcDbLinetypeTableRecord
  2
LONG_DASHED
 70
     0
  3
Long_Dashed
 72
    65
 73
     2
 40
15.0
 49
10.0
 74
     0
 49
-5.0
 74
     0
  0
LTYPE
  5
2E
330
5
100
AcDbSymbolTableRecord
100
AcDbLinetypeTableRecord
  2
DASH_CENTER
 70
     0
  3
Dash_Center
 72
    65
 73
     4
 40
14.0
 49
11.0
 74
     0
 49
-1.0
 74
     0
 49
1.0
 74
     0
 49
-1.0
 74
     0
  0
LTYPE
  5
2F
330
5
100
AcDbSymbolTableRecord
100
AcDbLinetypeTableRecord
  2
PHANTOM
 70
     0
  3
Phantom
 72
    65
 73
     6
 40
13.0
 49
10.0
 74
     0
 49
-1.0
 74
     0
 49
0.0
 74
     0
 49
-1.0
 74
     0
 49
0.0
 74
     0
 49
-1.0
 74
     0
  0
LTYPE
  5
30
330
5
100
AcDbSymbolTableRecord
100
AcDbLinetypeTableRecord
  2
CENTER_DASH_DASH
 70
     0
  3
Center_Dash_Dash
 72
    65
 73
     6
 40
14.0
 49
9.0
 74
     0
 49
-1.0
 74
     0
 49
1.0
 74
     0
 49
-1.0
 74
     0
 49
1.0
 74
     0
 49
-1.0
 74
     0
  0
ENDTAB
  0
TABLE
  2
LAYER
  5
2
330
0
100
AcDbSymbolTable
 70
     2
  0
LAYER
  5
10
330
2
100
AcDbSymbolTableRecord
100
AcDbLayerTableRecord
  2
0
 70
     0
 62
     7
  6
Continuous
370
    -3
390
F
  0
LAYER
  5
31
330
2
100
AcDbSymbolTableRecord
100
AcDbLayerTableRecord
  2
1
 70
     0
 62
     7
  6
Continuous
370
    -3
390
F
  0
ENDTAB
  0
TABLE
  2
STYLE
  5
3
330
0
100
AcDbSymbolTable
 70
     2
  0
STYLE
  5
11
330
3
100
AcDbSymbolTableRecord
100
AcDbTextStyleTableRecord
  2
Standard
 70
     0
 40
0.0
 41
1.0
 50
0.0
 71
     0
 42
0.2
  3
txt
  4

  0
STYLE
  5
159
330
3
100
AcDbSymbolTableRecord
100
AcDbTextStyleTableRecord
  2
CONVERTER_11
 70
     0
 40
0.0
 41
0.72
 50
0.0
 71
     0
 42
0.2
  3
txt.shx
  4

  0
ENDTAB
  0
TABLE
  2
VIEW
  5
6
330
0
100
AcDbSymbolTable
 70
     0
  0
ENDTAB
  0
TABLE
  2
UCS
  5
7
330
0
100
AcDbSymbolTable
 70
     0
  0
ENDTAB
  0
TABLE
  2
APPID
  5
9
330
0
100
AcDbSymbolTable
 70
     1
  0
APPID
  5
12
330
9
100
AcDbSymbolTableRecord
100
AcDbRegAppTableRecord
  2
ACAD
 70
     0
  0
ENDTAB
  0
TABLE
  2
DIMSTYLE
  5
A
330
0
100
AcDbSymbolTable
 70
    24
100
AcDbDimStyleTable
  0
DIMSTYLE
105
27
330
A
100
AcDbSymbolTableRecord
100
AcDbDimStyleTableRecord
  2
Standard
 70
     0
340
11
  0
DIMSTYLE
105
164
102
{ACAD_REACTORS
330
165
102
}
330
A
100
AcDbSymbolTableRecord
100
AcDbDimStyleTableRecord
  2
ME10_DIM_10
 70
     0
 41
7.0
 42
0.0
 44
2.0
 73
     0
 74
     0
 77
     1
 78
     8
140
7.0
147
4.0
172
     1
173
     1
176
     2
177
     2
178
     3
271
     3
340
159
  0
DIMSTYLE
105
16F
102
{ACAD_REACTORS
330
170
102
}
330
A
100
AcDbSymbolTableRecord
100
AcDbDimStyleTableRecord
  2
ME10_DIM_11
 70
     0
  3
{\Fgdt;n}<>
 41
7.0
 42
0.0
 44
2.0
 48
-6.0
 71
     1
 73
     0
 74
     0
 77
     1
 78
     8
140
7.0
146
0.6
147
4.0
172
     1
173
     1
176
     2
177
     2
178
     3
271
     3
272
     0
340
159
  0
DIMSTYLE
105
17C
102
{ACAD_REACTORS
330
17D
102
}
330
A
100
AcDbSymbolTableRecord
100
AcDbDimStyleTableRecord
  2
ME10_DIM_12
 70
     0
 41
7.0
 42
0.0
 44
2.0
 73
     0
 74
     0
 77
     1
 78
     8
140
7.0
147
4.0
172
     1
173
     1
176
     2
177
     2
178
     3
271
     3
340
159
  0
DIMSTYLE
105
187
102
{ACAD_REACTORS
330
188
102
}
330
A
100
AcDbSymbolTableRecord
100
AcDbDimStyleTableRecord
  2
ME10_DIM_13
 70
     0
 41
7.0
 42
0.0
 44
2.0
 73
     0
 74
     0
 77
     1
 78
     8
140
7.0
147
4.0
172
     1
173
     1
176
     2
177
     2
178
     3
271
     3
340
159
  0
DIMSTYLE
105
192
102
{ACAD_REACTORS
330
193
102
}
330
A
100
AcDbSymbolTableRecord
100
AcDbDimStyleTableRecord
  2
ME10_DIM_14
 70
     0
 41
7.0
 42
0.0
 44
2.0
 73
     0
 74
     0
 77
     1
 78
     8
140
7.0
147
4.0
172
     1
173
     1
176
     2
177
     2
178
     3
271
     3
340
159
  0
DIMSTYLE
105
19D
102
{ACAD_REACTORS
330
19E
102
}
330
A
100
AcDbSymbolTableRecord
100
AcDbDimStyleTableRecord
  2
ME10_DIM_15
 70
     0
  3
{\Fgdt;n}<>
 41
7.0
 42
0.0
 44
2.0
 48
-7.0
 71
     1
 73
     0
 74
     0
 77
     1
 78
     8
140
7.0
146
0.6
147
4.0
172
     1
173
     1
176
     2
177
     2
178
     3
271
     3
272
     0
340
159
  0
DIMSTYLE
105
1A8
102
{ACAD_REACTORS
330
1A9
102
}
330
A
100
AcDbSymbolTableRecord
100
AcDbDimStyleTableRecord
  2
ME10_DIM_16
 70
     0
  3
{\Fgdt;n}<>
 41
7.0
 42
0.0
 44
2.0
 47
7.0
 71
     1
 73
     0
 74
     0
 77
     1
 78
     8
140
7.0
146
0.6
147
4.0
172
     1
173
     1
176
     2
177
     2
178
     3
271
     3
272
     0
340
159
  0
DIMSTYLE
105
1B3
102
{ACAD_REACTORS
330
1B4
102
}
330
A
100
AcDbSymbolTableRecord
100
AcDbDimStyleTableRecord
  2
ME10_DIM_17
 70
     0
  3
{\Fgdt;n}<>
 41
7.0
 42
0.0
 44
2.0
 47
7.0
 71
     1
 73
     0
 74
     0
 77
     1
 78
     8
140
7.0
146
0.6
147
4.0
172
     1
173
     1
176
     2
177
     2
178
     3
271
     3
272
     0
340
159
  0
DIMSTYLE
105
1C0
102
{ACAD_REACTORS
330
1C1
102
}
330
A
100
AcDbSymbolTableRecord
100
AcDbDimStyleTableRecord
  2
ME10_DIM_18
 70
     0
 41
7.0
 42
0.0
 44
2.0
 73
     0
 74
     0
 77
     1
 78
     8
140
7.0
147
4.0
172
     1
173
     1
176
     2
177
     2
178
     3
271
     3
340
159
  0
DIMSTYLE
105
1CB
102
{ACAD_REACTORS
330
1CC
102
}
330
A
100
AcDbSymbolTableRecord
100
AcDbDimStyleTableRecord
  2
ME10_DIM_19
 70
     0
 41
7.0
 42
0.0
 44
2.0
 73
     0
 74
     0
 77
     1
 78
     8
140
7.0
147
4.0
172
     1
173
     1
176
     2
177
     2
178
     3
271
     3
340
159
  0
DIMSTYLE
105
1D8
102
{ACAD_REACTORS
330
1D9
102
}
330
A
100
AcDbSymbolTableRecord
100
AcDbDimStyleTableRecord
  2
ME10_DIM_20
 70
     0
 41
7.0
 42
0.0
 44
2.0
 73
     0
 74
     0
 77
     1
 78
     8
140
7.0
147
4.0
172
     1
173
     1
176
     2
177
     2
178
     3
271
     3
340
159
  0
DIMSTYLE
105
1E3
102
{ACAD_REACTORS
330
1E4
102
}
330
A
100
AcDbSymbolTableRecord
100
AcDbDimStyleTableRecord
  2
ME10_DIM_21
 70
     0
  3
{\Fgdt;n}<>
 41
7.0
 42
0.0
 44
2.0
 48
-6.0
 71
     1
 73
     0
 74
     0
 77
     1
 78
     8
140
7.0
146
0.6
147
4.0
172
     1
173
     1
176
     2
177
     2
178
     3
271
     3
272
     0
340
159
  0
DIMSTYLE
105
1EE
102
{ACAD_REACTORS
330
1EF
102
}
330
A
100
AcDbSymbolTableRecord
100
AcDbDimStyleTableRecord
  2
ME10_DIM_22
 70
     0
 41
7.0
 42
0.0
 44
2.0
 73
     0
 74
     0
 77
     1
 78
     8
140
7.0
147
4.0
172
     1
173
     1
176
     2
177
     2
178
     3
271
     3
340
159
  0
DIMSTYLE
105
1FB
102
{ACAD_REACTORS
330
1FC
102
}
330
A
100
AcDbSymbolTableRecord
100
AcDbDimStyleTableRecord
  2
ME10_DIM_23
 70
     0
 41
7.0
 42
0.0
 44
2.0
 73
     0
 74
     0
 77
     1
 78
     8
140
7.0
147
4.0
172
     1
173
     1
176
     2
177
     2
178
     3
271
     3
340
159
  0
DIMSTYLE
105
208
102
{ACAD_REACTORS
330
209
102
}
330
A
100
AcDbSymbolTableRecord
100
AcDbDimStyleTableRecord
  2
ME10_DIM_24
 70
     0
 41
7.0
 42
0.0
 44
2.0
 73
     0
 74
     0
 77
     1
 78
     8
140
7.0
147
4.0
172
     1
173
     1
176
     2
177
     2
178
     3
271
     3
340
159
  0
DIMSTYLE
105
213
102
{ACAD_REACTORS
330
214
102
}
330
A
100
AcDbSymbolTableRecord
100
AcDbDimStyleTableRecord
  2
ME10_DIM_25
 70
     0
 41
7.0
 42
0.0
 44
2.0
 73
     0
 74
     0
 77
     1
 78
     8
140
7.0
147
4.0
172
     1
173
     1
176
     2
177
     2
178
     3
271
     3
340
159
  0
DIMSTYLE
105
220
102
{ACAD_REACTORS
330
221
102
}
330
A
100
AcDbSymbolTableRecord
100
AcDbDimStyleTableRecord
  2
ME10_DIM_26
 70
     0
 41
7.0
 42
0.0
 44
2.0
 73
     0
 74
     0
 77
     1
 78
     8
140
7.0
147
4.0
172
     1
173
     1
176
     2
177
     2
178
     3
271
     3
340
159
  0
DIMSTYLE
105
22B
102
{ACAD_REACTORS
330
22C
102
}
330
A
100
AcDbSymbolTableRecord
100
AcDbDimStyleTableRecord
  2
ME10_DIM_27
 70
     0
 41
7.0
 42
0.0
 44
2.0
 73
     0
 74
     0
 77
     1
 78
     8
140
7.0
147
4.0
172
     1
173
     1
176
     2
177
     2
178
     3
271
     3
340
159
  0
DIMSTYLE
105
238
102
{ACAD_REACTORS
330
239
102
}
330
A
100
AcDbSymbolTableRecord
100
AcDbDimStyleTableRecord
  2
ME10_DIM_28
 70
     0
 41
7.0
 42
0.0
 44
2.0
 73
     0
 74
     0
 77
     1
 78
     8
140
7.0
147
4.0
172
     1
173
     1
176
     2
177
     2
178
     3
271
     3
340
159
  0
DIMSTYLE
105
245
102
{ACAD_REACTORS
330
246
102
}
330
A
100
AcDbSymbolTableRecord
100
AcDbDimStyleTableRecord
  2
ME10_DIM_29
 70
     0
 41
7.0
 42
0.0
 44
2.0
 73
     0
 74
     0
 77
     1
 78
     8
140
7.0
147
4.0
172
     1
173
     1
176
     2
177
     2
178
     3
271
     3
340
159
  0
DIMSTYLE
105
250
102
{ACAD_REACTORS
330
251
102
}
330
A
100
AcDbSymbolTableRecord
100
AcDbDimStyleTableRecord
  2
ME10_DIM_30
 70
     0
 41
7.0
 42
0.0
 44
2.0
 73
     0
 74
     0
 77
     1
 78
     8
140
7.0
147
4.0
172
     1
173
     1
176
     2
177
     2
178
     3
271
     3
340
159
  0
DIMSTYLE
105
25D
102
{ACAD_REACTORS
330
25E
102
}
330
A
100
AcDbSymbolTableRecord
100
AcDbDimStyleTableRecord
  2
ME10_DIM_31
 70
     0
 41
7.0
 42
0.0
 44
2.0
 73
     0
 74
     0
 77
     1
 78
     8
140
7.0
147
4.0
172
     1
173
     1
176
     2
177
     2
178
     3
271
     3
340
159
  0
DIMSTYLE
105
26A
102
{ACAD_REACTORS
330
26B
102
}
330
A
100
AcDbSymbolTableRecord
100
AcDbDimStyleTableRecord
  2
ME10_DIM_32
 70
     0
 41
7.0
 42
0.0
 44
2.0
 73
     0
 74
     0
 77
     1
 78
     8
140
7.0
147
4.0
172
     1
173
     1
176
     2
177
     2
178
     3
271
     3
340
159
  0
ENDTAB
  0
TABLE
  2
BLOCK_RECORD
  5
1
330
0
100
AcDbSymbolTable
 70
    24
  0
BLOCK_RECORD
  5
1F
330
1
100
AcDbSymbolTableRecord
100
AcDbBlockTableRecord
  2
*Model_Space
340
22
  0
BLOCK_RECORD
  5
1B
330
1
100
AcDbSymbolTableRecord
100
AcDbBlockTableRecord
  2
*Paper_Space
340
1E
  0
BLOCK_RECORD
  5
23
330
1
100
AcDbSymbolTableRecord
100
AcDbBlockTableRecord
  2
*Paper_Space0
340
26
  0
BLOCK_RECORD
  5
15B
330
1
100
AcDbSymbolTableRecord
100
AcDbBlockTableRecord
  2
*D1
340
0
  0
BLOCK_RECORD
  5
166
330
1
100
AcDbSymbolTableRecord
100
AcDbBlockTableRecord
  2
*D2
340
0
  0
BLOCK_RECORD
  5
171
330
1
100
AcDbSymbolTableRecord
100
AcDbBlockTableRecord
  2
*D3
340
0
  0
BLOCK_RECORD
  5
17E
330
1
100
AcDbSymbolTableRecord
100
AcDbBlockTableRecord
  2
*D4
340
0
  0
BLOCK_RECORD
  5
189
330
1
100
AcDbSymbolTableRecord
100
AcDbBlockTableRecord
  2
*D5
340
0
  0
BLOCK_RECORD
  5
194
330
1
100
AcDbSymbolTableRecord
100
AcDbBlockTableRecord
  2
*D6
340
0
  0
BLOCK_RECORD
  5
19F
330
1
100
AcDbSymbolTableRecord
100
AcDbBlockTableRecord
  2
*D7
340
0
  0
BLOCK_RECORD
  5
1AA
330
1
100
AcDbSymbolTableRecord
100
AcDbBlockTableRecord
  2
*D8
340
0
  0
BLOCK_RECORD
  5
1B5
330
1
100
AcDbSymbolTableRecord
100
AcDbBlockTableRecord
  2
*D9
340
0
  0
BLOCK_RECORD
  5
1C2
330
1
100
AcDbSymbolTableRecord
100
AcDbBlockTableRecord
  2
*D10
340
0
  0
BLOCK_RECORD
  5
1CD
330
1
100
AcDbSymbolTableRecord
100
AcDbBlockTableRecord
  2
*D11
340
0
  0
BLOCK_RECORD
  5
1DA
330
1
100
AcDbSymbolTableRecord
100
AcDbBlockTableRecord
  2
*D12
340
0
  0
BLOCK_RECORD
  5
1E5
330
1
100
AcDbSymbolTableRecord
100
AcDbBlockTableRecord
  2
*D13
340
0
  0
BLOCK_RECORD
  5
1F0
330
1
100
AcDbSymbolTableRecord
100
AcDbBlockTableRecord
  2
*D14
340
0
  0
BLOCK_RECORD
  5
1FD
330
1
100
AcDbSymbolTableRecord
100
AcDbBlockTableRecord
  2
*D15
340
0
  0
BLOCK_RECORD
  5
20A
330
1
100
AcDbSymbolTableRecord
100
AcDbBlockTableRecord
  2
*D16
340
0
  0
BLOCK_RECORD
  5
215
330
1
100
AcDbSymbolTableRecord
100
AcDbBlockTableRecord
  2
*D17
340
0
  0
BLOCK_RECORD
  5
222
330
1
100
AcDbSymbolTableRecord
100
AcDbBlockTableRecord
  2
*D18
340
0
  0
BLOCK_RECORD
  5
22D
330
1
100
AcDbSymbolTableRecord
100
AcDbBlockTableRecord
  2
*D19
340
0
  0
BLOCK_RECORD
  5
23A
330
1
100
AcDbSymbolTableRecord
100
AcDbBlockTableRecord
  2
*D20
340
0
  0
BLOCK_RECORD
  5
247
330
1
100
AcDbSymbolTableRecord
100
AcDbBlockTableRecord
  2
*D21
340
0
  0
BLOCK_RECORD
  5
252
330
1
100
AcDbSymbolTableRecord
100
AcDbBlockTableRecord
  2
*D22
340
0
  0
BLOCK_RECORD
  5
25F
330
1
100
AcDbSymbolTableRecord
100
AcDbBlockTableRecord
  2
*D23
340
0
  0
ENDTAB
  0
ENDSEC
  0
SECTION
  2
BLOCKS
  0
BLOCK
  5
20
330
1F
100
AcDbEntity
  8
0
100
AcDbBlockBegin
  2
*Model_Space
 70
     0
 71
     0
 10
0.0
 20
0.0
 30
0.0
  3
*Model_Space
  1

  0
ENDBLK
  5
21
330
1F
100
AcDbEntity
  8
0
100
AcDbBlockEnd
  0
BLOCK
  5
1C
330
1B
100
AcDbEntity
 67
     1
  8
0
100
AcDbBlockBegin
  2
*Paper_Space
 70
     0
 71
     0
 10
0.0
 20
0.0
 30
0.0
  3
*Paper_Space
  1

  0
ENDBLK
  5
1D
330
1B
100
AcDbEntity
 67
     1
  8
0
100
AcDbBlockEnd
  0
BLOCK
  5
24
330
23
100
AcDbEntity
  8
0
100
AcDbBlockBegin
  2
*Paper_Space0
 70
     0
 71
     0
 10
0.0
 20
0.0
 30
0.0
  3
*Paper_Space0
  1

  0
ENDBLK
  5
25
330
23
100
AcDbEntity
  8
0
100
AcDbBlockEnd
  0
BLOCK
  5
162
330
15B
100
AcDbEntity
  8
0
100
AcDbBlockBegin
  2
*D1
 70
     1
 71
     0
 10
0.0
 20
0.0
 30
0.0
  3
*D1
  1

  0
LINE
  5
15C
330
15B
100
AcDbEntity
  8
1
  6
Continuous
 62
     2
100
AcDbLine
 10
-208.067175154757
 20
-115.810515613398
 30
0.0
 11
-208.067175154757
 21
-55.810515613398
 31
0.0
  0
LINE
  5
15D
330
15B
100
AcDbEntity
  8
1
  6
Continuous
 62
     2
100
AcDbLine
 10
-296.357138
 20
-55.810515613398
 30
0.0
 11
-206.067175154757
 21
-55.810515613398
 31
0.0
  0
LINE
  5
15E
330
15B
100
AcDbEntity
  8
1
  6
Continuous
 62
     2
100
AcDbLine
 10
-288.857138
 20
-115.810515613398
 30
0.0
 11
-206.067175154757
 21
-115.810515613398
 31
0.0
  0
SOLID
  5
15F
330
15B
100
AcDbEntity
  8
1
 62
     2
100
AcDbTrace
 10
-208.9887426378688
 20
-108.810515613398
 30
0.0
 11
-207.1456076716452
 21
-108.810515613398
 31
0.0
 12
-208.067175154757
 22
-115.810515613398
 32
0.0
 13
-208.067175154757
 23
-115.810515613398
 33
0.0
  0
SOLID
  5
160
330
15B
100
AcDbEntity
  8
1
 62
     2
100
AcDbTrace
 10
-207.1456076716452
 20
-62.810515613398
 30
0.0
 11
-208.9887426378688
 21
-62.810515613398
 31
0.0
 12
-208.067175154757
 22
-55.810515613398
 32
0.0
 13
-208.067175154757
 23
-55.810515613398
 33
0.0
  0
MTEXT
  5
161
330
15B
100
AcDbEntity
  8
1
 62
     3
100
AcDbMText
 10
-212.067175154757
 20
-91.0621858888566
 30
0.0
 40
7.0
 41
0.0
 71
     7
 72
     1
  1
60
  7
CONVERTER_11
 11
0.0
 21
1.0
 31
0.0
 73
     1
 44
0.60024009603842
  0
ENDBLK
  5
163
330
15B
100
AcDbEntity
  8
0
100
AcDbBlockEnd
  0
BLOCK
  5
16D
330
166
100
AcDbEntity
  8
0
100
AcDbBlockBegin
  2
*D2
 70
     1
 71
     0
 10
0.0
 20
0.0
 30
0.0
  3
*D2
  1

  0
LINE
  5
167
330
166
100
AcDbEntity
  8
1
  6
Continuous
 62
     2
100
AcDbLine
 10
-336.357138
 20
-44.3984006514235
 30
0.0
 11
-296.357138
 21
-44.3984006514235
 31
0.0
  0
LINE
  5
168
330
166
100
AcDbEntity
  8
1
  6
Continuous
 62
     2
100
AcDbLine
 10
-296.357138
 20
-55.810515613398
 30
0.0
 11
-296.357138
 21
-42.3984006514235
 31
0.0
  0
LINE
  5
169
330
166
100
AcDbEntity
  8
1
  6
Continuous
 62
     2
100
AcDbLine
 10
-336.357138
 20
-55.810515613398
 30
0.0
 11
-336.357138
 21
-42.3984006514235
 31
0.0
  0
SOLID
  5
16A
330
166
100
AcDbEntity
  8
1
 62
     2
100
AcDbTrace
 10
-329.357138
 20
-43.47683316831173
 30
0.0
 11
-329.357138
 21
-45.31996813453527
 31
0.0
 12
-336.357138
 22
-44.3984006514235
 32
0.0
 13
-336.357138
 23
-44.3984006514235
 33
0.0
  0
SOLID
  5
16B
330
166
100
AcDbEntity
  8
1
 62
     2
100
AcDbTrace
 10
-303.357138
 20
-45.31996813453527
 30
0.0
 11
-303.357138
 21
-43.47683316831173
 31
0.0
 12
-296.357138
 22
-44.3984006514235
 32
0.0
 13
-296.357138
 23
-44.3984006514235
 33
0.0
  0
MTEXT
  5
16C
330
166
100
AcDbEntity
  8
1
 62
     3
100
AcDbMText
 10
-333.2083817685293
 20
-38.64842847972879
 30
0.0
 40
7.0
 41
0.0
 71
     7
 72
     1
  1
\C3;{\Fgdt;n}\C3;\C3;40\C2;\H4.2;\S^ k6;
  7
CONVERTER_11
 11
0.9999999999970621
 21
2.424068405545307E-6
 31
0.0
 73
     1
 44
0.60024009603842
  0
ENDBLK
  5
16E
330
166
100
AcDbEntity
  8
0
100
AcDbBlockEnd
  0
BLOCK
  5
17A
330
171
100
AcDbEntity
  8
0
100
AcDbBlockBegin
  2
*D3
 70
     1
 71
     0
 10
0.0
 20
0.0
 30
0.0
  3
*D3
  1

  0
LINE
  5
172
330
171
100
AcDbEntity
  8
1
  6
Continuous
 62
     2
100
AcDbLine
 10
-227.378935978406
 20
-131.810515613398
 30
0.0
 11
-227.378935978406
 21
-117.810515613398
 31
0.0
  0
LINE
  5
173
330
171
100
AcDbEntity
  8
1
  6
Continuous
 62
     2
100
AcDbLine
 10
-227.378935978406
 20
-117.810515613398
 30
0.0
 11
-227.378935978406
 21
-115.810515613398
 31
0.0
  0
LINE
  5
174
330
171
100
AcDbEntity
  8
1
  6
Continuous
 62
     2
100
AcDbLine
 10
-227.378935978406
 20
-115.810515613398
 30
0.0
 11
-227.378935978406
 21
-99.26085509895401
 31
0.0
  0
LINE
  5
175
330
171
100
AcDbEntity
  8
1
  6
Continuous
 62
     2
100
AcDbLine
 10
-296.357138
 20
-115.810515613398
 30
0.0
 11
-225.378935978406
 21
-115.810515613398
 31
0.0
  0
LINE
  5
176
330
171
100
AcDbEntity
  8
1
  6
Continuous
 62
     2
100
AcDbLine
 10
-288.857138
 20
-117.810515613398
 30
0.0
 11
-225.378935978406
 21
-117.810515613398
 31
0.0
  0
SOLID
  5
177
330
171
100
AcDbEntity
  8
1
 62
     2
100
AcDbTrace
 10
-226.4573684952942
 20
-124.810515613398
 30
0.0
 11
-228.3005034615178
 21
-124.810515613398
 31
0.0
 12
-227.378935978406
 22
-117.810515613398
 32
0.0
 13
-227.378935978406
 23
-117.810515613398
 33
0.0
  0
SOLID
  5
178
330
171
100
AcDbEntity
  8
1
 62
     2
100
AcDbTrace
 10
-228.3005034615178
 20
-108.810515613398
 30
0.0
 11
-226.4573684952942
 21
-108.810515613398
 31
0.0
 12
-227.378935978406
 22
-115.810515613398
 32
0.0
 13
-227.378935978406
 23
-115.810515613398
 33
0.0
  0
MTEXT
  5
179
330
171
100
AcDbEntity
  8
1
 62
     3
100
AcDbMText
 10
-231.378935978406
 20
-102.620855098954
 30
0.0
 40
7.0
 41
0.0
 71
     7
 72
     1
  1
2
  7
CONVERTER_11
 11
0.0
 21
1.0
 31
0.0
 73
     1
 44
0.60024009603842
  0
ENDBLK
  5
17B
330
171
100
AcDbEntity
  8
0
100
AcDbBlockEnd
  0
BLOCK
  5
185
330
17E
100
AcDbEntity
  8
0
100
AcDbBlockBegin
  2
*D4
 70
     1
 71
     0
 10
0.0
 20
0.0
 30
0.0
  3
*D4
  1

  0
LINE
  5
17F
330
17E
100
AcDbEntity
  8
1
  6
Continuous
 62
     2
100
AcDbLine
 10
9.93357122589161
 20
-78.810515613398
 30
0.0
 11
9.93357122589161
 21
-107.810515613398
 31
0.0
  0
LINE
  5
180
330
17E
100
AcDbEntity
  8
1
  6
Continuous
 62
     2
100
AcDbLine
 10
32.64286199999998
 20
-107.810515613398
 30
0.0
 11
7.93357122589161
 21
-107.810515613398
 31
0.0
  0
LINE
  5
181
330
17E
100
AcDbEntity
  8
1
  6
Continuous
 62
     2
100
AcDbLine
 10
37.64286199999998
 20
-78.810515613398
 30
0.0
 11
7.93357122589161
 21
-78.810515613398
 31
0.0
  0
SOLID
  5
182
330
17E
100
AcDbEntity
  8
1
 62
     2
100
AcDbTrace
 10
10.85513870900338
 20
-85.810515613398
 30
0.0
 11
9.01200374277984
 21
-85.810515613398
 31
0.0
 12
9.93357122589161
 22
-78.810515613398
 32
0.0
 13
9.93357122589161
 23
-78.810515613398
 33
0.0
  0
SOLID
  5
183
330
17E
100
AcDbEntity
  8
1
 62
     2
100
AcDbTrace
 10
9.01200374277984
 20
-100.810515613398
 30
0.0
 11
10.85513870900338
 21
-100.810515613398
 31
0.0
 12
9.93357122589161
 22
-107.810515613398
 32
0.0
 13
9.93357122589161
 23
-107.810515613398
 33
0.0
  0
MTEXT
  5
184
330
17E
100
AcDbEntity
  8
1
 62
     3
100
AcDbMText
 10
5.93357122589161
 20
-97.6606683211524
 30
0.0
 40
7.0
 41
0.0
 71
     7
 72
     1
  1
29
  7
CONVERTER_11
 11
0.0
 21
1.0
 31
0.0
 73
     1
 44
0.60024009603842
  0
ENDBLK
  5
186
330
17E
100
AcDbEntity
  8
0
100
AcDbBlockEnd
  0
BLOCK
  5
190
330
189
100
AcDbEntity
  8
0
100
AcDbBlockBegin
  2
*D5
 70
     1
 71
     0
 10
0.0
 20
0.0
 30
0.0
  3
*D5
  1

  0
LINE
  5
18A
330
189
100
AcDbEntity
  8
1
  6
Continuous
 62
     2
100
AcDbLine
 10
-37.175709804369
 20
-180.8105156133981
 30
0.0
 11
-37.175709804369
 21
-78.810515613398
 31
0.0
  0
LINE
  5
18B
330
189
100
AcDbEntity
  8
1
  6
Continuous
 62
     2
100
AcDbLine
 10
37.64286199999999
 20
-78.810515613398
 30
0.0
 11
-39.175709804369
 21
-78.810515613398
 31
0.0
  0
LINE
  5
18C
330
189
100
AcDbEntity
  8
1
  6
Continuous
 62
     2
100
AcDbLine
 10
-25.30454209814262
 20
-180.8105156133981
 30
0.0
 11
-39.175709804369
 21
-180.8105156133981
 31
0.0
  0
SOLID
  5
18D
330
189
100
AcDbEntity
  8
1
 62
     2
100
AcDbTrace
 10
-38.09727728748077
 20
-173.8105156133981
 30
0.0
 11
-36.25414232125723
 21
-173.8105156133981
 31
0.0
 12
-37.175709804369
 22
-180.8105156133981
 32
0.0
 13
-37.175709804369
 23
-180.8105156133981
 33
0.0
  0
SOLID
  5
18E
330
189
100
AcDbEntity
  8
1
 62
     2
100
AcDbTrace
 10
-36.25414232125723
 20
-85.810515613398
 30
0.0
 11
-38.09727728748077
 21
-85.810515613398
 31
0.0
 12
-37.175709804369
 22
-78.810515613398
 32
0.0
 13
-37.175709804369
 23
-78.810515613398
 33
0.0
  0
MTEXT
  5
18F
330
189
100
AcDbEntity
  8
1
 62
     3
100
AcDbMText
 10
-41.175709804369
 20
-104.1198707445122
 30
0.0
 40
7.0
 41
0.0
 71
     7
 72
     1
  1
102
  7
CONVERTER_11
 11
0.0
 21
1.0
 31
0.0
 73
     1
 44
0.60024009603842
  0
ENDBLK
  5
191
330
189
100
AcDbEntity
  8
0
100
AcDbBlockEnd
  0
BLOCK
  5
19B
330
194
100
AcDbEntity
  8
0
100
AcDbBlockBegin
  2
*D6
 70
     1
 71
     0
 10
0.0
 20
0.0
 30
0.0
  3
*D6
  1

  0
LINE
  5
195
330
194
100
AcDbEntity
  8
1
  6
Continuous
 62
     2
100
AcDbLine
 10
32.64286199999998
 20
-36.4414356057955
 30
0.0
 11
82.64286199999998
 21
-36.4414356057955
 31
0.0
  0
LINE
  5
196
330
194
100
AcDbEntity
  8
1
  6
Continuous
 62
     2
100
AcDbLine
 10
82.64286199999998
 20
-80.810515613398
 30
0.0
 11
82.64286199999998
 21
-34.4414356057955
 31
0.0
  0
LINE
  5
197
330
194
100
AcDbEntity
  8
1
  6
Continuous
 62
     2
100
AcDbLine
 10
32.64286199999998
 20
-80.810515613398
 30
0.0
 11
32.64286199999998
 21
-34.4414356057955
 31
0.0
  0
SOLID
  5
198
330
194
100
AcDbEntity
  8
1
 62
     2
100
AcDbTrace
 10
39.64286199999998
 20
-35.51986812268373
 30
0.0
 11
39.64286199999998
 21
-37.36300308890728
 31
0.0
 12
32.64286199999998
 22
-36.4414356057955
 32
0.0
 13
32.64286199999998
 23
-36.4414356057955
 33
0.0
  0
SOLID
  5
199
330
194
100
AcDbEntity
  8
1
 62
     2
100
AcDbTrace
 10
75.64286199999998
 20
-37.36300308890728
 30
0.0
 11
75.64286199999998
 21
-35.51986812268373
 31
0.0
 12
82.64286199999998
 22
-36.4414356057955
 32
0.0
 13
82.64286199999998
 23
-36.4414356057955
 33
0.0
  0
MTEXT
  5
19A
330
194
100
AcDbEntity
  8
1
 62
     3
100
AcDbMText
 10
41.90686200003371
 20
-30.6914634341008
 30
0.0
 40
7.0
 41
0.0
 71
     7
 72
     1
  1
\C3;{\Fgdt;n}\C3;\C3;50\C2;\H4.2;\S^ f7;
  7
CONVERTER_11
 11
0.9999999999970621
 21
2.424068405545307E-6
 31
0.0
 73
     1
 44
0.60024009603842
  0
ENDBLK
  5
19C
330
194
100
AcDbEntity
  8
0
100
AcDbBlockEnd
  0
BLOCK
  5
1A6
330
19F
100
AcDbEntity
  8
0
100
AcDbBlockBegin
  2
*D7
 70
     1
 71
     0
 10
0.0
 20
0.0
 30
0.0
  3
*D7
  1

  0
LINE
  5
1A0
330
19F
100
AcDbEntity
  8
1
  6
Continuous
 62
     2
100
AcDbLine
 10
37.64286199999998
 20
-62.0443057309372
 30
0.0
 11
77.64286199999998
 21
-62.0443057309372
 31
0.0
  0
LINE
  5
1A1
330
19F
100
AcDbEntity
  8
1
  6
Continuous
 62
     2
100
AcDbLine
 10
77.64286199999998
 20
-78.810515613398
 30
0.0
 11
77.64286199999998
 21
-60.0443057309372
 31
0.0
  0
LINE
  5
1A2
330
19F
100
AcDbEntity
  8
1
  6
Continuous
 62
     2
100
AcDbLine
 10
37.64286199999998
 20
-78.810515613398
 30
0.0
 11
37.64286199999998
 21
-60.0443057309372
 31
0.0
  0
SOLID
  5
1A3
330
19F
100
AcDbEntity
  8
1
 62
     2
100
AcDbTrace
 10
44.64286199999998
 20
-61.12273824782542
 30
0.0
 11
44.64286199999998
 21
-62.96587321404897
 31
0.0
 12
37.64286199999998
 22
-62.0443057309372
 32
0.0
 13
37.64286199999998
 23
-62.0443057309372
 33
0.0
  0
SOLID
  5
1A4
330
19F
100
AcDbEntity
  8
1
 62
     2
100
AcDbTrace
 10
70.64286199999998
 20
-62.96587321404897
 30
0.0
 11
70.64286199999998
 21
-61.12273824782542
 31
0.0
 12
77.64286199999998
 22
-62.0443057309372
 32
0.0
 13
77.64286199999998
 23
-62.0443057309372
 33
0.0
  0
MTEXT
  5
1A5
330
19F
100
AcDbEntity
  8
1
 62
     3
100
AcDbMText
 10
41.2348620000337
 20
-56.29433355924249
 30
0.0
 40
7.0
 41
0.0
 71
     7
 72
     1
  1
\C3;{\Fgdt;n}\C3;\C3;40\C2;\H4.2;\SH7^ ;
  7
CONVERTER_11
 11
0.9999999999970621
 21
2.424068405545307E-6
 31
0.0
 73
     1
 44
0.60024009603842
  0
ENDBLK
  5
1A7
330
19F
100
AcDbEntity
  8
0
100
AcDbBlockEnd
  0
BLOCK
  5
1B1
330
1AA
100
AcDbEntity
  8
0
100
AcDbBlockBegin
  2
*D8
 70
     1
 71
     0
 10
0.0
 20
0.0
 30
0.0
  3
*D8
  1

  0
LINE
  5
1AB
330
1AA
100
AcDbEntity
  8
1
  6
Continuous
 62
     2
100
AcDbLine
 10
37.64286199999998
 20
-294.810823066433
 30
0.0
 11
77.64286199999998
 21
-294.810823066433
 31
0.0
  0
LINE
  5
1AC
330
1AA
100
AcDbEntity
  8
1
  6
Continuous
 62
     2
100
AcDbLine
 10
77.64286199999998
 20
-269.810515613398
 30
0.0
 11
77.64286199999998
 21
-296.810823066433
 31
0.0
  0
LINE
  5
1AD
330
1AA
100
AcDbEntity
  8
1
  6
Continuous
 62
     2
100
AcDbLine
 10
37.64286199999998
 20
-269.810515613398
 30
0.0
 11
37.64286199999998
 21
-296.810823066433
 31
0.0
  0
SOLID
  5
1AE
330
1AA
100
AcDbEntity
  8
1
 62
     2
100
AcDbTrace
 10
44.64286199999998
 20
-293.8892555833212
 30
0.0
 11
44.64286199999998
 21
-295.7323905495447
 31
0.0
 12
37.64286199999998
 22
-294.810823066433
 32
0.0
 13
37.64286199999998
 23
-294.810823066433
 33
0.0
  0
SOLID
  5
1AF
330
1AA
100
AcDbEntity
  8
1
 62
     2
100
AcDbTrace
 10
70.64286199999998
 20
-295.7323905495447
 30
0.0
 11
70.64286199999998
 21
-293.8892555833212
 31
0.0
 12
77.64286199999998
 22
-294.810823066433
 32
0.0
 13
77.64286199999998
 23
-294.810823066433
 33
0.0
  0
MTEXT
  5
1B0
330
1AA
100
AcDbEntity
  8
1
 62
     3
100
AcDbMText
 10
41.2348620000337
 20
-289.0608508947383
 30
0.0
 40
7.0
 41
0.0
 71
     7
 72
     1
  1
\C3;{\Fgdt;n}\C3;\C3;40\C2;\H4.2;\SH7^ ;
  7
CONVERTER_11
 11
0.9999999999970621
 21
2.424068405545307E-6
 31
0.0
 73
     1
 44
0.60024009603842
  0
ENDBLK
  5
1B2
330
1AA
100
AcDbEntity
  8
0
100
AcDbBlockEnd
  0
BLOCK
  5
1BE
330
1B5
100
AcDbEntity
  8
0
100
AcDbBlockBegin
  2
*D9
 70
     1
 71
     0
 10
0.0
 20
0.0
 30
0.0
  3
*D9
  1

  0
LINE
  5
1B6
330
1B5
100
AcDbEntity
  8
1
  6
Continuous
 62
     2
100
AcDbLine
 10
-37.51699600710299
 20
-265.810515613398
 30
0.0
 11
-37.51699600710299
 21
-251.810515613398
 31
0.0
  0
LINE
  5
1B7
330
1B5
100
AcDbEntity
  8
1
  6
Continuous
 62
     2
100
AcDbLine
 10
-37.51699600710299
 20
-251.810515613398
 30
0.0
 11
-37.51699600710299
 21
-234.810515613398
 31
0.0
  0
LINE
  5
1B8
330
1B5
100
AcDbEntity
  8
1
  6
Continuous
 62
     2
100
AcDbLine
 10
-37.51699600710299
 20
-234.810515613398
 30
0.0
 11
-37.51699600710299
 21
-220.810515613398
 31
0.0
  0
LINE
  5
1B9
330
1B5
100
AcDbEntity
  8
1
  6
Continuous
 62
     2
100
AcDbLine
 10
-24.35713800000002
 20
-234.810515613398
 30
0.0
 11
-39.51699600710299
 21
-234.810515613398
 31
0.0
  0
LINE
  5
1BA
330
1B5
100
AcDbEntity
  8
1
  6
Continuous
 62
     2
100
AcDbLine
 10
-27.35713800000002
 20
-251.810515613398
 30
0.0
 11
-39.51699600710299
 21
-251.810515613398
 31
0.0
  0
SOLID
  5
1BB
330
1B5
100
AcDbEntity
  8
1
 62
     2
100
AcDbTrace
 10
-36.59542852399122
 20
-258.810515613398
 30
0.0
 11
-38.43856349021476
 21
-258.810515613398
 31
0.0
 12
-37.51699600710299
 22
-251.810515613398
 32
0.0
 13
-37.51699600710299
 23
-251.810515613398
 33
0.0
  0
SOLID
  5
1BC
330
1B5
100
AcDbEntity
  8
1
 62
     2
100
AcDbTrace
 10
-38.43856349021476
 20
-227.810515613398
 30
0.0
 11
-36.59542852399122
 21
-227.810515613398
 31
0.0
 12
-37.51699600710299
 22
-234.810515613398
 32
0.0
 13
-37.51699600710299
 23
-234.810515613398
 33
0.0
  0
MTEXT
  5
1BD
330
1B5
100
AcDbEntity
  8
1
 62
     3
100
AcDbMText
 10
-41.51699600710299
 20
-244.289337614169
 30
0.0
 40
7.0
 41
0.0
 71
     7
 72
     1
  1
17
  7
CONVERTER_11
 11
0.0
 21
1.0
 31
0.0
 73
     1
 44
0.60024009603842
  0
ENDBLK
  5
1BF
330
1B5
100
AcDbEntity
  8
0
100
AcDbBlockEnd
  0
BLOCK
  5
1C9
330
1C2
100
AcDbEntity
  8
0
100
AcDbBlockBegin
  2
*D10
 70
     1
 71
     0
 10
0.0
 20
0.0
 30
0.0
  3
*D10
  1

  0
LINE
  5
1C3
330
1C2
100
AcDbEntity
  8
1
  6
Continuous
 62
     2
100
AcDbLine
 10
-78.18573172216401
 20
-251.810515613398
 30
0.0
 11
-78.18573172216401
 21
-117.810515613398
 31
0.0
  0
LINE
  5
1C4
330
1C2
100
AcDbEntity
  8
1
  6
Continuous
 62
     2
100
AcDbLine
 10
4.64286199999992
 20
-117.810515613398
 30
0.0
 11
-80.18573172216401
 21
-117.810515613398
 31
0.0
  0
LINE
  5
1C5
330
1C2
100
AcDbEntity
  8
1
  6
Continuous
 62
     2
100
AcDbLine
 10
-27.35713800000002
 20
-251.810515613398
 30
0.0
 11
-80.18573172216401
 21
-251.810515613398
 31
0.0
  0
SOLID
  5
1C6
330
1C2
100
AcDbEntity
  8
1
 62
     2
100
AcDbTrace
 10
-79.10729920527578
 20
-244.810515613398
 30
0.0
 11
-77.26416423905223
 21
-244.810515613398
 31
0.0
 12
-78.18573172216401
 22
-251.810515613398
 32
0.0
 13
-78.18573172216401
 23
-251.810515613398
 33
0.0
  0
SOLID
  5
1C7
330
1C2
100
AcDbEntity
  8
1
 62
     2
100
AcDbTrace
 10
-77.26416423905223
 20
-124.810515613398
 30
0.0
 11
-79.10729920527578
 21
-124.810515613398
 31
0.0
 12
-78.18573172216401
 22
-117.810515613398
 32
0.0
 13
-78.18573172216401
 23
-117.810515613398
 33
0.0
  0
MTEXT
  5
1C8
330
1C2
100
AcDbEntity
  8
1
 62
     3
100
AcDbMText
 10
-82.18573172216401
 20
-190.09697221335
 30
0.0
 40
7.0
 41
0.0
 71
     7
 72
     1
  1
134
  7
CONVERTER_11
 11
0.0
 21
1.0
 31
0.0
 73
     1
 44
0.60024009603842
  0
ENDBLK
  5
1CA
330
1C2
100
AcDbEntity
  8
0
100
AcDbBlockEnd
  0
BLOCK
  5
1D6
330
1CD
100
AcDbEntity
  8
0
100
AcDbBlockBegin
  2
*D11
 70
     1
 71
     0
 10
0.0
 20
0.0
 30
0.0
  3
*D11
  1

  0
LINE
  5
1CE
330
1CD
100
AcDbEntity
  8
1
  6
Continuous
 62
     2
100
AcDbLine
 10
-77.81262405505402
 20
-281.810515613398
 30
0.0
 11
-77.81262405505402
 21
-267.810515613398
 31
0.0
  0
LINE
  5
1CF
330
1CD
100
AcDbEntity
  8
1
  6
Continuous
 62
     2
100
AcDbLine
 10
-77.81262405505402
 20
-267.810515613398
 30
0.0
 11
-77.81262405505402
 21
-251.810515613398
 31
0.0
  0
LINE
  5
1D0
330
1CD
100
AcDbEntity
  8
1
  6
Continuous
 62
     2
100
AcDbLine
 10
-77.81262405505402
 20
-251.810515613398
 30
0.0
 11
-77.81262405505402
 21
-237.810515613398
 31
0.0
  0
LINE
  5
1D1
330
1CD
100
AcDbEntity
  8
1
  6
Continuous
 62
     2
100
AcDbLine
 10
-27.35713800000001
 20
-251.810515613398
 30
0.0
 11
-79.81262405505402
 21
-251.810515613398
 31
0.0
  0
LINE
  5
1D2
330
1CD
100
AcDbEntity
  8
1
  6
Continuous
 62
     2
100
AcDbLine
 10
-17.35713800000008
 20
-267.810515613398
 30
0.0
 11
-79.81262405505402
 21
-267.810515613398
 31
0.0
  0
SOLID
  5
1D3
330
1CD
100
AcDbEntity
  8
1
 62
     2
100
AcDbTrace
 10
-76.89105657194224
 20
-274.810515613398
 30
0.0
 11
-78.73419153816579
 21
-274.810515613398
 31
0.0
 12
-77.81262405505402
 22
-267.810515613398
 32
0.0
 13
-77.81262405505402
 23
-267.810515613398
 33
0.0
  0
SOLID
  5
1D4
330
1CD
100
AcDbEntity
  8
1
 62
     2
100
AcDbTrace
 10
-78.73419153816579
 20
-244.810515613398
 30
0.0
 11
-76.89105657194224
 21
-244.810515613398
 31
0.0
 12
-77.81262405505402
 22
-251.810515613398
 32
0.0
 13
-77.81262405505402
 23
-251.810515613398
 33
0.0
  0
MTEXT
  5
1D5
330
1CD
100
AcDbEntity
  8
1
 62
     3
100
AcDbMText
 10
-81.81262405505402
 20
-262.198505635481
 30
0.0
 40
7.0
 41
0.0
 71
     7
 72
     1
  1
16
  7
CONVERTER_11
 11
0.0
 21
1.0
 31
0.0
 73
     1
 44
0.60024009603842
  0
ENDBLK
  5
1D7
330
1CD
100
AcDbEntity
  8
0
100
AcDbBlockEnd
  0
BLOCK
  5
1E1
330
1DA
100
AcDbEntity
  8
0
100
AcDbBlockBegin
  2
*D12
 70
     1
 71
     0
 10
0.0
 20
0.0
 30
0.0
  3
*D12
  1

  0
LINE
  5
1DB
330
1DA
100
AcDbEntity
  8
1
  6
Continuous
 62
     2
100
AcDbLine
 10
-336.357138
 20
-354.816543175809
 30
0.0
 11
-296.357138
 21
-354.816543175809
 31
0.0
  0
LINE
  5
1DC
330
1DA
100
AcDbEntity
  8
1
  6
Continuous
 62
     2
100
AcDbLine
 10
-296.357138
 20
-329.810515613398
 30
0.0
 11
-296.357138
 21
-356.816543175809
 31
0.0
  0
LINE
  5
1DD
330
1DA
100
AcDbEntity
  8
1
  6
Continuous
 62
     2
100
AcDbLine
 10
-336.357138
 20
-329.810515613398
 30
0.0
 11
-336.357138
 21
-356.816543175809
 31
0.0
  0
SOLID
  5
1DE
330
1DA
100
AcDbEntity
  8
1
 62
     2
100
AcDbTrace
 10
-329.357138
 20
-353.8949756926972
 30
0.0
 11
-329.357138
 21
-355.7381106589207
 31
0.0
 12
-336.357138
 22
-354.816543175809
 32
0.0
 13
-336.357138
 23
-354.816543175809
 33
0.0
  0
SOLID
  5
1DF
330
1DA
100
AcDbEntity
  8
1
 62
     2
100
AcDbTrace
 10
-303.357138
 20
-355.7381106589207
 30
0.0
 11
-303.357138
 21
-353.8949756926972
 31
0.0
 12
-296.357138
 22
-354.816543175809
 32
0.0
 13
-296.357138
 23
-354.816543175809
 33
0.0
  0
MTEXT
  5
1E0
330
1DA
100
AcDbEntity
  8
1
 62
     3
100
AcDbMText
 10
-333.6977537993553
 20
-349.0665710041143
 30
0.0
 40
7.0
 41
0.0
 71
     7
 72
     1
  1
\C3;{\Fgdt;n}\C3;\C3;40\C2;\H4.2;\S^ k6;
  7
CONVERTER_11
 11
0.9999999999970621
 21
2.424068405545307E-6
 31
0.0
 73
     1
 44
0.60024009603842
  0
ENDBLK
  5
1E2
330
1DA
100
AcDbEntity
  8
0
100
AcDbBlockEnd
  0
BLOCK
  5
1EC
330
1E5
100
AcDbEntity
  8
0
100
AcDbBlockBegin
  2
*D13
 70
     1
 71
     0
 10
0.0
 20
0.0
 30
0.0
  3
*D13
  1

  0
LINE
  5
1E6
330
1E5
100
AcDbEntity
  8
1
  6
Continuous
 62
     2
100
AcDbLine
 10
-205.822281647415
 20
-329.810515613398
 30
0.0
 11
-205.822281647415
 21
-269.810515613398
 31
0.0
  0
LINE
  5
1E7
330
1E5
100
AcDbEntity
  8
1
  6
Continuous
 62
     2
100
AcDbLine
 10
-296.357138
 20
-269.810515613398
 30
0.0
 11
-203.822281647415
 21
-269.810515613398
 31
0.0
  0
LINE
  5
1E8
330
1E5
100
AcDbEntity
  8
1
  6
Continuous
 62
     2
100
AcDbLine
 10
-296.357138
 20
-329.810515613398
 30
0.0
 11
-203.822281647415
 21
-329.810515613398
 31
0.0
  0
SOLID
  5
1E9
330
1E5
100
AcDbEntity
  8
1
 62
     2
100
AcDbTrace
 10
-206.7438491305268
 20
-322.810515613398
 30
0.0
 11
-204.9007141643032
 21
-322.810515613398
 31
0.0
 12
-205.822281647415
 22
-329.810515613398
 32
0.0
 13
-205.822281647415
 23
-329.810515613398
 33
0.0
  0
SOLID
  5
1EA
330
1E5
100
AcDbEntity
  8
1
 62
     2
100
AcDbTrace
 10
-204.9007141643032
 20
-276.810515613398
 30
0.0
 11
-206.7438491305268
 21
-276.810515613398
 31
0.0
 12
-205.822281647415
 22
-269.810515613398
 32
0.0
 13
-205.822281647415
 23
-269.810515613398
 33
0.0
  0
MTEXT
  5
1EB
330
1E5
100
AcDbEntity
  8
1
 62
     3
100
AcDbMText
 10
-209.822281647415
 20
-308.816856101019
 30
0.0
 40
7.0
 41
0.0
 71
     7
 72
     1
  1
60
  7
CONVERTER_11
 11
0.0
 21
1.0
 31
0.0
 73
     1
 44
0.60024009603842
  0
ENDBLK
  5
1ED
330
1E5
100
AcDbEntity
  8
0
100
AcDbBlockEnd
  0
BLOCK
  5
1F9
330
1F0
100
AcDbEntity
  8
0
100
AcDbBlockBegin
  2
*D14
 70
     1
 71
     0
 10
0.0
 20
0.0
 30
0.0
  3
*D14
  1

  0
LINE
  5
1F1
330
1F0
100
AcDbEntity
  8
1
  6
Continuous
 62
     2
100
AcDbLine
 10
-223.78142970615
 20
-286.841112370722
 30
0.0
 11
-223.78142970615
 21
-269.810515613398
 31
0.0
  0
LINE
  5
1F2
330
1F0
100
AcDbEntity
  8
1
  6
Continuous
 62
     2
100
AcDbLine
 10
-223.78142970615
 20
-269.810515613398
 30
0.0
 11
-223.78142970615
 21
-267.810515613398
 31
0.0
  0
LINE
  5
1F3
330
1F0
100
AcDbEntity
  8
1
  6
Continuous
 62
     2
100
AcDbLine
 10
-223.78142970615
 20
-267.810515613398
 30
0.0
 11
-223.78142970615
 21
-253.810515613398
 31
0.0
  0
LINE
  5
1F4
330
1F0
100
AcDbEntity
  8
1
  6
Continuous
 62
     2
100
AcDbLine
 10
-241.357138
 20
-267.810515613398
 30
0.0
 11
-221.78142970615
 21
-267.810515613398
 31
0.0
  0
LINE
  5
1F5
330
1F0
100
AcDbEntity
  8
1
  6
Continuous
 62
     2
100
AcDbLine
 10
-288.857138
 20
-269.810515613398
 30
0.0
 11
-221.78142970615
 21
-269.810515613398
 31
0.0
  0
SOLID
  5
1F6
330
1F0
100
AcDbEntity
  8
1
 62
     2
100
AcDbTrace
 10
-222.8598622230382
 20
-276.810515613398
 30
0.0
 11
-224.7029971892618
 21
-276.810515613398
 31
0.0
 12
-223.78142970615
 22
-269.810515613398
 32
0.0
 13
-223.78142970615
 23
-269.810515613398
 33
0.0
  0
SOLID
  5
1F7
330
1F0
100
AcDbEntity
  8
1
 62
     2
100
AcDbTrace
 10
-224.7029971892618
 20
-260.810515613398
 30
0.0
 11
-222.8598622230382
 21
-260.810515613398
 31
0.0
 12
-223.78142970615
 22
-267.810515613398
 32
0.0
 13
-223.78142970615
 23
-267.810515613398
 33
0.0
  0
MTEXT
  5
1F8
330
1F0
100
AcDbEntity
  8
1
 62
     3
100
AcDbMText
 10
-227.78142970615
 20
-286.841112370722
 30
0.0
 40
7.0
 41
0.0
 71
     7
 72
     1
  1
2
  7
CONVERTER_11
 11
0.0
 21
1.0
 31
0.0
 73
     1
 44
0.60024009603842
  0
ENDBLK
  5
1FA
330
1F0
100
AcDbEntity
  8
0
100
AcDbBlockEnd
  0
BLOCK
  5
206
330
1FD
100
AcDbEntity
  8
0
100
AcDbBlockBegin
  2
*D15
 70
     1
 71
     0
 10
0.0
 20
0.0
 30
0.0
  3
*D15
  1

  0
LINE
  5
1FE
330
1FD
100
AcDbEntity
  8
1
  6
Continuous
 62
     2
100
AcDbLine
 10
-451.812624055054
 20
-281.810515613398
 30
0.0
 11
-451.812624055054
 21
-267.810515613398
 31
0.0
  0
LINE
  5
1FF
330
1FD
100
AcDbEntity
  8
1
  6
Continuous
 62
     2
100
AcDbLine
 10
-451.812624055054
 20
-267.810515613398
 30
0.0
 11
-451.812624055054
 21
-251.810515613398
 31
0.0
  0
LINE
  5
200
330
1FD
100
AcDbEntity
  8
1
  6
Continuous
 62
     2
100
AcDbLine
 10
-451.812624055054
 20
-251.810515613398
 30
0.0
 11
-451.812624055054
 21
-237.810515613398
 31
0.0
  0
LINE
  5
201
330
1FD
100
AcDbEntity
  8
1
  6
Continuous
 62
     2
100
AcDbLine
 10
-401.357138
 20
-251.810515613398
 30
0.0
 11
-453.812624055054
 21
-251.810515613398
 31
0.0
  0
LINE
  5
202
330
1FD
100
AcDbEntity
  8
1
  6
Continuous
 62
     2
100
AcDbLine
 10
-391.3571380000001
 20
-267.810515613398
 30
0.0
 11
-453.812624055054
 21
-267.810515613398
 31
0.0
  0
SOLID
  5
203
330
1FD
100
AcDbEntity
  8
1
 62
     2
100
AcDbTrace
 10
-450.8910565719423
 20
-274.810515613398
 30
0.0
 11
-452.7341915381658
 21
-274.810515613398
 31
0.0
 12
-451.812624055054
 22
-267.810515613398
 32
0.0
 13
-451.812624055054
 23
-267.810515613398
 33
0.0
  0
SOLID
  5
204
330
1FD
100
AcDbEntity
  8
1
 62
     2
100
AcDbTrace
 10
-452.7341915381658
 20
-244.810515613398
 30
0.0
 11
-450.8910565719423
 21
-244.810515613398
 31
0.0
 12
-451.812624055054
 22
-251.810515613398
 32
0.0
 13
-451.812624055054
 23
-251.810515613398
 33
0.0
  0
MTEXT
  5
205
330
1FD
100
AcDbEntity
  8
1
 62
     3
100
AcDbMText
 10
-455.812624055054
 20
-262.198505635481
 30
0.0
 40
7.0
 41
0.0
 71
     7
 72
     1
  1
16
  7
CONVERTER_11
 11
0.0
 21
1.0
 31
0.0
 73
     1
 44
0.60024009603842
  0
ENDBLK
  5
207
330
1FD
100
AcDbEntity
  8
0
100
AcDbBlockEnd
  0
BLOCK
  5
211
330
20A
100
AcDbEntity
  8
0
100
AcDbBlockBegin
  2
*D16
 70
     1
 71
     0
 10
0.0
 20
0.0
 30
0.0
  3
*D16
  1

  0
LINE
  5
20B
330
20A
100
AcDbEntity
  8
1
  6
Continuous
 62
     2
100
AcDbLine
 10
-452.185731722164
 20
-251.810515613398
 30
0.0
 11
-452.185731722164
 21
-117.810515613398
 31
0.0
  0
LINE
  5
20C
330
20A
100
AcDbEntity
  8
1
  6
Continuous
 62
     2
100
AcDbLine
 10
-369.3571380000001
 20
-117.810515613398
 30
0.0
 11
-454.185731722164
 21
-117.810515613398
 31
0.0
  0
LINE
  5
20D
330
20A
100
AcDbEntity
  8
1
  6
Continuous
 62
     2
100
AcDbLine
 10
-401.357138
 20
-251.810515613398
 30
0.0
 11
-454.185731722164
 21
-251.810515613398
 31
0.0
  0
SOLID
  5
20E
330
20A
100
AcDbEntity
  8
1
 62
     2
100
AcDbTrace
 10
-453.1072992052758
 20
-244.810515613398
 30
0.0
 11
-451.2641642390523
 21
-244.810515613398
 31
0.0
 12
-452.185731722164
 22
-251.810515613398
 32
0.0
 13
-452.185731722164
 23
-251.810515613398
 33
0.0
  0
SOLID
  5
20F
330
20A
100
AcDbEntity
  8
1
 62
     2
100
AcDbTrace
 10
-451.2641642390523
 20
-124.810515613398
 30
0.0
 11
-453.1072992052758
 21
-124.810515613398
 31
0.0
 12
-452.185731722164
 22
-117.810515613398
 32
0.0
 13
-452.185731722164
 23
-117.810515613398
 33
0.0
  0
MTEXT
  5
210
330
20A
100
AcDbEntity
  8
1
 62
     3
100
AcDbMText
 10
-456.185731722164
 20
-190.09697221335
 30
0.0
 40
7.0
 41
0.0
 71
     7
 72
     1
  1
134
  7
CONVERTER_11
 11
0.0
 21
1.0
 31
0.0
 73
     1
 44
0.60024009603842
  0
ENDBLK
  5
212
330
20A
100
AcDbEntity
  8
0
100
AcDbBlockEnd
  0
BLOCK
  5
21E
330
215
100
AcDbEntity
  8
0
100
AcDbBlockBegin
  2
*D17
 70
     1
 71
     0
 10
0.0
 20
0.0
 30
0.0
  3
*D17
  1

  0
LINE
  5
216
330
215
100
AcDbEntity
  8
1
  6
Continuous
 62
     2
100
AcDbLine
 10
-411.516996007103
 20
-265.810515613398
 30
0.0
 11
-411.516996007103
 21
-251.810515613398
 31
0.0
  0
LINE
  5
217
330
215
100
AcDbEntity
  8
1
  6
Continuous
 62
     2
100
AcDbLine
 10
-411.516996007103
 20
-251.810515613398
 30
0.0
 11
-411.516996007103
 21
-234.810515613398
 31
0.0
  0
LINE
  5
218
330
215
100
AcDbEntity
  8
1
  6
Continuous
 62
     2
100
AcDbLine
 10
-411.516996007103
 20
-234.810515613398
 30
0.0
 11
-411.516996007103
 21
-220.810515613398
 31
0.0
  0
LINE
  5
219
330
215
100
AcDbEntity
  8
1
  6
Continuous
 62
     2
100
AcDbLine
 10
-398.357138
 20
-234.810515613398
 30
0.0
 11
-413.516996007103
 21
-234.810515613398
 31
0.0
  0
LINE
  5
21A
330
215
100
AcDbEntity
  8
1
  6
Continuous
 62
     2
100
AcDbLine
 10
-401.357138
 20
-251.810515613398
 30
0.0
 11
-413.516996007103
 21
-251.810515613398
 31
0.0
  0
SOLID
  5
21B
330
215
100
AcDbEntity
  8
1
 62
     2
100
AcDbTrace
 10
-410.5954285239912
 20
-258.810515613398
 30
0.0
 11
-412.4385634902147
 21
-258.810515613398
 31
0.0
 12
-411.516996007103
 22
-251.810515613398
 32
0.0
 13
-411.516996007103
 23
-251.810515613398
 33
0.0
  0
SOLID
  5
21C
330
215
100
AcDbEntity
  8
1
 62
     2
100
AcDbTrace
 10
-412.4385634902147
 20
-227.810515613398
 30
0.0
 11
-410.5954285239912
 21
-227.810515613398
 31
0.0
 12
-411.516996007103
 22
-234.810515613398
 32
0.0
 13
-411.516996007103
 23
-234.810515613398
 33
0.0
  0
MTEXT
  5
21D
330
215
100
AcDbEntity
  8
1
 62
     3
100
AcDbMText
 10
-415.516996007103
 20
-244.289337614169
 30
0.0
 40
7.0
 41
0.0
 71
     7
 72
     1
  1
17
  7
CONVERTER_11
 11
0.0
 21
1.0
 31
0.0
 73
     1
 44
0.60024009603842
  0
ENDBLK
  5
21F
330
215
100
AcDbEntity
  8
0
100
AcDbBlockEnd
  0
BLOCK
  5
229
330
222
100
AcDbEntity
  8
0
100
AcDbBlockBegin
  2
*D18
 70
     1
 71
     0
 10
0.0
 20
0.0
 30
0.0
  3
*D18
  1

  0
LINE
  5
223
330
222
100
AcDbEntity
  8
1
  6
Continuous
 62
     2
100
AcDbLine
 10
-257.697727379909
 20
-110.810515613398
 30
0.0
 11
-257.697727379909
 21
-60.810515613398
 31
0.0
  0
LINE
  5
224
330
222
100
AcDbEntity
  8
1
  6
Continuous
 62
     2
100
AcDbLine
 10
-316.3571380000001
 20
-60.810515613398
 30
0.0
 11
-255.697727379909
 21
-60.810515613398
 31
0.0
  0
LINE
  5
225
330
222
100
AcDbEntity
  8
1
  6
Continuous
 62
     2
100
AcDbLine
 10
-316.3571380000001
 20
-110.810515613398
 30
0.0
 11
-255.697727379909
 21
-110.810515613398
 31
0.0
  0
SOLID
  5
226
330
222
100
AcDbEntity
  8
1
 62
     2
100
AcDbTrace
 10
-258.6192948630207
 20
-103.810515613398
 30
0.0
 11
-256.7761598967973
 21
-103.810515613398
 31
0.0
 12
-257.697727379909
 22
-110.810515613398
 32
0.0
 13
-257.697727379909
 23
-110.810515613398
 33
0.0
  0
SOLID
  5
227
330
222
100
AcDbEntity
  8
1
 62
     2
100
AcDbTrace
 10
-256.7761598967973
 20
-67.810515613398
 30
0.0
 11
-258.6192948630207
 21
-67.810515613398
 31
0.0
 12
-257.697727379909
 22
-60.810515613398
 32
0.0
 13
-257.697727379909
 23
-60.810515613398
 33
0.0
  0
MTEXT
  5
228
330
222
100
AcDbEntity
  8
1
 62
     3
100
AcDbMText
 10
-261.697727379909
 20
-89.0511354551963
 30
0.0
 40
7.0
 41
0.0
 71
     7
 72
     1
  1
50
  7
CONVERTER_11
 11
0.0
 21
1.0
 31
0.0
 73
     1
 44
0.60024009603842
  0
ENDBLK
  5
22A
330
222
100
AcDbEntity
  8
0
100
AcDbBlockEnd
  0
BLOCK
  5
236
330
22D
100
AcDbEntity
  8
0
100
AcDbBlockBegin
  2
*D19
 70
     1
 71
     0
 10
0.0
 20
0.0
 30
0.0
  3
*D19
  1

  0
LINE
  5
22E
330
22D
100
AcDbEntity
  8
1
  6
Continuous
 62
     2
100
AcDbLine
 10
-257.697727379909
 20
-74.81051561339801
 30
0.0
 11
-257.697727379909
 21
-60.810515613398
 31
0.0
  0
LINE
  5
22F
330
22D
100
AcDbEntity
  8
1
  6
Continuous
 62
     2
100
AcDbLine
 10
-257.697727379909
 20
-60.810515613398
 30
0.0
 11
-257.697727379909
 21
-55.810515613398
 31
0.0
  0
LINE
  5
230
330
22D
100
AcDbEntity
  8
1
  6
Continuous
 62
     2
100
AcDbLine
 10
-257.697727379909
 20
-55.810515613398
 30
0.0
 11
-257.697727379909
 21
-41.810515613398
 31
0.0
  0
LINE
  5
231
330
22D
100
AcDbEntity
  8
1
  6
Continuous
 62
     2
100
AcDbLine
 10
-296.357138
 20
-55.810515613398
 30
0.0
 11
-255.697727379909
 21
-55.810515613398
 31
0.0
  0
LINE
  5
232
330
22D
100
AcDbEntity
  8
1
  6
Continuous
 62
     2
100
AcDbLine
 10
-316.3571380000001
 20
-60.810515613398
 30
0.0
 11
-255.697727379909
 21
-60.810515613398
 31
0.0
  0
SOLID
  5
233
330
22D
100
AcDbEntity
  8
1
 62
     2
100
AcDbTrace
 10
-256.7761598967973
 20
-67.81051561339801
 30
0.0
 11
-258.6192948630207
 21
-67.81051561339801
 31
0.0
 12
-257.697727379909
 22
-60.810515613398
 32
0.0
 13
-257.697727379909
 23
-60.810515613398
 33
0.0
  0
SOLID
  5
234
330
22D
100
AcDbEntity
  8
1
 62
     2
100
AcDbTrace
 10
-258.6192948630207
 20
-48.810515613398
 30
0.0
 11
-256.7761598967973
 21
-48.810515613398
 31
0.0
 12
-257.697727379909
 22
-55.810515613398
 32
0.0
 13
-257.697727379909
 23
-55.810515613398
 33
0.0
  0
MTEXT
  5
235
330
22D
100
AcDbEntity
  8
1
 62
     3
100
AcDbMText
 10
-261.697727379909
 20
-47.6679252743316
 30
0.0
 40
7.0
 41
0.0
 71
     7
 72
     1
  1
5
  7
CONVERTER_11
 11
0.0
 21
1.0
 31
0.0
 73
     1
 44
0.60024009603842
  0
ENDBLK
  5
237
330
22D
100
AcDbEntity
  8
0
100
AcDbBlockEnd
  0
BLOCK
  5
243
330
23A
100
AcDbEntity
  8
0
100
AcDbBlockBegin
  2
*D20
 70
     1
 71
     0
 10
0.0
 20
0.0
 30
0.0
  3
*D20
  1

  0
LINE
  5
23B
330
23A
100
AcDbEntity
  8
1
  6
Continuous
 62
     2
100
AcDbLine
 10
-336.3571380000001
 20
-85.550073673545
 30
0.0
 11
-322.3571380000001
 21
-85.550073673545
 31
0.0
  0
LINE
  5
23C
330
23A
100
AcDbEntity
  8
1
  6
Continuous
 62
     2
100
AcDbLine
 10
-322.3571380000001
 20
-85.550073673545
 30
0.0
 11
-310.3571380000001
 21
-85.550073673545
 31
0.0
  0
LINE
  5
23D
330
23A
100
AcDbEntity
  8
1
  6
Continuous
 62
     2
100
AcDbLine
 10
-310.3571380000001
 20
-85.550073673545
 30
0.0
 11
-296.3571380000001
 21
-85.550073673545
 31
0.0
  0
LINE
  5
23E
330
23A
100
AcDbEntity
  8
1
  6
Continuous
 62
     2
100
AcDbLine
 10
-310.3571380000001
 20
-66.810515613398
 30
0.0
 11
-310.3571380000001
 21
-87.550073673545
 31
0.0
  0
LINE
  5
23F
330
23A
100
AcDbEntity
  8
1
  6
Continuous
 62
     2
100
AcDbLine
 10
-322.3571380000001
 20
-66.810515613398
 30
0.0
 11
-322.3571380000001
 21
-87.550073673545
 31
0.0
  0
SOLID
  5
240
330
23A
100
AcDbEntity
  8
1
 62
     2
100
AcDbTrace
 10
-329.3571380000001
 20
-86.47164115665677
 30
0.0
 11
-329.3571380000001
 21
-84.62850619043323
 31
0.0
 12
-322.3571380000001
 22
-85.550073673545
 32
0.0
 13
-322.3571380000001
 23
-85.550073673545
 33
0.0
  0
SOLID
  5
241
330
23A
100
AcDbEntity
  8
1
 62
     2
100
AcDbTrace
 10
-303.3571380000001
 20
-84.62850619043323
 30
0.0
 11
-303.3571380000001
 21
-86.47164115665677
 31
0.0
 12
-310.3571380000001
 22
-85.550073673545
 32
0.0
 13
-310.3571380000001
 23
-85.550073673545
 33
0.0
  0
MTEXT
  5
242
330
23A
100
AcDbEntity
  8
1
 62
     3
100
AcDbMText
 10
-333.410709369227
 20
-81.550073673545
 30
0.0
 40
7.0
 41
0.0
 71
     7
 72
     1
  1
12
  7
CONVERTER_11
 11
0.9999999999970621
 21
2.424068405545307E-6
 31
0.0
 73
     1
 44
0.60024009603842
  0
ENDBLK
  5
244
330
23A
100
AcDbEntity
  8
0
100
AcDbBlockEnd
  0
BLOCK
  5
24E
330
247
100
AcDbEntity
  8
0
100
AcDbBlockBegin
  2
*D21
 70
     1
 71
     0
 10
0.0
 20
0.0
 30
0.0
  3
*D21
  1

  0
LINE
  5
248
330
247
100
AcDbEntity
  8
1
  6
Continuous
 62
     2
100
AcDbLine
 10
-259.511142699683
 20
-324.810515613398
 30
0.0
 11
-259.511142699683
 21
-274.810515613398
 31
0.0
  0
LINE
  5
249
330
247
100
AcDbEntity
  8
1
  6
Continuous
 62
     2
100
AcDbLine
 10
-316.357138
 20
-274.810515613398
 30
0.0
 11
-257.511142699683
 21
-274.810515613398
 31
0.0
  0
LINE
  5
24A
330
247
100
AcDbEntity
  8
1
  6
Continuous
 62
     2
100
AcDbLine
 10
-316.3571380000001
 20
-324.810515613398
 30
0.0
 11
-257.511142699683
 21
-324.810515613398
 31
0.0
  0
SOLID
  5
24B
330
247
100
AcDbEntity
  8
1
 62
     2
100
AcDbTrace
 10
-260.4327101827947
 20
-317.810515613398
 30
0.0
 11
-258.5895752165712
 21
-317.810515613398
 31
0.0
 12
-259.511142699683
 22
-324.810515613398
 32
0.0
 13
-259.511142699683
 23
-324.810515613398
 33
0.0
  0
SOLID
  5
24C
330
247
100
AcDbEntity
  8
1
 62
     2
100
AcDbTrace
 10
-258.5895752165712
 20
-281.810515613398
 30
0.0
 11
-260.4327101827947
 21
-281.810515613398
 31
0.0
 12
-259.511142699683
 22
-274.810515613398
 32
0.0
 13
-259.511142699683
 23
-274.810515613398
 33
0.0
  0
MTEXT
  5
24D
330
247
100
AcDbEntity
  8
1
 62
     3
100
AcDbMText
 10
-263.511142699683
 20
-303.535019965801
 30
0.0
 40
7.0
 41
0.0
 71
     7
 72
     1
  1
50
  7
CONVERTER_11
 11
0.0
 21
1.0
 31
0.0
 73
     1
 44
0.60024009603842
  0
ENDBLK
  5
24F
330
247
100
AcDbEntity
  8
0
100
AcDbBlockEnd
  0
BLOCK
  5
25B
330
252
100
AcDbEntity
  8
0
100
AcDbBlockBegin
  2
*D22
 70
     1
 71
     0
 10
0.0
 20
0.0
 30
0.0
  3
*D22
  1

  0
LINE
  5
253
330
252
100
AcDbEntity
  8
1
  6
Continuous
 62
     2
100
AcDbLine
 10
-259.621275244062
 20
-343.810515613398
 30
0.0
 11
-259.621275244062
 21
-329.810515613398
 31
0.0
  0
LINE
  5
254
330
252
100
AcDbEntity
  8
1
  6
Continuous
 62
     2
100
AcDbLine
 10
-259.621275244062
 20
-329.810515613398
 30
0.0
 11
-259.621275244062
 21
-324.810515613398
 31
0.0
  0
LINE
  5
255
330
252
100
AcDbEntity
  8
1
  6
Continuous
 62
     2
100
AcDbLine
 10
-259.621275244062
 20
-324.810515613398
 30
0.0
 11
-259.621275244062
 21
-310.810515613398
 31
0.0
  0
LINE
  5
256
330
252
100
AcDbEntity
  8
1
  6
Continuous
 62
     2
100
AcDbLine
 10
-316.3571380000001
 20
-324.810515613398
 30
0.0
 11
-257.621275244062
 21
-324.810515613398
 31
0.0
  0
LINE
  5
257
330
252
100
AcDbEntity
  8
1
  6
Continuous
 62
     2
100
AcDbLine
 10
-296.357138
 20
-329.810515613398
 30
0.0
 11
-257.621275244062
 21
-329.810515613398
 31
0.0
  0
SOLID
  5
258
330
252
100
AcDbEntity
  8
1
 62
     2
100
AcDbTrace
 10
-258.6997077609503
 20
-336.810515613398
 30
0.0
 11
-260.5428427271738
 21
-336.810515613398
 31
0.0
 12
-259.621275244062
 22
-329.810515613398
 32
0.0
 13
-259.621275244062
 23
-329.810515613398
 33
0.0
  0
SOLID
  5
259
330
252
100
AcDbEntity
  8
1
 62
     2
100
AcDbTrace
 10
-260.5428427271738
 20
-317.810515613398
 30
0.0
 11
-258.6997077609503
 21
-317.810515613398
 31
0.0
 12
-259.621275244062
 22
-324.810515613398
 32
0.0
 13
-259.621275244062
 23
-324.810515613398
 33
0.0
  0
MTEXT
  5
25A
330
252
100
AcDbEntity
  8
1
 62
     3
100
AcDbMText
 10
-263.621275244062
 20
-342.865386829823
 30
0.0
 40
7.0
 41
0.0
 71
     7
 72
     1
  1
5
  7
CONVERTER_11
 11
0.0
 21
1.0
 31
0.0
 73
     1
 44
0.60024009603842
  0
ENDBLK
  5
25C
330
252
100
AcDbEntity
  8
0
100
AcDbBlockEnd
  0
BLOCK
  5
268
330
25F
100
AcDbEntity
  8
0
100
AcDbBlockBegin
  2
*D23
 70
     1
 71
     0
 10
0.0
 20
0.0
 30
0.0
  3
*D23
  1

  0
LINE
  5
260
330
25F
100
AcDbEntity
  8
1
  6
Continuous
 62
     2
100
AcDbLine
 10
-336.3571380000001
 20
-306.130473414774
 30
0.0
 11
-322.3571380000001
 21
-306.130473414774
 31
0.0
  0
LINE
  5
261
330
25F
100
AcDbEntity
  8
1
  6
Continuous
 62
     2
100
AcDbLine
 10
-322.3571380000001
 20
-306.130473414774
 30
0.0
 11
-310.3571380000001
 21
-306.130473414774
 31
0.0
  0
LINE
  5
262
330
25F
100
AcDbEntity
  8
1
  6
Continuous
 62
     2
100
AcDbLine
 10
-310.3571380000001
 20
-306.130473414774
 30
0.0
 11
-296.3571380000001
 21
-306.130473414774
 31
0.0
  0
LINE
  5
263
330
25F
100
AcDbEntity
  8
1
  6
Continuous
 62
     2
100
AcDbLine
 10
-310.3571380000001
 20
-318.810515613398
 30
0.0
 11
-310.3571380000001
 21
-304.130473414774
 31
0.0
  0
LINE
  5
264
330
25F
100
AcDbEntity
  8
1
  6
Continuous
 62
     2
100
AcDbLine
 10
-322.3571380000001
 20
-280.810515613398
 30
0.0
 11
-322.3571380000001
 21
-308.130473414774
 31
0.0
  0
SOLID
  5
265
330
25F
100
AcDbEntity
  8
1
 62
     2
100
AcDbTrace
 10
-329.3571380000001
 20
-307.0520408978857
 30
0.0
 11
-329.3571380000001
 21
-305.2089059316622
 31
0.0
 12
-322.3571380000001
 22
-306.130473414774
 32
0.0
 13
-322.3571380000001
 23
-306.130473414774
 33
0.0
  0
SOLID
  5
266
330
25F
100
AcDbEntity
  8
1
 62
     2
100
AcDbTrace
 10
-303.3571380000001
 20
-305.2089059316622
 30
0.0
 11
-303.3571380000001
 21
-307.0520408978857
 31
0.0
 12
-310.3571380000001
 22
-306.130473414774
 32
0.0
 13
-310.3571380000001
 23
-306.130473414774
 33
0.0
  0
MTEXT
  5
267
330
25F
100
AcDbEntity
  8
1
 62
     3
100
AcDbMText
 10
-333.416744029193
 20
-302.130473414774
 30
0.0
 40
7.0
 41
0.0
 71
     7
 72
     1
  1
12
  7
CONVERTER_11
 11
0.9999999999970621
 21
2.424068405545307E-6
 31
0.0
 73
     1
 44
0.60024009603842
  0
ENDBLK
  5
269
330
25F
100
AcDbEntity
  8
0
100
AcDbBlockEnd
  0
ENDSEC
  0
SECTION
  2
ENTITIES
  0
POINT
  5
32
330
1F
100
AcDbEntity
  8
1
 62
     3
 60
     1
100
AcDbPoint
 10
-336.357138
 20
-115.810515613398
 30
0.0
  0
POINT
  5
33
330
1F
100
AcDbEntity
  8
1
 62
     3
 60
     1
100
AcDbPoint
 10
-296.357138
 20
-115.810515613398
 30
0.0
  0
POINT
  5
34
330
1F
100
AcDbEntity
  8
1
 62
     3
 60
     1
100
AcDbPoint
 10
-288.857138
 20
-117.810515613398
 30
0.0
  0
POINT
  5
35
330
1F
100
AcDbEntity
  8
1
 62
     3
 60
     1
100
AcDbPoint
 10
-288.857138
 20
-115.810515613398
 30
0.0
  0
POINT
  5
36
330
1F
100
AcDbEntity
  8
1
 62
     3
 60
     1
100
AcDbPoint
 10
-343.857138
 20
-115.810515613398
 30
0.0
  0
POINT
  5
37
330
1F
100
AcDbEntity
  8
1
 62
     3
 60
     1
100
AcDbPoint
 10
-343.857138
 20
-117.810515613398
 30
0.0
  0
POINT
  5
38
330
1F
100
AcDbEntity
  8
1
 62
     3
 60
     1
100
AcDbPoint
 10
-288.857138
 20
-268.810515613398
 30
0.0
  0
POINT
  5
39
330
1F
100
AcDbEntity
  8
1
 62
     3
 60
     1
100
AcDbPoint
 10
77.64286199999998
 20
-267.810515613398
 30
0.0
  0
POINT
  5
3A
330
1F
100
AcDbEntity
  8
1
 62
     3
 60
     1
100
AcDbPoint
 10
77.64286199999998
 20
-269.810515613398
 30
0.0
  0
POINT
  5
3B
330
1F
100
AcDbEntity
  8
1
 62
     3
 60
     1
100
AcDbPoint
 10
37.64286199999998
 20
-267.810515613398
 30
0.0
  0
POINT
  5
3C
330
1F
100
AcDbEntity
  8
1
 62
     3
 60
     1
100
AcDbPoint
 10
37.64286199999998
 20
-269.810515613398
 30
0.0
  0
POINT
  5
3D
330
1F
100
AcDbEntity
  8
1
 62
     3
 60
     1
100
AcDbPoint
 10
77.64286199999998
 20
-117.810515613398
 30
0.0
  0
POINT
  5
3E
330
1F
100
AcDbEntity
  8
1
 62
     3
 60
     1
100
AcDbPoint
 10
77.64286199999998
 20
-78.810515613398
 30
0.0
  0
POINT
  5
3F
330
1F
100
AcDbEntity
  8
1
 62
     3
 60
     1
100
AcDbPoint
 10
37.64286199999998
 20
-117.810515613398
 30
0.0
  0
POINT
  5
40
330
1F
100
AcDbEntity
  8
1
 62
     3
 60
     1
100
AcDbPoint
 10
37.64286199999998
 20
-78.810515613398
 30
0.0
  0
POINT
  5
41
330
1F
100
AcDbEntity
  8
1
 62
     3
 60
     1
100
AcDbPoint
 10
33.64286199999998
 20
-78.810515613398
 30
0.0
  0
POINT
  5
42
330
1F
100
AcDbEntity
  8
1
 62
     3
 60
     1
100
AcDbPoint
 10
81.64286199999998
 20
-78.810515613398
 30
0.0
  0
POINT
  5
43
330
1F
100
AcDbEntity
  8
1
 62
     3
 60
     1
100
AcDbPoint
 10
82.64286199999998
 20
-80.810515613398
 30
0.0
  0
POINT
  5
44
330
1F
100
AcDbEntity
  8
1
 62
     3
 60
     1
100
AcDbPoint
 10
32.64286199999998
 20
-80.810515613398
 30
0.0
  0
POINT
  5
45
330
1F
100
AcDbEntity
  8
1
 62
     3
 60
     1
100
AcDbPoint
 10
32.64286199999998
 20
-107.810515613398
 30
0.0
  0
POINT
  5
46
330
1F
100
AcDbEntity
  8
1
 62
     3
 60
     1
100
AcDbPoint
 10
82.64286199999998
 20
-107.810515613398
 30
0.0
  0
POINT
  5
47
330
1F
100
AcDbEntity
  8
1
 62
     3
 60
     1
100
AcDbPoint
 10
31.14286199999998
 20
-107.810515613398
 30
0.0
  0
POINT
  5
48
330
1F
100
AcDbEntity
  8
1
 62
     3
 60
     1
100
AcDbPoint
 10
31.14286199999998
 20
-115.810515613398
 30
0.0
  0
POINT
  5
49
330
1F
100
AcDbEntity
  8
1
 62
     3
 60
     1
100
AcDbPoint
 10
84.14286199999998
 20
-107.810515613398
 30
0.0
  0
POINT
  5
4A
330
1F
100
AcDbEntity
  8
1
 62
     3
 60
     1
100
AcDbPoint
 10
84.14286199999998
 20
-115.810515613398
 30
0.0
  0
POINT
  5
4B
330
1F
100
AcDbEntity
  8
1
 62
     3
 60
     1
100
AcDbPoint
 10
85.14286199999998
 20
-117.810515613398
 30
0.0
  0
POINT
  5
4C
330
1F
100
AcDbEntity
  8
1
 62
     3
 60
     1
100
AcDbPoint
 10
85.14286199999998
 20
-115.810515613398
 30
0.0
  0
POINT
  5
4D
330
1F
100
AcDbEntity
  8
1
 62
     3
 60
     1
100
AcDbPoint
 10
30.14286199999998
 20
-115.810515613398
 30
0.0
  0
POINT
  5
4E
330
1F
100
AcDbEntity
  8
1
 62
     3
 60
     1
100
AcDbPoint
 10
30.14286199999998
 20
-117.810515613398
 30
0.0
  0
POINT
  5
4F
330
1F
100
AcDbEntity
  8
1
 62
     3
 60
     1
100
AcDbPoint
 10
30.14286199999998
 20
-269.810515613398
 30
0.0
  0
POINT
  5
50
330
1F
100
AcDbEntity
  8
1
 62
     3
 60
     1
100
AcDbPoint
 10
30.14286199999998
 20
-267.810515613398
 30
0.0
  0
POINT
  5
51
330
1F
100
AcDbEntity
  8
1
 62
     3
 60
     1
100
AcDbPoint
 10
85.14286199999998
 20
-269.810515613398
 30
0.0
  0
POINT
  5
52
330
1F
100
AcDbEntity
  8
1
 62
     3
 60
     1
100
AcDbPoint
 10
85.14286199999998
 20
-267.810515613398
 30
0.0
  0
POINT
  5
53
330
1F
100
AcDbEntity
  8
1
 62
     3
 60
     1
100
AcDbPoint
 10
-17.35713800000008
 20
-267.810515613398
 30
0.0
  0
POINT
  5
54
330
1F
100
AcDbEntity
  8
1
 62
     3
 60
     1
100
AcDbPoint
 10
-17.35713800000008
 20
-251.810515613398
 30
0.0
  0
POINT
  5
55
330
1F
100
AcDbEntity
  8
1
 62
     3
 60
     1
100
AcDbPoint
 10
132.642862
 20
-267.810515613398
 30
0.0
  0
POINT
  5
56
330
1F
100
AcDbEntity
  8
1
 62
     3
 60
     1
100
AcDbPoint
 10
132.642862
 20
-251.810515613398
 30
0.0
  0
POINT
  5
57
330
1F
100
AcDbEntity
  8
1
 62
     3
 60
     1
100
AcDbPoint
 10
-27.35713800000002
 20
-234.810515613398
 30
0.0
  0
POINT
  5
58
330
1F
100
AcDbEntity
  8
1
 62
     3
 60
     1
100
AcDbPoint
 10
-17.35713800000008
 20
-234.810515613398
 30
0.0
  0
POINT
  5
59
330
1F
100
AcDbEntity
  8
1
 62
     3
 60
     1
100
AcDbPoint
 10
142.642862
 20
-234.810515613398
 30
0.0
  0
POINT
  5
5A
330
1F
100
AcDbEntity
  8
1
 62
     3
 60
     1
100
AcDbPoint
 10
142.642862
 20
-251.810515613398
 30
0.0
  0
POINT
  5
5B
330
1F
100
AcDbEntity
  8
1
 62
     3
 60
     1
100
AcDbPoint
 10
-27.35713800000002
 20
-251.810515613398
 30
0.0
  0
POINT
  5
5C
330
1F
100
AcDbEntity
  8
1
 62
     3
 60
     1
100
AcDbPoint
 10
-17.35713800000008
 20
-180.810515613398
 30
0.0
  0
POINT
  5
5D
330
1F
100
AcDbEntity
  8
1
 62
     3
 60
     1
100
AcDbPoint
 10
-17.35713800000008
 20
-148.810516363398
 30
0.0
  0
POINT
  5
5E
330
1F
100
AcDbEntity
  8
1
 62
     3
 60
     1
100
AcDbPoint
 10
-17.35713800000008
 20
-135.810515613398
 30
0.0
  0
POINT
  5
5F
330
1F
100
AcDbEntity
  8
1
 62
     3
 60
     1
100
AcDbPoint
 10
-2.35713800000008
 20
-135.810515613398
 30
0.0
  0
POINT
  5
60
330
1F
100
AcDbEntity
  8
1
 62
     3
 60
     1
100
AcDbPoint
 10
142.642862
 20
-135.810515613398
 30
0.0
  0
POINT
  5
61
330
1F
100
AcDbEntity
  8
1
 62
     3
 60
     1
100
AcDbPoint
 10
184.642862
 20
-135.810515613398
 30
0.0
  0
POINT
  5
62
330
1F
100
AcDbEntity
  8
1
 62
     3
 60
     1
100
AcDbPoint
 10
184.642862
 20
-116.810516363398
 30
0.0
  0
POINT
  5
63
330
1F
100
AcDbEntity
  8
1
 62
     3
 60
     1
100
AcDbPoint
 10
184.642862
 20
-244.810514863398
 30
0.0
  0
POINT
  5
64
330
1F
100
AcDbEntity
  8
1
 62
     3
 60
     1
100
AcDbPoint
 10
209.642862
 20
-116.810516363398
 30
0.0
  0
POINT
  5
65
330
1F
100
AcDbEntity
  8
1
 62
     3
 60
     1
100
AcDbPoint
 10
209.642862
 20
-225.810515613398
 30
0.0
  0
POINT
  5
66
330
1F
100
AcDbEntity
  8
1
 62
     3
 60
     1
100
AcDbPoint
 10
188.908823082804
 20
-116.810516363398
 30
0.0
  0
POINT
  5
67
330
1F
100
AcDbEntity
  8
1
 62
     3
 60
     1
100
AcDbPoint
 10
142.642862
 20
-220.810514863398
 30
0.0
  0
POINT
  5
68
330
1F
100
AcDbEntity
  8
1
 62
     3
 60
     1
100
AcDbPoint
 10
142.642862
 20
-211.810515613398
 30
0.0
  0
POINT
  5
69
330
1F
100
AcDbEntity
  8
1
 62
     3
 60
     1
100
AcDbPoint
 10
142.642862
 20
-149.810515613398
 30
0.0
  0
POINT
  5
6A
330
1F
100
AcDbEntity
  8
1
 62
     3
 60
     1
100
AcDbPoint
 10
142.642862
 20
-140.810516363398
 30
0.0
  0
POINT
  5
6B
330
1F
100
AcDbEntity
  8
1
 62
     3
 60
     1
100
AcDbPoint
 10
140.979238283595
 20
-220.810514863398
 30
0.0
  0
POINT
  5
6C
330
1F
100
AcDbEntity
  8
1
 62
     3
 60
     1
100
AcDbPoint
 10
141.337350168032
 20
-211.810515613398
 30
0.0
  0
POINT
  5
6D
330
1F
100
AcDbEntity
  8
1
 62
     3
 60
     1
100
AcDbPoint
 10
140.676380333588
 20
-149.810515613398
 30
0.0
  0
POINT
  5
6E
330
1F
100
AcDbEntity
  8
1
 62
     3
 60
     1
100
AcDbPoint
 10
141.079516553913
 20
-140.810516363398
 30
0.0
  0
POINT
  5
6F
330
1F
100
AcDbEntity
  8
1
 62
     3
 60
     1
100
AcDbPoint
 10
119.70900652011
 20
-139.915238513748
 30
0.0
  0
POINT
  5
70
330
1F
100
AcDbEntity
  8
1
 62
     3
 60
     1
100
AcDbPoint
 10
113.061738176075
 20
-131.558672595532
 30
0.0
  0
POINT
  5
71
330
1F
100
AcDbEntity
  8
1
 62
     3
 60
     1
100
AcDbPoint
 10
-336.357138
 20
-329.810515613398
 30
0.0
  0
POINT
  5
72
330
1F
100
AcDbEntity
  8
1
 62
     3
 60
     1
100
AcDbPoint
 10
-336.357138
 20
-269.810515613398
 30
0.0
  0
POINT
  5
73
330
1F
100
AcDbEntity
  8
1
 62
     3
 60
     1
100
AcDbPoint
 10
-296.357138
 20
-329.810515613398
 30
0.0
  0
POINT
  5
74
330
1F
100
AcDbEntity
  8
1
 62
     3
 60
     1
100
AcDbPoint
 10
-296.357138
 20
-269.810515613398
 30
0.0
  0
POINT
  5
75
330
1F
100
AcDbEntity
  8
1
 62
     3
 60
     1
100
AcDbPoint
 10
-343.857138
 20
-267.810515613398
 30
0.0
  0
POINT
  5
76
330
1F
100
AcDbEntity
  8
1
 62
     3
 60
     1
100
AcDbPoint
 10
-343.857138
 20
-269.810515613398
 30
0.0
  0
POINT
  5
77
330
1F
100
AcDbEntity
  8
1
 62
     3
 60
     1
100
AcDbPoint
 10
-288.857138
 20
-269.810515613398
 30
0.0
  0
POINT
  5
78
330
1F
100
AcDbEntity
  8
1
 62
     3
 60
     1
100
AcDbPoint
 10
-288.857138
 20
-267.810515613398
 30
0.0
  0
POINT
  5
79
330
1F
100
AcDbEntity
  8
1
 62
     3
 60
     1
100
AcDbPoint
 10
-391.3571380000001
 20
-251.810515613398
 30
0.0
  0
POINT
  5
7A
330
1F
100
AcDbEntity
  8
1
 62
     3
 60
     1
100
AcDbPoint
 10
-391.3571380000001
 20
-267.810515613398
 30
0.0
  0
POINT
  5
7B
330
1F
100
AcDbEntity
  8
1
 62
     3
 60
     1
100
AcDbPoint
 10
-241.357138
 20
-267.810515613398
 30
0.0
  0
POINT
  5
7C
330
1F
100
AcDbEntity
  8
1
 62
     3
 60
     1
100
AcDbPoint
 10
-241.357138
 20
-251.810515613398
 30
0.0
  0
POINT
  5
7D
330
1F
100
AcDbEntity
  8
1
 62
     3
 60
     1
100
AcDbPoint
 10
-401.357138
 20
-234.810515613398
 30
0.0
  0
POINT
  5
7E
330
1F
100
AcDbEntity
  8
1
 62
     3
 60
     1
100
AcDbPoint
 10
-231.357138
 20
-234.810515613398
 30
0.0
  0
POINT
  5
7F
330
1F
100
AcDbEntity
  8
1
 62
     3
 60
     1
100
AcDbPoint
 10
-231.357138
 20
-251.810515613398
 30
0.0
  0
POINT
  5
80
330
1F
100
AcDbEntity
  8
1
 62
     3
 60
     1
100
AcDbPoint
 10
-401.357138
 20
-251.810515613398
 30
0.0
  0
POINT
  5
81
330
1F
100
AcDbEntity
  8
1
 62
     3
 60
     1
100
AcDbPoint
 10
-391.3571380000001
 20
-234.810515613398
 30
0.0
  0
POINT
  5
82
330
1F
100
AcDbEntity
  8
1
 62
     3
 60
     1
100
AcDbPoint
 10
-391.3571380000001
 20
-180.810515613398
 30
0.0
  0
POINT
  5
83
330
1F
100
AcDbEntity
  8
1
 62
     3
 60
     1
100
AcDbPoint
 10
-391.3571380000001
 20
-148.810516363398
 30
0.0
  0
POINT
  5
84
330
1F
100
AcDbEntity
  8
1
 62
     3
 60
     1
100
AcDbPoint
 10
-391.3571380000001
 20
-135.810515613398
 30
0.0
  0
POINT
  5
85
330
1F
100
AcDbEntity
  8
1
 62
     3
 60
     1
100
AcDbPoint
 10
-376.3571380000001
 20
-135.810515613398
 30
0.0
  0
POINT
  5
86
330
1F
100
AcDbEntity
  8
1
 62
     3
 60
     1
100
AcDbPoint
 10
-231.357138
 20
-135.810515613398
 30
0.0
  0
POINT
  5
87
330
1F
100
AcDbEntity
  8
1
 62
     3
 60
     1
100
AcDbPoint
 10
-189.357138
 20
-116.810516363398
 30
0.0
  0
POINT
  5
88
330
1F
100
AcDbEntity
  8
1
 62
     3
 60
     1
100
AcDbPoint
 10
-164.357138
 20
-244.810514863398
 30
0.0
  0
POINT
  5
89
330
1F
100
AcDbEntity
  8
1
 62
     3
 60
     1
100
AcDbPoint
 10
-189.357138
 20
-244.810514863398
 30
0.0
  0
POINT
  5
8A
330
1F
100
AcDbEntity
  8
1
 62
     3
 60
     1
100
AcDbPoint
 10
-164.357138
 20
-116.810516363398
 30
0.0
  0
POINT
  5
8B
330
1F
100
AcDbEntity
  8
1
 62
     3
 60
     1
100
AcDbPoint
 10
-164.357138
 20
-225.810515613398
 30
0.0
  0
POINT
  5
8C
330
1F
100
AcDbEntity
  8
1
 62
     3
 60
     1
100
AcDbPoint
 10
-164.357138
 20
-135.810515613398
 30
0.0
  0
POINT
  5
8D
330
1F
100
AcDbEntity
  8
1
 62
     3
 60
     1
100
AcDbPoint
 10
-189.357138
 20
-135.810515613398
 30
0.0
  0
POINT
  5
8E
330
1F
100
AcDbEntity
  8
1
 62
     3
 60
     1
100
AcDbPoint
 10
-231.357138
 20
-211.810515613398
 30
0.0
  0
POINT
  5
8F
330
1F
100
AcDbEntity
  8
1
 62
     3
 60
     1
100
AcDbPoint
 10
-231.357138
 20
-149.810515613398
 30
0.0
  0
POINT
  5
90
330
1F
100
AcDbEntity
  8
1
 62
     3
 60
     1
100
AcDbPoint
 10
-231.357138
 20
-140.810516363398
 30
0.0
  0
POINT
  5
91
330
1F
100
AcDbEntity
  8
1
 62
     3
 60
     1
100
AcDbPoint
 10
-231.357138
 20
-220.810514863398
 30
0.0
  0
POINT
  5
92
330
1F
100
AcDbEntity
  8
1
 62
     3
 60
     1
100
AcDbPoint
 10
-185.091176917196
 20
-116.810516363398
 30
0.0
  0
POINT
  5
93
330
1F
100
AcDbEntity
  8
1
 62
     3
 60
     1
100
AcDbPoint
 10
-233.020761716405
 20
-220.810514863398
 30
0.0
  0
POINT
  5
94
330
1F
100
AcDbEntity
  8
1
 62
     3
 60
     1
100
AcDbPoint
 10
-232.662649831968
 20
-211.810515613398
 30
0.0
  0
POINT
  5
95
330
1F
100
AcDbEntity
  8
1
 62
     3
 60
     1
100
AcDbPoint
 10
-233.323619666412
 20
-149.810515613398
 30
0.0
  0
POINT
  5
96
330
1F
100
AcDbEntity
  8
1
 62
     3
 60
     1
100
AcDbPoint
 10
-232.920483446087
 20
-140.810516363398
 30
0.0
  0
POINT
  5
97
330
1F
100
AcDbEntity
  8
1
 62
     3
 60
     1
100
AcDbPoint
 10
-254.29099347989
 20
-139.915238513748
 30
0.0
  0
POINT
  5
98
330
1F
100
AcDbEntity
  8
1
 62
     3
 60
     1
100
AcDbPoint
 10
-260.938261823925
 20
-131.558672595532
 30
0.0
  0
POINT
  5
99
330
1F
100
AcDbEntity
  8
1
 62
     3
 60
     1
100
AcDbPoint
 10
-322.3571380000001
 20
-66.810515613398
 30
0.0
  0
POINT
  5
9A
330
1F
100
AcDbEntity
  8
1
 62
     3
 60
     1
100
AcDbPoint
 10
-322.3571380000001
 20
-104.810515613398
 30
0.0
  0
POINT
  5
9B
330
1F
100
AcDbEntity
  8
1
 62
     3
 60
     1
100
AcDbPoint
 10
-310.3571380000001
 20
-66.810515613398
 30
0.0
  0
POINT
  5
9C
330
1F
100
AcDbEntity
  8
1
 62
     3
 60
     1
100
AcDbPoint
 10
-310.3571380000001
 20
-104.810515613398
 30
0.0
  0
POINT
  5
9D
330
1F
100
AcDbEntity
  8
1
 62
     3
 60
     1
100
AcDbPoint
 10
-316.3571380000001
 20
-60.810515613398
 30
0.0
  0
POINT
  5
9E
330
1F
100
AcDbEntity
  8
1
 62
     3
 60
     1
100
AcDbPoint
 10
-316.3571380000001
 20
-110.810515613398
 30
0.0
  0
POINT
  5
9F
330
1F
100
AcDbEntity
  8
1
 62
     3
 60
     1
100
AcDbPoint
 10
-322.3571380000001
 20
-280.810515613398
 30
0.0
  0
POINT
  5
A0
330
1F
100
AcDbEntity
  8
1
 62
     3
 60
     1
100
AcDbPoint
 10
-322.3571380000001
 20
-318.810515613398
 30
0.0
  0
POINT
  5
A1
330
1F
100
AcDbEntity
  8
1
 62
     3
 60
     1
100
AcDbPoint
 10
-310.3571380000001
 20
-280.810515613398
 30
0.0
  0
POINT
  5
A2
330
1F
100
AcDbEntity
  8
1
 62
     3
 60
     1
100
AcDbPoint
 10
-310.3571380000001
 20
-318.810515613398
 30
0.0
  0
POINT
  5
A3
330
1F
100
AcDbEntity
  8
1
 62
     3
 60
     1
100
AcDbPoint
 10
-316.357138
 20
-274.810515613398
 30
0.0
  0
POINT
  5
A4
330
1F
100
AcDbEntity
  8
1
 62
     3
 60
     1
100
AcDbPoint
 10
-316.3571380000001
 20
-324.810515613398
 30
0.0
  0
LINE
  5
A5
330
1F
100
AcDbEntity
  8
1
  6
Continuous
 62
     7
100
AcDbLine
 10
-336.357138
 20
-55.810515613398
 30
0.0
 11
-296.357138
 21
-55.810515613398
 31
0.0
  0
LINE
  5
A6
330
1F
100
AcDbEntity
  8
1
  6
Continuous
 62
     7
100
AcDbLine
 10
-336.357138
 20
-115.810515613398
 30
0.0
 11
-336.357138
 21
-55.810515613398
 31
0.0
  0
LINE
  5
A7
330
1F
100
AcDbEntity
  8
1
  6
Continuous
 62
     7
100
AcDbLine
 10
-296.357138
 20
-115.810515613398
 30
0.0
 11
-296.357138
 21
-55.810515613398
 31
0.0
  0
LINE
  5
A8
330
1F
100
AcDbEntity
  8
1
  6
Continuous
 62
     7
100
AcDbLine
 10
-336.357138
 20
-115.810515613398
 30
0.0
 11
-296.357138
 21
-115.810515613398
 31
0.0
  0
LINE
  5
A9
330
1F
100
AcDbEntity
  8
1
  6
Continuous
 62
     7
100
AcDbLine
 10
-296.357138
 20
-115.810515613398
 30
0.0
 11
-288.857138
 21
-115.810515613398
 31
0.0
  0
LINE
  5
AA
330
1F
100
AcDbEntity
  8
1
  6
Continuous
 62
     7
100
AcDbLine
 10
-288.857138
 20
-117.810515613398
 30
0.0
 11
-263.357138
 21
-117.810515613398
 31
0.0
  0
LINE
  5
AB
330
1F
100
AcDbEntity
  8
1
  6
Continuous
 62
     7
100
AcDbLine
 10
-288.857138
 20
-115.810515613398
 30
0.0
 11
-288.857138
 21
-117.810515613398
 31
0.0
  0
LINE
  5
AC
330
1F
100
AcDbEntity
  8
1
  6
Continuous
 62
     7
100
AcDbLine
 10
-343.857138
 20
-115.810515613398
 30
0.0
 11
-336.357138
 21
-115.810515613398
 31
0.0
  0
LINE
  5
AD
330
1F
100
AcDbEntity
  8
1
  6
Continuous
 62
     7
100
AcDbLine
 10
-343.857138
 20
-117.810515613398
 30
0.0
 11
-288.857138
 21
-117.810515613398
 31
0.0
  0
LINE
  5
AE
330
1F
100
AcDbEntity
  8
1
  6
Continuous
 62
     7
100
AcDbLine
 10
-343.857138
 20
-117.810515613398
 30
0.0
 11
-343.857138
 21
-115.810515613398
 31
0.0
  0
LINE
  5
AF
330
1F
100
AcDbEntity
  8
1
  6
DOT_CENTER
 62
     2
100
AcDbLine
 10
-162.357138
 20
-180.810515613398
 30
0.0
 11
-397.598508926868
 21
-180.8105156133979
 31
0.0
  0
LINE
  5
B0
330
1F
100
AcDbEntity
  8
1
  6
DOT_CENTER
 62
     2
100
AcDbLine
 10
211.642862
 20
-180.810515613398
 30
0.0
 11
-25.30454209814262
 21
-180.8105156133981
 31
0.0
  0
LINE
  5
B1
330
1F
100
AcDbEntity
  8
1
  6
DOT_CENTER
 62
     2
100
AcDbLine
 10
57.64286199999998
 20
-73.2581015495113
 30
0.0
 11
57.64286200000001
 21
-274.906306655127
 31
0.0
  0
LINE
  5
B2
330
1F
100
AcDbEntity
  8
1
  6
Continuous
 62
     7
100
AcDbLine
 10
77.64286199999998
 20
-267.810515613398
 30
0.0
 11
132.642862
 21
-267.810515613398
 31
0.0
  0
LINE
  5
B3
330
1F
100
AcDbEntity
  8
1
  6
Continuous
 62
     7
100
AcDbLine
 10
77.64286199999998
 20
-269.810515613398
 30
0.0
 11
85.14286199999998
 21
-269.810515613398
 31
0.0
  0
LINE
  5
B4
330
1F
100
AcDbEntity
  8
1
  6
DASHED
 62
     7
100
AcDbLine
 10
77.64286199999998
 20
-269.810515613398
 30
0.0
 11
77.64286199999998
 21
-267.810515613398
 31
0.0
  0
LINE
  5
B5
330
1F
100
AcDbEntity
  8
1
  6
Continuous
 62
     7
100
AcDbLine
 10
37.64286199999998
 20
-267.810515613398
 30
0.0
 11
77.64286199999998
 21
-267.810515613398
 31
0.0
  0
LINE
  5
B6
330
1F
100
AcDbEntity
  8
1
  6
Continuous
 62
     7
100
AcDbLine
 10
37.64286199999998
 20
-269.810515613398
 30
0.0
 11
77.64286199999998
 21
-269.810515613398
 31
0.0
  0
LINE
  5
B7
330
1F
100
AcDbEntity
  8
1
  6
DASHED
 62
     7
100
AcDbLine
 10
37.64286199999998
 20
-269.810515613398
 30
0.0
 11
37.64286199999998
 21
-267.810515613398
 31
0.0
  0
LINE
  5
B8
330
1F
100
AcDbEntity
  8
1
  6
Continuous
 62
     7
100
AcDbLine
 10
77.64286199999998
 20
-117.810515613398
 30
0.0
 11
85.14286199999998
 21
-117.810515613398
 31
0.0
  0
LINE
  5
B9
330
1F
100
AcDbEntity
  8
1
  6
Continuous
 62
     7
100
AcDbLine
 10
77.64286199999998
 20
-78.810515613398
 30
0.0
 11
37.64286199999998
 21
-78.810515613398
 31
0.0
  0
LINE
  5
BA
330
1F
100
AcDbEntity
  8
1
  6
DASHED
 62
     7
100
AcDbLine
 10
77.64286199999998
 20
-78.810515613398
 30
0.0
 11
77.64286199999998
 21
-117.810515613398
 31
0.0
  0
LINE
  5
BB
330
1F
100
AcDbEntity
  8
1
  6
Continuous
 62
     7
100
AcDbLine
 10
37.64286199999998
 20
-78.810515613398
 30
0.0
 11
33.64286199999998
 21
-78.810515613398
 31
0.0
  0
LINE
  5
BC
330
1F
100
AcDbEntity
  8
1
  6
Continuous
 62
     7
100
AcDbLine
 10
37.64286199999998
 20
-117.810515613398
 30
0.0
 11
77.64286199999998
 21
-117.810515613398
 31
0.0
  0
LINE
  5
BD
330
1F
100
AcDbEntity
  8
1
  6
DASHED
 62
     7
100
AcDbLine
 10
37.64286199999998
 20
-78.810515613398
 30
0.0
 11
37.64286199999998
 21
-117.810515613398
 31
0.0
  0
LINE
  5
BE
330
1F
100
AcDbEntity
  8
1
  6
Continuous
 62
     7
100
AcDbLine
 10
32.64286199999998
 20
-80.810515613398
 30
0.0
 11
33.64286199999998
 21
-78.810515613398
 31
0.0
  0
LINE
  5
BF
330
1F
100
AcDbEntity
  8
1
  6
Continuous
 62
     7
100
AcDbLine
 10
81.64286199999998
 20
-78.810515613398
 30
0.0
 11
77.64286199999998
 21
-78.810515613398
 31
0.0
  0
LINE
  5
C0
330
1F
100
AcDbEntity
  8
1
  6
Continuous
 62
     7
100
AcDbLine
 10
82.64286199999998
 20
-80.810515613398
 30
0.0
 11
81.64286199999998
 21
-78.810515613398
 31
0.0
  0
LINE
  5
C1
330
1F
100
AcDbEntity
  8
1
  6
Continuous
 62
     7
100
AcDbLine
 10
32.64286199999998
 20
-80.810515613398
 30
0.0
 11
32.64286199999998
 21
-107.810515613398
 31
0.0
  0
LINE
  5
C2
330
1F
100
AcDbEntity
  8
1
  6
Continuous
 62
     7
100
AcDbLine
 10
32.64286199999998
 20
-80.810515613398
 30
0.0
 11
82.64286199999998
 21
-80.810515613398
 31
0.0
  0
LINE
  5
C3
330
1F
100
AcDbEntity
  8
1
  6
Continuous
 62
     7
100
AcDbLine
 10
32.64286199999998
 20
-107.810515613398
 30
0.0
 11
82.64286199999998
 21
-107.810515613398
 31
0.0
  0
LINE
  5
C4
330
1F
100
AcDbEntity
  8
1
  6
Continuous
 62
     7
100
AcDbLine
 10
82.64286199999998
 20
-107.810515613398
 30
0.0
 11
84.14286199999998
 21
-107.810515613398
 31
0.0
  0
LINE
  5
C5
330
1F
100
AcDbEntity
  8
1
  6
Continuous
 62
     7
100
AcDbLine
 10
82.64286199999998
 20
-107.810515613398
 30
0.0
 11
82.64286199999998
 21
-80.810515613398
 31
0.0
  0
LINE
  5
C6
330
1F
100
AcDbEntity
  8
1
  6
Continuous
 62
     7
100
AcDbLine
 10
31.14286199999998
 20
-107.810515613398
 30
0.0
 11
32.64286199999998
 21
-107.810515613398
 31
0.0
  0
LINE
  5
C7
330
1F
100
AcDbEntity
  8
1
  6
Continuous
 62
     7
100
AcDbLine
 10
31.14286199999998
 20
-115.810515613398
 30
0.0
 11
84.14286199999998
 21
-115.810515613398
 31
0.0
  0
LINE
  5
C8
330
1F
100
AcDbEntity
  8
1
  6
Continuous
 62
     7
100
AcDbLine
 10
31.14286199999998
 20
-115.810515613398
 30
0.0
 11
31.14286199999998
 21
-107.810515613398
 31
0.0
  0
LINE
  5
C9
330
1F
100
AcDbEntity
  8
1
  6
Continuous
 62
     7
100
AcDbLine
 10
84.14286199999998
 20
-115.810515613398
 30
0.0
 11
85.14286199999998
 21
-115.810515613398
 31
0.0
  0
LINE
  5
CA
330
1F
100
AcDbEntity
  8
1
  6
Continuous
 62
     7
100
AcDbLine
 10
84.14286199999998
 20
-115.810515613398
 30
0.0
 11
84.14286199999998
 21
-107.810515613398
 31
0.0
  0
LINE
  5
CB
330
1F
100
AcDbEntity
  8
1
  6
Continuous
 62
     7
100
AcDbLine
 10
85.14286199999998
 20
-117.810515613398
 30
0.0
 11
110.642862
 21
-117.810515613398
 31
0.0
  0
LINE
  5
CC
330
1F
100
AcDbEntity
  8
1
  6
Continuous
 62
     7
100
AcDbLine
 10
85.14286199999998
 20
-115.810515613398
 30
0.0
 11
85.14286199999998
 21
-117.810515613398
 31
0.0
  0
LINE
  5
CD
330
1F
100
AcDbEntity
  8
1
  6
Continuous
 62
     7
100
AcDbLine
 10
30.14286199999998
 20
-115.810515613398
 30
0.0
 11
31.14286199999998
 21
-115.810515613398
 31
0.0
  0
LINE
  5
CE
330
1F
100
AcDbEntity
  8
1
  6
Continuous
 62
     7
100
AcDbLine
 10
30.14286199999998
 20
-117.810515613398
 30
0.0
 11
37.64286199999998
 21
-117.810515613398
 31
0.0
  0
LINE
  5
CF
330
1F
100
AcDbEntity
  8
1
  6
Continuous
 62
     7
100
AcDbLine
 10
30.14286199999998
 20
-117.810515613398
 30
0.0
 11
30.14286199999998
 21
-115.810515613398
 31
0.0
  0
LINE
  5
D0
330
1F
100
AcDbEntity
  8
1
  6
Continuous
 62
     7
100
AcDbLine
 10
119.70900652011
 20
-139.915238513748
 30
0.0
 11
119.70900652011
 21
-192.915238513748
 31
0.0
  0
LINE
  5
D1
330
1F
100
AcDbEntity
  8
1
  6
Continuous
 62
     7
100
AcDbLine
 10
141.8461686887761
 20
-140.810516363398
 30
0.0
 11
141.079516553913
 21
-140.810516363398
 31
0.0
  0
LINE
  5
D2
330
1F
100
AcDbEntity
  8
1
  6
Continuous
 62
     7
100
AcDbLine
 10
142.1560290194948
 20
-149.810515613398
 30
0.0
 11
140.676380333588
 21
-149.810515613398
 31
0.0
  0
LINE
  5
D3
330
1F
100
AcDbEntity
  8
1
  6
Continuous
 62
     7
100
AcDbLine
 10
141.337350168032
 20
-211.810515613398
 30
0.0
 11
142.1560290194949
 21
-211.810515613398
 31
0.0
  0
LINE
  5
D4
330
1F
100
AcDbEntity
  8
1
  6
Continuous
 62
     7
100
AcDbLine
 10
140.979238283595
 20
-220.810514863398
 30
0.0
 11
141.8461686887761
 21
-220.810514863398
 31
0.0
  0
LINE
  5
D5
330
1F
100
AcDbEntity
  8
1
  6
Continuous
 62
     7
100
AcDbLine
 10
186.4039613062781
 20
-244.810514863398
 30
0.0
 11
188.6263285561196
 21
-244.810514863398
 31
0.0
  0
LINE
  5
D6
330
1F
100
AcDbEntity
  8
1
  6
Continuous
 62
     7
100
AcDbLine
 10
188.908823082804
 20
-116.810516363398
 30
0.0
 11
188.6263285561196
 21
-116.810516363398
 31
0.0
  0
LINE
  5
D7
330
1F
100
AcDbEntity
  8
1
  6
Continuous
 62
     7
100
AcDbLine
 10
187.877905794019
 20
-116.810516363398
 30
0.0
 11
188.908823082804
 21
-116.810516363398
 31
0.0
  0
LINE
  5
D8
330
1F
100
AcDbEntity
  8
1
  6
Continuous
 62
     7
100
AcDbLine
 10
181.184244480767
 20
-242.8341619952649
 30
0.0
 11
143.3345855038466
 21
-221.2057854370246
 31
0.0
  0
LINE
  5
D9
330
1F
100
AcDbEntity
  8
1
  6
Continuous
 62
     7
100
AcDbLine
 10
181.1842444807671
 20
-118.7868692315311
 30
0.0
 11
143.3345855038466
 21
-140.4152457897714
 31
0.0
  0
LINE
  5
DA
330
1F
100
AcDbEntity
  8
1
  6
Continuous
 62
     7
100
AcDbLine
 10
182.3336104122731
 20
-136.5802661426403
 30
0.0
 11
143.1047123175454
 21
-149.6565655075496
 31
0.0
  0
LINE
  5
DB
330
1F
100
AcDbEntity
  8
1
  6
Continuous
 62
     7
100
AcDbLine
 10
182.3336104122731
 20
-225.0407650841557
 30
0.0
 11
143.1047123175453
 21
-211.9644657192465
 31
0.0
  0
LINE
  5
DC
330
1F
100
AcDbEntity
  8
1
  6
Continuous
 62
     7
100
AcDbLine
 10
209.642862
 20
-225.810515613398
 30
0.0
 11
209.642862
 21
-135.810515613398
 31
0.0
  0
LINE
  5
DD
330
1F
100
AcDbEntity
  8
1
  6
Continuous
 62
     7
100
AcDbLine
 10
209.642862
 20
-225.810515613398
 30
0.0
 11
187.0770269025257
 21
-225.810515613398
 31
0.0
  0
LINE
  5
DE
330
1F
100
AcDbEntity
  8
1
  6
Continuous
 62
     7
100
AcDbLine
 10
142.642862
 20
-237.810515613398
 30
0.0
 11
142.642862
 21
-247.4710073672386
 31
0.0
  0
LINE
  5
DF
330
1F
100
AcDbEntity
  8
1
  6
Continuous
 62
     7
100
AcDbLine
 10
209.642862
 20
-135.810515613398
 30
0.0
 11
209.642862
 21
-116.810516363398
 31
0.0
  0
LINE
  5
E0
330
1F
100
AcDbEntity
  8
1
  6
Continuous
 62
     7
100
AcDbLine
 10
209.642862
 20
-135.810515613398
 30
0.0
 11
187.0770269025257
 21
-135.810515613398
 31
0.0
  0
LINE
  5
E1
330
1F
100
AcDbEntity
  8
1
  6
Continuous
 62
     7
100
AcDbLine
 10
182.9296536432814
 20
-244.4026081423914
 30
0.0
 11
154.9590671086645
 21
-237.742945181243
 31
0.0
  0
LINE
  5
E2
330
1F
100
AcDbEntity
  8
1
  6
Continuous
 62
     7
100
AcDbLine
 10
209.642862
 20
-116.810516363398
 30
0.0
 11
188.908823082804
 21
-116.810516363398
 31
0.0
  0
LINE
  5
E3
330
1F
100
AcDbEntity
  8
1
  6
Continuous
 62
     7
100
AcDbLine
 10
209.642862
 20
-244.810514863398
 30
0.0
 11
209.642862
 21
-225.810515613398
 31
0.0
  0
LINE
  5
E4
330
1F
100
AcDbEntity
  8
1
  6
Continuous
 62
     7
100
AcDbLine
 10
209.642862
 20
-244.810514863398
 30
0.0
 11
188.6263285561196
 21
-244.810514863398
 31
0.0
  0
LINE
  5
E5
330
1F
100
AcDbEntity
  8
1
  6
Continuous
 62
     7
100
AcDbLine
 10
144.6078447008168
 20
-134.9215949028794
 30
0.0
 11
181.6953879487748
 21
-118.1438974291759
 31
0.0
  0
LINE
  5
E6
330
1F
100
AcDbEntity
  8
1
  6
Continuous
 62
     7
100
AcDbLine
 10
127.642862
 20
-135.810515613398
 30
0.0
 11
140.4861661373206
 21
-135.810515613398
 31
0.0
  0
LINE
  5
E7
330
1F
100
AcDbEntity
  8
1
  6
Continuous
 62
     7
100
AcDbLine
 10
117.642862
 20
-124.810515613398
 30
0.0
 11
117.642862
 21
-125.810515613398
 31
0.0
  0
LINE
  5
E8
330
1F
100
AcDbEntity
  8
1
  6
Continuous
 62
     7
100
AcDbLine
 10
4.64286199999992
 20
-117.810515613398
 30
0.0
 11
30.14286199999998
 21
-117.810515613398
 31
0.0
  0
LINE
  5
E9
330
1F
100
AcDbEntity
  8
1
  6
Continuous
 62
     7
100
AcDbLine
 10
-2.35713800000008
 20
-135.810515613398
 30
0.0
 11
-2.35713800000008
 21
-124.810515613398
 31
0.0
  0
LINE
  5
EA
330
1F
100
AcDbEntity
  8
1
  6
Continuous
 62
     7
100
AcDbLine
 10
-10.35713800000008
 20
-135.810515613398
 30
0.0
 11
-2.35713800000008
 21
-135.810515613398
 31
0.0
  0
LINE
  5
EB
330
1F
100
AcDbEntity
  8
1
  6
Continuous
 62
     7
100
AcDbLine
 10
-17.35713800000008
 20
-148.810516363398
 30
0.0
 11
-17.35713800000008
 21
-142.810515613398
 31
0.0
  0
LINE
  5
EC
330
1F
100
AcDbEntity
  8
1
  6
Continuous
 62
     7
100
AcDbLine
 10
-17.35713800000008
 20
-180.810515613398
 30
0.0
 11
-17.35713800000008
 21
-148.810516363398
 31
0.0
  0
LINE
  5
ED
330
1F
100
AcDbEntity
  8
1
  6
Continuous
 62
     7
100
AcDbLine
 10
-17.35713800000008
 20
-234.810515613398
 30
0.0
 11
139.642862
 21
-234.810515613398
 31
0.0
  0
LINE
  5
EE
330
1F
100
AcDbEntity
  8
1
  6
Continuous
 62
     7
100
AcDbLine
 10
-17.35713800000008
 20
-234.810515613398
 30
0.0
 11
-17.35713800000008
 21
-180.810515613398
 31
0.0
  0
LINE
  5
EF
330
1F
100
AcDbEntity
  8
1
  6
Continuous
 62
     7
100
AcDbLine
 10
-27.35713800000002
 20
-251.810515613398
 30
0.0
 11
-27.35713800000002
 21
-237.810515613398
 31
0.0
  0
LINE
  5
F0
330
1F
100
AcDbEntity
  8
1
  6
Continuous
 62
     7
100
AcDbLine
 10
142.642862
 20
-251.810515613398
 30
0.0
 11
-27.35713800000002
 21
-251.810515613398
 31
0.0
  0
LINE
  5
F1
330
1F
100
AcDbEntity
  8
1
  6
Continuous
 62
     7
100
AcDbLine
 10
142.642862
 20
-247.4710073672386
 30
0.0
 11
142.642862
 21
-251.810515613398
 31
0.0
  0
LINE
  5
F2
330
1F
100
AcDbEntity
  8
1
  6
Continuous
 62
     7
100
AcDbLine
 10
-24.35713800000002
 20
-234.810515613398
 30
0.0
 11
-17.35713800000008
 21
-234.810515613398
 31
0.0
  0
LINE
  5
F3
330
1F
100
AcDbEntity
  8
1
  6
Continuous
 62
     7
100
AcDbLine
 10
132.642862
 20
-267.810515613398
 30
0.0
 11
132.642862
 21
-251.810515613398
 31
0.0
  0
LINE
  5
F4
330
1F
100
AcDbEntity
  8
1
  6
Continuous
 62
     7
100
AcDbLine
 10
-17.35713800000008
 20
-267.810515613398
 30
0.0
 11
37.64286199999998
 21
-267.810515613398
 31
0.0
  0
LINE
  5
F5
330
1F
100
AcDbEntity
  8
1
  6
Continuous
 62
     7
100
AcDbLine
 10
-17.35713800000008
 20
-251.810515613398
 30
0.0
 11
-17.35713800000008
 21
-267.810515613398
 31
0.0
  0
LINE
  5
F6
330
1F
100
AcDbEntity
  8
1
  6
Continuous
 62
     7
100
AcDbLine
 10
85.14286199999998
 20
-269.810515613398
 30
0.0
 11
85.14286199999998
 21
-267.810515613398
 31
0.0
  0
LINE
  5
F7
330
1F
100
AcDbEntity
  8
1
  6
Continuous
 62
     7
100
AcDbLine
 10
30.14286199999998
 20
-269.810515613398
 30
0.0
 11
37.64286199999998
 21
-269.810515613398
 31
0.0
  0
LINE
  5
F8
330
1F
100
AcDbEntity
  8
1
  6
Continuous
 62
     7
100
AcDbLine
 10
30.14286199999998
 20
-267.810515613398
 30
0.0
 11
30.14286199999998
 21
-269.810515613398
 31
0.0
  0
LINE
  5
F9
330
1F
100
AcDbEntity
  8
1
  6
Continuous
 62
     7
100
AcDbLine
 10
-336.357138
 20
-329.810515613398
 30
0.0
 11
-336.357138
 21
-269.810515613398
 31
0.0
  0
LINE
  5
FA
330
1F
100
AcDbEntity
  8
1
  6
Continuous
 62
     7
100
AcDbLine
 10
-336.357138
 20
-329.810515613398
 30
0.0
 11
-296.357138
 21
-329.810515613398
 31
0.0
  0
LINE
  5
FB
330
1F
100
AcDbEntity
  8
1
  6
Continuous
 62
     7
100
AcDbLine
 10
-296.357138
 20
-329.810515613398
 30
0.0
 11
-296.357138
 21
-269.810515613398
 31
0.0
  0
LINE
  5
FC
330
1F
100
AcDbEntity
  8
1
  6
Continuous
 62
     7
100
AcDbLine
 10
-343.857138
 20
-267.810515613398
 30
0.0
 11
-343.857138
 21
-269.810515613398
 31
0.0
  0
LINE
  5
FD
330
1F
100
AcDbEntity
  8
1
  6
Continuous
 62
     7
100
AcDbLine
 10
-343.857138
 20
-269.810515613398
 30
0.0
 11
-288.857138
 21
-269.810515613398
 31
0.0
  0
LINE
  5
FE
330
1F
100
AcDbEntity
  8
1
  6
Continuous
 62
     7
100
AcDbLine
 10
-288.857138
 20
-269.810515613398
 30
0.0
 11
-288.857138
 21
-267.810515613398
 31
0.0
  0
LINE
  5
FF
330
1F
100
AcDbEntity
  8
1
  6
Continuous
 62
     7
100
AcDbLine
 10
-391.3571380000001
 20
-251.810515613398
 30
0.0
 11
-391.3571380000001
 21
-267.810515613398
 31
0.0
  0
LINE
  5
100
330
1F
100
AcDbEntity
  8
1
  6
Continuous
 62
     7
100
AcDbLine
 10
-391.3571380000001
 20
-267.810515613398
 30
0.0
 11
-241.357138
 21
-267.810515613398
 31
0.0
  0
LINE
  5
101
330
1F
100
AcDbEntity
  8
1
  6
Continuous
 62
     7
100
AcDbLine
 10
-241.357138
 20
-267.810515613398
 30
0.0
 11
-241.357138
 21
-251.810515613398
 31
0.0
  0
LINE
  5
102
330
1F
100
AcDbEntity
  8
1
  6
Continuous
 62
     7
100
AcDbLine
 10
-398.357138
 20
-234.810515613398
 30
0.0
 11
-391.3571380000001
 21
-234.810515613398
 31
0.0
  0
LINE
  5
103
330
1F
100
AcDbEntity
  8
1
  6
Continuous
 62
     7
100
AcDbLine
 10
-231.357138
 20
-247.4710073672386
 30
0.0
 11
-231.357138
 21
-251.810515613398
 31
0.0
  0
LINE
  5
104
330
1F
100
AcDbEntity
  8
1
  6
Continuous
 62
     7
100
AcDbLine
 10
-231.357138
 20
-251.810515613398
 30
0.0
 11
-401.357138
 21
-251.810515613398
 31
0.0
  0
LINE
  5
105
330
1F
100
AcDbEntity
  8
1
  6
Continuous
 62
     7
100
AcDbLine
 10
-401.357138
 20
-251.810515613398
 30
0.0
 11
-401.357138
 21
-237.810515613398
 31
0.0
  0
LINE
  5
106
330
1F
100
AcDbEntity
  8
1
  6
Continuous
 62
     7
100
AcDbLine
 10
-391.3571380000001
 20
-234.810515613398
 30
0.0
 11
-391.3571380000001
 21
-180.810515613398
 31
0.0
  0
LINE
  5
107
330
1F
100
AcDbEntity
  8
1
  6
Continuous
 62
     7
100
AcDbLine
 10
-391.3571380000001
 20
-234.810515613398
 30
0.0
 11
-234.357138
 21
-234.810515613398
 31
0.0
  0
LINE
  5
108
330
1F
100
AcDbEntity
  8
1
  6
Continuous
 62
     7
100
AcDbLine
 10
-391.3571380000001
 20
-180.810515613398
 30
0.0
 11
-391.3571380000001
 21
-148.810516363398
 31
0.0
  0
LINE
  5
109
330
1F
100
AcDbEntity
  8
1
  6
Continuous
 62
     7
100
AcDbLine
 10
-391.3571380000001
 20
-148.810516363398
 30
0.0
 11
-391.3571380000001
 21
-142.810515613398
 31
0.0
  0
LINE
  5
10A
330
1F
100
AcDbEntity
  8
1
  6
Continuous
 62
     7
100
AcDbLine
 10
-384.3571380000001
 20
-135.810515613398
 30
0.0
 11
-376.3571380000001
 21
-135.810515613398
 31
0.0
  0
LINE
  5
10B
330
1F
100
AcDbEntity
  8
1
  6
Continuous
 62
     7
100
AcDbLine
 10
-376.3571380000001
 20
-135.810515613398
 30
0.0
 11
-376.3571380000001
 21
-124.810515613398
 31
0.0
  0
LINE
  5
10C
330
1F
100
AcDbEntity
  8
1
  6
Continuous
 62
     7
100
AcDbLine
 10
-369.3571380000001
 20
-117.810515613398
 30
0.0
 11
-343.857138
 21
-117.810515613398
 31
0.0
  0
LINE
  5
10D
330
1F
100
AcDbEntity
  8
1
  6
Continuous
 62
     7
100
AcDbLine
 10
-256.357138
 20
-124.810515613398
 30
0.0
 11
-256.357138
 21
-125.810515613398
 31
0.0
  0
LINE
  5
10E
330
1F
100
AcDbEntity
  8
1
  6
Continuous
 62
     7
100
AcDbLine
 10
-246.357138
 20
-135.810515613398
 30
0.0
 11
-233.5138338626794
 21
-135.810515613398
 31
0.0
  0
LINE
  5
10F
330
1F
100
AcDbEntity
  8
1
  6
Continuous
 62
     7
100
AcDbLine
 10
-229.3921552991832
 20
-134.9215949028794
 30
0.0
 11
-192.3046120512252
 21
-118.1438974291759
 31
0.0
  0
LINE
  5
110
330
1F
100
AcDbEntity
  8
1
  6
Continuous
 62
     7
100
AcDbLine
 10
-164.357138
 20
-244.810514863398
 30
0.0
 11
-185.3736714438804
 21
-244.810514863398
 31
0.0
  0
LINE
  5
111
330
1F
100
AcDbEntity
  8
1
  6
Continuous
 62
     7
100
AcDbLine
 10
-164.357138
 20
-244.810514863398
 30
0.0
 11
-164.357138
 21
-225.810515613398
 31
0.0
  0
LINE
  5
112
330
1F
100
AcDbEntity
  8
1
  6
Continuous
 62
     7
100
AcDbLine
 10
-164.357138
 20
-116.810516363398
 30
0.0
 11
-185.091176917196
 21
-116.810516363398
 31
0.0
  0
LINE
  5
113
330
1F
100
AcDbEntity
  8
1
  6
Continuous
 62
     7
100
AcDbLine
 10
-191.0703463567186
 20
-244.4026081423914
 30
0.0
 11
-219.0409328913355
 21
-237.742945181243
 31
0.0
  0
LINE
  5
114
330
1F
100
AcDbEntity
  8
1
  6
Continuous
 62
     7
100
AcDbLine
 10
-164.357138
 20
-135.810515613398
 30
0.0
 11
-186.9229730974743
 21
-135.810515613398
 31
0.0
  0
LINE
  5
115
330
1F
100
AcDbEntity
  8
1
  6
Continuous
 62
     7
100
AcDbLine
 10
-164.357138
 20
-135.810515613398
 30
0.0
 11
-164.357138
 21
-116.810516363398
 31
0.0
  0
LINE
  5
116
330
1F
100
AcDbEntity
  8
1
  6
Continuous
 62
     7
100
AcDbLine
 10
-231.357138
 20
-237.810515613398
 30
0.0
 11
-231.357138
 21
-247.4710073672386
 31
0.0
  0
LINE
  5
117
330
1F
100
AcDbEntity
  8
1
  6
Continuous
 62
     7
100
AcDbLine
 10
-164.357138
 20
-225.810515613398
 30
0.0
 11
-186.9229730974743
 21
-225.810515613398
 31
0.0
  0
LINE
  5
118
330
1F
100
AcDbEntity
  8
1
  6
Continuous
 62
     7
100
AcDbLine
 10
-164.357138
 20
-225.810515613398
 30
0.0
 11
-164.357138
 21
-135.810515613398
 31
0.0
  0
LINE
  5
119
330
1F
100
AcDbEntity
  8
1
  6
Continuous
 62
     7
100
AcDbLine
 10
-191.6663895877269
 20
-225.0407650841557
 30
0.0
 11
-230.8952876824547
 21
-211.9644657192465
 31
0.0
  0
LINE
  5
11A
330
1F
100
AcDbEntity
  8
1
  6
Continuous
 62
     7
100
AcDbLine
 10
-191.6663895877269
 20
-136.5802661426403
 30
0.0
 11
-230.8952876824546
 21
-149.6565655075496
 31
0.0
  0
LINE
  5
11B
330
1F
100
AcDbEntity
  8
1
  6
Continuous
 62
     7
100
AcDbLine
 10
-192.8157555192329
 20
-118.7868692315311
 30
0.0
 11
-230.6654144961534
 21
-140.4152457897714
 31
0.0
  0
LINE
  5
11C
330
1F
100
AcDbEntity
  8
1
  6
Continuous
 62
     7
100
AcDbLine
 10
-192.815755519233
 20
-242.8341619952649
 30
0.0
 11
-230.6654144961534
 21
-221.2057854370246
 31
0.0
  0
LINE
  5
11D
330
1F
100
AcDbEntity
  8
1
  6
Continuous
 62
     7
100
AcDbLine
 10
-186.122094205981
 20
-116.810516363398
 30
0.0
 11
-185.091176917196
 21
-116.810516363398
 31
0.0
  0
LINE
  5
11E
330
1F
100
AcDbEntity
  8
1
  6
Continuous
 62
     7
100
AcDbLine
 10
-185.091176917196
 20
-116.810516363398
 30
0.0
 11
-185.3736714438804
 21
-116.810516363398
 31
0.0
  0
LINE
  5
11F
330
1F
100
AcDbEntity
  8
1
  6
Continuous
 62
     7
100
AcDbLine
 10
-187.5960386937219
 20
-244.810514863398
 30
0.0
 11
-185.3736714438804
 21
-244.810514863398
 31
0.0
  0
LINE
  5
120
330
1F
100
AcDbEntity
  8
1
  6
Continuous
 62
     7
100
AcDbLine
 10
-233.020761716405
 20
-220.810514863398
 30
0.0
 11
-232.1538313112239
 21
-220.810514863398
 31
0.0
  0
LINE
  5
121
330
1F
100
AcDbEntity
  8
1
  6
Continuous
 62
     7
100
AcDbLine
 10
-232.662649831968
 20
-211.810515613398
 30
0.0
 11
-231.8439709805051
 21
-211.810515613398
 31
0.0
  0
LINE
  5
122
330
1F
100
AcDbEntity
  8
1
  6
Continuous
 62
     7
100
AcDbLine
 10
-231.8439709805052
 20
-149.810515613398
 30
0.0
 11
-233.323619666412
 21
-149.810515613398
 31
0.0
  0
LINE
  5
123
330
1F
100
AcDbEntity
  8
1
  6
Continuous
 62
     7
100
AcDbLine
 10
-232.1538313112239
 20
-140.810516363398
 30
0.0
 11
-232.920483446087
 21
-140.810516363398
 31
0.0
  0
LINE
  5
124
330
1F
100
AcDbEntity
  8
1
  6
Continuous
 62
     7
100
AcDbLine
 10
-254.29099347989
 20
-139.915238513748
 30
0.0
 11
-254.29099347989
 21
-192.915238513748
 31
0.0
  0
LINE
  5
125
330
1F
100
AcDbEntity
  8
1
  6
DOT_CENTER
 62
     2
100
AcDbLine
 10
-316.357138
 20
-331.810515613398
 30
0.0
 11
-316.3571380000001
 21
-53.49100408419182
 31
0.0
  0
LINE
  5
126
330
1F
100
AcDbEntity
  8
1
  6
Continuous
 62
     7
100
AcDbLine
 10
-322.3571380000001
 20
-66.810515613398
 30
0.0
 11
-322.3571380000001
 21
-104.810515613398
 31
0.0
  0
LINE
  5
127
330
1F
100
AcDbEntity
  8
1
  6
Continuous
 62
     7
100
AcDbLine
 10
-310.3571380000001
 20
-66.810515613398
 30
0.0
 11
-310.3571380000001
 21
-104.810515613398
 31
0.0
  0
LINE
  5
128
330
1F
100
AcDbEntity
  8
1
  6
Continuous
 62
     7
100
AcDbLine
 10
-322.3571380000001
 20
-280.810515613398
 30
0.0
 11
-322.3571380000001
 21
-318.810515613398
 31
0.0
  0
LINE
  5
129
330
1F
100
AcDbEntity
  8
1
  6
Continuous
 62
     7
100
AcDbLine
 10
-310.3571380000001
 20
-280.810515613398
 30
0.0
 11
-310.3571380000001
 21
-318.810515613398
 31
0.0
  0
ARC
  5
12A
330
1F
100
AcDbEntity
  8
1
  6
Continuous
 62
     7
100
AcDbCircle
 10
122.0556076803675
 20
-131.2265410857852
 30
0.0
 40
9.000000000000522
100
AcDbArc
 50
-177.8851049185377
 51
-105.1135876407753
  0
ARC
  5
12B
330
1F
100
AcDbEntity
  8
1
  6
Continuous
 62
     7
100
AcDbCircle
 10
-251.9443923196325
 20
-131.2265410857852
 30
0.0
 40
9.000000000000536
100
AcDbArc
 50
-177.8851049185377
 51
-105.1135876407753
  0
ARC
  5
12C
330
1F
100
AcDbEntity
  8
1
  6
Continuous
 62
     7
100
AcDbCircle
 10
-316.3571380000001
 20
-66.81051561339795
 30
0.0
 40
6.0
100
AcDbArc
 50
-0.00000000000041
 51
90.0
  0
ARC
  5
12D
330
1F
100
AcDbEntity
  8
1
  6
Continuous
 62
     7
100
AcDbCircle
 10
-316.3571380000001
 20
-66.81051561339795
 30
0.0
 40
5.99999999999995
100
AcDbArc
 50
90.0
 51
-179.9999999999996
  0
ARC
  5
12E
330
1F
100
AcDbEntity
  8
1
  6
Continuous
 62
     7
100
AcDbCircle
 10
-316.3571379999995
 20
-104.8105156133974
 30
0.0
 40
6.000000000000568
100
AcDbArc
 50
-179.9999999999943
 51
-90.00000000000543
  0
ARC
  5
12F
330
1F
100
AcDbEntity
  8
1
  6
Continuous
 62
     7
100
AcDbCircle
 10
-316.3571379999995
 20
-104.8105156133974
 30
0.0
 40
6.000000000000597
100
AcDbArc
 50
-90.00000000000543
 51
-0.0000000000057
  0
ARC
  5
130
330
1F
100
AcDbEntity
  8
1
  6
Continuous
 62
     7
100
AcDbCircle
 10
-316.3571379999968
 20
-280.8105156133948
 30
0.0
 40
5.999999999996703
100
AcDbArc
 50
-0.00000000003094
 51
90.00000000003094
  0
ARC
  5
131
330
1F
100
AcDbEntity
  8
1
  6
Continuous
 62
     7
100
AcDbCircle
 10
-316.3571379999961
 20
-280.810515613402
 30
0.0
 40
6.000000000003979
100
AcDbArc
 50
90.00000000003746
 51
179.999999999962
  0
ARC
  5
132
330
1F
100
AcDbEntity
  8
1
  6
Continuous
 62
     7
100
AcDbCircle
 10
-316.3571380000001
 20
-318.810515613398
 30
0.0
 40
6.0
100
AcDbArc
 50
180.0
 51
-90.0
  0
ARC
  5
133
330
1F
100
AcDbEntity
  8
1
  6
Continuous
 62
     7
100
AcDbCircle
 10
-316.3571380000001
 20
-318.810515613398
 30
0.0
 40
6.0
100
AcDbArc
 50
-90.0
 51
0.0
  0
XLINE
  5
134
330
1F
100
AcDbEntity
  8
1
  6
DOT_CENTER
 62
     3
 60
     1
100
AcDbXline
 10
-288.857138
 20
-268.810515613398
 30
0.0
 11
-1.0
 21
0.0
 31
0.0
  0
ARC
  5
135
330
1F
100
AcDbEntity
  8
1
  6
Continuous
 62
     7
100
AcDbCircle
 10
141.8461686887761
 20
-223.810514863398
 30
0.0
 40
3.000000000000032
100
AcDbArc
 50
60.25511870305797
 51
90.0
  0
ARC
  5
136
330
1F
100
AcDbEntity
  8
1
  6
Continuous
 62
     7
100
AcDbCircle
 10
142.1560290194948
 20
-214.810515613398
 30
0.0
 40
2.999999999999947
100
AcDbArc
 50
71.56505117707799
 51
89.99999999999837
  0
ARC
  5
137
330
1F
100
AcDbEntity
  8
1
  6
Continuous
 62
     7
100
AcDbCircle
 10
141.8461686887761
 20
-137.810516363398
 30
0.0
 40
3.0
100
AcDbArc
 50
-90.0
 51
-60.25511870305797
  0
ARC
  5
138
330
1F
100
AcDbEntity
  8
1
  6
Continuous
 62
     7
100
AcDbCircle
 10
142.1560290194949
 20
-146.810515613398
 30
0.0
 40
3.0
100
AcDbArc
 50
-90.00000000000163
 51
-71.56505117707867
  0
ARC
  5
139
330
1F
100
AcDbEntity
  8
1
  6
Continuous
 62
     7
100
AcDbCircle
 10
186.4039613062781
 20
-229.810514863398
 30
0.0
 40
15.00000000000005
100
AcDbArc
 50
-103.3924967855014
 51
-90.0
  0
ARC
  5
13A
330
1F
100
AcDbEntity
  8
1
  6
Continuous
 62
     7
100
AcDbCircle
 10
188.6263285561195
 20
-229.810514863398
 30
0.0
 40
15.00000000000001
100
AcDbArc
 50
-119.7448812969421
 51
-89.99999999999957
  0
ARC
  5
13B
330
1F
100
AcDbEntity
  8
1
  6
Continuous
 62
     7
100
AcDbCircle
 10
187.0770269025257
 20
-210.810515613398
 30
0.0
 40
15.00000000000002
100
AcDbArc
 50
-108.4349488229221
 51
-90.0
  0
ARC
  5
13C
330
1F
100
AcDbEntity
  8
1
  6
Continuous
 62
     7
100
AcDbCircle
 10
187.877905794019
 20
-131.810516363398
 30
0.0
 40
15.0
100
AcDbArc
 50
90.0
 51
114.3410890873669
  0
ARC
  5
13D
330
1F
100
AcDbEntity
  8
1
  6
Continuous
 62
     7
100
AcDbCircle
 10
188.6263285561196
 20
-131.810516363398
 30
0.0
 40
15.0
100
AcDbArc
 50
90.0
 51
119.7448812969422
  0
ARC
  5
13E
330
1F
100
AcDbEntity
  8
1
  6
Continuous
 62
     7
100
AcDbCircle
 10
187.0770269025257
 20
-150.810515613398
 30
0.0
 40
15.0
100
AcDbArc
 50
90.0
 51
108.4349488229222
  0
ARC
  5
13F
330
1F
100
AcDbEntity
  8
1
  6
Continuous
 62
     7
100
AcDbCircle
 10
110.642862
 20
-124.810515613398
 30
0.0
 40
7.0
100
AcDbArc
 50
0.0
 51
90.0
  0
ARC
  5
140
330
1F
100
AcDbEntity
  8
1
  6
Continuous
 62
     7
100
AcDbCircle
 10
4.64286199999992
 20
-124.810515613398
 30
0.0
 40
7.0
100
AcDbArc
 50
90.0
 51
180.0
  0
ARC
  5
141
330
1F
100
AcDbEntity
  8
1
  6
Continuous
 62
     7
100
AcDbCircle
 10
-10.35713800000008
 20
-142.810515613398
 30
0.0
 40
7.0
100
AcDbArc
 50
90.0
 51
180.0
  0
ARC
  5
142
330
1F
100
AcDbEntity
  8
1
  6
Continuous
 62
     7
100
AcDbCircle
 10
139.642862
 20
-237.810515613398
 30
0.0
 40
3.0
100
AcDbArc
 50
0.0
 51
90.0
  0
ARC
  5
143
330
1F
100
AcDbEntity
  8
1
  6
Continuous
 62
     7
100
AcDbCircle
 10
-24.35713800000002
 20
-237.810515613398
 30
0.0
 40
3.0
100
AcDbArc
 50
90.0
 51
180.0
  0
ARC
  5
144
330
1F
100
AcDbEntity
  8
1
  6
Continuous
 62
     7
100
AcDbCircle
 10
152.642862
 20
-247.4710073672386
 30
0.0
 40
10.00000000000006
100
AcDbArc
 50
76.60750321449852
 51
180.0
  0
ARC
  5
145
330
1F
100
AcDbEntity
  8
1
  6
Continuous
 62
     7
100
AcDbCircle
 10
140.4861661373207
 20
-125.810515613398
 30
0.0
 40
10.0
100
AcDbArc
 50
-90.00000000000065
 51
-65.65891091263336
  0
ARC
  5
146
330
1F
100
AcDbEntity
  8
1
  6
Continuous
 62
     7
100
AcDbCircle
 10
127.642862
 20
-125.810515613398
 30
0.0
 40
10.0
100
AcDbArc
 50
180.0
 51
-90.0
  0
ARC
  5
147
330
1F
100
AcDbEntity
  8
1
  6
Continuous
 62
     7
100
AcDbCircle
 10
-246.357138
 20
-125.810515613398
 30
0.0
 40
10.00000000000003
100
AcDbArc
 50
180.0
 51
-90.0
  0
ARC
  5
148
330
1F
100
AcDbEntity
  8
1
  6
Continuous
 62
     7
100
AcDbCircle
 10
-233.5138338626793
 20
-125.810515613398
 30
0.0
 40
10.0
100
AcDbArc
 50
-90.00000000000065
 51
-65.65891091263336
  0
ARC
  5
149
330
1F
100
AcDbEntity
  8
1
  6
Continuous
 62
     7
100
AcDbCircle
 10
-221.357138
 20
-247.4710073672386
 30
0.0
 40
10.00000000000006
100
AcDbArc
 50
76.60750321449852
 51
180.0
  0
ARC
  5
14A
330
1F
100
AcDbEntity
  8
1
  6
Continuous
 62
     7
100
AcDbCircle
 10
-398.357138
 20
-237.810515613398
 30
0.0
 40
3.0
100
AcDbArc
 50
90.0
 51
180.0
  0
ARC
  5
14B
330
1F
100
AcDbEntity
  8
1
  6
Continuous
 62
     7
100
AcDbCircle
 10
-234.357138
 20
-237.810515613398
 30
0.0
 40
3.0
100
AcDbArc
 50
0.0
 51
90.0
  0
ARC
  5
14C
330
1F
100
AcDbEntity
  8
1
  6
Continuous
 62
     7
100
AcDbCircle
 10
-384.3571380000001
 20
-142.810515613398
 30
0.0
 40
7.0
100
AcDbArc
 50
90.0
 51
180.0
  0
ARC
  5
14D
330
1F
100
AcDbEntity
  8
1
  6
Continuous
 62
     7
100
AcDbCircle
 10
-369.3571380000001
 20
-124.810515613398
 30
0.0
 40
7.0
100
AcDbArc
 50
90.0
 51
180.0
  0
ARC
  5
14E
330
1F
100
AcDbEntity
  8
1
  6
Continuous
 62
     7
100
AcDbCircle
 10
-263.357138
 20
-124.810515613398
 30
0.0
 40
7.0
100
AcDbArc
 50
0.0
 51
90.0
  0
ARC
  5
14F
330
1F
100
AcDbEntity
  8
1
  6
Continuous
 62
     7
100
AcDbCircle
 10
-186.9229730974743
 20
-150.810515613398
 30
0.0
 40
15.0
100
AcDbArc
 50
90.0
 51
108.4349488229222
  0
ARC
  5
150
330
1F
100
AcDbEntity
  8
1
  6
Continuous
 62
     7
100
AcDbCircle
 10
-185.3736714438804
 20
-131.810516363398
 30
0.0
 40
15.0
100
AcDbArc
 50
90.0
 51
119.7448812969422
  0
ARC
  5
151
330
1F
100
AcDbEntity
  8
1
  6
Continuous
 62
     7
100
AcDbCircle
 10
-186.122094205981
 20
-131.810516363398
 30
0.0
 40
15.0
100
AcDbArc
 50
90.0
 51
114.3410890873669
  0
ARC
  5
152
330
1F
100
AcDbEntity
  8
1
  6
Continuous
 62
     7
100
AcDbCircle
 10
-186.9229730974743
 20
-210.810515613398
 30
0.0
 40
15.00000000000002
100
AcDbArc
 50
-108.4349488229221
 51
-90.0
  0
ARC
  5
153
330
1F
100
AcDbEntity
  8
1
  6
Continuous
 62
     7
100
AcDbCircle
 10
-185.3736714438805
 20
-229.810514863398
 30
0.0
 40
15.00000000000001
100
AcDbArc
 50
-119.7448812969421
 51
-89.99999999999957
  0
ARC
  5
154
330
1F
100
AcDbEntity
  8
1
  6
Continuous
 62
     7
100
AcDbCircle
 10
-187.5960386937219
 20
-229.810514863398
 30
0.0
 40
15.00000000000005
100
AcDbArc
 50
-103.3924967855014
 51
-90.0
  0
ARC
  5
155
330
1F
100
AcDbEntity
  8
1
  6
Continuous
 62
     7
100
AcDbCircle
 10
-231.8439709805051
 20
-146.810515613398
 30
0.0
 40
3.0
100
AcDbArc
 50
-90.00000000000163
 51
-71.56505117707867
  0
ARC
  5
156
330
1F
100
AcDbEntity
  8
1
  6
Continuous
 62
     7
100
AcDbCircle
 10
-232.1538313112239
 20
-137.810516363398
 30
0.0
 40
3.0
100
AcDbArc
 50
-90.0
 51
-60.25511870305797
  0
ARC
  5
157
330
1F
100
AcDbEntity
  8
1
  6
Continuous
 62
     7
100
AcDbCircle
 10
-231.8439709805052
 20
-214.810515613398
 30
0.0
 40
2.999999999999947
100
AcDbArc
 50
71.56505117707799
 51
89.99999999999837
  0
ARC
  5
158
330
1F
100
AcDbEntity
  8
1
  6
Continuous
 62
     7
100
AcDbCircle
 10
-232.1538313112239
 20
-223.810514863398
 30
0.0
 40
3.000000000000032
100
AcDbArc
 50
60.25511870305797
 51
90.0
  0
MTEXT
  5
15A
330
1F
100
AcDbEntity
  8
1
 62
     3
100
AcDbMText
 10
192.255145345684
 20
-312.848132294605
 30
0.0
 40
7.0
 41
0.0
 71
     5
 72
     1
  1
K3018
  7
CONVERTER_11
 73
     1
 44
1.32052821128451
  0
DIMENSION
  5
165
330
1F
100
AcDbEntity
  8
1
100
AcDbDimension
  2
*D1
 10
-208.067175154757
 20
-115.810515613398
 30
0.0
 11
-215.567175154757
 21
-86.8621858888566
 31
0.0
 70
    32
  1
<>
 71
     5
 42
-1.0
 53
90.0
  3
ME10_DIM_10
100
AcDbAlignedDimension
 13
-296.357138
 23
-55.810515613398
 33
0.0
 14
-288.857138
 24
-115.810515613398
 34
0.0
 50
90.0
100
AcDbRotatedDimension
  0
DIMENSION
  5
170
330
1F
100
AcDbEntity
  8
1
100
AcDbDimension
  2
*D2
 10
-336.357138
 20
-44.3984006514235
 30
0.0
 11
-316.968381768563
 21
-35.1484006514235
 31
0.0
 70
    32
  1
<>
 71
     5
 42
-1.0
 53
0.00013888888889
  3
ME10_DIM_11
100
AcDbAlignedDimension
 13
-296.357138
 23
-55.810515613398
 33
0.0
 14
-336.357138
 24
-55.810515613398
 34
0.0
100
AcDbRotatedDimension
  0
DIMENSION
  5
17D
330
1F
100
AcDbEntity
  8
1
100
AcDbDimension
  2
*D3
 10
-227.378935978406
 20
-117.810515613398
 30
0.0
 11
-234.878935978406
 21
-100.940855098954
 31
0.0
 70
    32
  1
<>
 71
     5
 42
-1.0
 53
90.0
  3
ME10_DIM_12
100
AcDbAlignedDimension
 13
-296.357138
 23
-115.810515613398
 33
0.0
 14
-288.857138
 24
-117.810515613398
 34
0.0
 50
90.0
100
AcDbRotatedDimension
  0
DIMENSION
  5
188
330
1F
100
AcDbEntity
  8
1
100
AcDbDimension
  2
*D4
 10
9.93357122589161
 20
-78.810515613398
 30
0.0
 11
2.43357122589161
 21
-93.4606683211524
 31
0.0
 70
    32
  1
<>
 71
     5
 42
-1.0
 53
90.0
  3
ME10_DIM_13
100
AcDbAlignedDimension
 13
32.64286199999998
 23
-107.810515613398
 33
0.0
 14
37.64286199999998
 24
-78.810515613398
 34
0.0
 50
90.0
100
AcDbRotatedDimension
  0
DIMENSION
  5
193
330
1F
100
AcDbEntity
  8
1
100
AcDbDimension
  2
*D5
 10
-37.175709804369
 20
-180.8105156133981
 30
0.0
 11
-44.675709804369
 21
-98.2398707445122
 31
0.0
 70
    32
  1
<>
 71
     5
 42
-1.0
 53
90.0
  3
ME10_DIM_14
100
AcDbAlignedDimension
 13
37.64286199999998
 23
-78.810515613398
 33
0.0
 14
-25.30454209814262
 24
-180.8105156133981
 34
0.0
 50
90.0
100
AcDbRotatedDimension
  0
DIMENSION
  5
19E
330
1F
100
AcDbEntity
  8
1
100
AcDbDimension
  2
*D6
 10
32.64286199999998
 20
-36.4414356057955
 30
0.0
 11
57.64286199999998
 21
-27.1914356057955
 31
0.0
 70
    32
  1
<>
 71
     5
 42
-1.0
 53
0.00013888888889
  3
ME10_DIM_15
100
AcDbAlignedDimension
 13
82.64286199999998
 23
-80.810515613398
 33
0.0
 14
32.64286199999998
 24
-80.810515613398
 34
0.0
100
AcDbRotatedDimension
  0
DIMENSION
  5
1A9
330
1F
100
AcDbEntity
  8
1
100
AcDbDimension
  2
*D7
 10
37.64286199999998
 20
-62.0443057309372
 30
0.0
 11
57.64286199999998
 21
-52.7943057309372
 31
0.0
 70
    32
  1
<>
 71
     5
 42
-1.0
 53
0.00013888888889
  3
ME10_DIM_16
100
AcDbAlignedDimension
 13
77.64286199999998
 23
-78.810515613398
 33
0.0
 14
37.64286199999998
 24
-78.810515613398
 34
0.0
100
AcDbRotatedDimension
  0
DIMENSION
  5
1B4
330
1F
100
AcDbEntity
  8
1
100
AcDbDimension
  2
*D8
 10
37.64286199999998
 20
-294.810823066433
 30
0.0
 11
57.64286199999998
 21
-285.560823066433
 31
0.0
 70
    32
  1
<>
 71
     5
 42
-1.0
 53
0.00013888888889
  3
ME10_DIM_17
100
AcDbAlignedDimension
 13
77.64286199999998
 23
-269.810515613398
 33
0.0
 14
37.64286199999998
 24
-269.810515613398
 34
0.0
100
AcDbRotatedDimension
  0
DIMENSION
  5
1C1
330
1F
100
AcDbEntity
  8
1
100
AcDbDimension
  2
*D9
 10
-37.51699600710299
 20
-251.810515613398
 30
0.0
 11
-45.01699600710299
 21
-240.929337614169
 31
0.0
 70
    32
  1
<>
 71
     5
 42
-1.0
 53
90.0
  3
ME10_DIM_18
100
AcDbAlignedDimension
 13
-24.35713800000002
 23
-234.810515613398
 33
0.0
 14
-27.35713800000002
 24
-251.810515613398
 34
0.0
 50
90.0
100
AcDbRotatedDimension
  0
DIMENSION
  5
1CC
330
1F
100
AcDbEntity
  8
1
100
AcDbDimension
  2
*D10
 10
-78.18573172216401
 20
-251.810515613398
 30
0.0
 11
-85.68573172216401
 21
-184.21697221335
 31
0.0
 70
    32
  1
<>
 71
     5
 42
-1.0
 53
90.0
  3
ME10_DIM_19
100
AcDbAlignedDimension
 13
4.64286199999992
 23
-117.810515613398
 33
0.0
 14
-27.35713800000002
 24
-251.810515613398
 34
0.0
 50
90.0
100
AcDbRotatedDimension
  0
DIMENSION
  5
1D9
330
1F
100
AcDbEntity
  8
1
100
AcDbDimension
  2
*D11
 10
-77.81262405505402
 20
-267.810515613398
 30
0.0
 11
-85.31262405505402
 21
-258.838505635481
 31
0.0
 70
    32
  1
<>
 71
     5
 42
-1.0
 53
90.0
  3
ME10_DIM_20
100
AcDbAlignedDimension
 13
-27.35713800000002
 23
-251.810515613398
 33
0.0
 14
-17.35713800000008
 24
-267.810515613398
 34
0.0
 50
90.0
100
AcDbRotatedDimension
  0
DIMENSION
  5
1E4
330
1F
100
AcDbEntity
  8
1
100
AcDbDimension
  2
*D12
 10
-336.357138
 20
-354.816543175809
 30
0.0
 11
-317.457753799389
 21
-345.566543175809
 31
0.0
 70
    32
  1
<>
 71
     5
 42
-1.0
 53
0.00013888888889
  3
ME10_DIM_21
100
AcDbAlignedDimension
 13
-296.357138
 23
-329.810515613398
 33
0.0
 14
-336.357138
 24
-329.810515613398
 34
0.0
100
AcDbRotatedDimension
  0
DIMENSION
  5
1EF
330
1F
100
AcDbEntity
  8
1
100
AcDbDimension
  2
*D13
 10
-205.822281647415
 20
-329.810515613398
 30
0.0
 11
-213.322281647415
 21
-304.616856101019
 31
0.0
 70
    32
  1
<>
 71
     5
 42
-1.0
 53
90.0
  3
ME10_DIM_22
100
AcDbAlignedDimension
 13
-296.357138
 23
-269.810515613398
 33
0.0
 14
-296.357138
 24
-329.810515613398
 34
0.0
 50
90.0
100
AcDbRotatedDimension
  0
DIMENSION
  5
1FC
330
1F
100
AcDbEntity
  8
1
100
AcDbDimension
  2
*D14
 10
-223.78142970615
 20
-269.810515613398
 30
0.0
 11
-231.28142970615
 21
-285.161112370722
 31
0.0
 70
    32
  1
<>
 71
     5
 42
-1.0
 53
90.0
  3
ME10_DIM_23
100
AcDbAlignedDimension
 13
-241.357138
 23
-267.810515613398
 33
0.0
 14
-288.857138
 24
-269.810515613398
 34
0.0
 50
90.0
100
AcDbRotatedDimension
  0
DIMENSION
  5
209
330
1F
100
AcDbEntity
  8
1
100
AcDbDimension
  2
*D15
 10
-451.812624055054
 20
-267.810515613398
 30
0.0
 11
-459.312624055054
 21
-258.838505635481
 31
0.0
 70
    32
  1
<>
 71
     5
 42
-1.0
 53
90.0
  3
ME10_DIM_24
100
AcDbAlignedDimension
 13
-401.357138
 23
-251.810515613398
 33
0.0
 14
-391.3571380000001
 24
-267.810515613398
 34
0.0
 50
90.0
100
AcDbRotatedDimension
  0
DIMENSION
  5
214
330
1F
100
AcDbEntity
  8
1
100
AcDbDimension
  2
*D16
 10
-452.185731722164
 20
-251.810515613398
 30
0.0
 11
-459.685731722164
 21
-184.21697221335
 31
0.0
 70
    32
  1
<>
 71
     5
 42
-1.0
 53
90.0
  3
ME10_DIM_25
100
AcDbAlignedDimension
 13
-369.3571380000001
 23
-117.810515613398
 33
0.0
 14
-401.357138
 24
-251.810515613398
 34
0.0
 50
90.0
100
AcDbRotatedDimension
  0
DIMENSION
  5
221
330
1F
100
AcDbEntity
  8
1
100
AcDbDimension
  2
*D17
 10
-411.516996007103
 20
-251.810515613398
 30
0.0
 11
-419.016996007103
 21
-240.929337614169
 31
0.0
 70
    32
  1
<>
 71
     5
 42
-1.0
 53
90.0
  3
ME10_DIM_26
100
AcDbAlignedDimension
 13
-398.357138
 23
-234.810515613398
 33
0.0
 14
-401.357138
 24
-251.810515613398
 34
0.0
 50
90.0
100
AcDbRotatedDimension
  0
DIMENSION
  5
22C
330
1F
100
AcDbEntity
  8
1
100
AcDbDimension
  2
*D18
 10
-257.697727379909
 20
-110.810515613398
 30
0.0
 11
-265.197727379909
 21
-84.8511354551963
 31
0.0
 70
    32
  1
<>
 71
     5
 42
-1.0
 53
90.0
  3
ME10_DIM_27
100
AcDbAlignedDimension
 13
-316.3571380000001
 23
-60.810515613398
 33
0.0
 14
-316.3571380000001
 24
-110.810515613398
 34
0.0
 50
90.0
100
AcDbRotatedDimension
  0
DIMENSION
  5
239
330
1F
100
AcDbEntity
  8
1
100
AcDbDimension
  2
*D19
 10
-257.697727379909
 20
-60.810515613398
 30
0.0
 11
-265.197727379909
 21
-45.9879252743316
 31
0.0
 70
    32
  1
<>
 71
     5
 42
-1.0
 53
90.0
  3
ME10_DIM_28
100
AcDbAlignedDimension
 13
-296.357138
 23
-55.810515613398
 33
0.0
 14
-316.3571380000001
 24
-60.810515613398
 34
0.0
 50
90.0
100
AcDbRotatedDimension
  0
DIMENSION
  5
246
330
1F
100
AcDbEntity
  8
1
100
AcDbDimension
  2
*D20
 10
-322.3571380000001
 20
-85.550073673545
 30
0.0
 11
-330.050709369227
 21
-78.050073673545
 31
0.0
 70
    32
  1
<>
 71
     5
 42
-1.0
 53
0.00013888888889
  3
ME10_DIM_29
100
AcDbAlignedDimension
 13
-310.3571380000001
 23
-66.810515613398
 33
0.0
 14
-322.3571380000001
 24
-66.810515613398
 34
0.0
100
AcDbRotatedDimension
  0
DIMENSION
  5
251
330
1F
100
AcDbEntity
  8
1
100
AcDbDimension
  2
*D21
 10
-259.511142699683
 20
-324.810515613398
 30
0.0
 11
-267.011142699683
 21
-299.335019965801
 31
0.0
 70
    32
  1
<>
 71
     5
 42
-1.0
 53
90.0
  3
ME10_DIM_30
100
AcDbAlignedDimension
 13
-316.357138
 23
-274.810515613398
 33
0.0
 14
-316.3571380000001
 24
-324.810515613398
 34
0.0
 50
90.0
100
AcDbRotatedDimension
  0
DIMENSION
  5
25E
330
1F
100
AcDbEntity
  8
1
100
AcDbDimension
  2
*D22
 10
-259.621275244062
 20
-329.810515613398
 30
0.0
 11
-267.121275244062
 21
-341.185386829823
 31
0.0
 70
    32
  1
<>
 71
     5
 42
-1.0
 53
90.0
  3
ME10_DIM_31
100
AcDbAlignedDimension
 13
-316.3571380000001
 23
-324.810515613398
 33
0.0
 14
-296.357138
 24
-329.810515613398
 34
0.0
 50
90.0
100
AcDbRotatedDimension
  0
DIMENSION
  5
26B
330
1F
100
AcDbEntity
  8
1
100
AcDbDimension
  2
*D23
 10
-322.3571380000001
 20
-306.130473414774
 30
0.0
 11
-330.056744029193
 21
-298.630473414774
 31
0.0
 70
    32
  1
<>
 71
     5
 42
-1.0
 53
0.00013888888889
  3
ME10_DIM_32
100
AcDbAlignedDimension
 13
-310.3571380000001
 23
-318.810515613398
 33
0.0
 14
-322.3571380000001
 24
-280.810515613398
 34
0.0
100
AcDbRotatedDimension
  0
ENDSEC
  0
SECTION
  2
OBJECTS
  0
DICTIONARY
  5
C
330
0
100
AcDbDictionary
281
     1
  3
ACAD_GROUP
350
D
  3
ACAD_LAYOUT
350
1A
  3
ACAD_MLINESTYLE
350
17
  3
ACAD_PLOTSETTINGS
350
19
  3
ACAD_PLOTSTYLENAME
350
E
  0
DICTIONARY
  5
D
102
{ACAD_REACTORS
330
C
102
}
330
C
100
AcDbDictionary
281
     1
  0
DICTIONARY
  5
1A
102
{ACAD_REACTORS
330
C
102
}
330
C
100
AcDbDictionary
281
     1
  3
Layout1
350
1E
  3
Layout2
350
26
  3
Model
350
22
  0
DICTIONARY
  5
17
102
{ACAD_REACTORS
330
C
102
}
330
C
100
AcDbDictionary
281
     1
  3
Standard
350
18
  0
DICTIONARY
  5
19
102
{ACAD_REACTORS
330
C
102
}
330
C
100
AcDbDictionary
281
     1
  0
ACDBDICTIONARYWDFLT
  5
E
102
{ACAD_REACTORS
330
C
102
}
330
C
100
AcDbDictionary
281
     1
  3
Normal
350
F
100
AcDbDictionaryWithDefault
340
F
  0
LAYOUT
  5
1E
102
{ACAD_REACTORS
330
1A
102
}
330
1A
100
AcDbPlotSettings
  1

  2

  4

  6

 40
0.0
 41
0.0
 42
0.0
 43
0.0
 44
0.0
 45
0.0
 46
0.0
 47
0.0
 48
0.0
 49
0.0
140
0.0
141
0.0
142
1.0
143
1.0
 70
   688
 72
     0
 73
     0
 74
     5
  7

 75
    16
 76
     0
 77
     2
 78
   300
147
1.0
148
0.0
149
0.0
100
AcDbLayout
  1
Layout1
 70
     1
 71
     1
 10
0.0
 20
0.0
 11
0.0
 21
0.0
 12
0.0
 22
0.0
 32
0.0
 14
0.0
 24
0.0
 34
0.0
 15
0.0
 25
0.0
 35
0.0
146
0.0
 13
0.0
 23
0.0
 33
0.0
 16
1.0
 26
0.0
 36
0.0
 17
0.0
 27
1.0
 37
0.0
 76
     0
330
1B
  0
LAYOUT
  5
26
102
{ACAD_REACTORS
330
1A
102
}
330
1A
100
AcDbPlotSettings
  1

  2

  4

  6

 40
0.0
 41
0.0
 42
0.0
 43
0.0
 44
0.0
 45
0.0
 46
0.0
 47
0.0
 48
0.0
 49
0.0
140
0.0
141
0.0
142
1.0
143
1.0
 70
   688
 72
     0
 73
     0
 74
     5
  7

 75
    16
 76
     0
 77
     2
 78
   300
147
1.0
148
0.0
149
0.0
100
AcDbLayout
  1
Layout2
 70
     1
 71
     2
 10
0.0
 20
0.0
 11
0.0
 21
0.0
 12
0.0
 22
0.0
 32
0.0
 14
0.0
 24
0.0
 34
0.0
 15
0.0
 25
0.0
 35
0.0
146
0.0
 13
0.0
 23
0.0
 33
0.0
 16
1.0
 26
0.0
 36
0.0
 17
0.0
 27
1.0
 37
0.0
 76
     0
330
23
  0
LAYOUT
  5
22
102
{ACAD_REACTORS
330
1A
102
}
330
1A
100
AcDbPlotSettings
  1

  2

  4

  6

 40
0.0
 41
0.0
 42
0.0
 43
0.0
 44
0.0
 45
0.0
 46
0.0
 47
0.0
 48
0.0
 49
0.0
140
0.0
141
0.0
142
1.0
143
1.0
 70
  1712
 72
     0
 73
     0
 74
     0
  7

 75
     0
 76
     0
 77
     2
 78
   300
147
1.0
148
0.0
149
0.0
100
AcDbLayout
  1
Model
 70
     1
 71
     0
 10
0.0
 20
0.0
 11
0.0
 21
0.0
 12
0.0
 22
0.0
 32
0.0
 14
-463.185731722164
 24
-356.816543175809
 34
0.0
 15
211.642862
 25
-21.9414356057955
 35
0.0
146
0.0
 13
0.0
 23
0.0
 33
0.0
 16
1.0
 26
0.0
 36
0.0
 17
0.0
 27
1.0
 37
0.0
 76
     0
330
1F
  0
MLINESTYLE
  5
18
102
{ACAD_REACTORS
330
17
102
}
330
17
100
AcDbMlineStyle
  2
Standard
 70
     0
  3

 62
   256
 51
90.0
 52
90.0
 71
     2
 49
0.5
 62
   256
  6
BYLAYER
 49
-0.5
 62
   256
  6
BYLAYER
  0
ACDBPLACEHOLDER
  5
F
102
{ACAD_REACTORS
330
E
102
}
330
E
  0
ENDSEC
  0
EOF
