  0
SECTION
  2
HEADER
  9
$ACADVER
  1
AC1018
  9
$ACADMAINTVER
 70
     0
  9
$DWGCODEPAGE
  3
ANSI_1252
  9
$INSBASE
 10
0.0
 20
0.0
 30
0.0
  9
$EXTMIN
 10
-198.880000000001
 20
-142.5
 30
0.0
  9
$EXTMAX
 10
205.0
 20
142.0
 30
0.0
  9
$LIMMIN
 10
0.0
 20
0.0
  9
$LIMMAX
 10
12.0
 20
9.0
  9
$ORTHOMODE
 70
     0
  9
$REGENMODE
 70
     1
  9
$FILLMODE
 70
     1
  9
$QTEXTMODE
 70
     0
  9
$MIRRTEXT
 70
     1
  9
$LTSCALE
 40
1.0
  9
$ATTMODE
 70
     1
  9
$TEXTSIZE
 40
0.2
  9
$TRACEWID
 40
0.05
  9
$TEXTSTYLE
  7
Standard
  9
$CLAYER
  8
0
  9
$CELTYPE
  6
ByLayer
  9
$CECOLOR
 62
   256
  9
$CELTSCALE
 40
1.0
  9
$DISPSILH
 70
     0
  9
$DIMSCALE
 40
1.0
  9
$DIMASZ
 40
0.18
  9
$DIMEXO
 40
0.0625
  9
$DIMDLI
 40
0.38
  9
$DIMRND
 40
0.0
  9
$DIMDLE
 40
0.0
  9
$DIMEXE
 40
0.18
  9
$DIMTP
 40
0.0
  9
$DIMTM
 40
0.0
  9
$DIMTXT
 40
0.18
  9
$DIMCEN
 40
0.09
  9
$DIMTSZ
 40
0.0
  9
$DIMTOL
 70
     0
  9
$DIMLIM
 70
     0
  9
$DIMTIH
 70
     1
  9
$DIMTOH
 70
     1
  9
$DIMSE1
 70
     0
  9
$DIMSE2
 70
     0
  9
$DIMTAD
 70
     0
  9
$DIMZIN
 70
     0
  9
$DIMBLK
  1

  9
$DIMASO
 70
     1
  9
$DIMSHO
 70
     1
  9
$DIMPOST
  1

  9
$DIMAPOST
  1

  9
$DIMALT
 70
     0
  9
$DIMALTD
 70
     2
  9
$DIMALTF
 40
25.4
  9
$DIMLFAC
 40
1.0
  9
$DIMTOFL
 70
     0
  9
$DIMTVP
 40
0.0
  9
$DIMTIX
 70
     0
  9
$DIMSOXD
 70
     0
  9
$DIMSAH
 70
     0
  9
$DIMBLK1
  1

  9
$DIMBLK2
  1

  9
$DIMSTYLE
  2
Standard
  9
$DIMCLRD
 70
     0
  9
$DIMCLRE
 70
     0
  9
$DIMCLRT
 70
     0
  9
$DIMTFAC
 40
1.0
  9
$DIMGAP
 40
0.09
  9
$DIMJUST
 70
     0
  9
$DIMSD1
 70
     0
  9
$DIMSD2
 70
     0
  9
$DIMTOLJ
 70
     1
  9
$DIMTZIN
 70
     0
  9
$DIMALTZ
 70
     0
  9
$DIMALTTZ
 70
     0
  9
$DIMUPT
 70
     0
  9
$DIMDEC
 70
     4
  9
$DIMTDEC
 70
     4
  9
$DIMALTU
 70
     2
  9
$DIMALTTD
 70
     2
  9
$DIMTXSTY
  7
Standard
  9
$DIMAUNIT
 70
     0
  9
$DIMADEC
 70
     0
  9
$DIMALTRND
 40
0.0
  9
$DIMAZIN
 70
     0
  9
$DIMDSEP
 70
    46
  9
$DIMATFIT
 70
     3
  9
$DIMFRAC
 70
     0
  9
$DIMLDRBLK
  1

  9
$DIMLUNIT
 70
     2
  9
$DIMLWD
 70
    -2
  9
$DIMLWE
 70
    -2
  9
$DIMTMOVE
 70
     0
  9
$LUNITS
 70
     2
  9
$LUPREC
 70
     4
  9
$SKETCHINC
 40
0.1
  9
$FILLETRAD
 40
0.5
  9
$AUNITS
 70
     0
  9
$AUPREC
 70
     0
  9
$MENU
  1
.
  9
$ELEVATION
 40
0.0
  9
$PELEVATION
 40
0.0
  9
$THICKNESS
 40
0.0
  9
$LIMCHECK
 70
     0
  9
$CHAMFERA
 40
0.5
  9
$CHAMFERB
 40
0.5
  9
$CHAMFERC
 40
1.0
  9
$CHAMFERD
 40
0.0
  9
$SKPOLY
 70
     0
  9
$TDCREATE
 40
2454966.449681493
  9
$TDUCREATE
 40
2454966.366348159
  9
$TDUPDATE
 40
2454966.449681505
  9
$TDUUPDATE
 40
2454966.366348171
  9
$TDINDWG
 40
0.0000000116
  9
$TDUSRTIMER
 40
0.0000000116
  9
$USRTIMER
 70
     1
  9
$ANGBASE
 50
0.0
  9
$ANGDIR
 70
     0
  9
$PDMODE
 70
     0
  9
$PDSIZE
 40
0.0
  9
$PLINEWID
 40
0.0
  9
$SPLFRAME
 70
     0
  9
$SPLINETYPE
 70
     6
  9
$SPLINESEGS
 70
     8
  9
$HANDSEED
  5
4CF
  9
$SURFTAB1
 70
     6
  9
$SURFTAB2
 70
     6
  9
$SURFTYPE
 70
     6
  9
$SURFU
 70
     6
  9
$SURFV
 70
     6
  9
$UCSBASE
  2

  9
$UCSNAME
  2

  9
$UCSORG
 10
0.0
 20
0.0
 30
0.0
  9
$UCSXDIR
 10
1.0
 20
0.0
 30
0.0
  9
$UCSYDIR
 10
0.0
 20
1.0
 30
0.0
  9
$UCSORTHOREF
  2

  9
$UCSORTHOVIEW
 70
     0
  9
$UCSORGTOP
 10
0.0
 20
0.0
 30
0.0
  9
$UCSORGBOTTOM
 10
0.0
 20
0.0
 30
0.0
  9
$UCSORGLEFT
 10
0.0
 20
0.0
 30
0.0
  9
$UCSORGRIGHT
 10
0.0
 20
0.0
 30
0.0
  9
$UCSORGFRONT
 10
0.0
 20
0.0
 30
0.0
  9
$UCSORGBACK
 10
0.0
 20
0.0
 30
0.0
  9
$PUCSBASE
  2

  9
$PUCSNAME
  2

  9
$PUCSORG
 10
0.0
 20
0.0
 30
0.0
  9
$PUCSXDIR
 10
1.0
 20
0.0
 30
0.0
  9
$PUCSYDIR
 10
0.0
 20
1.0
 30
0.0
  9
$PUCSORTHOREF
  2

  9
$PUCSORTHOVIEW
 70
     0
  9
$PUCSORGTOP
 10
0.0
 20
0.0
 30
0.0
  9
$PUCSORGBOTTOM
 10
0.0
 20
0.0
 30
0.0
  9
$PUCSORGLEFT
 10
0.0
 20
0.0
 30
0.0
  9
$PUCSORGRIGHT
 10
0.0
 20
0.0
 30
0.0
  9
$PUCSORGFRONT
 10
0.0
 20
0.0
 30
0.0
  9
$PUCSORGBACK
 10
0.0
 20
0.0
 30
0.0
  9
$USERI1
 70
     0
  9
$USERI2
 70
     0
  9
$USERI3
 70
     0
  9
$USERI4
 70
     0
  9
$USERI5
 70
     0
  9
$USERR1
 40
14.5
  9
$USERR2
 40
0.0
  9
$USERR3
 40
0.0
  9
$USERR4
 40
0.0
  9
$USERR5
 40
0.0
  9
$WORLDVIEW
 70
     1
  9
$SHADEDGE
 70
     3
  9
$SHADEDIF
 70
    70
  9
$TILEMODE
 70
     1
  9
$MAXACTVP
 70
    64
  9
$PINSBASE
 10
0.0
 20
0.0
 30
0.0
  9
$PLIMCHECK
 70
     0
  9
$PEXTMIN
 10
1.00000000000000E+20
 20
1.00000000000000E+20
 30
1.00000000000000E+20
  9
$PEXTMAX
 10
-1.00000000000000E+20
 20
-1.00000000000000E+20
 30
-1.00000000000000E+20
  9
$PLIMMIN
 10
0.0
 20
0.0
  9
$PLIMMAX
 10
12.0
 20
9.0
  9
$UNITMODE
 70
     0
  9
$VISRETAIN
 70
     1
  9
$PLINEGEN
 70
     0
  9
$PSLTSCALE
 70
     1
  9
$TREEDEPTH
 70
  3020
  9
$CMLSTYLE
  2
Standard
  9
$CMLJUST
 70
     0
  9
$CMLSCALE
 40
1.0
  9
$PROXYGRAPHICS
 70
     1
  9
$MEASUREMENT
 70
     1
  9
$CELWEIGHT
370
    -1
  9
$ENDCAPS
280
     0
  9
$JOINSTYLE
280
     0
  9
$LWDISPLAY
290
     0
  9
$INSUNITS
 70
     1
  9
$HYPERLINKBASE
  1

  9
$STYLESHEET
  1

  9
$XEDIT
290
     1
  9
$CEPSNTYPE
380
     0
  9
$PSTYLEMODE
290
     1
  9
$FINGERPRINTGUID
  2
{806E46B8-D591-4B8C-9155-906668A6EA26}
  9
$VERSIONGUID
  2
{FAEB1C32-E019-11D5-929B-00C0DF256EC4}
  9
$EXTNAMES
290
     1
  9
$PSVPSCALE
 40
0.0
  9
$OLESTARTUP
290
     0
  9
$SORTENTS
280
   127
  9
$INDEXCTL
280
     0
  9
$HIDETEXT
280
     1
  9
$XCLIPFRAME
290
     0
  9
$HALOGAP
280
     0
  9
$OBSCOLOR
 70
   257
  9
$OBSLTYPE
280
     0
  9
$INTERSECTIONDISPLAY
280
     0
  9
$INTERSECTIONCOLOR
 70
   257
  9
$DIMASSOC
280
     2
  9
$PROJECTNAME
  1

  0
ENDSEC
  0
SECTION
  2
CLASSES
  0
CLASS
  1
ACDBDICTIONARYWDFLT
  2
AcDbDictionaryWithDefault
  3
ObjectDBX Classes
 90
        0
 91
        3
280
     0
281
     0
  0
CLASS
  1

  2
exOdDbCircle
  3

 90
        0
 91
        3
280
     0
281
     1
  0
ENDSEC
  0
SECTION
  2
TABLES
  0
TABLE
  2
VPORT
  5
8
330
0
100
AcDbSymbolTable
 70
     1
  0
VPORT
  5
29
330
8
100
AcDbSymbolTableRecord
100
AcDbViewportTableRecord
  2
*Active
 70
     0
 10
0.0
 20
0.0
 11
1.0
 21
1.0
 12
3.0599999999995
 22
-0.25
 13
0.0
 23
0.0
 14
0.5
 24
0.5
 15
0.5
 25
0.5
 16
0.0
 26
0.0
 36
1.0
 17
0.0
 27
0.0
 37
0.0
 40
312.95
 41
1.60267857142857
 42
50.0
 43
0.0
 44
0.0
 50
0.0
 51
0.0
 71
     0
 72
   100
 73
     1
 74
     3
 75
     0
 76
     0
 77
     0
 78
     0
281
     0
 65
     1
110
0.0
120
0.0
130
0.0
111
1.0
121
0.0
131
0.0
112
0.0
122
1.0
132
0.0
 79
     0
146
0.0
  0
ENDTAB
  0
TABLE
  2
LTYPE
  5
5
330
0
100
AcDbSymbolTable
 70
     8
  0
LTYPE
  5
14
330
5
100
AcDbSymbolTableRecord
100
AcDbLinetypeTableRecord
  2
ByBlock
 70
     0
  3

 72
    65
 73
     0
 40
0.0
  0
LTYPE
  5
15
330
5
100
AcDbSymbolTableRecord
100
AcDbLinetypeTableRecord
  2
ByLayer
 70
     0
  3

 72
    65
 73
     0
 40
0.0
  0
LTYPE
  5
16
330
5
100
AcDbSymbolTableRecord
100
AcDbLinetypeTableRecord
  2
Continuous
 70
     0
  3
Solid line
 72
    65
 73
     0
 40
0.0
  0
LTYPE
  5
2A
330
5
100
AcDbSymbolTableRecord
100
AcDbLinetypeTableRecord
  2
DASHED
 70
     0
  3
Dashed
 72
    65
 73
     2
 40
15.0
 49
7.0
 74
     0
 49
-8.0
 74
     0
  0
LTYPE
  5
2B
330
5
100
AcDbSymbolTableRecord
100
AcDbLinetypeTableRecord
  2
DOTTED
 70
     0
  3
Dotted
 72
    65
 73
     2
 40
1.0
 49
0.0
 74
     0
 49
-1.0
 74
     0
  0
LTYPE
  5
2C
330
5
100
AcDbSymbolTableRecord
100
AcDbLinetypeTableRecord
  2
DOT_CENTER
 70
     0
  3
Dot_Center
 72
    65
 73
     4
 40
14.0
 49
12.0
 74
     0
 49
-1.0
 74
     0
 49
0.0
 74
     0
 49
-1.0
 74
     0
  0
LTYPE
  5
2D
330
5
100
AcDbSymbolTableRecord
100
AcDbLinetypeTableRecord
  2
LONG_DASHED
 70
     0
  3
Long_Dashed
 72
    65
 73
     2
 40
15.0
 49
10.0
 74
     0
 49
-5.0
 74
     0
  0
LTYPE
  5
2E
330
5
100
AcDbSymbolTableRecord
100
AcDbLinetypeTableRecord
  2
DASH_CENTER
 70
     0
  3
Dash_Center
 72
    65
 73
     4
 40
14.0
 49
11.0
 74
     0
 49
-1.0
 74
     0
 49
1.0
 74
     0
 49
-1.0
 74
     0
  0
LTYPE
  5
2F
330
5
100
AcDbSymbolTableRecord
100
AcDbLinetypeTableRecord
  2
PHANTOM
 70
     0
  3
Phantom
 72
    65
 73
     6
 40
13.0
 49
10.0
 74
     0
 49
-1.0
 74
     0
 49
0.0
 74
     0
 49
-1.0
 74
     0
 49
0.0
 74
     0
 49
-1.0
 74
     0
  0
LTYPE
  5
30
330
5
100
AcDbSymbolTableRecord
100
AcDbLinetypeTableRecord
  2
CENTER_DASH_DASH
 70
     0
  3
Center_Dash_Dash
 72
    65
 73
     6
 40
14.0
 49
9.0
 74
     0
 49
-1.0
 74
     0
 49
1.0
 74
     0
 49
-1.0
 74
     0
 49
1.0
 74
     0
 49
-1.0
 74
     0
  0
ENDTAB
  0
TABLE
  2
LAYER
  5
2
330
0
100
AcDbSymbolTable
 70
     3
  0
LAYER
  5
10
330
2
100
AcDbSymbolTableRecord
100
AcDbLayerTableRecord
  2
0
 70
     0
 62
     7
  6
Continuous
370
    -3
390
F
  0
LAYER
  5
31
330
2
100
AcDbSymbolTableRecord
100
AcDbLayerTableRecord
  2
1
 70
     0
 62
     7
  6
Continuous
370
    -3
390
F
  0
LAYER
  5
32
330
2
100
AcDbSymbolTableRecord
100
AcDbLayerTableRecord
  2
AM_VIS
 70
     0
 62
     7
  6
Continuous
370
    -3
390
F
  0
ENDTAB
  0
TABLE
  2
STYLE
  5
3
330
0
100
AcDbSymbolTable
 70
     6
  0
STYLE
  5
11
330
3
100
AcDbSymbolTableRecord
100
AcDbTextStyleTableRecord
  2
Standard
 70
     0
 40
0.0
 41
1.0
 50
0.0
 71
     0
 42
0.2
  3
txt
  4

  0
STYLE
  5
124
330
3
100
AcDbSymbolTableRecord
100
AcDbTextStyleTableRecord
  2
CONVERTER_11
 70
     0
 40
0.0
 41
0.72
 50
0.0
 71
     0
 42
0.2
  3
txt.shx
  4

  0
STYLE
  5
126
330
3
100
AcDbSymbolTableRecord
100
AcDbTextStyleTableRecord
  2
CONVERTER_12
 70
     0
 40
0.0
 41
0.9
 50
0.0
 71
     0
 42
0.2
  3
txt.shx
  4

  0
STYLE
  5
13C
330
3
100
AcDbSymbolTableRecord
100
AcDbTextStyleTableRecord
  2
CONVERTER_13
 70
     0
 40
0.0
 41
0.81
 50
0.0
 71
     0
 42
0.2
  3
txt.shx
  4

  0
STYLE
  5
144
330
3
100
AcDbSymbolTableRecord
100
AcDbTextStyleTableRecord
  2
CONVERTER_14
 70
     0
 40
0.0
 41
0.765
 50
0.0
 71
     0
 42
0.2
  3
txt.shx
  4

  0
STYLE
  5
14F
330
3
100
AcDbSymbolTableRecord
100
AcDbTextStyleTableRecord
  2
CONVERTER_15
 70
     0
 40
0.0
 41
0.855
 50
0.0
 71
     0
 42
0.2
  3
complex.shx
  4

  0
ENDTAB
  0
TABLE
  2
VIEW
  5
6
330
0
100
AcDbSymbolTable
 70
     0
  0
ENDTAB
  0
TABLE
  2
UCS
  5
7
330
0
100
AcDbSymbolTable
 70
     0
  0
ENDTAB
  0
TABLE
  2
APPID
  5
9
330
0
100
AcDbSymbolTable
 70
     1
  0
APPID
  5
12
330
9
100
AcDbSymbolTableRecord
100
AcDbRegAppTableRecord
  2
ACAD
 70
     0
  0
ENDTAB
  0
TABLE
  2
DIMSTYLE
  5
A
330
0
100
AcDbSymbolTable
 70
    16
100
AcDbDimStyleTable
  0
DIMSTYLE
105
27
330
A
100
AcDbSymbolTableRecord
100
AcDbDimStyleTableRecord
  2
Standard
 70
     0
340
11
  0
DIMSTYLE
105
401
102
{ACAD_REACTORS
330
402
102
}
330
A
100
AcDbSymbolTableRecord
100
AcDbDimStyleTableRecord
  2
ME10_DIM_10
 70
     0
  3
{\Fgdt;n}<>
 41
3.5
 42
0.0
 44
1.0
 48
-6.0
 71
     1
 73
     0
 74
     0
 77
     1
 78
     8
140
3.5
146
0.6
147
2.0
172
     1
173
     1
176
     2
177
     2
178
     3
271
     3
272
     0
340
124
  0
DIMSTYLE
105
40C
102
{ACAD_REACTORS
330
40D
102
}
330
A
100
AcDbSymbolTableRecord
100
AcDbDimStyleTableRecord
  2
ME10_DIM_11
 70
     0
  3
{\Fgdt;n}<>
 41
3.5
 42
0.0
 44
1.0
 48
-6.0
 71
     1
 73
     0
 74
     0
 77
     1
 78
     8
140
3.5
146
0.6
147
2.0
172
     1
173
     1
176
     2
177
     2
178
     3
271
     3
272
     0
340
124
  0
DIMSTYLE
105
417
102
{ACAD_REACTORS
330
418
102
}
330
A
100
AcDbSymbolTableRecord
100
AcDbDimStyleTableRecord
  2
ME10_DIM_12
 70
     0
 41
3.5
 42
0.0
 44
1.0
 73
     0
 74
     0
 77
     1
 78
     8
140
3.5
147
2.0
172
     1
173
     1
176
     2
177
     2
178
     3
271
     3
340
124
  0
DIMSTYLE
105
422
102
{ACAD_REACTORS
330
423
102
}
330
A
100
AcDbSymbolTableRecord
100
AcDbDimStyleTableRecord
  2
ME10_DIM_13
 70
     0
 41
3.5
 42
0.0
 44
1.0
 73
     0
 74
     0
 77
     1
 78
     8
140
3.5
147
2.0
172
     1
173
     1
176
     2
177
     2
178
     3
271
     3
340
124
  0
DIMSTYLE
105
42D
102
{ACAD_REACTORS
330
42E
102
}
330
A
100
AcDbSymbolTableRecord
100
AcDbDimStyleTableRecord
  2
ME10_DIM_14
 70
     0
  3
{\Fgdt;n}<>
 41
3.5
 42
0.0
 44
1.0
 73
     0
 74
     0
 77
     1
 78
     8
140
3.5
147
2.0
172
     1
173
     1
176
     2
177
     2
178
     3
271
     3
340
124
  0
DIMSTYLE
105
438
102
{ACAD_REACTORS
330
439
102
}
330
A
100
AcDbSymbolTableRecord
100
AcDbDimStyleTableRecord
  2
ME10_DIM_15
 70
     0
 41
3.5
 42
0.0
 44
1.0
 73
     0
 74
     0
 77
     1
 78
     8
140
3.5
147
2.0
172
     1
173
     1
176
     2
177
     2
178
     3
271
     3
340
124
  0
DIMSTYLE
105
443
102
{ACAD_REACTORS
330
444
102
}
330
A
100
AcDbSymbolTableRecord
100
AcDbDimStyleTableRecord
  2
ME10_DIM_16
 70
     0
 41
3.5
 42
0.0
 44
1.0
 73
     0
 74
     0
 77
     1
 78
     8
140
3.5
147
2.0
172
     1
173
     1
176
     2
177
     2
178
     3
271
     3
340
124
  0
DIMSTYLE
105
450
102
{ACAD_REACTORS
330
451
102
}
330
A
100
AcDbSymbolTableRecord
100
AcDbDimStyleTableRecord
  2
ME10_DIM_17
 70
     0
 41
3.5
 42
0.0
 44
1.0
 73
     0
 74
     0
 77
     1
 78
     8
140
3.5
147
2.0
172
     1
173
     1
176
     2
177
     2
178
     3
271
     3
340
124
  0
DIMSTYLE
105
45D
102
{ACAD_REACTORS
330
45E
102
}
330
A
100
AcDbSymbolTableRecord
100
AcDbDimStyleTableRecord
  2
ME10_DIM_18
 70
     0
 41
3.5
 42
0.0
 44
1.0
 73
     0
 74
     0
 77
     1
 78
     8
140
3.5
147
2.0
172
     1
173
     1
176
     2
177
     2
178
     3
271
     3
340
124
  0
DIMSTYLE
105
46A
102
{ACAD_REACTORS
330
46B
102
}
330
A
100
AcDbSymbolTableRecord
100
AcDbDimStyleTableRecord
  2
ME10_DIM_19
 70
     0
 41
3.5
 42
0.0
 44
1.0
 73
     0
 74
     0
 77
     1
 78
     8
140
3.5
147
2.0
172
     1
173
     1
176
     2
177
     2
178
     3
271
     3
340
124
  0
DIMSTYLE
105
475
102
{ACAD_REACTORS
330
476
102
}
330
A
100
AcDbSymbolTableRecord
100
AcDbDimStyleTableRecord
  2
ME10_DIM_20
 70
     0
 41
3.5
 42
0.0
 44
1.0
 73
     0
 74
     0
 77
     1
 78
     8
140
3.5
147
2.0
172
     1
173
     1
176
     2
177
     2
178
     3
271
     3
340
124
  0
DIMSTYLE
105
480
102
{ACAD_REACTORS
330
481
102
}
330
A
100
AcDbSymbolTableRecord
100
AcDbDimStyleTableRecord
  2
ME10_DIM_21
 70
     0
 41
3.5
 42
0.0
 44
1.0
 73
     0
 74
     0
 77
     1
 78
     8
140
3.5
147
2.0
172
     1
173
     1
176
     2
177
     2
178
     3
271
     3
340
124
  0
DIMSTYLE
105
48D
102
{ACAD_REACTORS
330
48E
102
}
330
A
100
AcDbSymbolTableRecord
100
AcDbDimStyleTableRecord
  2
ME10_DIM_22
 70
     0
 41
3.5
 42
0.0
 44
1.0
 73
     0
 74
     0
 77
     1
 78
     8
140
3.5
147
2.0
172
     1
173
     1
176
     2
177
     2
178
     3
271
     3
340
124
  0
DIMSTYLE
105
4C0
102
{ACAD_REACTORS
330
4C1
102
}
330
A
100
AcDbSymbolTableRecord
100
AcDbDimStyleTableRecord
  2
ME10_DIM_23
 70
     0
 41
3.5
 42
0.0
 44
1.0
 73
     0
 74
     0
 77
     1
 78
     8
140
3.5
147
2.0
172
     1
173
     1
176
     2
177
     2
178
     3
271
     3
340
124
  0
DIMSTYLE
105
4CD
102
{ACAD_REACTORS
330
4CE
102
}
330
A
100
AcDbSymbolTableRecord
100
AcDbDimStyleTableRecord
  2
ME10_DIM_24
 70
     0
 41
3.5
 42
0.0
 44
1.0
 73
     0
 74
     0
 77
     1
 78
     8
140
3.5
147
2.0
172
     1
173
     1
176
     2
177
     2
178
     3
271
     3
340
124
  0
ENDTAB
  0
TABLE
  2
BLOCK_RECORD
  5
1
330
0
100
AcDbSymbolTable
 70
    27
  0
BLOCK_RECORD
  5
1F
330
1
100
AcDbSymbolTableRecord
100
AcDbBlockTableRecord
  2
*Model_Space
340
22
  0
BLOCK_RECORD
  5
1B
330
1
100
AcDbSymbolTableRecord
100
AcDbBlockTableRecord
  2
*Paper_Space
340
1E
  0
BLOCK_RECORD
  5
23
330
1
100
AcDbSymbolTableRecord
100
AcDbBlockTableRecord
  2
*Paper_Space0
340
26
  0
BLOCK_RECORD
  5
33
330
1
100
AcDbSymbolTableRecord
100
AcDbBlockTableRecord
  2
tb_frame_A3
340
0
102
{BLKREFS
331
4A
102
}
  0
BLOCK_RECORD
  5
36
330
1
100
AcDbSymbolTableRecord
100
AcDbBlockTableRecord
  2
M2_5x6_DIN_7985
340
0
102
{BLKREFS
331
4B
102
}
  0
BLOCK_RECORD
  5
39
330
1
100
AcDbSymbolTableRecord
100
AcDbBlockTableRecord
  2
O-Ring
340
0
102
{BLKREFS
331
3D
102
}
  0
BLOCK_RECORD
  5
3C
330
1
100
AcDbSymbolTableRecord
100
AcDbBlockTableRecord
  2
Winkelflanschdose_8-polig_drehbar
340
0
102
{BLKREFS
331
4C
102
}
  0
BLOCK_RECORD
  5
40
330
1
100
AcDbSymbolTableRecord
100
AcDbBlockTableRecord
  2
Geh_use
340
0
102
{BLKREFS
331
44
102
}
  0
BLOCK_RECORD
  5
43
330
1
100
AcDbSymbolTableRecord
100
AcDbBlockTableRecord
  2
Lagerschild__1
340
0
102
{BLKREFS
331
4D
102
}
  0
BLOCK_RECORD
  5
47
330
1
100
AcDbSymbolTableRecord
100
AcDbBlockTableRecord
  2
Lagerschild__2
340
0
102
{BLKREFS
331
4E
102
}
  0
BLOCK_RECORD
  5
3F8
330
1
100
AcDbSymbolTableRecord
100
AcDbBlockTableRecord
  2
*D8
340
0
  0
BLOCK_RECORD
  5
403
330
1
100
AcDbSymbolTableRecord
100
AcDbBlockTableRecord
  2
*D9
340
0
  0
BLOCK_RECORD
  5
40E
330
1
100
AcDbSymbolTableRecord
100
AcDbBlockTableRecord
  2
*D10
340
0
  0
BLOCK_RECORD
  5
419
330
1
100
AcDbSymbolTableRecord
100
AcDbBlockTableRecord
  2
*D11
340
0
  0
BLOCK_RECORD
  5
424
330
1
100
AcDbSymbolTableRecord
100
AcDbBlockTableRecord
  2
*D12
340
0
  0
BLOCK_RECORD
  5
42F
330
1
100
AcDbSymbolTableRecord
100
AcDbBlockTableRecord
  2
*D13
340
0
  0
BLOCK_RECORD
  5
43A
330
1
100
AcDbSymbolTableRecord
100
AcDbBlockTableRecord
  2
*D14
340
0
  0
BLOCK_RECORD
  5
445
330
1
100
AcDbSymbolTableRecord
100
AcDbBlockTableRecord
  2
*D15
340
0
  0
BLOCK_RECORD
  5
452
330
1
100
AcDbSymbolTableRecord
100
AcDbBlockTableRecord
  2
*D16
340
0
  0
BLOCK_RECORD
  5
45F
330
1
100
AcDbSymbolTableRecord
100
AcDbBlockTableRecord
  2
*D17
340
0
  0
BLOCK_RECORD
  5
46C
330
1
100
AcDbSymbolTableRecord
100
AcDbBlockTableRecord
  2
*D18
340
0
  0
BLOCK_RECORD
  5
477
330
1
100
AcDbSymbolTableRecord
100
AcDbBlockTableRecord
  2
*D19
340
0
  0
BLOCK_RECORD
  5
482
330
1
100
AcDbSymbolTableRecord
100
AcDbBlockTableRecord
  2
*D20
340
0
  0
BLOCK_RECORD
  5
48F
330
1
100
AcDbSymbolTableRecord
100
AcDbBlockTableRecord
  2
*D21
340
0
102
{BLKREFS
331
496
102
}
  0
BLOCK_RECORD
  5
497
330
1
100
AcDbSymbolTableRecord
100
AcDbBlockTableRecord
  2
*D22
340
0
102
{BLKREFS
331
49E
102
}
  0
BLOCK_RECORD
  5
49F
330
1
100
AcDbSymbolTableRecord
100
AcDbBlockTableRecord
  2
*D23
340
0
102
{BLKREFS
331
4A8
102
}
  0
BLOCK_RECORD
  5
4A9
330
1
100
AcDbSymbolTableRecord
100
AcDbBlockTableRecord
  2
*D24
340
0
102
{BLKREFS
331
4B4
102
}
  0
BLOCK_RECORD
  5
4B5
330
1
100
AcDbSymbolTableRecord
100
AcDbBlockTableRecord
  2
*D25
340
0
  0
BLOCK_RECORD
  5
4C2
330
1
100
AcDbSymbolTableRecord
100
AcDbBlockTableRecord
  2
*D26
340
0
  0
ENDTAB
  0
ENDSEC
  0
SECTION
  2
BLOCKS
  0
BLOCK
  5
20
330
1F
100
AcDbEntity
  8
0
100
AcDbBlockBegin
  2
*Model_Space
 70
     0
 71
     0
 10
0.0
 20
0.0
 30
0.0
  3
*Model_Space
  1

  0
ENDBLK
  5
21
330
1F
100
AcDbEntity
  8
0
100
AcDbBlockEnd
  0
BLOCK
  5
1C
330
1B
100
AcDbEntity
 67
     1
  8
0
100
AcDbBlockBegin
  2
*Paper_Space
 70
     0
 71
     0
 10
0.0
 20
0.0
 30
0.0
  3
*Paper_Space
  1

  0
ENDBLK
  5
1D
330
1B
100
AcDbEntity
 67
     1
  8
0
100
AcDbBlockEnd
  0
BLOCK
  5
24
330
23
100
AcDbEntity
  8
0
100
AcDbBlockBegin
  2
*Paper_Space0
 70
     0
 71
     0
 10
0.0
 20
0.0
 30
0.0
  3
*Paper_Space0
  1

  0
ENDBLK
  5
25
330
23
100
AcDbEntity
  8
0
100
AcDbBlockEnd
  0
BLOCK
  5
34
330
33
100
AcDbEntity
  8
0
100
AcDbBlockBegin
  2
tb_frame_A3
 70
     0
 71
     0
 10
0.0
 20
0.0
 30
0.0
  3
tb_frame_A3
  1

  0
POINT
  5
4F
330
33
100
AcDbEntity
  8
1
 62
   250
100
AcDbPoint
 10
205.0
 20
-142.5
 30
0.0
  0
LINE
  5
50
330
33
100
AcDbEntity
  8
0
  6
Continuous
 62
     2
100
AcDbLine
 10
-198.880000000001
 20
0.00000000000001
 30
0.0
 11
-187.880000000001
 21
0.00000000000001
 31
0.0
  0
LINE
  5
51
330
33
100
AcDbEntity
  8
1
  6
Continuous
 62
     7
100
AcDbLine
 10
-187.880000000001
 20
142.0
 30
0.0
 11
-187.880000000001
 21
-142.5
 31
0.0
  0
LINE
  5
52
330
33
100
AcDbEntity
  8
1
  6
Continuous
 62
     7
100
AcDbLine
 10
205.0
 20
142.0
 30
0.0
 11
-187.880000000001
 21
142.0
 31
0.0
  0
LINE
  5
53
330
33
100
AcDbEntity
  8
1
  6
Continuous
 62
     7
100
AcDbLine
 10
205.0
 20
-142.5
 30
0.0
 11
205.0
 21
142.0
 31
0.0
  0
LINE
  5
54
330
33
100
AcDbEntity
  8
1
  6
Continuous
 62
     7
100
AcDbLine
 10
-187.880000000001
 20
-142.5
 30
0.0
 11
205.0
 21
-142.5
 31
0.0
  0
LINE
  5
55
330
33
100
AcDbEntity
  8
1
  6
Continuous
 62
     7
100
AcDbLine
 10
22.11999999999898
 20
-142.5
 30
0.0
 11
22.11999999999898
 21
-87.51000000000022
 31
0.0
  0
LINE
  5
56
330
33
100
AcDbEntity
  8
1
  6
Continuous
 62
     2
100
AcDbLine
 10
75.45999999999992
 20
-100.2000000000007
 30
0.0
 11
22.11999999999898
 21
-100.2000000000007
 31
0.0
  0
LINE
  5
57
330
33
100
AcDbEntity
  8
1
  6
Continuous
 62
     7
100
AcDbLine
 10
205.0
 20
-125.5799999999999
 30
0.0
 11
22.11999999999898
 21
-125.5799999999999
 31
0.0
  0
LINE
  5
58
330
33
100
AcDbEntity
  8
1
  6
Continuous
 62
     7
100
AcDbLine
 10
37.35999999999888
 20
-125.5799999999999
 30
0.0
 11
37.35999999999888
 21
-142.5
 31
0.0
  0
LINE
  5
59
330
33
100
AcDbEntity
  8
1
  6
Continuous
 62
     7
100
AcDbLine
 10
128.8000000000002
 20
-87.51000000000022
 30
0.0
 11
128.8000000000002
 21
-142.5
 31
0.0
  0
LINE
  5
5A
330
33
100
AcDbEntity
  8
1
  6
Continuous
 62
     7
100
AcDbLine
 10
128.8000000000002
 20
-91.73999999999978
 30
0.0
 11
205.0
 21
-91.73999999999978
 31
0.0
  0
LINE
  5
5B
330
33
100
AcDbEntity
  8
1
  6
Continuous
 62
     7
100
AcDbLine
 10
166.8999999999996
 20
-87.51000000000022
 30
0.0
 11
166.8999999999996
 21
-91.73999999999978
 31
0.0
  0
LINE
  5
5C
330
33
100
AcDbEntity
  8
1
  6
Continuous
 62
     7
100
AcDbLine
 10
128.8000000000002
 20
-138.2700000000004
 30
0.0
 11
205.0
 21
-138.2700000000004
 31
0.0
  0
LINE
  5
5D
330
33
100
AcDbEntity
  8
1
  6
Continuous
 62
     7
100
AcDbLine
 10
192.3000000000002
 20
-134.0400000000009
 30
0.0
 11
205.0
 21
-134.0400000000009
 31
0.0
  0
LINE
  5
5E
330
33
100
AcDbEntity
  8
1
  6
Continuous
 62
     7
100
AcDbLine
 10
192.3000000000002
 20
-125.5799999999999
 30
0.0
 11
192.3000000000002
 21
-138.2700000000004
 31
0.0
  0
LINE
  5
5F
330
33
100
AcDbEntity
  8
1
  6
Continuous
 62
     2
100
AcDbLine
 10
22.11999999999898
 20
-91.73999999999978
 30
0.0
 11
75.45999999999992
 21
-91.73999999999978
 31
0.0
  0
LINE
  5
60
330
33
100
AcDbEntity
  8
1
  6
Continuous
 62
     2
100
AcDbLine
 10
22.11999999999898
 20
-95.97000000000116
 30
0.0
 11
75.45999999999992
 21
-95.97000000000116
 31
0.0
  0
LINE
  5
61
330
33
100
AcDbEntity
  8
1
  6
Continuous
 62
     2
100
AcDbLine
 10
22.11999999999898
 20
-104.4300000000003
 30
0.0
 11
75.45999999999992
 21
-104.4300000000003
 31
0.0
  0
LINE
  5
62
330
33
100
AcDbEntity
  8
1
  6
Continuous
 62
     2
100
AcDbLine
 10
37.35999999999888
 20
-108.6599999999999
 30
0.0
 11
37.35999999999888
 21
-125.5799999999999
 31
0.0
  0
LINE
  5
63
330
33
100
AcDbEntity
  8
1
  6
Continuous
 62
     2
100
AcDbLine
 10
22.11999999999898
 20
-112.8899999999994
 30
0.0
 11
75.45999999999992
 21
-112.8899999999994
 31
0.0
  0
LINE
  5
64
330
33
100
AcDbEntity
  8
1
  6
Continuous
 62
     2
100
AcDbLine
 10
22.11999999999898
 20
-121.3500000000004
 30
0.0
 11
75.45999999999992
 21
-121.3500000000004
 31
0.0
  0
LINE
  5
65
330
33
100
AcDbEntity
  8
1
  6
Continuous
 62
     7
100
AcDbLine
 10
22.11999999999898
 20
-87.51000000000022
 30
0.0
 11
205.0
 21
-87.51000000000022
 31
0.0
  0
LINE
  5
66
330
33
100
AcDbEntity
  8
1
  6
Continuous
 62
     7
100
AcDbLine
 10
75.45999999999992
 20
-87.51000000000022
 30
0.0
 11
75.45999999999992
 21
-108.6599999999999
 31
0.0
  0
LINE
  5
67
330
33
100
AcDbEntity
  8
1
  6
Continuous
 62
     7
100
AcDbLine
 10
75.45999999999992
 20
-108.6599999999999
 30
0.0
 11
75.45999999999992
 21
-125.5799999999999
 31
0.0
  0
LINE
  5
68
330
33
100
AcDbEntity
  8
1
  6
Continuous
 62
     2
100
AcDbLine
 10
75.45999999999992
 20
-117.1200000000008
 30
0.0
 11
22.11999999999898
 21
-117.1200000000008
 31
0.0
  0
LINE
  5
69
330
33
100
AcDbEntity
  8
1
  6
Continuous
 62
     2
100
AcDbLine
 10
27.19999999999891
 20
-87.51000000000022
 30
0.0
 11
27.19999999999891
 21
-108.6599999999999
 31
0.0
  0
LINE
  5
6A
330
33
100
AcDbEntity
  8
1
  6
Continuous
 62
     2
100
AcDbLine
 10
42.43999999999869
 20
-87.51000000000022
 30
0.0
 11
42.43999999999869
 21
-108.6599999999999
 31
0.0
  0
LINE
  5
6B
330
33
100
AcDbEntity
  8
1
  6
Continuous
 62
     7
100
AcDbLine
 10
22.11999999999898
 20
-108.6599999999999
 30
0.0
 11
205.0
 21
-108.6599999999999
 31
0.0
  0
LINE
  5
6C
330
33
100
AcDbEntity
  8
1
  6
Continuous
 62
     2
100
AcDbLine
 10
60.21999999999832
 20
-87.51000000000022
 30
0.0
 11
60.21999999999832
 21
-108.6599999999999
 31
0.0
  0
LINE
  5
6D
330
33
100
AcDbEntity
  8
1
  6
Continuous
 62
     2
100
AcDbLine
 10
67.83999999999912
 20
-87.51000000000022
 30
0.0
 11
67.83999999999912
 21
-108.6599999999999
 31
0.0
  0
LINE
  5
6E
330
33
100
AcDbEntity
  8
1
  6
Continuous
 62
     7
100
AcDbLine
 10
102.1300000000001
 20
-87.51000000000022
 30
0.0
 11
102.1300000000001
 21
-108.6599999999999
 31
0.0
  0
LINE
  5
6F
330
33
100
AcDbEntity
  8
1
  6
Continuous
 62
     2
100
AcDbLine
 10
55.13999999999851
 20
-108.6599999999999
 30
0.0
 11
55.13999999999851
 21
-125.5799999999999
 31
0.0
  0
LINE
  5
70
102
{ACAD_REACTORS
330
155
330
155
102
}
330
33
100
AcDbEntity
  8
1
  6
Continuous
 62
     2
100
AcDbLine
 10
173.1516542509982
 20
-118.4199999999999
 30
0.0
 11
173.1516542509982
 21
-111.2199999999999
 31
0.0
  0
LINE
  5
71
102
{ACAD_REACTORS
330
159
330
159
102
}
330
33
100
AcDbEntity
  8
1
  6
Continuous
 62
     2
100
AcDbLine
 10
169.8516542509982
 20
-115.0950442138285
 30
0.0
 11
169.8516542509982
 21
-119.4199999999999
 31
0.0
  0
LINE
  5
72
102
{ACAD_REACTORS
330
159
330
159
102
}
330
33
100
AcDbEntity
  8
1
  6
Continuous
 62
     2
100
AcDbLine
 10
169.8516542509982
 20
-110.2199999999999
 30
0.0
 11
169.8516542509982
 21
-113.8826635858394
 31
0.0
  0
LINE
  5
73
102
{ACAD_REACTORS
330
159
330
159
102
}
330
33
100
AcDbEntity
  8
1
  6
Continuous
 62
     2
100
AcDbLine
 10
169.8516542509982
 20
-115.0950442138285
 30
0.0
 11
171.1024763583806
 21
-119.4199999999999
 31
0.0
  0
LINE
  5
74
102
{ACAD_REACTORS
330
159
330
159
102
}
330
33
100
AcDbEntity
  8
1
  6
Continuous
 62
     2
100
AcDbLine
 10
171.0854042804337
 20
-110.2199999999999
 30
0.0
 11
169.8516542509982
 21
-113.8826635858394
 31
0.0
  0
LINE
  5
75
102
{ACAD_REACTORS
330
159
330
159
102
}
330
33
100
AcDbEntity
  8
1
  6
Continuous
 62
     2
100
AcDbLine
 10
171.1024763583806
 20
-119.4199999999999
 30
0.0
 11
172.3516542509982
 21
-119.4199999999999
 31
0.0
  0
LINE
  5
76
102
{ACAD_REACTORS
330
159
330
159
102
}
330
33
100
AcDbEntity
  8
1
  6
Continuous
 62
     2
100
AcDbLine
 10
171.0854042804337
 20
-110.2199999999999
 30
0.0
 11
172.3516542509982
 21
-110.2199999999999
 31
0.0
  0
LINE
  5
77
102
{ACAD_REACTORS
330
159
330
159
102
}
330
33
100
AcDbEntity
  8
1
  6
Continuous
 62
     2
100
AcDbLine
 10
170.9200628688759
 20
-114.4699999999999
 30
0.0
 11
172.3516542509982
 21
-119.4199999999999
 31
0.0
  0
LINE
  5
78
102
{ACAD_REACTORS
330
159
330
159
102
}
330
33
100
AcDbEntity
  8
1
  6
Continuous
 62
     2
100
AcDbLine
 10
172.3516542509982
 20
-110.2199999999999
 30
0.0
 11
170.9200628688759
 21
-114.4699999999999
 31
0.0
  0
LINE
  5
79
102
{ACAD_REACTORS
330
156
330
156
102
}
330
33
100
AcDbEntity
  8
1
  6
Continuous
 62
     2
100
AcDbLine
 10
181.3516542509982
 20
-115.1199999999999
 30
0.0
 11
181.3516542509982
 21
-118.4199999999999
 31
0.0
  0
LINE
  5
7A
102
{ACAD_REACTORS
330
156
330
156
102
}
330
33
100
AcDbEntity
  8
1
  6
Continuous
 62
     2
100
AcDbLine
 10
181.3516542509982
 20
-113.8199999999999
 30
0.0
 11
181.3516542509982
 21
-111.2199999999999
 31
0.0
  0
LINE
  5
7B
102
{ACAD_REACTORS
330
154
330
154
102
}
330
33
100
AcDbEntity
  8
1
  6
Continuous
 62
     2
100
AcDbLine
 10
191.2516542509982
 20
-111.3199999999999
 30
0.0
 11
191.2516542509982
 21
-111.9699999999999
 31
0.0
  0
LINE
  5
7C
102
{ACAD_REACTORS
330
154
330
154
102
}
330
33
100
AcDbEntity
  8
1
  6
Continuous
 62
     2
100
AcDbLine
 10
191.2516542509982
 20
-111.3199999999999
 30
0.0
 11
191.9016542509982
 21
-111.3199999999999
 31
0.0
  0
LINE
  5
7D
102
{ACAD_REACTORS
330
15A
330
15A
102
}
330
33
100
AcDbEntity
  8
1
  6
Continuous
 62
     2
100
AcDbLine
 10
187.8516542509982
 20
-118.30758746051
 30
0.0
 11
189.2516542509982
 21
-118.30758746051
 31
0.0
  0
LINE
  5
7E
102
{ACAD_REACTORS
330
15A
330
15A
102
}
330
33
100
AcDbEntity
  8
1
  6
Continuous
 62
     2
100
AcDbLine
 10
187.8516542509982
 20
-110.2199999999999
 30
0.0
 11
187.8516542509982
 21
-118.30758746051
 31
0.0
  0
LINE
  5
7F
102
{ACAD_REACTORS
330
154
330
154
102
}
330
33
100
AcDbEntity
  8
1
  6
Continuous
 62
     2
100
AcDbLine
 10
191.2516542509982
 20
-118.30758746051
 30
0.0
 11
191.2516542509982
 21
-111.9699999999999
 31
0.0
  0
LINE
  5
80
102
{ACAD_REACTORS
330
154
330
154
102
}
330
33
100
AcDbEntity
  8
1
  6
Continuous
 62
     2
100
AcDbLine
 10
191.9016542509982
 20
-118.30758746051
 30
0.0
 11
191.2516542509982
 21
-118.30758746051
 31
0.0
  0
LINE
  5
81
102
{ACAD_REACTORS
330
154
330
154
102
}
330
33
100
AcDbEntity
  8
1
  6
Continuous
 62
     2
100
AcDbLine
 10
192.5516542509982
 20
-111.9699999999999
 30
0.0
 11
192.5516542509982
 21
-117.65758746051
 31
0.0
  0
LINE
  5
82
102
{ACAD_REACTORS
330
157
330
157
102
}
330
33
100
AcDbEntity
  8
1
  6
Continuous
 62
     2
100
AcDbLine
 10
183.3516542509982
 20
-117.65758746051
 30
0.0
 11
183.3516542509982
 21
-111.9699999999999
 31
0.0
  0
LINE
  5
83
102
{ACAD_REACTORS
330
157
330
157
102
}
330
33
100
AcDbEntity
  8
1
  6
Continuous
 62
     2
100
AcDbLine
 10
184.6516542509982
 20
-111.9699999999999
 30
0.0
 11
184.6516542509982
 21
-117.65758746051
 31
0.0
  0
LINE
  5
84
102
{ACAD_REACTORS
330
156
330
156
102
}
330
33
100
AcDbEntity
  8
1
  6
Continuous
 62
     2
100
AcDbLine
 10
178.8516542509982
 20
-115.0199999999999
 30
0.0
 11
179.5016542509982
 21
-115.0199999999999
 31
0.0
  0
LINE
  5
85
102
{ACAD_REACTORS
330
156
330
156
102
}
330
33
100
AcDbEntity
  8
1
  6
Continuous
 62
     2
100
AcDbLine
 10
178.8516542509982
 20
-111.3199999999999
 30
0.0
 11
178.8516542509982
 21
-113.9199999999999
 31
0.0
  0
LINE
  5
86
102
{ACAD_REACTORS
330
156
330
156
102
}
330
33
100
AcDbEntity
  8
1
  6
Continuous
 62
     2
100
AcDbLine
 10
180.1516542509982
 20
-117.65758746051
 30
0.0
 11
180.1516542509982
 21
-115.6699999999999
 31
0.0
  0
LINE
  5
87
102
{ACAD_REACTORS
330
156
330
156
102
}
330
33
100
AcDbEntity
  8
1
  6
Continuous
 62
     2
100
AcDbLine
 10
178.8516542509982
 20
-118.30758746051
 30
0.0
 11
179.5016542509982
 21
-118.30758746051
 31
0.0
  0
LINE
  5
88
102
{ACAD_REACTORS
330
156
330
156
102
}
330
33
100
AcDbEntity
  8
1
  6
Continuous
 62
     2
100
AcDbLine
 10
178.8516542509982
 20
-115.0199999999999
 30
0.0
 11
178.8516542509982
 21
-118.30758746051
 31
0.0
  0
LINE
  5
89
102
{ACAD_REACTORS
330
156
330
156
102
}
330
33
100
AcDbEntity
  8
1
  6
Continuous
 62
     2
100
AcDbLine
 10
179.5016542509982
 20
-113.9199999999999
 30
0.0
 11
178.8516542509982
 21
-113.9199999999999
 31
0.0
  0
LINE
  5
8A
102
{ACAD_REACTORS
330
156
330
156
102
}
330
33
100
AcDbEntity
  8
1
  6
Continuous
 62
     2
100
AcDbLine
 10
180.1516542509982
 20
-111.9699999999999
 30
0.0
 11
180.1516542509982
 21
-113.2699999999999
 31
0.0
  0
LINE
  5
8B
102
{ACAD_REACTORS
330
156
330
156
102
}
330
33
100
AcDbEntity
  8
1
  6
Continuous
 62
     2
100
AcDbLine
 10
178.8516542509982
 20
-111.3199999999999
 30
0.0
 11
179.5016542509982
 21
-111.3199999999999
 31
0.0
  0
LINE
  5
8C
102
{ACAD_REACTORS
330
155
330
155
102
}
330
33
100
AcDbEntity
  8
1
  6
Continuous
 62
     2
100
AcDbLine
 10
174.3516542509982
 20
-117.65758746051
 30
0.0
 11
174.3516542509982
 21
-111.9699999999999
 31
0.0
  0
LINE
  5
8D
102
{ACAD_REACTORS
330
155
330
155
102
}
330
33
100
AcDbEntity
  8
1
  6
Continuous
 62
     2
100
AcDbLine
 10
175.6516542509982
 20
-111.9699999999999
 30
0.0
 11
175.6516542509982
 21
-117.65758746051
 31
0.0
  0
LINE
  5
8E
102
{ACAD_REACTORS
330
152
330
152
102
}
330
33
100
AcDbEntity
  8
1
  6
Continuous
 62
     2
100
AcDbLine
 10
159.7415058473918
 20
-114.7199999999999
 30
0.0
 11
160.6516542509982
 21
-114.7199999999999
 31
0.0
  0
LINE
  5
8F
330
33
100
AcDbEntity
  8
1
  6
Continuous
 62
     2
100
AcDbLine
 10
158.9016542509982
 20
-114.7199999999999
 30
0.0
 11
159.7415058473918
 21
-114.7199999999999
 31
0.0
  0
LINE
  5
90
102
{ACAD_REACTORS
330
153
330
153
102
}
330
33
100
AcDbEntity
  8
1
  6
Continuous
 62
     2
100
AcDbLine
 10
153.6516542509982
 20
-115.4199999999999
 30
0.0
 11
153.6516542509982
 21
-119.4199999999999
 31
0.0
  0
LINE
  5
91
102
{ACAD_REACTORS
330
153
330
153
102
}
330
33
100
AcDbEntity
  8
1
  6
Continuous
 62
     2
100
AcDbLine
 10
154.3016542509982
 20
-115.4199999999999
 30
0.0
 11
153.6516542509982
 21
-115.4199999999999
 31
0.0
  0
LINE
  5
92
102
{ACAD_REACTORS
330
153
330
153
102
}
330
33
100
AcDbEntity
  8
1
  6
Continuous
 62
     2
100
AcDbLine
 10
153.6516542509982
 20
-114.2199999999999
 30
0.0
 11
154.3016542509982
 21
-114.2199999999999
 31
0.0
  0
LINE
  5
93
102
{ACAD_REACTORS
330
153
330
153
102
}
330
33
100
AcDbEntity
  8
1
  6
Continuous
 62
     2
100
AcDbLine
 10
153.6516542509982
 20
-111.3199999999999
 30
0.0
 11
153.6516542509982
 21
-114.2199999999999
 31
0.0
  0
LINE
  5
94
102
{ACAD_REACTORS
330
153
330
153
102
}
330
33
100
AcDbEntity
  8
1
  6
Continuous
 62
     2
100
AcDbLine
 10
153.6516542509982
 20
-111.3199999999999
 30
0.0
 11
154.3016542509982
 21
-111.3199999999999
 31
0.0
  0
LINE
  5
95
102
{ACAD_REACTORS
330
151
330
151
102
}
330
33
100
AcDbEntity
  8
1
  6
Continuous
 62
     2
100
AcDbLine
 10
142.5516542509982
 20
-113.3199999999999
 30
0.0
 11
143.7516542509982
 21
-113.3199999999999
 31
0.0
  0
LINE
  5
96
102
{ACAD_REACTORS
330
151
330
151
102
}
330
33
100
AcDbEntity
  8
1
  6
Continuous
 62
     2
100
AcDbLine
 10
142.5516542509982
 20
-111.9699999999999
 30
0.0
 11
142.5516542509982
 21
-113.3199999999999
 31
0.0
  0
LINE
  5
97
102
{ACAD_REACTORS
330
151
330
151
102
}
330
33
100
AcDbEntity
  8
1
  6
Continuous
 62
     2
100
AcDbLine
 10
141.2516542509982
 20
-117.65758746051
 30
0.0
 11
141.2516542509982
 21
-111.9699999999999
 31
0.0
  0
LINE
  5
98
102
{ACAD_REACTORS
330
151
330
151
102
}
330
33
100
AcDbEntity
  8
1
  6
Continuous
 62
     2
100
AcDbLine
 10
142.5516542509982
 20
-117.65758746051
 30
0.0
 11
142.5516542509982
 21
-115.9199999999999
 31
0.0
  0
LINE
  5
99
102
{ACAD_REACTORS
330
158
330
158
102
}
330
33
100
AcDbEntity
  8
1
  6
Continuous
 62
     2
100
AcDbLine
 10
149.1516542509982
 20
-111.9699999999999
 30
0.0
 11
149.1516542509982
 21
-117.65758746051
 31
0.0
  0
LINE
  5
9A
102
{ACAD_REACTORS
330
158
330
158
102
}
330
33
100
AcDbEntity
  8
1
  6
Continuous
 62
     2
100
AcDbLine
 10
150.4516542509982
 20
-111.9699999999999
 30
0.0
 11
150.4516542509982
 21
-117.65758746051
 31
0.0
  0
LINE
  5
9B
102
{ACAD_REACTORS
330
15B
330
15B
102
}
330
33
100
AcDbEntity
  8
1
  6
Continuous
 62
     2
100
AcDbLine
 10
147.1516542509982
 20
-111.3199999999999
 30
0.0
 11
147.1516542509982
 21
-110.2199999999999
 31
0.0
  0
LINE
  5
9C
102
{ACAD_REACTORS
330
15B
330
15B
102
}
330
33
100
AcDbEntity
  8
1
  6
Continuous
 62
     2
100
AcDbLine
 10
145.8516542509982
 20
-111.3199999999999
 30
0.0
 11
147.1516542509982
 21
-111.3199999999999
 31
0.0
  0
LINE
  5
9D
102
{ACAD_REACTORS
330
15C
330
15C
102
}
330
33
100
AcDbEntity
  8
1
  6
Continuous
 62
     2
100
AcDbLine
 10
163.4516542509982
 20
-119.4199999999999
 30
0.0
 11
164.6516542509982
 21
-119.4199999999999
 31
0.0
  0
LINE
  5
9E
102
{ACAD_REACTORS
330
152
330
152
102
}
330
33
100
AcDbEntity
  8
1
  6
Continuous
 62
     2
100
AcDbLine
 10
158.9016542509982
 20
-115.9199999999999
 30
0.0
 11
159.4516542509982
 21
-115.9199999999999
 31
0.0
  0
LINE
  5
9F
102
{ACAD_REACTORS
330
152
330
152
102
}
330
33
100
AcDbEntity
  8
1
  6
Continuous
 62
     2
100
AcDbLine
 10
158.9016542509982
 20
-114.7199999999999
 30
0.0
 11
158.9016542509982
 21
-115.9199999999999
 31
0.0
  0
LINE
  5
A0
102
{ACAD_REACTORS
330
152
330
152
102
}
330
33
100
AcDbEntity
  8
1
  6
Continuous
 62
     2
100
AcDbLine
 10
158.9016542509982
 20
-114.7199999999999
 30
0.0
 11
159.7415058473918
 21
-114.7199999999999
 31
0.0
  0
LINE
  5
A1
102
{ACAD_REACTORS
330
15D
330
15D
102
}
330
33
100
AcDbEntity
  8
1
  6
Continuous
 62
     2
100
AcDbLine
 10
161.4516542509982
 20
-110.2199999999999
 30
0.0
 11
161.4516542509982
 21
-119.4199999999999
 31
0.0
  0
LINE
  5
A2
102
{ACAD_REACTORS
330
15D
330
15D
102
}
330
33
100
AcDbEntity
  8
1
  6
Continuous
 62
     2
100
AcDbLine
 10
162.6516542509982
 20
-119.4199999999999
 30
0.0
 11
162.6516542509982
 21
-110.2199999999999
 31
0.0
  0
LINE
  5
A3
102
{ACAD_REACTORS
330
15C
330
15C
102
}
330
33
100
AcDbEntity
  8
1
  6
Continuous
 62
     2
100
AcDbLine
 10
163.4516542509982
 20
-110.2199999999999
 30
0.0
 11
163.4516542509982
 21
-119.4199999999999
 31
0.0
  0
LINE
  5
A4
102
{ACAD_REACTORS
330
15C
330
15C
102
}
330
33
100
AcDbEntity
  8
1
  6
Continuous
 62
     2
100
AcDbLine
 10
164.6516542509982
 20
-119.4199999999999
 30
0.0
 11
164.6516542509982
 21
-110.2199999999999
 31
0.0
  0
LINE
  5
A5
102
{ACAD_REACTORS
330
15D
330
15D
102
}
330
33
100
AcDbEntity
  8
1
  6
Continuous
 62
     2
100
AcDbLine
 10
161.4516542509982
 20
-119.4199999999999
 30
0.0
 11
162.6516542509982
 21
-119.4199999999999
 31
0.0
  0
LINE
  5
A6
102
{ACAD_REACTORS
330
15C
330
15C
102
}
330
33
100
AcDbEntity
  8
1
  6
Continuous
 62
     2
100
AcDbLine
 10
163.4516542509982
 20
-110.2199999999999
 30
0.0
 11
164.6516542509982
 21
-110.2199999999999
 31
0.0
  0
LINE
  5
A7
102
{ACAD_REACTORS
330
15D
330
15D
102
}
330
33
100
AcDbEntity
  8
1
  6
Continuous
 62
     2
100
AcDbLine
 10
161.4516542509982
 20
-110.2199999999999
 30
0.0
 11
162.6516542509982
 21
-110.2199999999999
 31
0.0
  0
LINE
  5
A8
102
{ACAD_REACTORS
330
153
330
153
102
}
330
33
100
AcDbEntity
  8
1
  6
Continuous
 62
     2
100
AcDbLine
 10
153.6516542509982
 20
-119.4199999999999
 30
0.0
 11
152.4516542509982
 21
-119.4199999999999
 31
0.0
  0
LINE
  5
A9
102
{ACAD_REACTORS
330
153
330
153
102
}
330
33
100
AcDbEntity
  8
1
  6
Continuous
 62
     2
100
AcDbLine
 10
154.9516542509982
 20
-119.4199999999999
 30
0.0
 11
156.1516542509982
 21
-119.4199999999999
 31
0.0
  0
LINE
  5
AA
102
{ACAD_REACTORS
330
153
330
153
102
}
330
33
100
AcDbEntity
  8
1
  6
Continuous
 62
     2
100
AcDbLine
 10
154.9516542509982
 20
-116.0699999999999
 30
0.0
 11
154.9516542509982
 21
-119.4199999999999
 31
0.0
  0
LINE
  5
AB
102
{ACAD_REACTORS
330
153
330
153
102
}
330
33
100
AcDbEntity
  8
1
  6
Continuous
 62
     2
100
AcDbLine
 10
154.9516542509982
 20
-113.5699999999999
 30
0.0
 11
154.9516542509982
 21
-111.9699999999999
 31
0.0
  0
LINE
  5
AC
102
{ACAD_REACTORS
330
152
330
152
102
}
330
33
100
AcDbEntity
  8
1
  6
Continuous
 62
     2
100
AcDbLine
 10
159.4516542509982
 20
-117.65758746051
 30
0.0
 11
159.4516542509982
 21
-115.9199999999999
 31
0.0
  0
LINE
  5
AD
102
{ACAD_REACTORS
330
152
330
152
102
}
330
33
100
AcDbEntity
  8
1
  6
Continuous
 62
     2
100
AcDbLine
 10
158.1516542509982
 20
-111.9699999999999
 30
0.0
 11
158.1516542509982
 21
-117.65758746051
 31
0.0
  0
LINE
  5
AE
102
{ACAD_REACTORS
330
152
330
152
102
}
330
33
100
AcDbEntity
  8
1
  6
Continuous
 62
     2
100
AcDbLine
 10
159.4516542509982
 20
-113.3199999999999
 30
0.0
 11
159.4516542509982
 21
-111.9699999999999
 31
0.0
  0
LINE
  5
AF
102
{ACAD_REACTORS
330
152
330
152
102
}
330
33
100
AcDbEntity
  8
1
  6
Continuous
 62
     2
100
AcDbLine
 10
160.1516542509982
 20
-119.4199999999999
 30
0.0
 11
159.8046153744343
 21
-118.8199999999999
 31
0.0
  0
LINE
  5
B0
102
{ACAD_REACTORS
330
152
330
152
102
}
330
33
100
AcDbEntity
  8
1
  6
Continuous
 62
     2
100
AcDbLine
 10
160.6516542509982
 20
-119.4199999999999
 30
0.0
 11
160.1516542509982
 21
-119.4199999999999
 31
0.0
  0
LINE
  5
B1
102
{ACAD_REACTORS
330
151
330
151
102
}
330
33
100
AcDbEntity
  8
1
  6
Continuous
 62
     2
100
AcDbLine
 10
141.0516542509982
 20
-110.2199999999999
 30
0.0
 11
142.7516542509982
 21
-110.2199999999999
 31
0.0
  0
LINE
  5
B2
102
{ACAD_REACTORS
330
151
330
151
102
}
330
33
100
AcDbEntity
  8
1
  6
Continuous
 62
     2
100
AcDbLine
 10
140.0516542509982
 20
-111.2199999999999
 30
0.0
 11
140.0516542509982
 21
-118.4199999999999
 31
0.0
  0
LINE
  5
B3
102
{ACAD_REACTORS
330
152
330
152
102
}
330
33
100
AcDbEntity
  8
1
  6
Continuous
 62
     2
100
AcDbLine
 10
156.9516542509982
 20
-118.4199999999999
 30
0.0
 11
156.9516542509982
 21
-111.2199999999999
 31
0.0
  0
LINE
  5
B4
102
{ACAD_REACTORS
330
152
330
152
102
}
330
33
100
AcDbEntity
  8
1
  6
Continuous
 62
     2
100
AcDbLine
 10
157.9516542509982
 20
-119.4199999999999
 30
0.0
 11
158.8173222162131
 21
-119.4199999999999
 31
0.0
  0
LINE
  5
B5
102
{ACAD_REACTORS
330
154
330
154
102
}
330
33
100
AcDbEntity
  8
1
  6
Continuous
 62
     2
100
AcDbLine
 10
193.7516542509982
 20
-111.2199999999999
 30
0.0
 11
193.7516542509982
 21
-118.4199999999999
 31
0.0
  0
LINE
  5
B6
102
{ACAD_REACTORS
330
154
330
154
102
}
330
33
100
AcDbEntity
  8
1
  6
Continuous
 62
     2
100
AcDbLine
 10
192.7516542509982
 20
-119.4199999999999
 30
0.0
 11
190.0516542509982
 21
-119.4199999999999
 31
0.0
  0
LINE
  5
B7
102
{ACAD_REACTORS
330
155
330
155
102
}
330
33
100
AcDbEntity
  8
1
  6
Continuous
 62
     2
100
AcDbLine
 10
176.8516542509982
 20
-111.2199999999999
 30
0.0
 11
176.8516542509982
 21
-118.4199999999999
 31
0.0
  0
LINE
  5
B8
102
{ACAD_REACTORS
330
154
330
154
102
}
330
33
100
AcDbEntity
  8
1
  6
Continuous
 62
     2
100
AcDbLine
 10
190.0516542509982
 20
-110.2199999999999
 30
0.0
 11
192.7516542509982
 21
-110.2199999999999
 31
0.0
  0
LINE
  5
B9
102
{ACAD_REACTORS
330
154
330
154
102
}
330
33
100
AcDbEntity
  8
1
  6
Continuous
 62
     2
100
AcDbLine
 10
190.0516542509982
 20
-119.4199999999999
 30
0.0
 11
190.0516542509982
 21
-110.2199999999999
 31
0.0
  0
LINE
  5
BA
102
{ACAD_REACTORS
330
15A
330
15A
102
}
330
33
100
AcDbEntity
  8
1
  6
Continuous
 62
     2
100
AcDbLine
 10
186.6516542509982
 20
-110.2199999999999
 30
0.0
 11
187.8516542509982
 21
-110.2199999999999
 31
0.0
  0
LINE
  5
BB
102
{ACAD_REACTORS
330
15A
330
15A
102
}
330
33
100
AcDbEntity
  8
1
  6
Continuous
 62
     2
100
AcDbLine
 10
189.2516542509982
 20
-119.4199999999999
 30
0.0
 11
189.2516542509982
 21
-118.30758746051
 31
0.0
  0
LINE
  5
BC
102
{ACAD_REACTORS
330
15A
330
15A
102
}
330
33
100
AcDbEntity
  8
1
  6
Continuous
 62
     2
100
AcDbLine
 10
186.6516542509982
 20
-119.4199999999999
 30
0.0
 11
189.2516542509982
 21
-119.4199999999999
 31
0.0
  0
LINE
  5
BD
102
{ACAD_REACTORS
330
15A
330
15A
102
}
330
33
100
AcDbEntity
  8
1
  6
Continuous
 62
     2
100
AcDbLine
 10
186.6516542509982
 20
-110.2199999999999
 30
0.0
 11
186.6516542509982
 21
-119.4199999999999
 31
0.0
  0
LINE
  5
BE
102
{ACAD_REACTORS
330
157
330
157
102
}
330
33
100
AcDbEntity
  8
1
  6
Continuous
 62
     2
100
AcDbLine
 10
183.1516542509982
 20
-110.2199999999999
 30
0.0
 11
184.8516542509982
 21
-110.2199999999999
 31
0.0
  0
LINE
  5
BF
102
{ACAD_REACTORS
330
157
330
157
102
}
330
33
100
AcDbEntity
  8
1
  6
Continuous
 62
     2
100
AcDbLine
 10
185.8516542509982
 20
-111.2199999999999
 30
0.0
 11
185.8516542509982
 21
-118.4199999999999
 31
0.0
  0
LINE
  5
C0
102
{ACAD_REACTORS
330
157
330
157
102
}
330
33
100
AcDbEntity
  8
1
  6
Continuous
 62
     2
100
AcDbLine
 10
183.1516542509982
 20
-119.4199999999999
 30
0.0
 11
184.8516542509982
 21
-119.4199999999999
 31
0.0
  0
LINE
  5
C1
102
{ACAD_REACTORS
330
157
330
157
102
}
330
33
100
AcDbEntity
  8
1
  6
Continuous
 62
     2
100
AcDbLine
 10
182.1516542509982
 20
-111.2199999999999
 30
0.0
 11
182.1516542509982
 21
-118.4199999999999
 31
0.0
  0
LINE
  5
C2
102
{ACAD_REACTORS
330
156
330
156
102
}
330
33
100
AcDbEntity
  8
1
  6
Continuous
 62
     2
100
AcDbLine
 10
177.6516542509982
 20
-119.4199999999999
 30
0.0
 11
180.3516542509982
 21
-119.4199999999999
 31
0.0
  0
LINE
  5
C3
102
{ACAD_REACTORS
330
156
330
156
102
}
330
33
100
AcDbEntity
  8
1
  6
Continuous
 62
     2
100
AcDbLine
 10
180.3516542509982
 20
-110.2199999999999
 30
0.0
 11
177.6516542509982
 21
-110.2199999999999
 31
0.0
  0
LINE
  5
C4
102
{ACAD_REACTORS
330
156
330
156
102
}
330
33
100
AcDbEntity
  8
1
  6
Continuous
 62
     2
100
AcDbLine
 10
177.6516542509982
 20
-110.2199999999999
 30
0.0
 11
177.6516542509982
 21
-119.4199999999999
 31
0.0
  0
LINE
  5
C5
102
{ACAD_REACTORS
330
155
330
155
102
}
330
33
100
AcDbEntity
  8
1
  6
Continuous
 62
     2
100
AcDbLine
 10
174.1516542509982
 20
-119.4199999999999
 30
0.0
 11
175.8516542509982
 21
-119.4199999999999
 31
0.0
  0
LINE
  5
C6
102
{ACAD_REACTORS
330
155
330
155
102
}
330
33
100
AcDbEntity
  8
1
  6
Continuous
 62
     2
100
AcDbLine
 10
174.1516542509982
 20
-110.2199999999999
 30
0.0
 11
175.8516542509982
 21
-110.2199999999999
 31
0.0
  0
LINE
  5
C7
330
33
100
AcDbEntity
  8
1
  6
Continuous
 62
     2
100
AcDbLine
 10
168.6516542509982
 20
-119.4199999999999
 30
0.0
 11
169.8516542509982
 21
-119.4199999999999
 31
0.0
  0
LINE
  5
C8
102
{ACAD_REACTORS
330
159
330
159
102
}
330
33
100
AcDbEntity
  8
1
  6
Continuous
 62
     2
100
AcDbLine
 10
168.6516542509982
 20
-119.4199999999999
 30
0.0
 11
168.6516542509982
 21
-110.2199999999999
 31
0.0
  0
LINE
  5
C9
102
{ACAD_REACTORS
330
159
330
159
102
}
330
33
100
AcDbEntity
  8
1
  6
Continuous
 62
     2
100
AcDbLine
 10
168.6516542509982
 20
-119.4199999999999
 30
0.0
 11
169.8516542509982
 21
-119.4199999999999
 31
0.0
  0
LINE
  5
CA
102
{ACAD_REACTORS
330
159
330
159
102
}
330
33
100
AcDbEntity
  8
1
  6
Continuous
 62
     2
100
AcDbLine
 10
168.6516542509982
 20
-110.2199999999999
 30
0.0
 11
169.8516542509982
 21
-110.2199999999999
 31
0.0
  0
LINE
  5
CB
102
{ACAD_REACTORS
330
152
330
152
102
}
330
33
100
AcDbEntity
  8
1
  6
Continuous
 62
     2
100
AcDbLine
 10
160.6516542509982
 20
-113.3199999999999
 30
0.0
 11
160.6516542509983
 21
-111.2199999999999
 31
0.0
  0
LINE
  5
CC
102
{ACAD_REACTORS
330
152
330
152
102
}
330
33
100
AcDbEntity
  8
1
  6
Continuous
 62
     2
100
AcDbLine
 10
160.6516542509982
 20
-113.3199999999999
 30
0.0
 11
159.4516542509982
 21
-113.3199999999999
 31
0.0
  0
LINE
  5
CD
102
{ACAD_REACTORS
330
152
330
152
102
}
330
33
100
AcDbEntity
  8
1
  6
Continuous
 62
     2
100
AcDbLine
 10
160.6516542509982
 20
-119.4199999999999
 30
0.0
 11
160.6516542509982
 21
-114.7199999999999
 31
0.0
  0
LINE
  5
CE
102
{ACAD_REACTORS
330
152
330
152
102
}
330
33
100
AcDbEntity
  8
1
  6
Continuous
 62
     2
100
AcDbLine
 10
157.9516542509982
 20
-110.2199999999999
 30
0.0
 11
159.6516542509982
 21
-110.2199999999999
 31
0.0
  0
LINE
  5
CF
102
{ACAD_REACTORS
330
153
330
153
102
}
330
33
100
AcDbEntity
  8
1
  6
Continuous
 62
     2
100
AcDbLine
 10
156.1516542509982
 20
-115.6603414185126
 30
0.0
 11
156.1516542509982
 21
-119.4199999999999
 31
0.0
  0
LINE
  5
D0
102
{ACAD_REACTORS
330
153
330
153
102
}
330
33
100
AcDbEntity
  8
1
  6
Continuous
 62
     2
100
AcDbLine
 10
156.1516542509982
 20
-114.0043621302671
 30
0.0
 11
156.1516542509982
 21
-111.2199999999999
 31
0.0
  0
LINE
  5
D1
102
{ACAD_REACTORS
330
153
330
153
102
}
330
33
100
AcDbEntity
  8
1
  6
Continuous
 62
     2
100
AcDbLine
 10
152.4516542509982
 20
-110.2199999999999
 30
0.0
 11
155.1516542509982
 21
-110.2199999999999
 31
0.0
  0
LINE
  5
D2
102
{ACAD_REACTORS
330
153
330
153
102
}
330
33
100
AcDbEntity
  8
1
  6
Continuous
 62
     2
100
AcDbLine
 10
152.4516542509982
 20
-110.2199999999999
 30
0.0
 11
152.4516542509982
 21
-119.4199999999999
 31
0.0
  0
LINE
  5
D3
102
{ACAD_REACTORS
330
158
330
158
102
}
330
33
100
AcDbEntity
  8
1
  6
Continuous
 62
     2
100
AcDbLine
 10
151.6516542509982
 20
-111.2199999999999
 30
0.0
 11
151.6516542509982
 21
-118.4199999999999
 31
0.0
  0
LINE
  5
D4
102
{ACAD_REACTORS
330
158
330
158
102
}
330
33
100
AcDbEntity
  8
1
  6
Continuous
 62
     2
100
AcDbLine
 10
147.9516542509982
 20
-111.2199999999999
 30
0.0
 11
147.9516542509982
 21
-118.4199999999999
 31
0.0
  0
LINE
  5
D5
102
{ACAD_REACTORS
330
158
330
158
102
}
330
33
100
AcDbEntity
  8
1
  6
Continuous
 62
     2
100
AcDbLine
 10
150.6516542509982
 20
-119.4199999999999
 30
0.0
 11
148.9516542509982
 21
-119.4199999999999
 31
0.0
  0
LINE
  5
D6
102
{ACAD_REACTORS
330
158
330
158
102
}
330
33
100
AcDbEntity
  8
1
  6
Continuous
 62
     2
100
AcDbLine
 10
148.9516542509982
 20
-110.2199999999999
 30
0.0
 11
150.6516542509982
 21
-110.2199999999999
 31
0.0
  0
LINE
  5
D7
102
{ACAD_REACTORS
330
151
330
151
102
}
330
33
100
AcDbEntity
  8
1
  6
Continuous
 62
     2
100
AcDbLine
 10
141.0516542509982
 20
-119.4199999999999
 30
0.0
 11
141.9016542509982
 21
-119.4199999999999
 31
0.0
  0
LINE
  5
D8
102
{ACAD_REACTORS
330
151
330
151
102
}
330
33
100
AcDbEntity
  8
1
  6
Continuous
 62
     2
100
AcDbLine
 10
143.2516542509982
 20
-119.4199999999999
 30
0.0
 11
142.9048783308657
 21
-118.8199999999999
 31
0.0
  0
LINE
  5
D9
102
{ACAD_REACTORS
330
151
330
151
102
}
330
33
100
AcDbEntity
  8
1
  6
Continuous
 62
     2
100
AcDbLine
 10
143.7516542509982
 20
-114.7199999999999
 30
0.0
 11
143.7516542509982
 21
-119.4199999999999
 31
0.0
  0
LINE
  5
DA
102
{ACAD_REACTORS
330
15B
330
15B
102
}
330
33
100
AcDbEntity
  8
1
  6
Continuous
 62
     2
100
AcDbLine
 10
147.1516542509982
 20
-119.4199999999999
 30
0.0
 11
147.1516542509982
 21
-118.30758746051
 31
0.0
  0
LINE
  5
DB
102
{ACAD_REACTORS
330
15B
330
15B
102
}
330
33
100
AcDbEntity
  8
1
  6
Continuous
 62
     2
100
AcDbLine
 10
144.5516542509982
 20
-119.4199999999999
 30
0.0
 11
147.1516542509982
 21
-119.4199999999999
 31
0.0
  0
LINE
  5
DC
102
{ACAD_REACTORS
330
15B
330
15B
102
}
330
33
100
AcDbEntity
  8
1
  6
Continuous
 62
     2
100
AcDbLine
 10
144.5516542509982
 20
-110.2199999999999
 30
0.0
 11
144.5516542509982
 21
-119.4199999999999
 31
0.0
  0
LINE
  5
DD
102
{ACAD_REACTORS
330
15B
330
15B
102
}
330
33
100
AcDbEntity
  8
1
  6
Continuous
 62
     2
100
AcDbLine
 10
147.1516542509982
 20
-110.2199999999999
 30
0.0
 11
144.5516542509982
 21
-110.2199999999999
 31
0.0
  0
LINE
  5
DE
102
{ACAD_REACTORS
330
151
330
151
102
}
330
33
100
AcDbEntity
  8
1
  6
Continuous
 62
     2
100
AcDbLine
 10
143.7516542509982
 20
-111.2199999999999
 30
0.0
 11
143.7516542509982
 21
-113.3199999999999
 31
0.0
  0
LINE
  5
DF
102
{ACAD_REACTORS
330
151
330
151
102
}
330
33
100
AcDbEntity
  8
1
  6
Continuous
 62
     2
100
AcDbLine
 10
143.7516542509982
 20
-119.4199999999999
 30
0.0
 11
143.2516542509982
 21
-119.4199999999999
 31
0.0
  0
LINE
  5
E0
102
{ACAD_REACTORS
330
151
330
151
102
}
330
33
100
AcDbEntity
  8
1
  6
Continuous
 62
     2
100
AcDbLine
 10
141.9927287849846
 20
-114.7199999999999
 30
0.0
 11
141.9927287849846
 21
-115.9199999999999
 31
0.0
  0
LINE
  5
E1
102
{ACAD_REACTORS
330
151
330
151
102
}
330
33
100
AcDbEntity
  8
1
  6
Continuous
 62
     2
100
AcDbLine
 10
141.9927287849846
 20
-114.7199999999999
 30
0.0
 11
143.7516542509982
 21
-114.7199999999999
 31
0.0
  0
LINE
  5
E2
330
33
100
AcDbEntity
  8
1
  6
Continuous
 62
     2
100
AcDbLine
 10
141.9927287849846
 20
-115.9199999999999
 30
0.0
 11
142.2516542509982
 21
-115.9199999999999
 31
0.0
  0
LINE
  5
E3
102
{ACAD_REACTORS
330
151
330
151
102
}
330
33
100
AcDbEntity
  8
1
  6
Continuous
 62
     2
100
AcDbLine
 10
141.9927287849846
 20
-115.9199999999999
 30
0.0
 11
142.5516542509982
 21
-115.9199999999999
 31
0.0
  0
LINE
  5
E4
102
{ACAD_REACTORS
330
15B
330
15B
102
}
330
33
100
AcDbEntity
  8
1
  6
Continuous
 62
     2
100
AcDbLine
 10
145.8516542509982
 20
-111.3199999999999
 30
0.0
 11
145.8516542509982
 21
-113.9199999999999
 31
0.0
  0
LINE
  5
E5
102
{ACAD_REACTORS
330
15B
330
15B
102
}
330
33
100
AcDbEntity
  8
1
  6
Continuous
 62
     2
100
AcDbLine
 10
145.8516542509982
 20
-118.30758746051
 30
0.0
 11
147.1516542509982
 21
-118.30758746051
 31
0.0
  0
LINE
  5
E6
102
{ACAD_REACTORS
330
15B
330
15B
102
}
330
33
100
AcDbEntity
  8
1
  6
Continuous
 62
     2
100
AcDbLine
 10
145.8516542509982
 20
-113.9199999999999
 30
0.0
 11
147.1516542509982
 21
-113.9199999999999
 31
0.0
  0
LINE
  5
E7
102
{ACAD_REACTORS
330
15B
330
15B
102
}
330
33
100
AcDbEntity
  8
1
  6
Continuous
 62
     2
100
AcDbLine
 10
147.1516542509982
 20
-113.9199999999999
 30
0.0
 11
147.1516542509982
 21
-115.0199999999999
 31
0.0
  0
LINE
  5
E8
102
{ACAD_REACTORS
330
15B
330
15B
102
}
330
33
100
AcDbEntity
  8
1
  6
Continuous
 62
     2
100
AcDbLine
 10
145.8516542509982
 20
-115.0199999999999
 30
0.0
 11
147.1516542509982
 21
-115.0199999999999
 31
0.0
  0
LINE
  5
E9
102
{ACAD_REACTORS
330
15B
330
15B
102
}
330
33
100
AcDbEntity
  8
1
  6
Continuous
 62
     2
100
AcDbLine
 10
145.8516542509982
 20
-115.0199999999999
 30
0.0
 11
145.8516542509982
 21
-118.30758746051
 31
0.0
  0
ARC
  5
EA
102
{ACAD_REACTORS
330
156
330
156
102
}
330
33
100
AcDbEntity
  8
1
  6
Continuous
 62
     2
100
AcDbCircle
 10
180.7016542509982
 20
-115.1199999999999
 30
0.0
 40
0.6500000000000057
100
AcDbArc
 50
0.0
 51
90.0
  0
ARC
  5
EB
102
{ACAD_REACTORS
330
156
330
156
102
}
330
33
100
AcDbEntity
  8
1
  6
Continuous
 62
     2
100
AcDbCircle
 10
180.7016542509982
 20
-113.8199999999999
 30
0.0
 40
0.6500000000000057
100
AcDbArc
 50
-90.0
 51
0.0
  0
ARC
  5
EC
102
{ACAD_REACTORS
330
152
330
152
102
}
330
33
100
AcDbEntity
  8
1
  6
Continuous
 62
     2
100
AcDbCircle
 10
158.8327793484388
 20
-118.3331447179281
 30
0.0
 40
1.086965191302833
100
AcDbArc
 50
-90.8147991292736
 51
-26.60924039545096
  0
ARC
  5
ED
102
{ACAD_REACTORS
330
153
330
153
102
}
330
33
100
AcDbEntity
  8
1
  6
Continuous
 62
     2
100
AcDbCircle
 10
155.3161055621215
 20
-115.6535223168009
 30
0.0
 40
0.8355765145285912
100
AcDbArc
 50
-0.46759342609272
 51
85.98158622994607
  0
ARC
  5
EE
102
{ACAD_REACTORS
330
153
330
153
102
}
330
33
100
AcDbEntity
  8
1
  6
Continuous
 62
     2
100
AcDbCircle
 10
155.3000342667233
 20
-113.9710002560295
 30
0.0
 40
0.8522732028340286
100
AcDbArc
 50
-84.9766809757147
 51
-2.24339224114474
  0
ARC
  5
EF
102
{ACAD_REACTORS
330
151
330
151
102
}
330
33
100
AcDbEntity
  8
1
  6
Continuous
 62
     2
100
AcDbCircle
 10
141.9264261003899
 20
-118.3227040643326
 30
0.0
 40
1.097575516743276
100
AcDbArc
 50
-91.2932531058712
 51
-26.94184191294435
  0
ARC
  5
F0
102
{ACAD_REACTORS
330
156
330
156
102
}
330
33
100
AcDbEntity
  8
1
  6
Continuous
 62
     2
100
AcDbCircle
 10
179.5016542509982
 20
-117.65758746051
 30
0.0
 40
0.6500000000000057
100
AcDbArc
 50
-90.0
 51
0.0
  0
ARC
  5
F1
102
{ACAD_REACTORS
330
156
330
156
102
}
330
33
100
AcDbEntity
  8
1
  6
Continuous
 62
     2
100
AcDbCircle
 10
179.5016542509982
 20
-115.6699999999999
 30
0.0
 40
0.6500000000000057
100
AcDbArc
 50
0.0
 51
90.0
  0
ARC
  5
F2
102
{ACAD_REACTORS
330
156
330
156
102
}
330
33
100
AcDbEntity
  8
1
  6
Continuous
 62
     2
100
AcDbCircle
 10
179.5016542509982
 20
-113.2699999999999
 30
0.0
 40
0.6500000000000057
100
AcDbArc
 50
-90.0
 51
0.0
  0
ARC
  5
F3
102
{ACAD_REACTORS
330
156
330
156
102
}
330
33
100
AcDbEntity
  8
1
  6
Continuous
 62
     2
100
AcDbCircle
 10
179.5016542509982
 20
-111.9699999999999
 30
0.0
 40
0.6500000000000057
100
AcDbArc
 50
0.0
 51
90.0
  0
ARC
  5
F4
102
{ACAD_REACTORS
330
155
330
155
102
}
330
33
100
AcDbEntity
  8
1
  6
Continuous
 62
     2
100
AcDbCircle
 10
175.0016542509982
 20
-117.65758746051
 30
0.0
 40
0.6500000000000057
100
AcDbArc
 50
-90.0
 51
0.0
  0
ARC
  5
F5
102
{ACAD_REACTORS
330
155
330
155
102
}
330
33
100
AcDbEntity
  8
1
  6
Continuous
 62
     2
100
AcDbCircle
 10
175.0016542509982
 20
-117.65758746051
 30
0.0
 40
0.6500000000000057
100
AcDbArc
 50
180.0
 51
-90.0
  0
ARC
  5
F6
102
{ACAD_REACTORS
330
155
330
155
102
}
330
33
100
AcDbEntity
  8
1
  6
Continuous
 62
     2
100
AcDbCircle
 10
175.0016542509982
 20
-111.9699999999999
 30
0.0
 40
0.6500000000000057
100
AcDbArc
 50
0.0
 51
90.0
  0
ARC
  5
F7
102
{ACAD_REACTORS
330
155
330
155
102
}
330
33
100
AcDbEntity
  8
1
  6
Continuous
 62
     2
100
AcDbCircle
 10
175.0016542509982
 20
-111.9699999999999
 30
0.0
 40
0.6500000000000057
100
AcDbArc
 50
90.0
 51
180.0
  0
ARC
  5
F8
102
{ACAD_REACTORS
330
157
330
157
102
}
330
33
100
AcDbEntity
  8
1
  6
Continuous
 62
     2
100
AcDbCircle
 10
184.0016542509982
 20
-117.65758746051
 30
0.0
 40
0.6500000000000057
100
AcDbArc
 50
-90.0
 51
0.0
  0
ARC
  5
F9
102
{ACAD_REACTORS
330
157
330
157
102
}
330
33
100
AcDbEntity
  8
1
  6
Continuous
 62
     2
100
AcDbCircle
 10
184.0016542509982
 20
-117.65758746051
 30
0.0
 40
0.6500000000000057
100
AcDbArc
 50
180.0
 51
-90.0
  0
ARC
  5
FA
102
{ACAD_REACTORS
330
157
330
157
102
}
330
33
100
AcDbEntity
  8
1
  6
Continuous
 62
     2
100
AcDbCircle
 10
184.0016542509982
 20
-111.9699999999999
 30
0.0
 40
0.6500000000000057
100
AcDbArc
 50
90.0
 51
180.0
  0
ARC
  5
FB
102
{ACAD_REACTORS
330
157
330
157
102
}
330
33
100
AcDbEntity
  8
1
  6
Continuous
 62
     2
100
AcDbCircle
 10
184.0016542509982
 20
-111.9699999999999
 30
0.0
 40
0.6500000000000057
100
AcDbArc
 50
0.0
 51
90.0
  0
ARC
  5
FC
102
{ACAD_REACTORS
330
154
330
154
102
}
330
33
100
AcDbEntity
  8
1
  6
Continuous
 62
     2
100
AcDbCircle
 10
191.9016542509982
 20
-117.65758746051
 30
0.0
 40
0.6500000000000057
100
AcDbArc
 50
-90.0
 51
0.0
  0
ARC
  5
FD
102
{ACAD_REACTORS
330
154
330
154
102
}
330
33
100
AcDbEntity
  8
1
  6
Continuous
 62
     2
100
AcDbCircle
 10
191.9016542509982
 20
-111.9699999999999
 30
0.0
 40
0.6500000000000057
100
AcDbArc
 50
0.0
 51
90.0
  0
ARC
  5
FE
102
{ACAD_REACTORS
330
151
330
151
102
}
330
33
100
AcDbEntity
  8
1
  6
Continuous
 62
     2
100
AcDbCircle
 10
141.9016542509982
 20
-117.65758746051
 30
0.0
 40
0.6500000000000057
100
AcDbArc
 50
-90.0
 51
0.0
  0
ARC
  5
FF
102
{ACAD_REACTORS
330
151
330
151
102
}
330
33
100
AcDbEntity
  8
1
  6
Continuous
 62
     2
100
AcDbCircle
 10
141.9016542509982
 20
-117.65758746051
 30
0.0
 40
0.6500000000000057
100
AcDbArc
 50
180.0
 51
-90.0
  0
ARC
  5
100
102
{ACAD_REACTORS
330
151
330
151
102
}
330
33
100
AcDbEntity
  8
1
  6
Continuous
 62
     2
100
AcDbCircle
 10
141.9016542509982
 20
-111.9699999999999
 30
0.0
 40
0.6500000000000057
100
AcDbArc
 50
0.0
 51
90.0
  0
ARC
  5
101
102
{ACAD_REACTORS
330
151
330
151
102
}
330
33
100
AcDbEntity
  8
1
  6
Continuous
 62
     2
100
AcDbCircle
 10
141.9016542509982
 20
-111.9699999999999
 30
0.0
 40
0.6500000000000057
100
AcDbArc
 50
90.0
 51
180.0
  0
ARC
  5
102
102
{ACAD_REACTORS
330
152
330
152
102
}
330
33
100
AcDbEntity
  8
1
  6
Continuous
 62
     2
100
AcDbCircle
 10
158.8016542509982
 20
-117.65758746051
 30
0.0
 40
0.6500000000000057
100
AcDbArc
 50
-90.0
 51
0.0
  0
ARC
  5
103
102
{ACAD_REACTORS
330
152
330
152
102
}
330
33
100
AcDbEntity
  8
1
  6
Continuous
 62
     2
100
AcDbCircle
 10
158.8016542509982
 20
-117.65758746051
 30
0.0
 40
0.6500000000000057
100
AcDbArc
 50
180.0
 51
-90.0
  0
ARC
  5
104
102
{ACAD_REACTORS
330
152
330
152
102
}
330
33
100
AcDbEntity
  8
1
  6
Continuous
 62
     2
100
AcDbCircle
 10
158.8016542509982
 20
-111.9699999999999
 30
0.0
 40
0.6499999999999773
100
AcDbArc
 50
0.0
 51
90.0
  0
ARC
  5
105
102
{ACAD_REACTORS
330
152
330
152
102
}
330
33
100
AcDbEntity
  8
1
  6
Continuous
 62
     2
100
AcDbCircle
 10
158.8016542509982
 20
-111.9699999999999
 30
0.0
 40
0.6500000000000057
100
AcDbArc
 50
90.0
 51
180.0
  0
ARC
  5
106
102
{ACAD_REACTORS
330
153
330
153
102
}
330
33
100
AcDbEntity
  8
1
  6
Continuous
 62
     2
100
AcDbCircle
 10
154.3016542509982
 20
-113.5699999999999
 30
0.0
 40
0.6500000000000057
100
AcDbArc
 50
-90.0
 51
0.0
  0
ARC
  5
107
102
{ACAD_REACTORS
330
153
330
153
102
}
330
33
100
AcDbEntity
  8
1
  6
Continuous
 62
     2
100
AcDbCircle
 10
154.3016542509982
 20
-116.0699999999999
 30
0.0
 40
0.6499999999999773
100
AcDbArc
 50
0.0
 51
90.0
  0
ARC
  5
108
102
{ACAD_REACTORS
330
153
330
153
102
}
330
33
100
AcDbEntity
  8
1
  6
Continuous
 62
     2
100
AcDbCircle
 10
154.3016542509982
 20
-111.9699999999999
 30
0.0
 40
0.6499999999999773
100
AcDbArc
 50
0.0
 51
90.0
  0
ARC
  5
109
102
{ACAD_REACTORS
330
158
330
158
102
}
330
33
100
AcDbEntity
  8
1
  6
Continuous
 62
     2
100
AcDbCircle
 10
149.8016542509982
 20
-117.65758746051
 30
0.0
 40
0.6500000000000057
100
AcDbArc
 50
-90.0
 51
0.0
  0
ARC
  5
10A
102
{ACAD_REACTORS
330
158
330
158
102
}
330
33
100
AcDbEntity
  8
1
  6
Continuous
 62
     2
100
AcDbCircle
 10
149.8016542509982
 20
-117.65758746051
 30
0.0
 40
0.6500000000000057
100
AcDbArc
 50
180.0
 51
-90.0
  0
ARC
  5
10B
102
{ACAD_REACTORS
330
158
330
158
102
}
330
33
100
AcDbEntity
  8
1
  6
Continuous
 62
     2
100
AcDbCircle
 10
149.8016542509982
 20
-111.9699999999999
 30
0.0
 40
0.6499999999999773
100
AcDbArc
 50
0.0
 51
90.0
  0
ARC
  5
10C
102
{ACAD_REACTORS
330
158
330
158
102
}
330
33
100
AcDbEntity
  8
1
  6
Continuous
 62
     2
100
AcDbCircle
 10
149.8016542509982
 20
-111.9699999999999
 30
0.0
 40
0.6500000000000057
100
AcDbArc
 50
90.0
 51
180.0
  0
ARC
  5
10D
102
{ACAD_REACTORS
330
151
330
151
102
}
330
33
100
AcDbEntity
  8
1
  6
Continuous
 62
     2
100
AcDbCircle
 10
141.0516542509982
 20
-111.2199999999999
 30
0.0
 40
1.0
100
AcDbArc
 50
90.0
 51
180.0
  0
ARC
  5
10E
102
{ACAD_REACTORS
330
152
330
152
102
}
330
33
100
AcDbEntity
  8
1
  6
Continuous
 62
     2
100
AcDbCircle
 10
157.9516542509982
 20
-118.4199999999999
 30
0.0
 40
1.0
100
AcDbArc
 50
180.0
 51
-90.0
  0
ARC
  5
10F
102
{ACAD_REACTORS
330
154
330
154
102
}
330
33
100
AcDbEntity
  8
1
  6
Continuous
 62
     2
100
AcDbCircle
 10
192.7516542509982
 20
-118.4199999999999
 30
0.0
 40
1.0
100
AcDbArc
 50
-90.0
 51
0.0
  0
ARC
  5
110
102
{ACAD_REACTORS
330
155
330
155
102
}
330
33
100
AcDbEntity
  8
1
  6
Continuous
 62
     2
100
AcDbCircle
 10
174.1516542509982
 20
-118.4199999999999
 30
0.0
 40
1.0
100
AcDbArc
 50
180.0
 51
-90.0
  0
ARC
  5
111
102
{ACAD_REACTORS
330
155
330
155
102
}
330
33
100
AcDbEntity
  8
1
  6
Continuous
 62
     2
100
AcDbCircle
 10
175.8516542509982
 20
-118.4199999999999
 30
0.0
 40
1.0
100
AcDbArc
 50
-90.0
 51
0.0
  0
ARC
  5
112
102
{ACAD_REACTORS
330
156
330
156
102
}
330
33
100
AcDbEntity
  8
1
  6
Continuous
 62
     2
100
AcDbCircle
 10
180.3516542509982
 20
-118.4199999999999
 30
0.0
 40
1.0
100
AcDbArc
 50
-90.0
 51
0.0
  0
ARC
  5
113
102
{ACAD_REACTORS
330
157
330
157
102
}
330
33
100
AcDbEntity
  8
1
  6
Continuous
 62
     2
100
AcDbCircle
 10
183.1516542509982
 20
-118.4199999999999
 30
0.0
 40
1.0
100
AcDbArc
 50
180.0
 51
-90.0
  0
ARC
  5
114
102
{ACAD_REACTORS
330
157
330
157
102
}
330
33
100
AcDbEntity
  8
1
  6
Continuous
 62
     2
100
AcDbCircle
 10
184.8516542509982
 20
-118.4199999999999
 30
0.0
 40
1.0
100
AcDbArc
 50
-90.0
 51
0.0
  0
ARC
  5
115
102
{ACAD_REACTORS
330
154
330
154
102
}
330
33
100
AcDbEntity
  8
1
  6
Continuous
 62
     2
100
AcDbCircle
 10
192.7516542509982
 20
-111.2199999999999
 30
0.0
 40
1.0
100
AcDbArc
 50
0.0
 51
90.0
  0
ARC
  5
116
102
{ACAD_REACTORS
330
157
330
157
102
}
330
33
100
AcDbEntity
  8
1
  6
Continuous
 62
     2
100
AcDbCircle
 10
183.1516542509982
 20
-111.2199999999999
 30
0.0
 40
1.0
100
AcDbArc
 50
90.0
 51
180.0
  0
ARC
  5
117
102
{ACAD_REACTORS
330
157
330
157
102
}
330
33
100
AcDbEntity
  8
1
  6
Continuous
 62
     2
100
AcDbCircle
 10
184.8516542509982
 20
-111.2199999999999
 30
0.0
 40
1.0
100
AcDbArc
 50
0.0
 51
90.0
  0
ARC
  5
118
102
{ACAD_REACTORS
330
156
330
156
102
}
330
33
100
AcDbEntity
  8
1
  6
Continuous
 62
     2
100
AcDbCircle
 10
180.3516542509982
 20
-111.2199999999999
 30
0.0
 40
1.0
100
AcDbArc
 50
0.0
 51
90.0
  0
ARC
  5
119
102
{ACAD_REACTORS
330
155
330
155
102
}
330
33
100
AcDbEntity
  8
1
  6
Continuous
 62
     2
100
AcDbCircle
 10
175.8516542509982
 20
-111.2199999999999
 30
0.0
 40
1.0
100
AcDbArc
 50
0.0
 51
90.0
  0
ARC
  5
11A
102
{ACAD_REACTORS
330
155
330
155
102
}
330
33
100
AcDbEntity
  8
1
  6
Continuous
 62
     2
100
AcDbCircle
 10
174.1516542509982
 20
-111.2199999999999
 30
0.0
 40
1.0
100
AcDbArc
 50
90.0
 51
180.0
  0
ARC
  5
11B
102
{ACAD_REACTORS
330
152
330
152
102
}
330
33
100
AcDbEntity
  8
1
  6
Continuous
 62
     2
100
AcDbCircle
 10
159.6516542509982
 20
-111.2199999999999
 30
0.0
 40
1.000000000000085
100
AcDbArc
 50
0.0
 51
90.0
  0
ARC
  5
11C
102
{ACAD_REACTORS
330
152
330
152
102
}
330
33
100
AcDbEntity
  8
1
  6
Continuous
 62
     2
100
AcDbCircle
 10
157.9516542509982
 20
-111.2199999999999
 30
0.0
 40
1.0
100
AcDbArc
 50
90.0
 51
180.0
  0
ARC
  5
11D
102
{ACAD_REACTORS
330
153
330
153
102
}
330
33
100
AcDbEntity
  8
1
  6
Continuous
 62
     2
100
AcDbCircle
 10
155.1516542509982
 20
-111.2199999999999
 30
0.0
 40
1.0
100
AcDbArc
 50
0.0
 51
90.0
  0
ARC
  5
11E
102
{ACAD_REACTORS
330
158
330
158
102
}
330
33
100
AcDbEntity
  8
1
  6
Continuous
 62
     2
100
AcDbCircle
 10
150.6516542509982
 20
-118.4199999999999
 30
0.0
 40
1.0
100
AcDbArc
 50
-90.0
 51
0.0
  0
ARC
  5
11F
102
{ACAD_REACTORS
330
158
330
158
102
}
330
33
100
AcDbEntity
  8
1
  6
Continuous
 62
     2
100
AcDbCircle
 10
148.9516542509982
 20
-118.4199999999999
 30
0.0
 40
1.0
100
AcDbArc
 50
180.0
 51
-90.0
  0
ARC
  5
120
102
{ACAD_REACTORS
330
158
330
158
102
}
330
33
100
AcDbEntity
  8
1
  6
Continuous
 62
     2
100
AcDbCircle
 10
150.6516542509982
 20
-111.2199999999999
 30
0.0
 40
1.0
100
AcDbArc
 50
0.0
 51
90.0
  0
ARC
  5
121
102
{ACAD_REACTORS
330
158
330
158
102
}
330
33
100
AcDbEntity
  8
1
  6
Continuous
 62
     2
100
AcDbCircle
 10
148.9516542509982
 20
-111.2199999999999
 30
0.0
 40
1.0
100
AcDbArc
 50
90.0
 51
180.0
  0
ARC
  5
122
102
{ACAD_REACTORS
330
151
330
151
102
}
330
33
100
AcDbEntity
  8
1
  6
Continuous
 62
     2
100
AcDbCircle
 10
141.0516542509982
 20
-118.4199999999999
 30
0.0
 40
1.0
100
AcDbArc
 50
180.0
 51
-90.0
  0
ARC
  5
123
102
{ACAD_REACTORS
330
151
330
151
102
}
330
33
100
AcDbEntity
  8
1
  6
Continuous
 62
     2
100
AcDbCircle
 10
142.7516542509982
 20
-111.2199999999999
 30
0.0
 40
1.0
100
AcDbArc
 50
0.0
 51
90.0
  0
MTEXT
  5
125
330
33
100
AcDbEntity
  8
1
 62
     3
100
AcDbMText
 10
76.91500000000008
 20
-98.08500000000004
 30
0.0
 40
2.2
 41
0.0
 71
     4
 72
     1
  1
Allgemein-\Ptoleranzen\PDIN ISO 2768-mK
  7
CONVERTER_11
 73
     1
 44
1.32052821128451
  0
MTEXT
  5
127
330
33
100
AcDbEntity
  8
1
 62
     3
100
AcDbMText
 10
103.5850000000001
 20
-98.08500000000004
 30
0.0
 40
2.2
 41
0.0
 71
     4
 72
     1
  1
Oberflächen\PDIN ISO 1302\PReihe 2
  7
CONVERTER_12
 73
     1
 44
1.32052821128451
  0
TEXT
  5
128
330
33
100
AcDbEntity
  8
0
 62
     2
100
AcDbText
 10
201.4516239034123
 20
-137.153912141408
 30
0.0
 40
1.8
  1
Bl.
 41
0.9
  7
CONVERTER_12
100
AcDbText
  0
TEXT
  5
129
330
33
100
AcDbEntity
  8
1
 62
     2
100
AcDbText
 10
23.11999999999898
 20
-107.6599999999999
 30
0.0
 40
1.8
  1
Nr.
 41
0.9
  7
CONVERTER_12
100
AcDbText
  0
TEXT
  5
12A
330
33
100
AcDbEntity
  8
1
 62
     2
100
AcDbText
 10
28.19999999999891
 20
-107.6599999999999
 30
0.0
 40
1.8
  1
Änderung
 41
0.9
  7
CONVERTER_12
100
AcDbText
  0
TEXT
  5
12B
330
33
100
AcDbEntity
  8
1
 62
     2
100
AcDbText
 10
43.43999999999869
 20
-107.6599999999999
 30
0.0
 40
1.8
  1
Datum
 41
0.9
  7
CONVERTER_12
100
AcDbText
  0
TEXT
  5
12C
330
33
100
AcDbEntity
  8
1
 62
     2
100
AcDbText
 10
61.21999999999832
 20
-107.6599999999999
 30
0.0
 40
1.8
  1
Name
 41
0.72
  7
CONVERTER_11
100
AcDbText
  0
TEXT
  5
12D
330
33
100
AcDbEntity
  8
1
 62
     2
100
AcDbText
 10
68.83999999999912
 20
-107.6599999999999
 30
0.0
 40
1.8
  1
Gepr.
 41
0.72
  7
CONVERTER_11
100
AcDbText
  0
TEXT
  5
12E
330
33
100
AcDbEntity
  8
1
 62
     2
100
AcDbText
 10
41.95202796696901
 20
-111.8899999999994
 30
0.0
 40
1.8
  1
Datum
 41
0.9
  7
CONVERTER_12
100
AcDbText
  0
TEXT
  5
12F
330
33
100
AcDbEntity
  8
1
 62
     2
100
AcDbText
 10
59.73202796696876
 20
-111.8899999999994
 30
0.0
 40
1.8
  1
Name
 41
0.9
  7
CONVERTER_12
100
AcDbText
  0
TEXT
  5
130
330
33
100
AcDbEntity
  8
1
 62
     2
100
AcDbText
 10
23.11999999999898
 20
-116.1200000000008
 30
0.0
 40
1.8
  1
Bearb.
 41
0.9
  7
CONVERTER_12
100
AcDbText
  0
TEXT
  5
131
330
33
100
AcDbEntity
  8
1
 62
     2
100
AcDbText
 10
23.11999999999898
 20
-120.3500000000004
 30
0.0
 40
1.8
  1
Gepr.
 41
0.9
  7
CONVERTER_12
100
AcDbText
  0
TEXT
  5
132
330
33
100
AcDbEntity
  8
1
 62
     2
100
AcDbText
 10
23.11999999999898
 20
-124.5799999999999
 30
0.0
 40
1.8
  1
Norm.
 41
0.9
  7
CONVERTER_12
100
AcDbText
  0
TEXT
  5
133
330
33
100
AcDbEntity
  8
1
 62
     2
100
AcDbText
 10
75.95999999999992
 20
-111.2899999999994
 30
0.0
 40
1.8
  1
Typ
 41
0.9
  7
CONVERTER_12
100
AcDbText
  0
TEXT
  5
134
330
33
100
AcDbEntity
  8
1
 62
     2
100
AcDbText
 10
23.11999999999898
 20
-129.5799999999999
 30
0.0
 40
1.8
  1
Maßstab
 41
0.9
  7
CONVERTER_12
100
AcDbText
  0
TEXT
  5
135
330
33
100
AcDbEntity
  8
1
 62
     2
100
AcDbText
 10
38.35999999999888
 20
-129.5799999999999
 30
0.0
 40
1.8
  1
Benennung
 41
0.9
  7
CONVERTER_12
100
AcDbText
  0
TEXT
  5
136
330
33
100
AcDbEntity
  8
1
 62
     2
100
AcDbText
 10
130.8962833787473
 20
-129.2145722070854
 30
0.0
 40
1.8
  1
Z.-Nr.
 41
0.9
  7
CONVERTER_12
100
AcDbText
  0
MTEXT
  5
137
330
33
100
AcDbEntity
  8
1
 62
     2
100
AcDbMText
 10
129.8000000000002
 20
-89.625
 30
0.0
 40
1.8
 41
0.0
 71
     4
 72
     1
  1
Urheberschutz  DIN 34
  7
CONVERTER_12
 73
     1
 44
1.32052821128451
  0
MTEXT
  5
138
330
33
100
AcDbEntity
  8
1
 62
     2
100
AcDbMText
 10
167.8999999999996
 20
-89.625
 30
0.0
 40
1.8
 41
0.0
 71
     4
 72
     1
  1
Gewicht
  7
CONVERTER_12
 73
     1
 44
1.32052821128451
  0
TEXT
  5
139
330
33
100
AcDbEntity
  8
1
 62
     2
100
AcDbText
 10
129.8000000000002
 20
-94.97000000000116
 30
0.0
 40
1.8
  1
Werkstoff
 41
0.9
  7
CONVERTER_12
100
AcDbText
  0
MTEXT
  5
13A
330
33
100
AcDbEntity
  8
1
 62
     2
100
AcDbMText
 10
129.868213777145
 20
-140.3850000000002
 30
0.0
 40
1.8
 41
0.0
 71
     4
 72
     1
  1
Ers.
  7
CONVERTER_12
 73
     1
 44
1.32052821128451
  0
TEXT
  5
13B
330
33
100
AcDbEntity
  8
1
 62
     2
100
AcDbText
 10
193.3000000000002
 20
-129.5799999999999
 30
0.0
 40
1.8
  1
Bl.
 41
0.9
  7
CONVERTER_12
100
AcDbText
  0
MTEXT
  5
13D
330
33
100
AcDbEntity
  8
1
 62
     7
100
AcDbMText
 10
160.55
 20
-133.28
 30
0.0
 40
5.0
 41
0.0
 71
     5
 72
     1
  1
K3044
  7
CONVERTER_13
 73
     1
 44
1.32052821128451
  0
MTEXT
  5
13E
330
33
100
AcDbEntity
  8
1
 62
     3
100
AcDbMText
 10
200.375
 20
-129.81
 30
0.0
 40
3.0
 41
0.0
 71
     5
 72
     1
  1
1
  7
CONVERTER_11
 73
     1
 44
1.32052821128451
  0
MTEXT
  5
13F
330
33
100
AcDbEntity
  8
1
 62
     2
100
AcDbMText
 10
196.85
 20
-136.25
 30
0.0
 40
1.8
 41
0.0
 71
     5
 72
     1
  1
1
  7
CONVERTER_12
 73
     1
 44
1.32052821128451
  0
MTEXT
  5
140
330
33
100
AcDbEntity
  8
1
 62
     7
100
AcDbMText
 10
83.60500000000002
 20
-136.33
 30
0.0
 40
5.0
 41
0.0
 71
     5
 72
     1
  1
Maßblatt
  7
CONVERTER_11
 73
     1
 44
1.32052821128451
  0
MTEXT
  5
141
330
33
100
AcDbEntity
  8
1
 62
     2
100
AcDbMText
 10
65.29999999999995
 20
-115.005
 30
0.0
 40
1.8
 41
0.0
 71
     5
 72
     1
  1
HI
  7
CONVERTER_12
 73
     1
 44
1.32052821128451
  0
MTEXT
  5
142
330
33
100
AcDbEntity
  8
1
 62
     2
100
AcDbMText
 10
46.25
 20
-115.005
 30
0.0
 40
1.8
 41
0.0
 71
     5
 72
     1
  1
02.03.09
  7
CONVERTER_12
 73
     1
 44
1.32052821128451
  0
MTEXT
  5
143
330
33
100
AcDbEntity
  8
1
 62
     7
100
AcDbMText
 10
29.74000000000001
 20
-136.535
 30
0.0
 40
5.0
 41
0.0
 71
     5
 72
     1
  1
1:1
  7
CONVERTER_13
 73
     1
 44
1.32052821128451
  0
MTEXT
  5
145
330
33
100
AcDbEntity
  8
1
 62
     3
100
AcDbMText
 10
102.13
 20
-116.625
 30
0.0
 40
2.5
 41
0.0
 71
     5
 72
     1
  1
KSG 110... Q(-MF)-R4(/S23)/PLG50
  7
CONVERTER_14
 73
     1
 44
1.32052821128451
  0
MTEXT
  5
146
330
33
100
AcDbEntity
  8
1
 62
     3
100
AcDbMText
 10
102.13
 20
-118.125
 30
0.0
 40
2.5
 41
0.0
 71
     5
 72
     1
  1
 
  7
CONVERTER_14
 73
     1
 44
1.32052821128451
  0
MTEXT
  5
147
330
33
100
AcDbEntity
  8
1
 62
     3
100
AcDbMText
 10
102.13
 20
-122.625
 30
0.0
 40
2.5
 41
0.0
 71
     5
 72
     1
  1
 
  7
CONVERTER_14
 73
     1
 44
1.32052821128451
  0
MTEXT
  5
148
330
33
100
AcDbEntity
  8
1
 62
     3
100
AcDbMText
 10
168.9000000000001
 20
-96.19999999999983
 30
0.0
 40
2.5
 41
0.0
 71
     5
 72
     1
  1
 
  7
CONVERTER_12
 73
     1
 44
1.32052821128451
  0
MTEXT
  5
149
330
33
100
AcDbEntity
  8
1
 62
     3
100
AcDbMText
 10
168.9000000000001
 20
-100.6999999999998
 30
0.0
 40
2.5
 41
0.0
 71
     5
 72
     1
  1
 
  7
CONVERTER_12
 73
     1
 44
1.32052821128451
  0
MTEXT
  5
14A
330
33
100
AcDbEntity
  8
1
 62
     3
100
AcDbMText
 10
168.9000000000001
 20
-105.1999999999998
 30
0.0
 40
2.5
 41
0.0
 71
     5
 72
     1
  1
 
  7
CONVERTER_12
 73
     1
 44
1.32052821128451
  0
MTEXT
  5
14B
330
33
100
AcDbEntity
  8
1
 62
     2
100
AcDbMText
 10
46.25
 20
-119.2350000000014
 30
0.0
 40
1.8
 41
0.0
 71
     5
 72
     1
  1
02.03.09
  7
CONVERTER_12
 73
     1
 44
1.32052821128451
  0
MTEXT
  5
14C
330
33
100
AcDbEntity
  8
1
 62
     2
100
AcDbMText
 10
65.29999999999995
 20
-119.2350000000014
 30
0.0
 40
1.8
 41
0.0
 71
     5
 72
     1
  1
 
  7
CONVERTER_12
 73
     1
 44
1.32052821128451
  0
MTEXT
  5
14D
330
33
100
AcDbEntity
  8
1
 62
     2
100
AcDbMText
 10
138.090984385273
 20
-140.3850000000002
 30
0.0
 40
1.8
 41
0.0
 71
     4
 72
     1
  1
 
  7
CONVERTER_12
 73
     1
 44
1.32052821128451
  0
MTEXT
  5
14E
330
33
100
AcDbEntity
  8
1
 62
     2
100
AcDbMText
 10
171.146150406868
 20
-140.3850000000002
 30
0.0
 40
1.8
 41
0.0
 71
     4
 72
     1
  1
 
  7
CONVERTER_12
 73
     1
 44
1.32052821128451
  0
MTEXT
  5
150
330
33
100
AcDbEntity
  8
1
 62
     2
100
AcDbMText
 10
166.6516542509982
 20
-123.0199999999999
 30
0.0
 40
2.8
 41
0.0
 71
     5
 72
     1
  1
GmbH & Co. KG
  7
CONVERTER_15
 73
     1
 44
1.32052821128451
  0
HATCH
  5
151
330
33
100
AcDbEntity
  8
1
  6
Continuous
 62
     2
100
AcDbHatch
 10
0.0
 20
0.0
 30
0.0
210
0.0
220
0.0
230
1.0
  2
_USER
 70
     0
 71
     1
 91
        1
 92
        1
 93
       22
 72
     1
 10
143.7516542509982
 20
-114.7199999999999
 11
143.7516542509982
 21
-119.4199999999999
 72
     1
 10
143.7516542509982
 20
-119.4199999999999
 11
143.2516542509982
 21
-119.4199999999999
 72
     1
 10
143.2516542509982
 20
-119.4199999999999
 11
142.9048783308657
 21
-118.8199999999999
 72
     2
 10
141.9264261003899
 20
-118.3227040643326
 40
1.097575516743276
 50
26.94184191294435
 51
91.2932531058712
 73
     0
 72
     1
 10
141.9016542509982
 20
-119.4199999999999
 11
141.0516542509982
 21
-119.4199999999999
 72
     2
 10
141.0516542509982
 20
-118.4199999999999
 40
1.0
 50
90.0
 51
180.0
 73
     0
 72
     1
 10
140.0516542509982
 20
-118.4199999999999
 11
140.0516542509982
 21
-111.2199999999999
 72
     2
 10
141.0516542509982
 20
-111.2199999999999
 40
1.0
 50
180.0
 51
270.0
 73
     0
 72
     1
 10
141.0516542509982
 20
-110.2199999999999
 11
142.7516542509982
 21
-110.2199999999999
 72
     2
 10
142.7516542509982
 20
-111.2199999999999
 40
1.0
 50
270.0
 51
360.0
 73
     0
 72
     1
 10
143.7516542509982
 20
-111.2199999999999
 11
143.7516542509982
 21
-113.3199999999999
 72
     1
 10
143.7516542509982
 20
-113.3199999999999
 11
142.5516542509982
 21
-113.3199999999999
 72
     1
 10
142.5516542509982
 20
-113.3199999999999
 11
142.5516542509982
 21
-111.9699999999999
 72
     2
 10
141.9016542509982
 20
-111.9699999999999
 40
0.6500000000000057
 50
0.0
 51
90.0
 73
     1
 72
     2
 10
141.9016542509982
 20
-111.9699999999999
 40
0.6500000000000057
 50
90.0
 51
180.0
 73
     1
 72
     1
 10
141.2516542509982
 20
-111.9699999999999
 11
141.2516542509982
 21
-117.65758746051
 72
     2
 10
141.9016542509982
 20
-117.65758746051
 40
0.6500000000000057
 50
180.0
 51
270.0
 73
     1
 72
     2
 10
141.9016542509982
 20
-117.65758746051
 40
0.6500000000000057
 50
270.0
 51
360.0
 73
     1
 72
     1
 10
142.5516542509982
 20
-117.65758746051
 11
142.5516542509982
 21
-115.9199999999999
 72
     1
 10
142.5516542509982
 20
-115.9199999999999
 11
141.9927287849846
 21
-115.9199999999999
 72
     1
 10
141.9927287849846
 20
-115.9199999999999
 11
141.9927287849846
 21
-114.7199999999999
 72
     1
 10
141.9927287849846
 20
-114.7199999999999
 11
143.7516542509982
 21
-114.7199999999999
 97
       22
330
D9
330
DF
330
D8
330
EF
330
D7
330
122
330
B2
330
10D
330
B1
330
123
330
DE
330
95
330
96
330
100
330
101
330
97
330
FF
330
FE
330
98
330
E3
330
E0
330
E1
 75
     1
 76
     0
 52
90.00000000000003
 41
0.15
 77
     0
 78
     1
 53
90.00000000000003
 43
0.0
 44
0.0
 45
-0.15
 46
-0.0000000000000001
 79
     0
 98
        1
 10
0.0
 20
0.0
  0
HATCH
  5
152
330
33
100
AcDbEntity
  8
1
  6
Continuous
 62
     2
100
AcDbHatch
 10
0.0
 20
0.0
 30
0.0
210
0.0
220
0.0
230
1.0
  2
_USER
 70
     0
 71
     1
 91
        1
 92
        1
 93
       23
 72
     2
 10
158.8016542509982
 20
-117.65758746051
 40
0.6500000000000057
 50
270.0
 51
360.0
 73
     1
 72
     1
 10
159.4516542509982
 20
-117.65758746051
 11
159.4516542509982
 21
-115.9199999999999
 72
     1
 10
159.4516542509982
 20
-115.9199999999999
 11
158.9016542509982
 21
-115.9199999999999
 72
     1
 10
158.9016542509982
 20
-115.9199999999999
 11
158.9016542509982
 21
-114.7199999999999
 72
     1
 10
158.9016542509982
 20
-114.7199999999999
 11
159.7415058473918
 21
-114.7199999999999
 72
     1
 10
159.7415058473918
 20
-114.7199999999999
 11
160.6516542509982
 21
-114.7199999999999
 72
     1
 10
160.6516542509982
 20
-114.7199999999999
 11
160.6516542509982
 21
-119.4199999999999
 72
     1
 10
160.6516542509982
 20
-119.4199999999999
 11
160.1516542509982
 21
-119.4199999999999
 72
     1
 10
160.1516542509982
 20
-119.4199999999999
 11
159.8046153744343
 21
-118.8199999999999
 72
     2
 10
158.8327793484388
 20
-118.3331447179281
 40
1.086965191302833
 50
26.60924039545096
 51
90.8147991292736
 73
     0
 72
     1
 10
158.8173222162131
 20
-119.4199999999999
 11
157.9516542509982
 21
-119.4199999999999
 72
     2
 10
157.9516542509982
 20
-118.4199999999999
 40
1.0
 50
90.0
 51
180.0
 73
     0
 72
     1
 10
156.9516542509982
 20
-118.4199999999999
 11
156.9516542509982
 21
-111.2199999999999
 72
     2
 10
157.9516542509982
 20
-111.2199999999999
 40
1.0
 50
180.0
 51
270.0
 73
     0
 72
     1
 10
157.9516542509982
 20
-110.2199999999999
 11
159.6516542509982
 21
-110.2199999999999
 72
     2
 10
159.6516542509982
 20
-111.2199999999999
 40
1.000000000000085
 50
270.0
 51
360.0
 73
     0
 72
     1
 10
160.6516542509983
 20
-111.2199999999999
 11
160.6516542509982
 21
-113.3199999999999
 72
     1
 10
160.6516542509982
 20
-113.3199999999999
 11
159.4516542509982
 21
-113.3199999999999
 72
     1
 10
159.4516542509982
 20
-113.3199999999999
 11
159.4516542509982
 21
-111.9699999999999
 72
     2
 10
158.8016542509982
 20
-111.9699999999999
 40
0.6499999999999773
 50
0.0
 51
90.0
 73
     1
 72
     2
 10
158.8016542509982
 20
-111.9699999999999
 40
0.6500000000000057
 50
90.0
 51
180.0
 73
     1
 72
     1
 10
158.1516542509982
 20
-111.9699999999999
 11
158.1516542509982
 21
-117.65758746051
 72
     2
 10
158.8016542509982
 20
-117.65758746051
 40
0.6500000000000057
 50
180.0
 51
270.0
 73
     1
 97
       23
330
102
330
AC
330
9E
330
9F
330
A0
330
8E
330
CD
330
B0
330
AF
330
EC
330
B4
330
10E
330
B3
330
11C
330
CE
330
11B
330
CB
330
CC
330
AE
330
104
330
105
330
AD
330
103
 75
     1
 76
     0
 52
90.00000000000003
 41
0.15
 77
     0
 78
     1
 53
90.00000000000003
 43
0.0
 44
0.0
 45
-0.15
 46
-0.0000000000000001
 79
     0
 98
        1
 10
0.0
 20
0.0
  0
HATCH
  5
153
330
33
100
AcDbEntity
  8
1
  6
Continuous
 62
     2
100
AcDbHatch
 10
0.0
 20
0.0
 30
0.0
210
0.0
220
0.0
230
1.0
  2
_USER
 70
     0
 71
     1
 91
        2
 92
        1
 93
       13
 72
     1
 10
156.1516542509982
 20
-115.6603414185126
 11
156.1516542509982
 21
-119.4199999999999
 72
     1
 10
156.1516542509982
 20
-119.4199999999999
 11
154.9516542509982
 21
-119.4199999999999
 72
     1
 10
154.9516542509982
 20
-119.4199999999999
 11
154.9516542509982
 21
-116.0699999999999
 72
     2
 10
154.3016542509982
 20
-116.0699999999999
 40
0.6499999999999773
 50
0.0
 51
90.0
 73
     1
 72
     1
 10
154.3016542509982
 20
-115.4199999999999
 11
153.6516542509982
 21
-115.4199999999999
 72
     1
 10
153.6516542509982
 20
-115.4199999999999
 11
153.6516542509982
 21
-119.4199999999999
 72
     1
 10
153.6516542509982
 20
-119.4199999999999
 11
152.4516542509982
 21
-119.4199999999999
 72
     1
 10
152.4516542509982
 20
-119.4199999999999
 11
152.4516542509982
 21
-110.2199999999999
 72
     1
 10
152.4516542509982
 20
-110.2199999999999
 11
155.1516542509982
 21
-110.2199999999999
 72
     2
 10
155.1516542509982
 20
-111.2199999999999
 40
1.0
 50
270.0
 51
360.0
 73
     0
 72
     1
 10
156.1516542509982
 20
-111.2199999999999
 11
156.1516542509982
 21
-114.0043621302671
 72
     2
 10
155.3000342667233
 20
-113.9710002560295
 40
0.8522732028340286
 50
2.243392241144742
 51
84.9766809757147
 73
     0
 72
     2
 10
155.3161055621215
 20
-115.6535223168009
 40
0.8355765145285912
 50
274.0184137700539
 51
360.4675934260927
 73
     0
 97
       13
330
CF
330
A9
330
AA
330
107
330
91
330
90
330
A8
330
D2
330
D1
330
11D
330
D0
330
EE
330
ED
 92
       16
 93
        6
 72
     1
 10
154.3016542509982
 20
-111.3199999999999
 11
153.6516542509982
 21
-111.3199999999999
 72
     1
 10
153.6516542509982
 20
-111.3199999999999
 11
153.6516542509982
 21
-114.2199999999999
 72
     1
 10
153.6516542509982
 20
-114.2199999999999
 11
154.3016542509982
 21
-114.2199999999999
 72
     2
 10
154.3016542509982
 20
-113.5699999999999
 40
0.6500000000000057
 50
270.0
 51
360.0
 73
     1
 72
     1
 10
154.9516542509982
 20
-113.5699999999999
 11
154.9516542509982
 21
-111.9699999999999
 72
     2
 10
154.3016542509982
 20
-111.9699999999999
 40
0.6499999999999773
 50
0.0
 51
90.0
 73
     1
 97
        6
330
AB
330
106
330
92
330
93
330
94
330
108
 75
     1
 76
     0
 52
90.00000000000003
 41
0.15
 77
     0
 78
     1
 53
90.00000000000003
 43
0.0
 44
0.0
 45
-0.15
 46
-0.0000000000000001
 79
     0
 98
        1
 10
0.0
 20
0.0
  0
HATCH
  5
154
330
33
100
AcDbEntity
  8
1
  6
Continuous
 62
     2
100
AcDbHatch
 10
0.0
 20
0.0
 30
0.0
210
0.0
220
0.0
230
1.0
  2
_USER
 70
     0
 71
     1
 91
        2
 92
        1
 93
        6
 72
     1
 10
190.0516542509982
 20
-110.2199999999999
 11
190.0516542509982
 21
-119.4199999999999
 72
     1
 10
190.0516542509982
 20
-119.4199999999999
 11
192.7516542509982
 21
-119.4199999999999
 72
     2
 10
192.7516542509982
 20
-118.4199999999999
 40
1.0
 50
270.0
 51
360.0
 73
     1
 72
     1
 10
193.7516542509982
 20
-118.4199999999999
 11
193.7516542509982
 21
-111.2199999999999
 72
     2
 10
192.7516542509982
 20
-111.2199999999999
 40
1.0
 50
0.0
 51
90.0
 73
     1
 72
     1
 10
192.7516542509982
 20
-110.2199999999999
 11
190.0516542509982
 21
-110.2199999999999
 97
        6
330
115
330
B5
330
10F
330
B6
330
B9
330
B8
 92
       16
 93
        7
 72
     1
 10
192.5516542509982
 20
-111.9699999999999
 11
192.5516542509982
 21
-117.65758746051
 72
     2
 10
191.9016542509982
 20
-117.65758746051
 40
0.6500000000000057
 50
0.0
 51
90.0
 73
     0
 72
     1
 10
191.9016542509982
 20
-118.30758746051
 11
191.2516542509982
 21
-118.30758746051
 72
     1
 10
191.2516542509982
 20
-118.30758746051
 11
191.2516542509982
 21
-111.9699999999999
 72
     1
 10
191.2516542509982
 20
-111.9699999999999
 11
191.2516542509982
 21
-111.3199999999999
 72
     1
 10
191.2516542509982
 20
-111.3199999999999
 11
191.9016542509982
 21
-111.3199999999999
 72
     2
 10
191.9016542509982
 20
-111.9699999999999
 40
0.6500000000000057
 50
270.0
 51
360.0
 73
     0
 97
        7
330
81
330
FC
330
80
330
7F
330
7B
330
7C
330
FD
 75
     1
 76
     0
 52
90.00000000000003
 41
0.15
 77
     0
 78
     1
 53
90.00000000000003
 43
0.0
 44
0.0
 45
-0.15
 46
-0.0000000000000001
 79
     0
 98
        1
 10
0.0
 20
0.0
  0
HATCH
  5
155
330
33
100
AcDbEntity
  8
1
  6
Continuous
 62
     2
100
AcDbHatch
 10
0.0
 20
0.0
 30
0.0
210
0.0
220
0.0
230
1.0
  2
_USER
 70
     0
 71
     1
 91
        2
 92
        1
 93
        8
 72
     1
 10
174.1516542509982
 20
-110.2199999999999
 11
175.8516542509982
 21
-110.2199999999999
 72
     2
 10
175.8516542509982
 20
-111.2199999999999
 40
1.0
 50
270.0
 51
360.0
 73
     0
 72
     1
 10
176.8516542509982
 20
-111.2199999999999
 11
176.8516542509982
 21
-118.4199999999999
 72
     2
 10
175.8516542509982
 20
-118.4199999999999
 40
1.0
 50
0.0
 51
90.0
 73
     0
 72
     1
 10
175.8516542509982
 20
-119.4199999999999
 11
174.1516542509982
 21
-119.4199999999999
 72
     2
 10
174.1516542509982
 20
-118.4199999999999
 40
1.0
 50
90.0
 51
180.0
 73
     0
 72
     1
 10
173.1516542509982
 20
-118.4199999999999
 11
173.1516542509982
 21
-111.2199999999999
 72
     2
 10
174.1516542509982
 20
-111.2199999999999
 40
1.0
 50
180.0
 51
270.0
 73
     0
 97
        8
330
C6
330
119
330
B7
330
111
330
C5
330
110
330
70
330
11A
 92
       16
 93
        6
 72
     1
 10
174.3516542509982
 20
-111.9699999999999
 11
174.3516542509982
 21
-117.65758746051
 72
     2
 10
175.0016542509982
 20
-117.65758746051
 40
0.6500000000000057
 50
180.0
 51
270.0
 73
     1
 72
     2
 10
175.0016542509982
 20
-117.65758746051
 40
0.6500000000000057
 50
270.0
 51
360.0
 73
     1
 72
     1
 10
175.6516542509982
 20
-117.65758746051
 11
175.6516542509982
 21
-111.9699999999999
 72
     2
 10
175.0016542509982
 20
-111.9699999999999
 40
0.6500000000000057
 50
0.0
 51
90.0
 73
     1
 72
     2
 10
175.0016542509982
 20
-111.9699999999999
 40
0.6500000000000057
 50
90.0
 51
180.0
 73
     1
 97
        6
330
F6
330
8D
330
F4
330
F5
330
8C
330
F7
 75
     1
 76
     0
 52
90.00000000000003
 41
0.15
 77
     0
 78
     1
 53
90.00000000000003
 43
0.0
 44
0.0
 45
-0.15
 46
-0.0000000000000001
 79
     0
 98
        1
 10
0.0
 20
0.0
  0
HATCH
  5
156
330
33
100
AcDbEntity
  8
1
  6
Continuous
 62
     2
100
AcDbHatch
 10
0.0
 20
0.0
 30
0.0
210
0.0
220
0.0
230
1.0
  2
_USER
 70
     0
 71
     1
 91
        3
 92
        1
 93
        9
 72
     1
 10
177.6516542509982
 20
-110.2199999999999
 11
177.6516542509982
 21
-119.4199999999999
 72
     1
 10
177.6516542509982
 20
-119.4199999999999
 11
180.3516542509982
 21
-119.4199999999999
 72
     2
 10
180.3516542509982
 20
-118.4199999999999
 40
1.0
 50
270.0
 51
360.0
 73
     1
 72
     1
 10
181.3516542509982
 20
-118.4199999999999
 11
181.3516542509982
 21
-115.1199999999999
 72
     2
 10
180.7016542509982
 20
-115.1199999999999
 40
0.6500000000000057
 50
0.0
 51
90.0
 73
     1
 72
     2
 10
180.7016542509982
 20
-113.8199999999999
 40
0.6500000000000057
 50
270.0
 51
360.0
 73
     1
 72
     1
 10
181.3516542509982
 20
-113.8199999999999
 11
181.3516542509982
 21
-111.2199999999999
 72
     2
 10
180.3516542509982
 20
-111.2199999999999
 40
1.0
 50
0.0
 51
90.0
 73
     1
 72
     1
 10
180.3516542509982
 20
-110.2199999999999
 11
177.6516542509982
 21
-110.2199999999999
 97
        9
330
118
330
7A
330
EB
330
EA
330
79
330
112
330
C2
330
C4
330
C3
 92
       16
 93
        6
 72
     1
 10
180.1516542509982
 20
-111.9699999999999
 11
180.1516542509982
 21
-113.2699999999999
 72
     2
 10
179.5016542509982
 20
-113.2699999999999
 40
0.6500000000000057
 50
0.0
 51
90.0
 73
     0
 72
     1
 10
179.5016542509982
 20
-113.9199999999999
 11
178.8516542509982
 21
-113.9199999999999
 72
     1
 10
178.8516542509982
 20
-113.9199999999999
 11
178.8516542509982
 21
-111.3199999999999
 72
     1
 10
178.8516542509982
 20
-111.3199999999999
 11
179.5016542509982
 21
-111.3199999999999
 72
     2
 10
179.5016542509982
 20
-111.9699999999999
 40
0.6500000000000057
 50
270.0
 51
360.0
 73
     0
 97
        6
330
8A
330
F2
330
89
330
85
330
8B
330
F3
 92
       16
 93
        6
 72
     1
 10
179.5016542509982
 20
-115.0199999999999
 11
178.8516542509982
 21
-115.0199999999999
 72
     1
 10
178.8516542509982
 20
-115.0199999999999
 11
178.8516542509982
 21
-118.30758746051
 72
     1
 10
178.8516542509982
 20
-118.30758746051
 11
179.5016542509982
 21
-118.30758746051
 72
     2
 10
179.5016542509982
 20
-117.65758746051
 40
0.6500000000000057
 50
270.0
 51
360.0
 73
     1
 72
     1
 10
180.1516542509982
 20
-117.65758746051
 11
180.1516542509982
 21
-115.6699999999999
 72
     2
 10
179.5016542509982
 20
-115.6699999999999
 40
0.6500000000000057
 50
0.0
 51
90.0
 73
     1
 97
        6
330
86
330
F0
330
87
330
88
330
84
330
F1
 75
     1
 76
     0
 52
90.00000000000003
 41
0.15
 77
     0
 78
     1
 53
90.00000000000003
 43
0.0
 44
0.0
 45
-0.15
 46
-0.0000000000000001
 79
     0
 98
        1
 10
0.0
 20
0.0
  0
HATCH
  5
157
330
33
100
AcDbEntity
  8
1
  6
Continuous
 62
     2
100
AcDbHatch
 10
0.0
 20
0.0
 30
0.0
210
0.0
220
0.0
230
1.0
  2
_USER
 70
     0
 71
     1
 91
        2
 92
        1
 93
        8
 72
     1
 10
183.1516542509982
 20
-110.2199999999999
 11
184.8516542509982
 21
-110.2199999999999
 72
     2
 10
184.8516542509982
 20
-111.2199999999999
 40
1.0
 50
270.0
 51
360.0
 73
     0
 72
     1
 10
185.8516542509982
 20
-111.2199999999999
 11
185.8516542509982
 21
-118.4199999999999
 72
     2
 10
184.8516542509982
 20
-118.4199999999999
 40
1.0
 50
0.0
 51
90.0
 73
     0
 72
     1
 10
184.8516542509982
 20
-119.4199999999999
 11
183.1516542509982
 21
-119.4199999999999
 72
     2
 10
183.1516542509982
 20
-118.4199999999999
 40
1.0
 50
90.0
 51
180.0
 73
     0
 72
     1
 10
182.1516542509982
 20
-118.4199999999999
 11
182.1516542509982
 21
-111.2199999999999
 72
     2
 10
183.1516542509982
 20
-111.2199999999999
 40
1.0
 50
180.0
 51
270.0
 73
     0
 97
        8
330
BE
330
117
330
BF
330
114
330
C0
330
113
330
C1
330
116
 92
       16
 93
        6
 72
     1
 10
184.6516542509982
 20
-111.9699999999999
 11
184.6516542509982
 21
-117.65758746051
 72
     2
 10
184.0016542509982
 20
-117.65758746051
 40
0.6500000000000057
 50
0.0
 51
90.0
 73
     0
 72
     2
 10
184.0016542509982
 20
-117.65758746051
 40
0.6500000000000057
 50
90.0
 51
180.0
 73
     0
 72
     1
 10
183.3516542509982
 20
-117.65758746051
 11
183.3516542509982
 21
-111.9699999999999
 72
     2
 10
184.0016542509982
 20
-111.9699999999999
 40
0.6500000000000057
 50
180.0
 51
270.0
 73
     0
 72
     2
 10
184.0016542509982
 20
-111.9699999999999
 40
0.6500000000000057
 50
270.0
 51
360.0
 73
     0
 97
        6
330
83
330
F8
330
F9
330
82
330
FA
330
FB
 75
     1
 76
     0
 52
90.00000000000003
 41
0.15
 77
     0
 78
     1
 53
90.00000000000003
 43
0.0
 44
0.0
 45
-0.15
 46
-0.0000000000000001
 79
     0
 98
        1
 10
0.0
 20
0.0
  0
HATCH
  5
158
330
33
100
AcDbEntity
  8
1
  6
Continuous
 62
     2
100
AcDbHatch
 10
0.0
 20
0.0
 30
0.0
210
0.0
220
0.0
230
1.0
  2
_USER
 70
     0
 71
     1
 91
        2
 92
        1
 93
        8
 72
     2
 10
148.9516542509982
 20
-111.2199999999999
 40
1.0
 50
90.0
 51
180.0
 73
     1
 72
     1
 10
147.9516542509982
 20
-111.2199999999999
 11
147.9516542509982
 21
-118.4199999999999
 72
     2
 10
148.9516542509982
 20
-118.4199999999999
 40
1.0
 50
180.0
 51
270.0
 73
     1
 72
     1
 10
148.9516542509982
 20
-119.4199999999999
 11
150.6516542509982
 21
-119.4199999999999
 72
     2
 10
150.6516542509982
 20
-118.4199999999999
 40
1.0
 50
270.0
 51
360.0
 73
     1
 72
     1
 10
151.6516542509982
 20
-118.4199999999999
 11
151.6516542509982
 21
-111.2199999999999
 72
     2
 10
150.6516542509982
 20
-111.2199999999999
 40
1.0
 50
0.0
 51
90.0
 73
     1
 72
     1
 10
150.6516542509982
 20
-110.2199999999999
 11
148.9516542509982
 21
-110.2199999999999
 97
        8
330
120
330
D3
330
11E
330
D5
330
11F
330
D4
330
121
330
D6
 92
       16
 93
        6
 72
     1
 10
149.1516542509982
 20
-111.9699999999999
 11
149.1516542509982
 21
-117.65758746051
 72
     2
 10
149.8016542509982
 20
-117.65758746051
 40
0.6500000000000057
 50
180.0
 51
270.0
 73
     1
 72
     2
 10
149.8016542509982
 20
-117.65758746051
 40
0.6500000000000057
 50
270.0
 51
360.0
 73
     1
 72
     1
 10
150.4516542509982
 20
-117.65758746051
 11
150.4516542509982
 21
-111.9699999999999
 72
     2
 10
149.8016542509982
 20
-111.9699999999999
 40
0.6499999999999773
 50
0.0
 51
90.0
 73
     1
 72
     2
 10
149.8016542509982
 20
-111.9699999999999
 40
0.6500000000000057
 50
90.0
 51
180.0
 73
     1
 97
        6
330
10B
330
9A
330
109
330
10A
330
99
330
10C
 75
     1
 76
     0
 52
90.00000000000003
 41
0.15
 77
     0
 78
     1
 53
90.00000000000003
 43
0.0
 44
0.0
 45
-0.15
 46
-0.0000000000000001
 79
     0
 98
        1
 10
0.0
 20
0.0
  0
HATCH
  5
159
330
33
100
AcDbEntity
  8
1
  6
Continuous
 62
     2
100
AcDbHatch
 10
0.0
 20
0.0
 30
0.0
210
0.0
220
0.0
230
1.0
  2
_USER
 70
     0
 71
     1
 91
        1
 92
        1
 93
       11
 72
     1
 10
169.8516542509982
 20
-110.2199999999999
 11
169.8516542509982
 21
-113.8826635858394
 72
     1
 10
169.8516542509982
 20
-113.8826635858394
 11
171.0854042804337
 21
-110.2199999999999
 72
     1
 10
171.0854042804337
 20
-110.2199999999999
 11
172.3516542509982
 21
-110.2199999999999
 72
     1
 10
172.3516542509982
 20
-110.2199999999999
 11
170.9200628688759
 21
-114.4699999999999
 72
     1
 10
170.9200628688759
 20
-114.4699999999999
 11
172.3516542509982
 21
-119.4199999999999
 72
     1
 10
172.3516542509982
 20
-119.4199999999999
 11
171.1024763583806
 21
-119.4199999999999
 72
     1
 10
171.1024763583806
 20
-119.4199999999999
 11
169.8516542509982
 21
-115.0950442138285
 72
     1
 10
169.8516542509982
 20
-115.0950442138285
 11
169.8516542509982
 21
-119.4199999999999
 72
     1
 10
169.8516542509982
 20
-119.4199999999999
 11
168.6516542509982
 21
-119.4199999999999
 72
     1
 10
168.6516542509982
 20
-119.4199999999999
 11
168.6516542509982
 21
-110.2199999999999
 72
     1
 10
168.6516542509982
 20
-110.2199999999999
 11
169.8516542509982
 21
-110.2199999999999
 97
       11
330
72
330
74
330
76
330
78
330
77
330
75
330
73
330
71
330
C9
330
C8
330
CA
 75
     1
 76
     0
 52
90.00000000000003
 41
0.15
 77
     0
 78
     1
 53
90.00000000000003
 43
0.0
 44
0.0
 45
-0.15
 46
-0.0000000000000001
 79
     0
 98
        1
 10
0.0
 20
0.0
  0
HATCH
  5
15A
330
33
100
AcDbEntity
  8
1
  6
Continuous
 62
     2
100
AcDbHatch
 10
0.0
 20
0.0
 30
0.0
210
0.0
220
0.0
230
1.0
  2
_USER
 70
     0
 71
     1
 91
        1
 92
        1
 93
        6
 72
     1
 10
187.8516542509982
 20
-118.30758746051
 11
187.8516542509982
 21
-110.2199999999999
 72
     1
 10
187.8516542509982
 20
-110.2199999999999
 11
186.6516542509982
 21
-110.2199999999999
 72
     1
 10
186.6516542509982
 20
-110.2199999999999
 11
186.6516542509982
 21
-119.4199999999999
 72
     1
 10
186.6516542509982
 20
-119.4199999999999
 11
189.2516542509982
 21
-119.4199999999999
 72
     1
 10
189.2516542509982
 20
-119.4199999999999
 11
189.2516542509982
 21
-118.30758746051
 72
     1
 10
189.2516542509982
 20
-118.30758746051
 11
187.8516542509982
 21
-118.30758746051
 97
        6
330
BB
330
BC
330
BD
330
BA
330
7E
330
7D
 75
     1
 76
     0
 52
90.00000000000003
 41
0.15
 77
     0
 78
     1
 53
90.00000000000003
 43
0.0
 44
0.0
 45
-0.15
 46
-0.0000000000000001
 79
     0
 98
        1
 10
0.0
 20
0.0
  0
HATCH
  5
15B
330
33
100
AcDbEntity
  8
1
  6
Continuous
 62
     2
100
AcDbHatch
 10
0.0
 20
0.0
 30
0.0
210
0.0
220
0.0
230
1.0
  2
_USER
 70
     0
 71
     1
 91
        1
 92
        1
 93
       12
 72
     1
 10
144.5516542509982
 20
-110.2199999999999
 11
144.5516542509982
 21
-119.4199999999999
 72
     1
 10
144.5516542509982
 20
-119.4199999999999
 11
147.1516542509982
 21
-119.4199999999999
 72
     1
 10
147.1516542509982
 20
-119.4199999999999
 11
147.1516542509982
 21
-118.30758746051
 72
     1
 10
147.1516542509982
 20
-118.30758746051
 11
145.8516542509982
 21
-118.30758746051
 72
     1
 10
145.8516542509982
 20
-118.30758746051
 11
145.8516542509982
 21
-115.0199999999999
 72
     1
 10
145.8516542509982
 20
-115.0199999999999
 11
147.1516542509982
 21
-115.0199999999999
 72
     1
 10
147.1516542509982
 20
-115.0199999999999
 11
147.1516542509982
 21
-113.9199999999999
 72
     1
 10
147.1516542509982
 20
-113.9199999999999
 11
145.8516542509982
 21
-113.9199999999999
 72
     1
 10
145.8516542509982
 20
-113.9199999999999
 11
145.8516542509982
 21
-111.3199999999999
 72
     1
 10
145.8516542509982
 20
-111.3199999999999
 11
147.1516542509982
 21
-111.3199999999999
 72
     1
 10
147.1516542509982
 20
-111.3199999999999
 11
147.1516542509982
 21
-110.2199999999999
 72
     1
 10
147.1516542509982
 20
-110.2199999999999
 11
144.5516542509982
 21
-110.2199999999999
 97
       12
330
9B
330
9C
330
E4
330
E6
330
E7
330
E8
330
E9
330
E5
330
DA
330
DB
330
DC
330
DD
 75
     1
 76
     0
 52
90.00000000000003
 41
0.15
 77
     0
 78
     1
 53
90.00000000000003
 43
0.0
 44
0.0
 45
-0.15
 46
-0.0000000000000001
 79
     0
 98
        1
 10
0.0
 20
0.0
  0
HATCH
  5
15C
330
33
100
AcDbEntity
  8
1
  6
Continuous
 62
     2
100
AcDbHatch
 10
0.0
 20
0.0
 30
0.0
210
0.0
220
0.0
230
1.0
  2
_USER
 70
     0
 71
     1
 91
        1
 92
        1
 93
        4
 72
     1
 10
163.4516542509982
 20
-110.2199999999999
 11
163.4516542509982
 21
-119.4199999999999
 72
     1
 10
163.4516542509982
 20
-119.4199999999999
 11
164.6516542509982
 21
-119.4199999999999
 72
     1
 10
164.6516542509982
 20
-119.4199999999999
 11
164.6516542509982
 21
-110.2199999999999
 72
     1
 10
164.6516542509982
 20
-110.2199999999999
 11
163.4516542509982
 21
-110.2199999999999
 97
        4
330
A4
330
9D
330
A3
330
A6
 75
     1
 76
     0
 52
90.00000000000003
 41
0.15
 77
     0
 78
     1
 53
90.00000000000003
 43
0.0
 44
0.0
 45
-0.15
 46
-0.0000000000000001
 79
     0
 98
        1
 10
0.0
 20
0.0
  0
HATCH
  5
15D
330
33
100
AcDbEntity
  8
1
  6
Continuous
 62
     2
100
AcDbHatch
 10
0.0
 20
0.0
 30
0.0
210
0.0
220
0.0
230
1.0
  2
_USER
 70
     0
 71
     1
 91
        1
 92
        1
 93
        4
 72
     1
 10
161.4516542509982
 20
-110.2199999999999
 11
161.4516542509982
 21
-119.4199999999999
 72
     1
 10
161.4516542509982
 20
-119.4199999999999
 11
162.6516542509982
 21
-119.4199999999999
 72
     1
 10
162.6516542509982
 20
-119.4199999999999
 11
162.6516542509982
 21
-110.2199999999999
 72
     1
 10
162.6516542509982
 20
-110.2199999999999
 11
161.4516542509982
 21
-110.2199999999999
 97
        4
330
A2
330
A5
330
A1
330
A7
 75
     1
 76
     0
 52
90.00000000000003
 41
0.15
 77
     0
 78
     1
 53
90.00000000000003
 43
0.0
 44
0.0
 45
-0.15
 46
-0.0000000000000001
 79
     0
 98
        1
 10
0.0
 20
0.0
  0
ENDBLK
  5
35
330
33
100
AcDbEntity
  8
0
100
AcDbBlockEnd
  0
BLOCK
  5
37
330
36
100
AcDbEntity
  8
0
100
AcDbBlockBegin
  2
M2_5x6_DIN_7985
 70
     0
 71
     0
 10
7.243392
 20
64.7439185
 30
0.0
  3
M2_5x6_DIN_7985
  1

  0
LINE
  5
15E
330
36
100
AcDbEntity
  8
1
  6
Continuous
 62
     7
100
AcDbLine
 10
12.1333190000003
 20
68.49393578089033
 30
0.0
 11
12.1333190000003
 21
67.54392078089032
 31
0.0
  0
LINE
  5
15F
330
36
100
AcDbEntity
  8
1
  6
Continuous
 62
     7
100
AcDbLine
 10
10.9833410000003
 20
68.49393578089033
 30
0.0
 11
12.1333190000003
 21
68.49393578089033
 31
0.0
  0
LINE
  5
160
330
36
100
AcDbEntity
  8
1
  6
Continuous
 62
     7
100
AcDbLine
 10
12.1333190000003
 20
67.54392078089032
 30
0.0
 11
12.5333430000003
 21
67.54392078089032
 31
0.0
  0
LINE
  5
161
330
36
100
AcDbEntity
  8
1
  6
Continuous
 62
     7
100
AcDbLine
 10
14.08332100000028
 20
68.09393578089032
 30
0.0
 11
12.5333430000003
 21
68.09393578089032
 31
0.0
  0
LINE
  5
162
330
36
100
AcDbEntity
  8
1
  6
Continuous
 62
     7
100
AcDbLine
 10
12.1333190000003
 20
68.09393578089032
 30
0.0
 11
10.58334100000029
 21
68.09393578089032
 31
0.0
  0
LINE
  5
163
330
36
100
AcDbEntity
  8
1
  6
Continuous
 62
     7
100
AcDbLine
 10
12.5333430000003
 20
68.49393578089033
 30
0.0
 11
13.68332100000029
 21
68.49393578089033
 31
0.0
  0
LINE
  5
164
330
36
100
AcDbEntity
  8
1
  6
Continuous
 62
     7
100
AcDbLine
 10
10.9833410000003
 20
68.49393578089033
 30
0.0
 11
10.58334100000029
 21
68.09393578089032
 31
0.0
  0
LINE
  5
165
330
36
100
AcDbEntity
  8
1
  6
Continuous
 62
     7
100
AcDbLine
 10
10.58334100000029
 20
68.09393578089032
 30
0.0
 11
10.58334100000029
 21
66.99393078089031
 31
0.0
  0
LINE
  5
166
330
36
100
AcDbEntity
  8
1
  6
Continuous
 62
     7
100
AcDbLine
 10
14.08332100000028
 20
66.99393078089031
 30
0.0
 11
14.08332100000028
 21
68.09393578089032
 31
0.0
  0
LINE
  5
167
330
36
100
AcDbEntity
  8
1
  6
Continuous
 62
     7
100
AcDbLine
 10
10.6174470000003
 20
66.99393078089031
 30
0.0
 11
14.08332100000028
 21
66.99393078089031
 31
0.0
  0
LINE
  5
168
330
36
100
AcDbEntity
  8
1
  6
Continuous
 62
     7
100
AcDbLine
 10
12.5333430000003
 20
67.54392078089032
 30
0.0
 11
12.5333430000003
 21
68.49393578089033
 31
0.0
  0
LINE
  5
169
330
36
100
AcDbEntity
  8
1
  6
Continuous
 62
     7
100
AcDbLine
 10
14.08332100000028
 20
68.09393578089032
 30
0.0
 11
13.68332100000029
 21
68.49393578089033
 31
0.0
  0
LINE
  5
16A
330
36
100
AcDbEntity
  8
1
  6
Continuous
 62
     7
100
AcDbLine
 10
32.33231600000033
 20
67.54392078089032
 30
0.0
 11
32.33231600000033
 21
68.49393578089033
 31
0.0
  0
LINE
  5
16B
330
36
100
AcDbEntity
  8
1
  6
Continuous
 62
     7
100
AcDbLine
 10
32.33231600000033
 20
68.49393578089033
 30
0.0
 11
33.48229400000032
 21
68.49393578089033
 31
0.0
  0
LINE
  5
16C
330
36
100
AcDbEntity
  8
1
  6
Continuous
 62
     7
100
AcDbLine
 10
31.93229200000032
 20
67.54392078089032
 30
0.0
 11
32.33231600000033
 21
67.54392078089032
 31
0.0
  0
LINE
  5
16D
330
36
100
AcDbEntity
  8
1
  6
Continuous
 62
     7
100
AcDbLine
 10
31.93229200000032
 20
68.09393578089032
 30
0.0
 11
30.38231400000034
 21
68.09393578089032
 31
0.0
  0
LINE
  5
16E
330
36
100
AcDbEntity
  8
1
  6
Continuous
 62
     7
100
AcDbLine
 10
33.88229400000034
 20
68.09393578089032
 30
0.0
 11
32.33231600000033
 21
68.09393578089032
 31
0.0
  0
LINE
  5
16F
330
36
100
AcDbEntity
  8
1
  6
Continuous
 62
     7
100
AcDbLine
 10
30.78231400000035
 20
68.49393578089033
 30
0.0
 11
31.93229200000032
 21
68.49393578089033
 31
0.0
  0
LINE
  5
170
330
36
100
AcDbEntity
  8
1
  6
Continuous
 62
     7
100
AcDbLine
 10
33.88229400000034
 20
68.09393578089032
 30
0.0
 11
33.48229400000032
 21
68.49393578089033
 31
0.0
  0
LINE
  5
171
330
36
100
AcDbEntity
  8
1
  6
Continuous
 62
     7
100
AcDbLine
 10
33.88229400000034
 20
66.99393078089031
 30
0.0
 11
33.88229400000034
 21
68.09393578089032
 31
0.0
  0
LINE
  5
172
330
36
100
AcDbEntity
  8
1
  6
Continuous
 62
     7
100
AcDbLine
 10
30.38231400000034
 20
68.09393578089032
 30
0.0
 11
30.38231400000034
 21
66.99393078089031
 31
0.0
  0
LINE
  5
173
330
36
100
AcDbEntity
  8
1
  6
Continuous
 62
     7
100
AcDbLine
 10
30.38231400000034
 20
66.99393078089031
 30
0.0
 11
33.84818800000032
 21
66.99393078089031
 31
0.0
  0
LINE
  5
174
330
36
100
AcDbEntity
  8
1
  6
Continuous
 62
     7
100
AcDbLine
 10
31.93229200000032
 20
68.49393578089033
 30
0.0
 11
31.93229200000032
 21
67.54392078089032
 31
0.0
  0
LINE
  5
175
330
36
100
AcDbEntity
  8
1
  6
Continuous
 62
     7
100
AcDbLine
 10
30.78231400000035
 20
68.49393578089033
 30
0.0
 11
30.38231400000034
 21
68.09393578089032
 31
0.0
  0
LINE
  5
176
330
36
100
AcDbEntity
  8
1
  6
Continuous
 62
     7
100
AcDbLine
 10
122.511241243971
 20
66.99391849999992
 30
0.0
 11
122.511241243971
 21
67.54390849999993
 31
0.0
  0
LINE
  5
177
330
36
100
AcDbEntity
  8
1
  6
Continuous
 62
     7
100
AcDbLine
 10
121.908613243971
 20
68.49392349999991
 30
0.0
 11
122.096344243971
 21
68.49392349999991
 31
0.0
  0
LINE
  5
178
330
36
100
AcDbEntity
  8
1
  6
Continuous
 62
     7
100
AcDbLine
 10
120.488860243971
 20
68.49392349999991
 30
0.0
 11
121.033642243971
 21
68.49392349999991
 31
0.0
  0
LINE
  5
179
330
36
100
AcDbEntity
  8
1
  6
Continuous
 62
     7
100
AcDbLine
 10
119.426158243971
 20
68.49392349999991
 30
0.0
 11
119.613889243971
 21
68.49392349999991
 31
0.0
  0
LINE
  5
17A
330
36
100
AcDbEntity
  8
1
  6
Continuous
 62
     7
100
AcDbLine
 10
119.014119243971
 20
67.54390849999993
 30
0.0
 11
119.022719243971
 21
67.54390849999993
 31
0.0
  0
LINE
  5
17B
330
36
100
AcDbEntity
  8
1
  6
Continuous
 62
     7
100
AcDbLine
 10
119.207882243971
 20
68.09392349999993
 30
0.0
 11
119.022719243971
 21
68.09392349999993
 31
0.0
  0
LINE
  5
17C
330
36
100
AcDbEntity
  8
1
  6
Continuous
 62
     7
100
AcDbLine
 10
120.761251243971
 20
68.09392349999993
 30
0.0
 11
120.138130243971
 21
68.09392349999993
 31
0.0
  0
LINE
  5
17D
330
36
100
AcDbEntity
  8
1
  6
Continuous
 62
     7
100
AcDbLine
 10
122.314620243971
 20
68.09392349999993
 30
0.0
 11
121.925836243971
 21
68.09392349999993
 31
0.0
  0
LINE
  5
17E
330
36
100
AcDbEntity
  8
1
  6
Continuous
 62
     7
100
AcDbLine
 10
119.022719243971
 20
68.09392349999993
 30
0.0
 11
119.426158243971
 21
68.49392349999991
 31
0.0
  0
LINE
  5
17F
330
36
100
AcDbEntity
  8
1
  6
Continuous
 62
     7
100
AcDbLine
 10
121.033642243971
 20
68.49392349999991
 30
0.0
 11
121.534048243971
 21
68.49392349999991
 31
0.0
  0
LINE
  5
180
330
36
100
AcDbEntity
  8
1
  6
Continuous
 62
     7
100
AcDbLine
 10
119.613889243971
 20
68.49392349999991
 30
0.0
 11
119.988454243971
 21
68.49392349999991
 31
0.0
  0
LINE
  5
181
330
36
100
AcDbEntity
  8
1
  6
Continuous
 62
     7
100
AcDbLine
 10
122.499783243971
 20
67.54390849999993
 30
0.0
 11
122.508383243971
 21
67.54390849999993
 31
0.0
  0
LINE
  5
182
330
36
100
AcDbEntity
  8
1
  6
Continuous
 62
     7
100
AcDbLine
 10
119.022719243971
 20
67.54390849999993
 30
0.0
 11
119.022719243971
 21
68.09392349999993
 31
0.0
  0
LINE
  5
183
330
36
100
AcDbEntity
  8
1
  6
Continuous
 62
     7
100
AcDbLine
 10
120.138130243971
 20
68.09392349999993
 30
0.0
 11
119.596666243971
 21
68.09392349999993
 31
0.0
  0
LINE
  5
184
330
36
100
AcDbEntity
  8
1
  6
Continuous
 62
     7
100
AcDbLine
 10
121.925836243971
 20
68.09392349999993
 30
0.0
 11
121.384372243971
 21
68.09392349999993
 31
0.0
  0
LINE
  5
185
330
36
100
AcDbEntity
  8
1
  6
Continuous
 62
     7
100
AcDbLine
 10
122.499783243971
 20
68.09392349999993
 30
0.0
 11
122.499783243971
 21
67.54390849999993
 31
0.0
  0
LINE
  5
186
330
36
100
AcDbEntity
  8
1
  6
Continuous
 62
     7
100
AcDbLine
 10
119.011261243971
 20
67.54390849999993
 30
0.0
 11
119.011261243971
 21
66.99391849999992
 31
0.0
  0
LINE
  5
187
330
36
100
AcDbEntity
  8
1
  6
Continuous
 62
     7
100
AcDbLine
 10
122.096344243971
 20
68.49392349999991
 30
0.0
 11
122.499783243971
 21
68.09392349999993
 31
0.0
  0
LINE
  5
188
330
36
100
AcDbEntity
  8
1
  6
Continuous
 62
     7
100
AcDbLine
 10
119.045367243971
 20
66.99391849999992
 30
0.0
 11
122.511241243971
 21
66.99391849999992
 31
0.0
  0
LINE
  5
189
330
36
100
AcDbEntity
  8
1
  6
Continuous
 62
     7
100
AcDbLine
 10
121.534048243971
 20
68.49392349999991
 30
0.0
 11
121.908613243971
 21
68.49392349999991
 31
0.0
  0
LINE
  5
18A
330
36
100
AcDbEntity
  8
1
  6
Continuous
 62
     7
100
AcDbLine
 10
119.988454243971
 20
68.49392349999991
 30
0.0
 11
120.488860243971
 21
68.49392349999991
 31
0.0
  0
LINE
  5
18B
330
36
100
AcDbEntity
  8
1
  6
Continuous
 62
     7
100
AcDbLine
 10
122.508383243971
 20
67.54390849999993
 30
0.0
 11
122.511241243971
 21
67.54390849999993
 31
0.0
  0
LINE
  5
18C
330
36
100
AcDbEntity
  8
1
  6
Continuous
 62
     7
100
AcDbLine
 10
119.011261243971
 20
67.54390849999993
 30
0.0
 11
119.014119243971
 21
67.54390849999993
 31
0.0
  0
LINE
  5
18D
330
36
100
AcDbEntity
  8
1
  6
Continuous
 62
     7
100
AcDbLine
 10
119.596666243971
 20
68.09392349999993
 30
0.0
 11
119.207882243971
 21
68.09392349999993
 31
0.0
  0
LINE
  5
18E
330
36
100
AcDbEntity
  8
1
  6
Continuous
 62
     7
100
AcDbLine
 10
121.384372243971
 20
68.09392349999993
 30
0.0
 11
120.761251243971
 21
68.09392349999993
 31
0.0
  0
LINE
  5
18F
330
36
100
AcDbEntity
  8
1
  6
Continuous
 62
     7
100
AcDbLine
 10
122.499783243971
 20
68.09392349999993
 30
0.0
 11
122.314620243971
 21
68.09392349999993
 31
0.0
  0
LINE
  5
190
330
36
100
AcDbEntity
  8
1
  6
Continuous
 62
     7
100
AcDbLine
 10
141.895353243971
 20
68.49392349999991
 30
0.0
 11
142.298768243971
 21
68.09392349999993
 31
0.0
  0
LINE
  5
191
330
36
100
AcDbEntity
  8
1
  6
Continuous
 62
     7
100
AcDbLine
 10
141.333033243971
 20
68.49392349999991
 30
0.0
 11
141.707598243971
 21
68.49392349999991
 31
0.0
  0
LINE
  5
192
330
36
100
AcDbEntity
  8
1
  6
Continuous
 62
     7
100
AcDbLine
 10
139.787463243971
 20
68.49392349999991
 30
0.0
 11
140.287869243971
 21
68.49392349999991
 31
0.0
  0
LINE
  5
193
330
36
100
AcDbEntity
  8
1
  6
Continuous
 62
     7
100
AcDbLine
 10
142.307368243971
 20
67.54390849999993
 30
0.0
 11
142.310250243971
 21
67.54390849999993
 31
0.0
  0
LINE
  5
194
330
36
100
AcDbEntity
  8
1
  6
Continuous
 62
     7
100
AcDbLine
 10
138.810246243971
 20
67.54390849999993
 30
0.0
 11
138.813104243971
 21
67.54390849999993
 31
0.0
  0
LINE
  5
195
330
36
100
AcDbEntity
  8
1
  6
Continuous
 62
     7
100
AcDbLine
 10
139.395651243971
 20
68.09392349999993
 30
0.0
 11
139.006867243971
 21
68.09392349999993
 31
0.0
  0
LINE
  5
196
330
36
100
AcDbEntity
  8
1
  6
Continuous
 62
     7
100
AcDbLine
 10
141.183381243971
 20
68.09392349999993
 30
0.0
 11
140.560236243971
 21
68.09392349999993
 31
0.0
  0
LINE
  5
197
330
36
100
AcDbEntity
  8
1
  6
Continuous
 62
     7
100
AcDbLine
 10
142.298768243971
 20
68.09392349999993
 30
0.0
 11
142.113605243971
 21
68.09392349999993
 31
0.0
  0
LINE
  5
198
330
36
100
AcDbEntity
  8
1
  6
Continuous
 62
     7
100
AcDbLine
 10
138.810246243971
 20
66.99391849999992
 30
0.0
 11
142.276120243971
 21
66.99391849999992
 31
0.0
  0
LINE
  5
199
330
36
100
AcDbEntity
  8
1
  6
Continuous
 62
     7
100
AcDbLine
 10
141.707598243971
 20
68.49392349999991
 30
0.0
 11
141.895353243971
 21
68.49392349999991
 31
0.0
  0
LINE
  5
19A
330
36
100
AcDbEntity
  8
1
  6
Continuous
 62
     7
100
AcDbLine
 10
140.287869243971
 20
68.49392349999991
 30
0.0
 11
140.832627243971
 21
68.49392349999991
 31
0.0
  0
LINE
  5
19B
330
36
100
AcDbEntity
  8
1
  6
Continuous
 62
     7
100
AcDbLine
 10
139.225143243971
 20
68.49392349999991
 30
0.0
 11
139.412874243971
 21
68.49392349999991
 31
0.0
  0
LINE
  5
19C
330
36
100
AcDbEntity
  8
1
  6
Continuous
 62
     7
100
AcDbLine
 10
138.813104243971
 20
67.54390849999993
 30
0.0
 11
138.821704243971
 21
67.54390849999993
 31
0.0
  0
LINE
  5
19D
330
36
100
AcDbEntity
  8
1
  6
Continuous
 62
     7
100
AcDbLine
 10
139.006867243971
 20
68.09392349999993
 30
0.0
 11
138.821704243971
 21
68.09392349999993
 31
0.0
  0
LINE
  5
19E
330
36
100
AcDbEntity
  8
1
  6
Continuous
 62
     7
100
AcDbLine
 10
140.560236243971
 20
68.09392349999993
 30
0.0
 11
139.937115243971
 21
68.09392349999993
 31
0.0
  0
LINE
  5
19F
330
36
100
AcDbEntity
  8
1
  6
Continuous
 62
     7
100
AcDbLine
 10
142.113605243971
 20
68.09392349999993
 30
0.0
 11
141.724821243971
 21
68.09392349999993
 31
0.0
  0
LINE
  5
1A0
330
36
100
AcDbEntity
  8
1
  6
Continuous
 62
     7
100
AcDbLine
 10
138.810246243971
 20
67.54390849999993
 30
0.0
 11
138.810246243971
 21
66.99391849999992
 31
0.0
  0
LINE
  5
1A1
330
36
100
AcDbEntity
  8
1
  6
Continuous
 62
     7
100
AcDbLine
 10
142.310250243971
 20
66.99391849999992
 30
0.0
 11
142.310250243971
 21
67.54390849999993
 31
0.0
  0
LINE
  5
1A2
330
36
100
AcDbEntity
  8
1
  6
Continuous
 62
     7
100
AcDbLine
 10
138.821704243971
 20
68.09392349999993
 30
0.0
 11
139.225143243971
 21
68.49392349999991
 31
0.0
  0
LINE
  5
1A3
330
36
100
AcDbEntity
  8
1
  6
Continuous
 62
     7
100
AcDbLine
 10
140.832627243971
 20
68.49392349999991
 30
0.0
 11
141.333033243971
 21
68.49392349999991
 31
0.0
  0
LINE
  5
1A4
330
36
100
AcDbEntity
  8
1
  6
Continuous
 62
     7
100
AcDbLine
 10
139.412874243971
 20
68.49392349999991
 30
0.0
 11
139.787463243971
 21
68.49392349999991
 31
0.0
  0
LINE
  5
1A5
330
36
100
AcDbEntity
  8
1
  6
Continuous
 62
     7
100
AcDbLine
 10
142.298768243971
 20
67.54390849999993
 30
0.0
 11
142.307368243971
 21
67.54390849999993
 31
0.0
  0
LINE
  5
1A6
330
36
100
AcDbEntity
  8
1
  6
Continuous
 62
     7
100
AcDbLine
 10
138.821704243971
 20
67.54390849999993
 30
0.0
 11
138.821704243971
 21
68.09392349999993
 31
0.0
  0
LINE
  5
1A7
330
36
100
AcDbEntity
  8
1
  6
Continuous
 62
     7
100
AcDbLine
 10
139.937115243971
 20
68.09392349999993
 30
0.0
 11
139.395651243971
 21
68.09392349999993
 31
0.0
  0
LINE
  5
1A8
330
36
100
AcDbEntity
  8
1
  6
Continuous
 62
     7
100
AcDbLine
 10
141.724821243971
 20
68.09392349999993
 30
0.0
 11
141.183381243971
 21
68.09392349999993
 31
0.0
  0
LINE
  5
1A9
330
36
100
AcDbEntity
  8
1
  6
Continuous
 62
     7
100
AcDbLine
 10
142.298768243971
 20
68.09392349999993
 30
0.0
 11
142.298768243971
 21
67.54390849999993
 31
0.0
  0
LINE
  5
1AA
330
36
100
AcDbEntity
  8
1
  6
DOT_CENTER
 62
     2
100
AcDbLine
 10
12.33333100000029
 20
70.09393578089032
 30
0.0
 11
12.33333100000029
 21
64.99393078089031
 31
0.0
  0
LINE
  5
1AB
330
36
100
AcDbEntity
  8
1
  6
DOT_CENTER
 62
     2
100
AcDbLine
 10
32.13230400000033
 20
64.99393078089031
 30
0.0
 11
32.13230400000033
 21
70.09393578089032
 31
0.0
  0
LINE
  5
1AC
330
36
100
AcDbEntity
  8
1
  6
DOT_CENTER
 62
     2
100
AcDbLine
 10
120.755522243971
 20
70.09392349999993
 30
0.0
 11
120.755522243971
 21
64.99391849999992
 31
0.0
  0
LINE
  5
1AD
330
36
100
AcDbEntity
  8
1
  6
DOT_CENTER
 62
     2
100
AcDbLine
 10
140.5602362439711
 20
65.54390849999993
 30
0.0
 11
140.5602362439709
 21
70.09392349999993
 31
0.0
  0
LINE
  5
1AE
330
36
100
AcDbEntity
  8
1
  6
Continuous
 62
     7
100
AcDbLine
 10
165.810233243971
 20
67.54390849999993
 30
0.0
 11
165.810233243971
 21
66.99391849999992
 31
0.0
  0
LINE
  5
1AF
330
36
100
AcDbEntity
  8
1
  6
Continuous
 62
     7
100
AcDbLine
 10
166.225130243971
 20
68.49392349999991
 30
0.0
 11
166.412861243971
 21
68.49392349999991
 31
0.0
  0
LINE
  5
1B0
330
36
100
AcDbEntity
  8
1
  6
Continuous
 62
     7
100
AcDbLine
 10
167.287832243971
 20
68.49392349999991
 30
0.0
 11
167.832614243971
 21
68.49392349999991
 31
0.0
  0
LINE
  5
1B1
330
36
100
AcDbEntity
  8
1
  6
Continuous
 62
     7
100
AcDbLine
 10
168.707585243971
 20
68.49392349999991
 30
0.0
 11
168.895316243971
 21
68.49392349999991
 31
0.0
  0
LINE
  5
1B2
330
36
100
AcDbEntity
  8
1
  6
Continuous
 62
     7
100
AcDbLine
 10
169.298755243971
 20
67.54390849999993
 30
0.0
 11
169.307355243971
 21
67.54390849999993
 31
0.0
  0
LINE
  5
1B3
330
36
100
AcDbEntity
  8
1
  6
Continuous
 62
     7
100
AcDbLine
 10
169.298755243971
 20
68.09392349999993
 30
0.0
 11
169.113592243971
 21
68.09392349999993
 31
0.0
  0
LINE
  5
1B4
330
36
100
AcDbEntity
  8
1
  6
Continuous
 62
     7
100
AcDbLine
 10
168.183344243971
 20
68.09392349999993
 30
0.0
 11
167.560223243971
 21
68.09392349999993
 31
0.0
  0
LINE
  5
1B5
330
36
100
AcDbEntity
  8
1
  6
Continuous
 62
     7
100
AcDbLine
 10
166.395638243971
 20
68.09392349999993
 30
0.0
 11
166.006854243971
 21
68.09392349999993
 31
0.0
  0
LINE
  5
1B6
330
36
100
AcDbEntity
  8
1
  6
Continuous
 62
     7
100
AcDbLine
 10
168.895316243971
 20
68.49392349999991
 30
0.0
 11
169.298755243971
 21
68.09392349999993
 31
0.0
  0
LINE
  5
1B7
330
36
100
AcDbEntity
  8
1
  6
Continuous
 62
     7
100
AcDbLine
 10
166.787426243971
 20
68.49392349999991
 30
0.0
 11
167.287832243971
 21
68.49392349999991
 31
0.0
  0
LINE
  5
1B8
330
36
100
AcDbEntity
  8
1
  6
Continuous
 62
     7
100
AcDbLine
 10
168.333020243971
 20
68.49392349999991
 30
0.0
 11
168.707585243971
 21
68.49392349999991
 31
0.0
  0
LINE
  5
1B9
330
36
100
AcDbEntity
  8
1
  6
Continuous
 62
     7
100
AcDbLine
 10
165.813091243971
 20
67.54390849999993
 30
0.0
 11
165.821691243971
 21
67.54390849999993
 31
0.0
  0
LINE
  5
1BA
330
36
100
AcDbEntity
  8
1
  6
Continuous
 62
     7
100
AcDbLine
 10
169.298755243971
 20
68.09392349999993
 30
0.0
 11
169.298755243971
 21
67.54390849999993
 31
0.0
  0
LINE
  5
1BB
330
36
100
AcDbEntity
  8
1
  6
Continuous
 62
     7
100
AcDbLine
 10
168.724808243971
 20
68.09392349999993
 30
0.0
 11
168.183344243971
 21
68.09392349999993
 31
0.0
  0
LINE
  5
1BC
330
36
100
AcDbEntity
  8
1
  6
Continuous
 62
     7
100
AcDbLine
 10
166.937102243971
 20
68.09392349999993
 30
0.0
 11
166.395638243971
 21
68.09392349999993
 31
0.0
  0
LINE
  5
1BD
330
36
100
AcDbEntity
  8
1
  6
Continuous
 62
     7
100
AcDbLine
 10
165.821691243971
 20
67.54390849999993
 30
0.0
 11
165.821691243971
 21
68.09392349999993
 31
0.0
  0
LINE
  5
1BE
330
36
100
AcDbEntity
  8
1
  6
Continuous
 62
     7
100
AcDbLine
 10
169.310213243971
 20
66.99391849999992
 30
0.0
 11
169.310213243971
 21
67.54390849999993
 31
0.0
  0
LINE
  5
1BF
330
36
100
AcDbEntity
  8
1
  6
Continuous
 62
     7
100
AcDbLine
 10
165.821691243971
 20
68.09392349999993
 30
0.0
 11
166.225130243971
 21
68.49392349999991
 31
0.0
  0
LINE
  5
1C0
330
36
100
AcDbEntity
  8
1
  6
Continuous
 62
     7
100
AcDbLine
 10
165.810233243971
 20
66.99391849999992
 30
0.0
 11
169.276107243971
 21
66.99391849999992
 31
0.0
  0
LINE
  5
1C1
330
36
100
AcDbEntity
  8
1
  6
Continuous
 62
     7
100
AcDbLine
 10
166.412861243971
 20
68.49392349999991
 30
0.0
 11
166.787426243971
 21
68.49392349999991
 31
0.0
  0
LINE
  5
1C2
330
36
100
AcDbEntity
  8
1
  6
Continuous
 62
     7
100
AcDbLine
 10
167.832614243971
 20
68.49392349999991
 30
0.0
 11
168.333020243971
 21
68.49392349999991
 31
0.0
  0
LINE
  5
1C3
330
36
100
AcDbEntity
  8
1
  6
Continuous
 62
     7
100
AcDbLine
 10
165.810233243971
 20
67.54390849999993
 30
0.0
 11
165.813091243971
 21
67.54390849999993
 31
0.0
  0
LINE
  5
1C4
330
36
100
AcDbEntity
  8
1
  6
Continuous
 62
     7
100
AcDbLine
 10
169.307355243971
 20
67.54390849999993
 30
0.0
 11
169.310213243971
 21
67.54390849999993
 31
0.0
  0
LINE
  5
1C5
330
36
100
AcDbEntity
  8
1
  6
Continuous
 62
     7
100
AcDbLine
 10
169.113592243971
 20
68.09392349999993
 30
0.0
 11
168.724808243971
 21
68.09392349999993
 31
0.0
  0
LINE
  5
1C6
330
36
100
AcDbEntity
  8
1
  6
Continuous
 62
     7
100
AcDbLine
 10
167.560223243971
 20
68.09392349999993
 30
0.0
 11
166.937102243971
 21
68.09392349999993
 31
0.0
  0
LINE
  5
1C7
330
36
100
AcDbEntity
  8
1
  6
Continuous
 62
     7
100
AcDbLine
 10
166.006854243971
 20
68.09392349999993
 30
0.0
 11
165.821691243971
 21
68.09392349999993
 31
0.0
  0
LINE
  5
1C8
330
36
100
AcDbEntity
  8
1
  6
Continuous
 62
     7
100
AcDbLine
 10
146.022706243971
 20
68.09392349999993
 30
0.0
 11
146.426121243971
 21
68.49392349999991
 31
0.0
  0
LINE
  5
1C9
330
36
100
AcDbEntity
  8
1
  6
Continuous
 62
     7
100
AcDbLine
 10
146.613876243971
 20
68.49392349999991
 30
0.0
 11
146.988441243971
 21
68.49392349999991
 31
0.0
  0
LINE
  5
1CA
330
36
100
AcDbEntity
  8
1
  6
Continuous
 62
     7
100
AcDbLine
 10
148.033605243971
 20
68.49392349999991
 30
0.0
 11
148.534011243971
 21
68.49392349999991
 31
0.0
  0
LINE
  5
1CB
330
36
100
AcDbEntity
  8
1
  6
Continuous
 62
     7
100
AcDbLine
 10
146.011224243971
 20
67.54390849999993
 30
0.0
 11
146.014106243971
 21
67.54390849999993
 31
0.0
  0
LINE
  5
1CC
330
36
100
AcDbEntity
  8
1
  6
Continuous
 62
     7
100
AcDbLine
 10
149.508370243971
 20
67.54390849999993
 30
0.0
 11
149.511228243971
 21
67.54390849999993
 31
0.0
  0
LINE
  5
1CD
330
36
100
AcDbEntity
  8
1
  6
Continuous
 62
     7
100
AcDbLine
 10
149.314607243971
 20
68.09392349999993
 30
0.0
 11
148.925823243971
 21
68.09392349999993
 31
0.0
  0
LINE
  5
1CE
330
36
100
AcDbEntity
  8
1
  6
Continuous
 62
     7
100
AcDbLine
 10
147.761238243971
 20
68.09392349999993
 30
0.0
 11
147.138093243971
 21
68.09392349999993
 31
0.0
  0
LINE
  5
1CF
330
36
100
AcDbEntity
  8
1
  6
Continuous
 62
     7
100
AcDbLine
 10
146.207869243971
 20
68.09392349999993
 30
0.0
 11
146.022706243971
 21
68.09392349999993
 31
0.0
  0
LINE
  5
1D0
330
36
100
AcDbEntity
  8
1
  6
Continuous
 62
     7
100
AcDbLine
 10
146.045354243971
 20
66.99391849999992
 30
0.0
 11
149.511228243971
 21
66.99391849999992
 31
0.0
  0
LINE
  5
1D1
330
36
100
AcDbEntity
  8
1
  6
Continuous
 62
     7
100
AcDbLine
 10
146.426121243971
 20
68.49392349999991
 30
0.0
 11
146.613876243971
 21
68.49392349999991
 31
0.0
  0
LINE
  5
1D2
330
36
100
AcDbEntity
  8
1
  6
Continuous
 62
     7
100
AcDbLine
 10
147.488847243971
 20
68.49392349999991
 30
0.0
 11
148.033605243971
 21
68.49392349999991
 31
0.0
  0
LINE
  5
1D3
330
36
100
AcDbEntity
  8
1
  6
Continuous
 62
     7
100
AcDbLine
 10
148.908600243971
 20
68.49392349999991
 30
0.0
 11
149.096331243971
 21
68.49392349999991
 31
0.0
  0
LINE
  5
1D4
330
36
100
AcDbEntity
  8
1
  6
Continuous
 62
     7
100
AcDbLine
 10
149.499770243971
 20
67.54390849999993
 30
0.0
 11
149.508370243971
 21
67.54390849999993
 31
0.0
  0
LINE
  5
1D5
330
36
100
AcDbEntity
  8
1
  6
Continuous
 62
     7
100
AcDbLine
 10
149.499770243971
 20
68.09392349999993
 30
0.0
 11
149.314607243971
 21
68.09392349999993
 31
0.0
  0
LINE
  5
1D6
330
36
100
AcDbEntity
  8
1
  6
Continuous
 62
     7
100
AcDbLine
 10
148.384359243971
 20
68.09392349999993
 30
0.0
 11
147.761238243971
 21
68.09392349999993
 31
0.0
  0
LINE
  5
1D7
330
36
100
AcDbEntity
  8
1
  6
Continuous
 62
     7
100
AcDbLine
 10
146.596653243971
 20
68.09392349999993
 30
0.0
 11
146.207869243971
 21
68.09392349999993
 31
0.0
  0
LINE
  5
1D8
330
36
100
AcDbEntity
  8
1
  6
Continuous
 62
     7
100
AcDbLine
 10
149.511228243971
 20
66.99391849999992
 30
0.0
 11
149.511228243971
 21
67.54390849999993
 31
0.0
  0
LINE
  5
1D9
330
36
100
AcDbEntity
  8
1
  6
Continuous
 62
     7
100
AcDbLine
 10
146.011224243971
 20
67.54390849999993
 30
0.0
 11
146.011224243971
 21
66.99391849999992
 31
0.0
  0
LINE
  5
1DA
330
36
100
AcDbEntity
  8
1
  6
Continuous
 62
     7
100
AcDbLine
 10
149.096331243971
 20
68.49392349999991
 30
0.0
 11
149.499770243971
 21
68.09392349999993
 31
0.0
  0
LINE
  5
1DB
330
36
100
AcDbEntity
  8
1
  6
Continuous
 62
     7
100
AcDbLine
 10
146.988441243971
 20
68.49392349999991
 30
0.0
 11
147.488847243971
 21
68.49392349999991
 31
0.0
  0
LINE
  5
1DC
330
36
100
AcDbEntity
  8
1
  6
Continuous
 62
     7
100
AcDbLine
 10
148.534011243971
 20
68.49392349999991
 30
0.0
 11
148.908600243971
 21
68.49392349999991
 31
0.0
  0
LINE
  5
1DD
330
36
100
AcDbEntity
  8
1
  6
Continuous
 62
     7
100
AcDbLine
 10
146.014106243971
 20
67.54390849999993
 30
0.0
 11
146.022706243971
 21
67.54390849999993
 31
0.0
  0
LINE
  5
1DE
330
36
100
AcDbEntity
  8
1
  6
Continuous
 62
     7
100
AcDbLine
 10
149.499770243971
 20
68.09392349999993
 30
0.0
 11
149.499770243971
 21
67.54390849999993
 31
0.0
  0
LINE
  5
1DF
330
36
100
AcDbEntity
  8
1
  6
Continuous
 62
     7
100
AcDbLine
 10
148.925823243971
 20
68.09392349999993
 30
0.0
 11
148.384359243971
 21
68.09392349999993
 31
0.0
  0
LINE
  5
1E0
330
36
100
AcDbEntity
  8
1
  6
Continuous
 62
     7
100
AcDbLine
 10
147.138093243971
 20
68.09392349999993
 30
0.0
 11
146.596653243971
 21
68.09392349999993
 31
0.0
  0
LINE
  5
1E1
330
36
100
AcDbEntity
  8
1
  6
Continuous
 62
     7
100
AcDbLine
 10
146.022706243971
 20
67.54390849999993
 30
0.0
 11
146.022706243971
 21
68.09392349999993
 31
0.0
  0
LINE
  5
1E2
330
36
100
AcDbEntity
  8
1
  6
DOT_CENTER
 62
     2
100
AcDbLine
 10
167.565952243971
 20
64.99391849999992
 30
0.0
 11
167.565952243971
 21
70.09392349999993
 31
0.0
  0
LINE
  5
1E3
330
36
100
AcDbEntity
  8
1
  6
DOT_CENTER
 62
     2
100
AcDbLine
 10
147.7612382439711
 20
70.09392349999993
 30
0.0
 11
147.7612382439709
 21
65.54390849999993
 31
0.0
  0
ENDBLK
  5
38
330
36
100
AcDbEntity
  8
0
100
AcDbBlockEnd
  0
BLOCK
  5
3A
330
39
100
AcDbEntity
  8
0
100
AcDbBlockBegin
  2
O-Ring
 70
     0
 71
     0
 10
326.5718210988093
 20
15.90073817627872
 30
0.0
  3
O-Ring
  1

  0
LINE
  5
1E4
330
39
100
AcDbEntity
  8
1
  6
Continuous
 62
     7
100
AcDbLine
 10
47.20617800000026
 20
100.7913907905923
 30
0.0
 11
47.20617800000026
 21
101.3663907905922
 31
0.0
  0
LINE
  5
1E5
330
39
100
AcDbEntity
  8
1
  6
Continuous
 62
     7
100
AcDbLine
 10
47.20617800000026
 20
78.61639079059222
 30
0.0
 11
47.20617800000026
 21
79.19139079059222
 31
0.0
  0
ARC
  5
1E6
102
{ACAD_REACTORS
330
1EA
330
1EA
102
}
330
39
100
AcDbEntity
  8
1
  6
Continuous
 62
     7
100
AcDbCircle
 10
46.4061780000002
 20
101.3663907905922
 30
0.0
 40
0.7999999999999616
100
AcDbArc
 50
180.0
 51
0.0
  0
ARC
  5
1E7
102
{ACAD_REACTORS
330
1EA
330
1EA
102
}
330
39
100
AcDbEntity
  8
1
  6
Continuous
 62
     7
100
AcDbCircle
 10
46.4061780000002
 20
101.3663907905922
 30
0.0
 40
0.800000000000054
100
AcDbArc
 50
0.0
 51
180.0
  0
CIRCLE
  5
1E8
102
{ACAD_REACTORS
330
1E9
330
1E9
102
}
330
39
100
AcDbEntity
  8
1
  6
Continuous
 62
     7
100
AcDbCircle
 10
46.4061780000002
 20
78.61639079059222
 30
0.0
 40
0.800000000000054
  0
HATCH
  5
1E9
330
39
100
AcDbEntity
  8
1
  6
Continuous
 62
     2
100
AcDbHatch
 10
0.0
 20
0.0
 30
0.0
210
0.0
220
0.0
230
1.0
  2
CUSTOM0
 70
     0
 71
     1
 91
        1
 92
        1
 93
        1
 72
     2
 10
46.4061780000002
 20
78.61639079059222
 40
0.800000000000054
 50
0.0
 51
360.0
 73
     1
 97
        1
330
1E8
 75
     1
 76
     2
 52
45.0
 41
0.5
 77
     0
 78
     2
 53
45.0
 43
0.0
 44
0.0
 45
-0.7071067811865475
 46
0.0000000000000001
 79
     0
 53
135.0
 43
0.0
 44
0.0
 45
0.0000000000000003
 46
-0.7071067811865475
 79
     0
 98
        1
 10
0.0
 20
0.0
  0
HATCH
  5
1EA
330
39
100
AcDbEntity
  8
1
  6
Continuous
 62
     2
100
AcDbHatch
 10
0.0
 20
0.0
 30
0.0
210
0.0
220
0.0
230
1.0
  2
CUSTOM1
 70
     0
 71
     1
 91
        1
 92
        1
 93
        2
 72
     2
 10
46.4061780000002
 20
101.3663907905922
 40
0.7999999999999616
 50
180.0
 51
360.0
 73
     1
 72
     2
 10
46.4061780000002
 20
101.3663907905922
 40
0.800000000000054
 50
0.0
 51
180.0
 73
     1
 97
        2
330
1E6
330
1E7
 75
     1
 76
     2
 52
45.0
 41
0.5
 77
     0
 78
     2
 53
45.0
 43
0.0
 44
0.0
 45
-0.7071067811865475
 46
0.0000000000000001
 79
     0
 53
135.0
 43
0.0
 44
0.0
 45
0.0000000000000003
 46
-0.7071067811865475
 79
     0
 98
        1
 10
0.0
 20
0.0
  0
ENDBLK
  5
3B
330
39
100
AcDbEntity
  8
0
100
AcDbBlockEnd
  0
BLOCK
  5
3E
330
3C
100
AcDbEntity
  8
0
100
AcDbBlockBegin
  2
Winkelflanschdose_8-polig_drehbar
 70
     0
 71
     0
 10
392.746688887328
 20
134.6758920297913
 30
0.0
  3
Winkelflanschdose_8-polig_drehbar
  1

  0
INSERT
  5
3D
330
3C
100
AcDbEntity
  8
1
100
AcDbBlockReference
  2
O-Ring
 10
326.5718210988093
 20
15.90073817627872
 30
0.0
  0
POINT
  5
1EB
330
3C
100
AcDbEntity
  8
1
 62
     3
 60
     1
100
AcDbPoint
 10
118.5650678214092
 20
73.4939185
 30
0.0
  0
POINT
  5
1EC
330
3C
100
AcDbEntity
  8
1
 62
     3
 60
     1
100
AcDbPoint
 10
142.5650678214092
 20
73.4939185
 30
0.0
  0
POINT
  5
1ED
330
3C
100
AcDbEntity
  8
1
 62
     3
 60
     1
100
AcDbPoint
 10
34.99287800000026
 20
77.49393078089031
 30
0.0
  0
POINT
  5
1EE
330
3C
100
AcDbEntity
  8
1
 62
     3
 60
     1
100
AcDbPoint
 10
34.99287800000026
 20
73.49393078089031
 30
0.0
  0
POINT
  5
1EF
330
3C
100
AcDbEntity
  8
1
 62
     3
 60
     1
100
AcDbPoint
 10
34.99287800000026
 20
73.49393162223652
 30
0.0
  0
POINT
  5
1F0
330
3C
100
AcDbEntity
  8
1
 62
     3
 60
     1
100
AcDbPoint
 10
117.7150678214091
 20
66.9939185
 30
0.0
  0
POINT
  5
1F1
330
3C
100
AcDbEntity
  8
1
 62
     3
 60
     1
100
AcDbPoint
 10
117.7150678214091
 20
76.9939185
 30
0.0
  0
POINT
  5
1F2
330
3C
100
AcDbEntity
  8
1
 62
     3
 60
     1
100
AcDbPoint
 10
118.5650678214092
 20
76.9939185
 30
0.0
  0
LINE
  5
1F3
330
3C
100
AcDbEntity
  8
AM_VIS
  6
Continuous
 62
     7
100
AcDbLine
 10
10.14287800000023
 20
66.99393078089143
 30
0.0
 11
9.29287800000033
 21
66.99393078089193
 31
0.0
  0
LINE
  5
1F4
330
3C
100
AcDbEntity
  8
1
  6
DOT_CENTER
 62
     2
100
AcDbLine
 10
22.14287800000056
 20
64.2937518127957
 30
0.0
 11
22.142878
 21
68.99393078089349
 31
0.0
  0
LINE
  5
1F5
330
3C
100
AcDbEntity
  8
AM_VIS
  6
Continuous
 62
     2
100
AcDbLine
 10
10.14287800000023
 20
77.6166957808903
 30
0.0
 11
9.41976900000033
 21
77.6166957808903
 31
0.0
  0
LINE
  5
1F6
330
3C
100
AcDbEntity
  8
AM_VIS
  6
Continuous
 62
     7
100
AcDbLine
 10
10.14287800000023
 20
77.6166957808903
 30
0.0
 11
10.14287800000023
 21
66.99393078089143
 31
0.0
  0
LINE
  5
1F7
330
3C
100
AcDbEntity
  8
AM_VIS
  6
Continuous
 62
     7
100
AcDbLine
 10
34.99287800000047
 20
64.49393175754318
 30
0.0
 11
9.29287800000033
 21
64.49395719576259
 31
0.0
  0
LINE
  5
1F8
330
3C
100
AcDbEntity
  8
AM_VIS
  6
Continuous
 62
     7
100
AcDbLine
 10
34.99287800000047
 20
64.49393175754318
 30
0.0
 11
34.99287800000015
 21
66.9939307808902
 31
0.0
  0
LINE
  5
1F9
330
3C
100
AcDbEntity
  8
AM_VIS
  6
Continuous
 62
     7
100
AcDbLine
 10
31.9524230000002
 20
79.7176517508452
 30
0.0
 11
31.9524230000002
 21
68.49393578089041
 31
0.0
  0
LINE
  5
1FA
330
3C
100
AcDbEntity
  8
AM_VIS
  6
Continuous
 62
     7
100
AcDbLine
 10
12.33333100000029
 20
68.49393578089041
 30
0.0
 11
12.33333100000029
 21
79.5739307808903
 31
0.0
  0
LINE
  5
1FB
330
3C
100
AcDbEntity
  8
AM_VIS
  6
Continuous
 62
     2
100
AcDbLine
 10
9.30649386059237
 20
77.49393078089031
 30
0.0
 11
10.14287800000023
 21
77.49393078089031
 31
0.0
  0
LINE
  5
1FC
330
3C
100
AcDbEntity
  8
AM_VIS
  6
Continuous
 62
     7
100
AcDbLine
 10
12.33333100000029
 20
66.9939307808902
 30
0.0
 11
12.11922300000028
 21
66.9939307808902
 31
0.0
  0
LINE
  5
1FD
330
3C
100
AcDbEntity
  8
AM_VIS
  6
Continuous
 62
     7
100
AcDbLine
 10
12.11922300000028
 20
66.9939307808902
 30
0.0
 11
10.14287800000023
 21
66.99393078089143
 31
0.0
  0
LINE
  5
1FE
330
3C
100
AcDbEntity
  8
AM_VIS
  6
Continuous
 62
     7
100
AcDbLine
 10
32.1665340000002
 20
66.99393078089031
 30
0.0
 11
31.9524230000002
 21
66.99393078089031
 31
0.0
  0
LINE
  5
1FF
330
3C
100
AcDbEntity
  8
AM_VIS
  6
Continuous
 62
     7
100
AcDbLine
 10
31.9524230000002
 20
66.99393078089031
 30
0.0
 11
12.33333100000029
 21
66.9939307808902
 31
0.0
  0
LINE
  5
200
330
3C
100
AcDbEntity
  8
AM_VIS
  6
Continuous
 62
     7
100
AcDbLine
 10
120.7555224491446
 20
68.4939235
 30
0.0
 11
120.7555198214093
 21
79.0821335
 31
0.0
  0
LINE
  5
201
330
3C
100
AcDbEntity
  8
AM_VIS
  6
Continuous
 62
     2
100
AcDbLine
 10
44.80617800000029
 20
78.19545778089032
 30
0.0
 11
33.45686654663066
 21
78.19545778089032
 31
0.0
  0
LINE
  5
202
330
3C
100
AcDbEntity
  8
AM_VIS
  6
Continuous
 62
     7
100
AcDbLine
 10
61.00617800000039
 20
100.7939307808902
 30
0.0
 11
55.80617800000029
 21
100.7939307808902
 31
0.0
  0
LINE
  5
203
330
3C
100
AcDbEntity
  8
1
  6
Continuous
 62
     7
100
AcDbLine
 10
142.5650678214092
 20
66.9939185
 30
0.0
 11
117.7150678214091
 21
66.9939185
 31
0.0
  0
LINE
  5
204
330
3C
100
AcDbEntity
  8
AM_VIS
  6
Continuous
 62
     7
100
AcDbLine
 10
142.5650678214092
 20
73.4939185
 30
0.0
 11
142.5650678214092
 21
86.49393078089031
 31
0.0
  0
LINE
  5
205
330
3C
100
AcDbEntity
  8
AM_VIS
  6
Continuous
 62
     7
100
AcDbLine
 10
118.5650678214092
 20
73.4939185
 30
0.0
 11
118.5650678214092
 21
66.9939185
 31
0.0
  0
LINE
  5
206
330
3C
100
AcDbEntity
  8
1
  6
Continuous
 62
     7
100
AcDbLine
 10
142.5650678214092
 20
73.4939185
 30
0.0
 11
118.5650678214092
 21
73.4939185
 31
0.0
  0
LINE
  5
207
330
3C
100
AcDbEntity
  8
1
  6
Continuous
 62
     7
100
AcDbLine
 10
10.14287800000023
 20
73.49395537777221
 30
0.0
 11
15.23108800000025
 21
73.49395034139081
 31
0.0
  0
LINE
  5
208
330
3C
100
AcDbEntity
  8
AM_VIS
  6
Continuous
 62
     7
100
AcDbLine
 10
15.23108800000025
 20
82.3378529175258
 30
0.0
 11
15.23108800000025
 21
75.9939307808902
 31
0.0
  0
LINE
  5
209
330
3C
100
AcDbEntity
  8
1
  6
Continuous
 62
     7
100
AcDbLine
 10
17.23108800000025
 20
75.9939307808902
 30
0.0
 11
17.23108800000025
 21
66.9939307808902
 31
0.0
  0
LINE
  5
20A
330
3C
100
AcDbEntity
  8
AM_VIS
  6
Continuous
 62
     7
100
AcDbLine
 10
32.1665340000002
 20
66.99393078089031
 30
0.0
 11
31.9524230000002
 21
66.99393078089031
 31
0.0
  0
LINE
  5
20B
330
3C
100
AcDbEntity
  8
AM_VIS
  6
Continuous
 62
     2
100
AcDbLine
 10
31.04879300000028
 20
81.66444378089032
 30
0.0
 11
29.83286424108838
 21
81.66444378089032
 31
0.0
  0
LINE
  5
20C
330
3C
100
AcDbEntity
  8
AM_VIS
  6
Continuous
 62
     2
100
AcDbLine
 10
29.67242100000022
 20
82.4776327808903
 30
0.0
 11
28.89002417881751
 21
82.4776327808903
 31
0.0
  0
LINE
  5
20D
330
3C
100
AcDbEntity
  8
AM_VIS
  6
Continuous
 62
     7
100
AcDbLine
 10
29.05466800000034
 20
66.99393078089031
 30
0.0
 11
29.05466800000023
 21
82.27613078089031
 31
0.0
  0
LINE
  5
20E
330
3C
100
AcDbEntity
  8
AM_VIS
  6
Continuous
 62
     7
100
AcDbLine
 10
34.14287800000024
 20
73.49393162223652
 30
0.0
 11
34.14287800000024
 21
77.49393078089031
 31
0.0
  0
LINE
  5
20F
330
3C
100
AcDbEntity
  8
AM_VIS
  6
Continuous
 62
     7
100
AcDbLine
 10
28.51816000000031
 20
88.7785177808903
 30
0.0
 11
24.92746500000068
 21
88.7785177808903
 31
0.0
  0
LINE
  5
210
330
3C
100
AcDbEntity
  8
AM_VIS
  6
Continuous
 62
     2
100
AcDbLine
 10
28.74489300000028
 20
84.57057078089031
 30
0.0
 11
26.28568400000017
 21
84.57057078089031
 31
0.0
  0
LINE
  5
211
330
3C
100
AcDbEntity
  8
AM_VIS
  6
Continuous
 62
     2
100
AcDbLine
 10
28.58330600000024
 20
85.86524678089032
 30
0.0
 11
24.33286200000022
 21
85.86524678089032
 31
0.0
  0
LINE
  5
212
330
3C
100
AcDbEntity
  8
AM_VIS
  6
Continuous
 62
     2
100
AcDbLine
 10
19.95289500000025
 20
85.86524678089032
 30
0.0
 11
16.24523100000024
 21
85.86524678089032
 31
0.0
  0
LINE
  5
213
330
3C
100
AcDbEntity
  8
AM_VIS
  6
Continuous
 62
     2
100
AcDbLine
 10
28.51710600000025
 20
88.24634678089029
 30
0.0
 11
17.4159970000003
 21
88.24634678089029
 31
0.0
  0
LINE
  5
214
330
3C
100
AcDbEntity
  8
AM_VIS
  6
Continuous
 62
     2
100
AcDbLine
 10
28.99503500000026
 20
83.6428107808903
 30
0.0
 11
27.47357176026834
 21
83.6428107808903
 31
0.0
  0
LINE
  5
215
330
3C
100
AcDbEntity
  8
AM_VIS
  6
Continuous
 62
     7
100
AcDbLine
 10
12.33333100000029
 20
79.5739307808903
 30
0.0
 11
15.23109300000035
 21
79.5739307808903
 31
0.0
  0
LINE
  5
216
330
3C
100
AcDbEntity
  8
AM_VIS
  6
Continuous
 62
     2
100
AcDbLine
 10
14.45289175891209
 20
81.66444378089032
 30
0.0
 11
13.09797213322374
 21
81.66444378089032
 31
0.0
  0
LINE
  5
217
330
3C
100
AcDbEntity
  8
AM_VIS
  6
Continuous
 62
     2
100
AcDbLine
 10
10.23998210508013
 20
77.6166957808903
 30
0.0
 11
10.14287800000023
 21
77.6166957808903
 31
0.0
  0
LINE
  5
218
330
3C
100
AcDbEntity
  8
AM_VIS
  6
Continuous
 62
     2
100
AcDbLine
 10
10.50190552435051
 20
77.8900847808903
 30
0.0
 11
9.66691154476349
 21
77.8900847808903
 31
0.0
  0
LINE
  5
219
330
3C
100
AcDbEntity
  8
AM_VIS
  6
Continuous
 62
     2
100
AcDbLine
 10
10.79805984031999
 20
78.19545778089032
 30
0.0
 11
9.94473741416893
 21
78.19545778089032
 31
0.0
  0
LINE
  5
21A
330
3C
100
AcDbEntity
  8
AM_VIS
  6
Continuous
 62
     2
100
AcDbLine
 10
11.32751912008918
 20
78.7317297808903
 30
0.0
 11
10.43263331406105
 21
78.7317297808903
 31
0.0
  0
LINE
  5
21B
330
3C
100
AcDbEntity
  8
AM_VIS
  6
Continuous
 62
     2
100
AcDbLine
 10
11.82805509254572
 20
79.22762778089032
 30
0.0
 11
10.88379727743167
 21
79.22762778089032
 31
0.0
  0
LINE
  5
21C
330
3C
100
AcDbEntity
  8
AM_VIS
  6
Continuous
 62
     2
100
AcDbLine
 10
12.63594219416213
 20
80.00617478089033
 30
0.0
 11
11.59211300000029
 21
80.00617478089033
 31
0.0
  0
LINE
  5
21D
330
3C
100
AcDbEntity
  8
AM_VIS
  6
Continuous
 62
     2
100
AcDbLine
 10
13.35088125969084
 20
80.6735417808903
 30
0.0
 11
12.22028841332362
 21
80.6735417808903
 31
0.0
  0
LINE
  5
21E
330
3C
100
AcDbEntity
  8
AM_VIS
  6
Continuous
 62
     2
100
AcDbLine
 10
9.30617800000029
 20
77.49393078089031
 30
0.0
 11
9.30649386059237
 21
77.49393078089031
 31
0.0
  0
LINE
  5
21F
330
3C
100
AcDbEntity
  8
AM_VIS
  6
Continuous
 62
     7
100
AcDbLine
 10
15.23108800000025
 20
75.9939307808902
 30
0.0
 11
15.23108800000013
 21
66.99393078089031
 31
0.0
  0
LINE
  5
220
330
3C
100
AcDbEntity
  8
AM_VIS
  6
Continuous
 62
     7
100
AcDbLine
 10
24.92746500000068
 20
88.7785177808903
 30
0.0
 11
10.14287800000023
 21
73.99393078089031
 31
0.0
  0
LINE
  5
221
330
3C
100
AcDbEntity
  8
AM_VIS
  6
Continuous
 62
     7
100
AcDbLine
 10
9.30617800000029
 20
102.9939307808903
 30
0.0
 11
9.30617800000029
 21
77.49393078089031
 31
0.0
  0
LINE
  5
222
330
3C
100
AcDbEntity
  8
AM_VIS
  6
Continuous
 62
     2
100
AcDbLine
 10
15.39573182118296
 20
82.4776327808903
 30
0.0
 11
13.77284218250204
 21
82.4776327808903
 31
0.0
  0
LINE
  5
223
330
3C
100
AcDbEntity
  8
AM_VIS
  6
Continuous
 62
     2
100
AcDbLine
 10
16.81218423973213
 20
83.6428107808903
 30
0.0
 11
14.67438457578545
 21
83.6428107808903
 31
0.0
  0
LINE
  5
224
330
3C
100
AcDbEntity
  8
AM_VIS
  6
Continuous
 62
     2
100
AcDbLine
 10
18.00007200000017
 20
84.57057078089031
 30
0.0
 11
15.34117246341352
 21
84.57057078089031
 31
0.0
  0
LINE
  5
225
330
3C
100
AcDbEntity
  8
AM_VIS
  6
Continuous
 62
     2
100
AcDbLine
 10
28.51816000000031
 20
89.29325678089032
 30
0.0
 11
17.65924300000031
 21
89.29325678089032
 31
0.0
  0
LINE
  5
226
330
3C
100
AcDbEntity
  8
AM_VIS
  6
Continuous
 62
     2
100
AcDbLine
 10
29.67242100000022
 20
97.51022878089032
 30
0.0
 11
13.72351700000026
 21
97.51022878089032
 31
0.0
  0
LINE
  5
227
330
3C
100
AcDbEntity
  8
AM_VIS
  6
Continuous
 62
     2
100
AcDbLine
 10
28.99503500000026
 20
96.34505078089032
 30
0.0
 11
14.66144200000033
 21
96.34505078089032
 31
0.0
  0
LINE
  5
228
330
3C
100
AcDbEntity
  8
AM_VIS
  6
Continuous
 62
     2
100
AcDbLine
 10
28.74489300000028
 20
95.41729078089031
 30
0.0
 11
15.36219800000028
 21
95.41729078089031
 31
0.0
  0
LINE
  5
229
330
3C
100
AcDbEntity
  8
AM_VIS
  6
Continuous
 62
     2
100
AcDbLine
 10
28.5350560000003
 20
93.11593678089031
 30
0.0
 11
16.82730600000026
 21
93.11593678089031
 31
0.0
  0
LINE
  5
22A
330
3C
100
AcDbEntity
  8
AM_VIS
  6
Continuous
 62
     2
100
AcDbLine
 10
28.51710600000025
 20
91.7415147808903
 30
0.0
 11
17.4159970000003
 21
91.7415147808903
 31
0.0
  0
LINE
  5
22B
330
3C
100
AcDbEntity
  8
AM_VIS
  6
Continuous
 62
     2
100
AcDbLine
 10
28.51816000000031
 20
90.6946047808903
 30
0.0
 11
17.65924300000031
 21
90.6946047808903
 31
0.0
  0
LINE
  5
22C
330
3C
100
AcDbEntity
  8
1
  6
Continuous
 62
     2
100
AcDbLine
 10
16.24523100000024
 20
94.1226137808903
 30
0.0
 11
28.58330600000024
 21
94.1226147808903
 31
0.0
  0
LINE
  5
22D
330
3C
100
AcDbEntity
  8
1
  6
Continuous
 62
     2
100
AcDbLine
 10
13.03695040124696
 20
98.3234177808902
 30
0.0
 11
44.80617800000029
 21
98.3234177808902
 31
0.0
  0
LINE
  5
22E
330
3C
100
AcDbEntity
  8
AM_VIS
  6
Continuous
 62
     7
100
AcDbLine
 10
34.14287800000024
 20
66.9939307808902
 30
0.0
 11
32.1665340000002
 21
66.99393078089031
 31
0.0
  0
LINE
  5
22F
330
3C
100
AcDbEntity
  8
AM_VIS
  6
Continuous
 62
     7
100
AcDbLine
 10
12.33333100000029
 20
66.9939307808902
 30
0.0
 11
12.11922300000028
 21
66.9939307808902
 31
0.0
  0
LINE
  5
230
330
3C
100
AcDbEntity
  8
AM_VIS
  6
Continuous
 62
     7
100
AcDbLine
 10
9.29287800000033
 20
66.99393078089193
 30
0.0
 11
9.29287800000033
 21
64.49395719576259
 31
0.0
  0
LINE
  5
231
330
3C
100
AcDbEntity
  8
AM_VIS
  6
Continuous
 62
     7
100
AcDbLine
 10
34.99287800000015
 20
66.9939307808902
 30
0.0
 11
34.14287800000024
 21
66.9939307808902
 31
0.0
  0
LINE
  5
232
330
3C
100
AcDbEntity
  8
1
  6
DOT_CENTER
 62
     2
100
AcDbLine
 10
32.05298200000017
 20
63.62411384179322
 30
0.0
 11
32.05298200000017
 21
67.5672802618322
 31
0.0
  0
LINE
  5
233
330
3C
100
AcDbEntity
  8
1
  6
Continuous
 62
     7
100
AcDbLine
 10
17.23108800000025
 20
73.49394836176283
 30
0.0
 11
34.14287800000024
 21
73.49393162223652
 31
0.0
  0
LINE
  5
234
330
3C
100
AcDbEntity
  8
AM_VIS
  6
Continuous
 62
     7
100
AcDbLine
 10
34.14287800000024
 20
66.9939307808902
 30
0.0
 11
34.14287800000024
 21
73.49393162223652
 31
0.0
  0
LINE
  5
235
330
3C
100
AcDbEntity
  8
1
  6
Continuous
 62
     3
100
AcDbLine
 10
34.89750100000028
 20
86.87192478089031
 30
0.0
 11
34.89750100000028
 21
93.11593678089031
 31
0.0
  0
LINE
  5
236
330
3C
100
AcDbEntity
  8
1
  6
Continuous
 62
     3
100
AcDbLine
 10
28.5350560000003
 20
86.87192478089031
 30
0.0
 11
28.5350560000003
 21
93.11593678089031
 31
0.0
  0
LINE
  5
237
330
3C
100
AcDbEntity
  8
1
  6
Continuous
 62
     3
100
AcDbLine
 10
13.03695040124696
 20
98.3234177808902
 30
0.0
 11
16.24523100000024
 21
94.1226137808903
 31
0.0
  0
LINE
  5
238
330
3C
100
AcDbEntity
  8
1
  6
Continuous
 62
     3
100
AcDbLine
 10
9.30649386059237
 20
77.49393078089031
 30
0.0
 11
11.59211300000029
 21
80.00617478089033
 31
0.0
  0
LINE
  5
239
330
3C
100
AcDbEntity
  8
1
  6
Continuous
 62
     3
100
AcDbLine
 10
9.30617800000029
 20
102.9939307808903
 30
0.0
 11
10.30601200000026
 21
102.7816077808902
 31
0.0
  0
LINE
  5
23A
330
3C
100
AcDbEntity
  8
1
  6
Continuous
 62
     3
100
AcDbLine
 10
24.33286200000022
 20
85.86524678089032
 30
0.0
 11
26.28568400000017
 21
84.57057078089031
 31
0.0
  0
LINE
  5
23B
330
3C
100
AcDbEntity
  8
AM_VIS
  6
Continuous
 62
     2
100
AcDbLine
 10
28.5350560000003
 20
86.87192478089031
 30
0.0
 11
16.82730600000026
 21
86.87192478089031
 31
0.0
  0
LINE
  5
23C
330
3C
100
AcDbEntity
  8
1
  6
Continuous
 62
     3
100
AcDbLine
 10
18.00007200000017
 20
84.57057078089031
 30
0.0
 11
19.95289400000026
 21
85.86524678089032
 31
0.0
  0
LINE
  5
23D
330
3C
100
AcDbEntity
  8
AM_VIS
  6
Continuous
 62
     2
100
AcDbLine
 10
9.30617800000029
 20
77.49393078089031
 30
0.0
 11
9.30649386059237
 21
77.49393078089031
 31
0.0
  0
LINE
  5
23E
330
3C
100
AcDbEntity
  8
1
  6
DOT_CENTER
 62
     2
100
AcDbLine
 10
143.5129229683816
 20
89.99393078089031
 30
0.0
 11
116.3140344690283
 21
89.99393078089031
 31
0.0
  0
LINE
  5
23F
330
3C
100
AcDbEntity
  8
AM_VIS
  6
Continuous
 62
     7
100
AcDbLine
 10
120.7555198214093
 20
79.0821335
 30
0.0
 11
122.7762838214092
 21
78.20513450000001
 31
0.0
  0
LINE
  5
240
330
3C
100
AcDbEntity
  8
AM_VIS
  6
Continuous
 62
     7
100
AcDbLine
 10
122.7762838214092
 20
78.20513450000001
 30
0.0
 11
123.6532778214092
 21
76.18437450000003
 31
0.0
  0
LINE
  5
241
330
3C
100
AcDbEntity
  8
AM_VIS
  6
Continuous
 62
     7
100
AcDbLine
 10
120.7567368214092
 20
79.57391850000003
 30
0.0
 11
123.6532238214092
 21
79.5739575
 31
0.0
  0
LINE
  5
242
330
3C
100
AcDbEntity
  8
AM_VIS
  6
Continuous
 62
     7
100
AcDbLine
 10
137.4768528214092
 20
76.1843715
 30
0.0
 11
138.3538518214093
 21
78.20513450000001
 31
0.0
  0
LINE
  5
243
330
3C
100
AcDbEntity
  8
AM_VIS
  6
Continuous
 62
     7
100
AcDbLine
 10
138.3538518214093
 20
78.20513450000001
 30
0.0
 11
140.3746148214092
 21
79.0821335
 31
0.0
  0
LINE
  5
244
330
3C
100
AcDbEntity
  8
AM_VIS
  6
Continuous
 62
     7
100
AcDbLine
 10
137.4768528214092
 20
76.1843715
 30
0.0
 11
137.4768528214092
 21
79.57391850000003
 31
0.0
  0
LINE
  5
245
330
3C
100
AcDbEntity
  8
AM_VIS
  6
Continuous
 62
     7
100
AcDbLine
 10
140.3746148214092
 20
79.57391850000003
 30
0.0
 11
140.3746148214092
 21
79.0821335
 31
0.0
  0
LINE
  5
246
330
3C
100
AcDbEntity
  8
AM_VIS
  6
Continuous
 62
     7
100
AcDbLine
 10
140.3733978214092
 20
79.57391850000003
 30
0.0
 11
140.3746148214092
 21
79.57391850000003
 31
0.0
  0
LINE
  5
247
330
3C
100
AcDbEntity
  8
AM_VIS
  6
Continuous
 62
     7
100
AcDbLine
 10
140.3733978214092
 20
82.2745155
 30
0.0
 11
140.3733978214092
 21
79.57391850000003
 31
0.0
  0
LINE
  5
248
330
3C
100
AcDbEntity
  8
AM_VIS
  6
Continuous
 62
     7
100
AcDbLine
 10
137.4768528214092
 20
79.57391850000003
 30
0.0
 11
140.3733978214092
 21
79.57391850000003
 31
0.0
  0
LINE
  5
249
330
3C
100
AcDbEntity
  8
AM_VIS
  6
Continuous
 62
     7
100
AcDbLine
 10
123.6532238214092
 20
79.5739575
 30
0.0
 11
123.6532778214092
 21
76.18437450000003
 31
0.0
  0
LINE
  5
24A
330
3C
100
AcDbEntity
  8
AM_VIS
  6
Continuous
 62
     7
100
AcDbLine
 10
120.7555198214093
 20
79.57391850000003
 30
0.0
 11
120.7567368214092
 21
79.57391850000003
 31
0.0
  0
LINE
  5
24B
330
3C
100
AcDbEntity
  8
AM_VIS
  6
Continuous
 62
     7
100
AcDbLine
 10
120.7555198214093
 20
79.0821335
 30
0.0
 11
120.7555198214093
 21
79.57391850000003
 31
0.0
  0
LINE
  5
24C
330
3C
100
AcDbEntity
  8
AM_VIS
  6
Continuous
 62
     7
100
AcDbLine
 10
120.7567368214092
 20
79.57391850000003
 30
0.0
 11
120.7567368214092
 21
82.2745155
 31
0.0
  0
LINE
  5
24D
330
3C
100
AcDbEntity
  8
1
  6
Continuous
 62
     7
100
AcDbLine
 10
143.4150678214093
 20
66.9939185
 30
0.0
 11
142.5650678214092
 21
66.9939185
 31
0.0
  0
LINE
  5
24E
330
3C
100
AcDbEntity
  8
AM_VIS
  6
Continuous
 62
     7
100
AcDbLine
 10
123.6532778214092
 20
76.18437450000003
 30
0.0
 11
123.6532778214092
 21
66.9939185
 31
0.0
  0
LINE
  5
24F
330
3C
100
AcDbEntity
  8
AM_VIS
  6
Continuous
 62
     7
100
AcDbLine
 10
117.7150678214091
 20
64.4939435
 30
0.0
 11
143.4015488214092
 21
64.4939435
 31
0.0
  0
LINE
  5
250
330
3C
100
AcDbEntity
  8
AM_VIS
  6
Continuous
 62
     7
100
AcDbLine
 10
118.5650678214092
 20
86.49393078089052
 30
0.0
 11
118.5650678214092
 21
76.9939185
 31
0.0
  0
LINE
  5
251
330
3C
100
AcDbEntity
  8
AM_VIS
  6
Continuous
 62
     7
100
AcDbLine
 10
142.5650678214092
 20
66.9939185
 30
0.0
 11
142.5650678214092
 21
73.4939185
 31
0.0
  0
LINE
  5
252
330
3C
100
AcDbEntity
  8
AM_VIS
  6
Continuous
 62
     7
100
AcDbLine
 10
137.4768578214092
 20
66.9939185
 30
0.0
 11
137.4768528214092
 21
76.1843715
 31
0.0
  0
LINE
  5
253
330
3C
100
AcDbEntity
  8
AM_VIS
  6
Continuous
 62
     7
100
AcDbLine
 10
140.3746148214092
 20
79.0821335
 30
0.0
 11
140.3746121936738
 21
68.4939235
 31
0.0
  0
LINE
  5
254
330
3C
100
AcDbEntity
  8
AM_VIS
  6
Continuous
 62
     7
100
AcDbLine
 10
143.4015488214092
 20
64.4939435
 30
0.0
 11
143.4148108214092
 21
64.4939435
 31
0.0
  0
LINE
  5
255
330
3C
100
AcDbEntity
  8
AM_VIS
  6
Continuous
 62
     7
100
AcDbLine
 10
143.4148108214092
 20
64.4939435
 30
0.0
 11
143.4150678214093
 21
66.9939185
 31
0.0
  0
LINE
  5
256
330
3C
100
AcDbEntity
  8
AM_VIS
  6
Continuous
 62
     7
100
AcDbLine
 10
117.7150678214091
 20
66.9939185
 30
0.0
 11
117.7150678214091
 21
64.4939435
 31
0.0
  0
LINE
  5
257
330
3C
100
AcDbEntity
  8
1
  6
DOT_CENTER
 62
     2
100
AcDbLine
 10
130.5648364524674
 20
62.49328301264723
 30
0.0
 11
130.5671773462071
 21
108.0355074629339
 31
0.0
  0
LINE
  5
258
330
3C
100
AcDbEntity
  8
AM_VIS
  6
Continuous
 62
     7
100
AcDbLine
 10
47.80617800000029
 20
78.49393078089031
 30
0.0
 11
47.80617800000029
 21
85.89972778089032
 31
0.0
  0
LINE
  5
259
330
3C
100
AcDbEntity
  8
AM_VIS
  6
Continuous
 62
     7
100
AcDbLine
 10
44.80617800000029
 20
77.49393078089031
 30
0.0
 11
44.80617800000029
 21
78.44393078089031
 31
0.0
  0
LINE
  5
25A
330
3C
100
AcDbEntity
  8
AM_VIS
  6
Continuous
 62
     7
100
AcDbLine
 10
47.80617800000029
 20
101.4939307808903
 30
0.0
 11
47.80617800000029
 21
101.5439307808902
 31
0.0
  0
LINE
  5
25B
330
3C
100
AcDbEntity
  8
AM_VIS
  6
Continuous
 62
     7
100
AcDbLine
 10
44.80617800000029
 20
101.5439307808902
 30
0.0
 11
44.80617800000029
 21
78.44393078089031
 31
0.0
  0
LINE
  5
25C
330
3C
100
AcDbEntity
  8
AM_VIS
  6
Continuous
 62
     7
100
AcDbLine
 10
47.20617800000026
 20
100.5689307808903
 30
0.0
 11
47.20617800000026
 21
101.5439307808902
 31
0.0
  0
LINE
  5
25D
330
3C
100
AcDbEntity
  8
AM_VIS
  6
Continuous
 62
     7
100
AcDbLine
 10
45.60617800000024
 20
100.5689307808903
 30
0.0
 11
45.60617800000024
 21
101.5439307808902
 31
0.0
  0
LINE
  5
25E
330
3C
100
AcDbEntity
  8
AM_VIS
  6
Continuous
 62
     7
100
AcDbLine
 10
45.60617800000024
 20
79.41893078089021
 30
0.0
 11
45.60617800000024
 21
100.5689307808903
 31
0.0
  0
LINE
  5
25F
330
3C
100
AcDbEntity
  8
AM_VIS
  6
Continuous
 62
     7
100
AcDbLine
 10
47.20617800000026
 20
79.41893078089021
 30
0.0
 11
47.20617800000026
 21
85.89972778089032
 31
0.0
  0
LINE
  5
260
330
3C
100
AcDbEntity
  8
AM_VIS
  6
Continuous
 62
     7
100
AcDbLine
 10
34.99287800000026
 20
77.49393078089031
 30
0.0
 11
44.80617800000029
 21
77.49393078089031
 31
0.0
  0
LINE
  5
261
330
3C
100
AcDbEntity
  8
AM_VIS
  6
Continuous
 62
     2
100
AcDbLine
 10
44.80617800000029
 20
77.51358378089031
 30
0.0
 11
34.1224050000003
 21
77.51358378089031
 31
0.0
  0
LINE
  5
262
330
3C
100
AcDbEntity
  8
AM_VIS
  6
Continuous
 62
     2
100
AcDbLine
 10
44.80617800000029
 20
77.89008478089022
 30
0.0
 11
33.72964200000014
 21
77.89008478089022
 31
0.0
  0
LINE
  5
263
330
3C
100
AcDbEntity
  8
AM_VIS
  6
Continuous
 62
     2
100
AcDbLine
 10
44.80617800000029
 20
78.7317297808903
 30
0.0
 11
32.8474180000003
 21
78.7317297808903
 31
0.0
  0
LINE
  5
264
330
3C
100
AcDbEntity
  8
AM_VIS
  6
Continuous
 62
     2
100
AcDbLine
 10
44.80617800000029
 20
79.22762778089032
 30
0.0
 11
32.32439500000011
 21
79.22762778089032
 31
0.0
  0
LINE
  5
265
330
3C
100
AcDbEntity
  8
AM_VIS
  6
Continuous
 62
     2
100
AcDbLine
 10
44.80617800000029
 20
80.00617478089033
 30
0.0
 11
31.49730300000034
 21
80.00617478089033
 31
0.0
  0
LINE
  5
266
330
3C
100
AcDbEntity
  8
AM_VIS
  6
Continuous
 62
     2
100
AcDbLine
 10
44.80617800000029
 20
82.4776327808903
 30
0.0
 11
33.76013500000035
 21
82.4776327808903
 31
0.0
  0
LINE
  5
267
330
3C
100
AcDbEntity
  8
AM_VIS
  6
Continuous
 62
     2
100
AcDbLine
 10
44.80617800000029
 20
83.64281078089022
 30
0.0
 11
34.4375210000003
 21
83.64281078089022
 31
0.0
  0
LINE
  5
268
330
3C
100
AcDbEntity
  8
AM_VIS
  6
Continuous
 62
     2
100
AcDbLine
 10
44.80617800000029
 20
84.57057078089031
 30
0.0
 11
34.68766400000017
 21
84.57057078089031
 31
0.0
  0
LINE
  5
269
330
3C
100
AcDbEntity
  8
AM_VIS
  6
Continuous
 62
     2
100
AcDbLine
 10
44.80617800000029
 20
85.86524678089032
 30
0.0
 11
34.84925000000023
 21
85.86524678089032
 31
0.0
  0
LINE
  5
26A
330
3C
100
AcDbEntity
  8
AM_VIS
  6
Continuous
 62
     2
100
AcDbLine
 10
44.80617800000029
 20
86.87192478089031
 30
0.0
 11
34.89750100000028
 21
86.87192478089031
 31
0.0
  0
LINE
  5
26B
330
3C
100
AcDbEntity
  8
AM_VIS
  6
Continuous
 62
     2
100
AcDbLine
 10
44.80617800000029
 20
88.24634678089029
 30
0.0
 11
34.91545100000019
 21
88.24634678089029
 31
0.0
  0
LINE
  5
26C
330
3C
100
AcDbEntity
  8
AM_VIS
  6
Continuous
 62
     7
100
AcDbLine
 10
44.80617800000029
 20
88.7785177808903
 30
0.0
 11
34.91439700000025
 21
88.7785177808903
 31
0.0
  0
LINE
  5
26D
330
3C
100
AcDbEntity
  8
AM_VIS
  6
Continuous
 62
     2
100
AcDbLine
 10
44.80617800000029
 20
81.66444378089032
 30
0.0
 11
32.38376400000028
 21
81.66444378089032
 31
0.0
  0
LINE
  5
26E
330
3C
100
AcDbEntity
  8
AM_VIS
  6
Continuous
 62
     2
100
AcDbLine
 10
44.80617800000029
 20
80.6735417808903
 30
0.0
 11
30.78114500000017
 21
80.6735417808903
 31
0.0
  0
LINE
  5
26F
330
3C
100
AcDbEntity
  8
AM_VIS
  6
Continuous
 62
     2
100
AcDbLine
 10
44.80617800000029
 20
99.3135927808903
 30
0.0
 11
12.18280300000016
 21
99.3135927808903
 31
0.0
  0
LINE
  5
270
330
3C
100
AcDbEntity
  8
AM_VIS
  6
Continuous
 62
     2
100
AcDbLine
 10
44.80617800000029
 20
100.2060167808903
 30
0.0
 11
11.5169980000003
 21
100.2060167808903
 31
0.0
  0
LINE
  5
271
330
3C
100
AcDbEntity
  8
AM_VIS
  6
Continuous
 62
     7
100
AcDbLine
 10
44.80617800000029
 20
102.9939307808903
 30
0.0
 11
9.30617800000029
 21
102.9939307808903
 31
0.0
  0
LINE
  5
272
330
3C
100
AcDbEntity
  8
AM_VIS
  6
Continuous
 62
     7
100
AcDbLine
 10
45.60617800000024
 20
78.44393078089031
 30
0.0
 11
45.60617800000024
 21
79.41893078089021
 31
0.0
  0
LINE
  5
273
330
3C
100
AcDbEntity
  8
AM_VIS
  6
Continuous
 62
     7
100
AcDbLine
 10
55.80617800000029
 20
89.99393078089031
 30
0.0
 11
55.80617800000029
 21
100.7939307808902
 31
0.0
  0
LINE
  5
274
330
3C
100
AcDbEntity
  8
AM_VIS
  6
Continuous
 62
     7
100
AcDbLine
 10
55.10617800000024
 20
93.94487978089032
 30
0.0
 11
55.10617800000024
 21
101.4939307808903
 31
0.0
  0
LINE
  5
275
330
3C
100
AcDbEntity
  8
AM_VIS
  6
Continuous
 62
     7
100
AcDbLine
 10
47.80617800000029
 20
94.0881337808903
 30
0.0
 11
47.80617800000029
 21
101.4939307808903
 31
0.0
  0
LINE
  5
276
330
3C
100
AcDbEntity
  8
AM_VIS
  6
Continuous
 62
     7
100
AcDbLine
 10
47.20617800000026
 20
94.0881337808903
 30
0.0
 11
47.20617800000026
 21
100.5689307808903
 31
0.0
  0
LINE
  5
277
330
3C
100
AcDbEntity
  8
AM_VIS
  6
Continuous
 62
     7
100
AcDbLine
 10
55.10617800000024
 20
78.49393078089031
 30
0.0
 11
55.80617800000029
 21
79.19393078089031
 31
0.0
  0
LINE
  5
278
330
3C
100
AcDbEntity
  8
AM_VIS
  6
Continuous
 62
     7
100
AcDbLine
 10
55.10617800000024
 20
93.94487978089032
 30
0.0
 11
55.63257400000022
 21
91.93815278089019
 31
0.0
  0
LINE
  5
279
330
3C
100
AcDbEntity
  8
AM_VIS
  6
Continuous
 62
     7
100
AcDbLine
 10
55.63257400000022
 20
91.93815278089019
 30
0.0
 11
55.80617800000029
 21
89.99393078089031
 31
0.0
  0
LINE
  5
27A
330
3C
100
AcDbEntity
  8
AM_VIS
  6
Continuous
 62
     7
100
AcDbLine
 10
55.80617800000029
 20
89.99393078089031
 30
0.0
 11
55.63257400000022
 21
88.04970878089031
 31
0.0
  0
LINE
  5
27B
330
3C
100
AcDbEntity
  8
AM_VIS
  6
Continuous
 62
     7
100
AcDbLine
 10
55.63257400000022
 20
88.04970878089031
 30
0.0
 11
55.10617800000024
 21
86.04298178089022
 31
0.0
  0
LINE
  5
27C
330
3C
100
AcDbEntity
  8
AM_VIS
  6
Continuous
 62
     7
100
AcDbLine
 10
47.80617800000029
 20
78.49393078089031
 30
0.0
 11
55.10617800000024
 21
78.49393078089031
 31
0.0
  0
LINE
  5
27D
330
3C
100
AcDbEntity
  8
AM_VIS
  6
Continuous
 62
     7
100
AcDbLine
 10
55.10617800000024
 20
86.04298178089022
 30
0.0
 11
47.80617800000029
 21
86.04298178089022
 31
0.0
  0
LINE
  5
27E
330
3C
100
AcDbEntity
  8
AM_VIS
  6
Continuous
 62
     7
100
AcDbLine
 10
47.80617800000029
 20
93.94487978089032
 30
0.0
 11
55.10617800000024
 21
93.94487978089032
 31
0.0
  0
LINE
  5
27F
330
3C
100
AcDbEntity
  8
AM_VIS
  6
Continuous
 62
     7
100
AcDbLine
 10
44.80617800000029
 20
78.44393078089031
 30
0.0
 11
45.60617800000024
 21
78.44393078089031
 31
0.0
  0
LINE
  5
280
330
3C
100
AcDbEntity
  8
AM_VIS
  6
Continuous
 62
     7
100
AcDbLine
 10
45.60617800000024
 20
79.41893078089021
 30
0.0
 11
47.20617800000026
 21
79.41893078089021
 31
0.0
  0
LINE
  5
281
330
3C
100
AcDbEntity
  8
AM_VIS
  6
Continuous
 62
     7
100
AcDbLine
 10
47.20617800000026
 20
78.44393078089031
 30
0.0
 11
47.80617800000029
 21
78.44393078089031
 31
0.0
  0
LINE
  5
282
330
3C
100
AcDbEntity
  8
AM_VIS
  6
Continuous
 62
     7
100
AcDbLine
 10
47.80617800000029
 20
78.44393078089031
 30
0.0
 11
47.80617800000029
 21
78.49393078089031
 31
0.0
  0
LINE
  5
283
330
3C
100
AcDbEntity
  8
AM_VIS
  6
Continuous
 62
     7
100
AcDbLine
 10
47.20617800000026
 20
78.44393078089031
 30
0.0
 11
47.20617800000026
 21
79.41893078089021
 31
0.0
  0
LINE
  5
284
330
3C
100
AcDbEntity
  8
AM_VIS
  6
Continuous
 62
     7
100
AcDbLine
 10
47.80617800000029
 20
86.04298178089022
 30
0.0
 11
47.80617800000029
 21
85.89972778089032
 31
0.0
  0
LINE
  5
285
330
3C
100
AcDbEntity
  8
AM_VIS
  6
Continuous
 62
     7
100
AcDbLine
 10
47.80617800000029
 20
85.89972778089032
 30
0.0
 11
47.20617800000026
 21
85.89972778089032
 31
0.0
  0
LINE
  5
286
330
3C
100
AcDbEntity
  8
AM_VIS
  6
Continuous
 62
     7
100
AcDbLine
 10
47.20617800000026
 20
85.89972778089032
 30
0.0
 11
47.20617800000026
 21
94.0881337808903
 31
0.0
  0
LINE
  5
287
330
3C
100
AcDbEntity
  8
AM_VIS
  6
Continuous
 62
     7
100
AcDbLine
 10
47.20617800000026
 20
94.0881337808903
 30
0.0
 11
47.80617800000029
 21
94.0881337808903
 31
0.0
  0
LINE
  5
288
330
3C
100
AcDbEntity
  8
AM_VIS
  6
Continuous
 62
     7
100
AcDbLine
 10
47.80617800000029
 20
94.0881337808903
 30
0.0
 11
47.80617800000029
 21
93.94487978089032
 31
0.0
  0
LINE
  5
289
330
3C
100
AcDbEntity
  8
AM_VIS
  6
Continuous
 62
     7
100
AcDbLine
 10
55.10617800000024
 20
78.49393078089031
 30
0.0
 11
55.10617800000024
 21
86.04298178089022
 31
0.0
  0
LINE
  5
28A
330
3C
100
AcDbEntity
  8
AM_VIS
  6
Continuous
 62
     7
100
AcDbLine
 10
55.80617800000029
 20
79.19393078089031
 30
0.0
 11
61.00617800000039
 21
79.19393078089031
 31
0.0
  0
LINE
  5
28B
330
3C
100
AcDbEntity
  8
AM_VIS
  6
Continuous
 62
     7
100
AcDbLine
 10
55.80617800000029
 20
79.19393078089031
 30
0.0
 11
55.80617800000029
 21
89.99393078089031
 31
0.0
  0
LINE
  5
28C
330
3C
100
AcDbEntity
  8
AM_VIS
  6
Continuous
 62
     7
100
AcDbLine
 10
55.80617800000029
 20
100.7939307808902
 30
0.0
 11
55.10617800000024
 21
101.4939307808903
 31
0.0
  0
LINE
  5
28D
330
3C
100
AcDbEntity
  8
AM_VIS
  6
Continuous
 62
     7
100
AcDbLine
 10
55.10617800000024
 20
101.4939307808903
 30
0.0
 11
47.80617800000029
 21
101.4939307808903
 31
0.0
  0
LINE
  5
28E
330
3C
100
AcDbEntity
  8
AM_VIS
  6
Continuous
 62
     7
100
AcDbLine
 10
45.60617800000024
 20
101.5439307808902
 30
0.0
 11
44.80617800000029
 21
101.5439307808902
 31
0.0
  0
LINE
  5
28F
330
3C
100
AcDbEntity
  8
AM_VIS
  6
Continuous
 62
     7
100
AcDbLine
 10
47.20617800000026
 20
100.5689307808903
 30
0.0
 11
45.60617800000024
 21
100.5689307808903
 31
0.0
  0
LINE
  5
290
330
3C
100
AcDbEntity
  8
AM_VIS
  6
Continuous
 62
     7
100
AcDbLine
 10
47.80617800000029
 20
101.5439307808902
 30
0.0
 11
47.20617800000026
 21
101.5439307808902
 31
0.0
  0
LINE
  5
291
330
3C
100
AcDbEntity
  8
1
  6
DOT_CENTER
 62
     2
100
AcDbLine
 10
45.80617800000029
 20
89.99393078089031
 30
0.0
 11
57.10617800000024
 21
89.99393078089031
 31
0.0
  0
LINE
  5
292
330
3C
100
AcDbEntity
  8
AM_VIS
  6
Continuous
 62
     2
100
AcDbLine
 10
44.80617800000029
 20
90.6946047808903
 30
0.0
 11
34.91203467289347
 21
90.6946047808903
 31
0.0
  0
LINE
  5
293
330
3C
100
AcDbEntity
  8
AM_VIS
  6
Continuous
 62
     2
100
AcDbLine
 10
44.80617800000029
 20
89.29325678089032
 30
0.0
 11
34.90972084603301
 21
89.29325678089032
 31
0.0
  0
LINE
  5
294
330
3C
100
AcDbEntity
  8
AM_VIS
  6
Continuous
 62
     2
100
AcDbLine
 10
44.80617800000029
 20
91.74151478089021
 30
0.0
 11
34.91545100000019
 21
91.7415147808903
 31
0.0
  0
LINE
  5
295
330
3C
100
AcDbEntity
  8
AM_VIS
  6
Continuous
 62
     2
100
AcDbLine
 10
44.80617800000029
 20
93.11593678089031
 30
0.0
 11
34.89750100000028
 21
93.11593678089031
 31
0.0
  0
LINE
  5
296
330
3C
100
AcDbEntity
  8
AM_VIS
  6
Continuous
 62
     2
100
AcDbLine
 10
44.80617800000029
 20
94.1226137808903
 30
0.0
 11
34.84924999579609
 21
94.1226137808903
 31
0.0
  0
LINE
  5
297
330
3C
100
AcDbEntity
  8
AM_VIS
  6
Continuous
 62
     2
100
AcDbLine
 10
44.80617800000029
 20
95.41729078089031
 30
0.0
 11
34.68766400000017
 21
95.41729078089031
 31
0.0
  0
LINE
  5
298
330
3C
100
AcDbEntity
  8
AM_VIS
  6
Continuous
 62
     2
100
AcDbLine
 10
44.80617800000029
 20
96.34505078089032
 30
0.0
 11
34.4375210000003
 21
96.3450507808904
 31
0.0
  0
LINE
  5
299
330
3C
100
AcDbEntity
  8
AM_VIS
  6
Continuous
 62
     2
100
AcDbLine
 10
44.80617800000029
 20
97.51022878089032
 30
0.0
 11
33.76013500000035
 21
97.51022878089032
 31
0.0
  0
LINE
  5
29A
330
3C
100
AcDbEntity
  8
1
  6
Continuous
 62
     7
100
AcDbLine
 10
34.99287800000026
 20
73.49393162223652
 30
0.0
 11
34.99287800000026
 21
77.49393078089031
 31
0.0
  0
LINE
  5
29B
330
3C
100
AcDbEntity
  8
AM_VIS
  6
Continuous
 62
     7
100
AcDbLine
 10
34.14287800000024
 20
77.49393078089031
 30
0.0
 11
34.99287800000026
 21
77.49393078089031
 31
0.0
  0
LINE
  5
29C
330
3C
100
AcDbEntity
  8
1
  6
Continuous
 62
     7
100
AcDbLine
 10
34.99287800000026
 20
73.49393162223652
 30
0.0
 11
34.14287800000024
 21
73.49393162223652
 31
0.0
  0
LINE
  5
29D
330
3C
100
AcDbEntity
  8
1
  6
Continuous
 62
     7
100
AcDbLine
 10
34.99287800000026
 20
73.49393078089031
 30
0.0
 11
34.99287800000026
 21
73.49393162223652
 31
0.0
  0
LINE
  5
29E
330
3C
100
AcDbEntity
  8
1
  6
Continuous
 62
     7
100
AcDbLine
 10
117.7150678214091
 20
66.9939185
 30
0.0
 11
117.7150678214091
 21
76.9939185
 31
0.0
  0
LINE
  5
29F
330
3C
100
AcDbEntity
  8
1
  6
Continuous
 62
     7
100
AcDbLine
 10
117.7150678214091
 20
76.9939185
 30
0.0
 11
118.5650678214092
 21
76.9939185
 31
0.0
  0
LINE
  5
2A0
330
3C
100
AcDbEntity
  8
AM_VIS
  6
Continuous
 62
     7
100
AcDbLine
 10
118.5650678214092
 20
76.9939185
 30
0.0
 11
118.5650678214092
 21
73.4939185
 31
0.0
  0
LINE
  5
2A1
330
3C
100
AcDbEntity
  8
AM_VIS
  6
Continuous
 62
     7
100
AcDbLine
 10
44.80617800000029
 20
102.9939307808903
 30
0.0
 11
44.80617800000029
 21
101.5439307808902
 31
0.0
  0
LINE
  5
2A2
330
3C
100
AcDbEntity
  8
1
  6
Continuous
 62
     7
100
AcDbLine
 10
61.00617800000039
 20
100.7939307808902
 30
0.0
 11
61.00617800000039
 21
79.19393078089031
 31
0.0
  0
LINE
  5
2A3
330
3C
100
AcDbEntity
  8
AM_VIS
  6
Continuous
 62
     7
100
AcDbLine
 10
167.3769671783934
 20
79.0821335
 30
0.0
 11
167.376964550658
 21
68.4939235
 31
0.0
  0
LINE
  5
2A4
330
3C
100
AcDbEntity
  8
1
  6
Continuous
 62
     7
100
AcDbLine
 10
170.4174191783935
 20
66.9939185
 30
0.0
 11
145.5674191783934
 21
66.9939185
 31
0.0
  0
LINE
  5
2A5
330
3C
100
AcDbEntity
  8
AM_VIS
  6
Continuous
 62
     7
100
AcDbLine
 10
145.5674191783934
 20
86.49393078089031
 30
0.0
 11
145.5674191783934
 21
73.4939185
 31
0.0
  0
LINE
  5
2A6
330
3C
100
AcDbEntity
  8
AM_VIS
  6
Continuous
 62
     7
100
AcDbLine
 10
169.5674191783934
 20
66.9939185
 30
0.0
 11
169.5674191783934
 21
73.4939185
 31
0.0
  0
LINE
  5
2A7
330
3C
100
AcDbEntity
  8
1
  6
Continuous
 62
     7
100
AcDbLine
 10
169.5674191783934
 20
73.4939185
 30
0.0
 11
145.5674191783934
 21
73.4939185
 31
0.0
  0
LINE
  5
2A8
330
3C
100
AcDbEntity
  8
1
  6
DOT_CENTER
 62
     2
100
AcDbLine
 10
171.8184525307743
 20
89.99393078089031
 30
0.0
 11
144.619564031421
 21
89.99393078089031
 31
0.0
  0
LINE
  5
2A9
330
3C
100
AcDbEntity
  8
AM_VIS
  6
Continuous
 62
     7
100
AcDbLine
 10
165.3562031783934
 20
78.20513450000001
 30
0.0
 11
167.3769671783934
 21
79.0821335
 31
0.0
  0
LINE
  5
2AA
330
3C
100
AcDbEntity
  8
AM_VIS
  6
Continuous
 62
     7
100
AcDbLine
 10
164.4792091783934
 20
76.18437450000003
 30
0.0
 11
165.3562031783934
 21
78.20513450000001
 31
0.0
  0
LINE
  5
2AB
330
3C
100
AcDbEntity
  8
AM_VIS
  6
Continuous
 62
     7
100
AcDbLine
 10
164.4792631783934
 20
79.5739575
 30
0.0
 11
167.3757501783935
 21
79.57391850000003
 31
0.0
  0
LINE
  5
2AC
330
3C
100
AcDbEntity
  8
AM_VIS
  6
Continuous
 62
     7
100
AcDbLine
 10
149.7786351783934
 20
78.20513450000001
 30
0.0
 11
150.6556341783934
 21
76.1843715
 31
0.0
  0
LINE
  5
2AD
330
3C
100
AcDbEntity
  8
AM_VIS
  6
Continuous
 62
     7
100
AcDbLine
 10
147.7578721783934
 20
79.0821335
 30
0.0
 11
149.7786351783934
 21
78.20513450000001
 31
0.0
  0
LINE
  5
2AE
330
3C
100
AcDbEntity
  8
AM_VIS
  6
Continuous
 62
     7
100
AcDbLine
 10
150.6556341783934
 20
79.57391850000003
 30
0.0
 11
150.6556341783934
 21
76.1843715
 31
0.0
  0
LINE
  5
2AF
330
3C
100
AcDbEntity
  8
AM_VIS
  6
Continuous
 62
     7
100
AcDbLine
 10
147.7578721783934
 20
79.0821335
 30
0.0
 11
147.7578721783934
 21
79.57391850000003
 31
0.0
  0
LINE
  5
2B0
330
3C
100
AcDbEntity
  8
AM_VIS
  6
Continuous
 62
     7
100
AcDbLine
 10
147.7578721783934
 20
79.57391850000003
 30
0.0
 11
147.7590891783934
 21
79.57391850000003
 31
0.0
  0
LINE
  5
2B1
330
3C
100
AcDbEntity
  8
AM_VIS
  6
Continuous
 62
     7
100
AcDbLine
 10
147.7590891783934
 20
79.57391850000003
 30
0.0
 11
147.7590891783934
 21
82.2745155
 31
0.0
  0
LINE
  5
2B2
330
3C
100
AcDbEntity
  8
AM_VIS
  6
Continuous
 62
     7
100
AcDbLine
 10
147.7590891783934
 20
79.57391850000003
 30
0.0
 11
150.6556341783934
 21
79.57391850000003
 31
0.0
  0
LINE
  5
2B3
330
3C
100
AcDbEntity
  8
AM_VIS
  6
Continuous
 62
     7
100
AcDbLine
 10
164.4792091783934
 20
76.18437450000003
 30
0.0
 11
164.4792631783934
 21
79.5739575
 31
0.0
  0
LINE
  5
2B4
330
3C
100
AcDbEntity
  8
AM_VIS
  6
Continuous
 62
     7
100
AcDbLine
 10
167.3757501783935
 20
79.57391850000003
 30
0.0
 11
167.3769671783934
 21
79.57391850000003
 31
0.0
  0
LINE
  5
2B5
330
3C
100
AcDbEntity
  8
AM_VIS
  6
Continuous
 62
     7
100
AcDbLine
 10
167.3769671783934
 20
79.57391850000003
 30
0.0
 11
167.3769671783934
 21
79.0821335
 31
0.0
  0
LINE
  5
2B6
330
3C
100
AcDbEntity
  8
AM_VIS
  6
Continuous
 62
     7
100
AcDbLine
 10
167.3757501783935
 20
82.2745155
 30
0.0
 11
167.3757501783935
 21
79.57391850000003
 31
0.0
  0
LINE
  5
2B7
330
3C
100
AcDbEntity
  8
1
  6
Continuous
 62
     7
100
AcDbLine
 10
145.5674191783934
 20
66.9939185
 30
0.0
 11
144.7174191783934
 21
66.9939185
 31
0.0
  0
LINE
  5
2B8
330
3C
100
AcDbEntity
  8
AM_VIS
  6
Continuous
 62
     7
100
AcDbLine
 10
164.4792091783934
 20
66.9939185
 30
0.0
 11
164.4792091783934
 21
76.18437450000003
 31
0.0
  0
LINE
  5
2B9
330
3C
100
AcDbEntity
  8
AM_VIS
  6
Continuous
 62
     7
100
AcDbLine
 10
144.7309381783934
 20
64.4939435
 30
0.0
 11
170.4174191783935
 21
64.4939435
 31
0.0
  0
LINE
  5
2BA
330
3C
100
AcDbEntity
  8
AM_VIS
  6
Continuous
 62
     7
100
AcDbLine
 10
169.5674191783934
 20
76.9939185
 30
0.0
 11
169.5674191783934
 21
86.49393078089052
 31
0.0
  0
LINE
  5
2BB
330
3C
100
AcDbEntity
  8
AM_VIS
  6
Continuous
 62
     7
100
AcDbLine
 10
145.5674191783934
 20
73.4939185
 30
0.0
 11
145.5674191783934
 21
66.9939185
 31
0.0
  0
LINE
  5
2BC
330
3C
100
AcDbEntity
  8
AM_VIS
  6
Continuous
 62
     7
100
AcDbLine
 10
150.6556341783934
 20
76.1843715
 30
0.0
 11
150.6556291783934
 21
66.9939185
 31
0.0
  0
LINE
  5
2BD
330
3C
100
AcDbEntity
  8
AM_VIS
  6
Continuous
 62
     7
100
AcDbLine
 10
147.7578748061288
 20
68.4939235
 30
0.0
 11
147.7578721783934
 21
79.0821335
 31
0.0
  0
LINE
  5
2BE
330
3C
100
AcDbEntity
  8
AM_VIS
  6
Continuous
 62
     7
100
AcDbLine
 10
144.7176761783935
 20
64.4939435
 30
0.0
 11
144.7309381783934
 21
64.4939435
 31
0.0
  0
LINE
  5
2BF
330
3C
100
AcDbEntity
  8
AM_VIS
  6
Continuous
 62
     7
100
AcDbLine
 10
144.7174191783934
 20
66.9939185
 30
0.0
 11
144.7176761783935
 21
64.4939435
 31
0.0
  0
LINE
  5
2C0
330
3C
100
AcDbEntity
  8
AM_VIS
  6
Continuous
 62
     7
100
AcDbLine
 10
170.4174191783935
 20
64.4939435
 30
0.0
 11
170.4174191783935
 21
66.9939185
 31
0.0
  0
LINE
  5
2C1
330
3C
100
AcDbEntity
  8
1
  6
Continuous
 62
     7
100
AcDbLine
 10
170.4174191783935
 20
76.9939185
 30
0.0
 11
170.4174191783935
 21
66.9939185
 31
0.0
  0
LINE
  5
2C2
330
3C
100
AcDbEntity
  8
1
  6
Continuous
 62
     7
100
AcDbLine
 10
169.5674191783934
 20
76.9939185
 30
0.0
 11
170.4174191783935
 21
76.9939185
 31
0.0
  0
LINE
  5
2C3
330
3C
100
AcDbEntity
  8
AM_VIS
  6
Continuous
 62
     7
100
AcDbLine
 10
169.5674191783934
 20
73.4939185
 30
0.0
 11
169.5674191783934
 21
76.9939185
 31
0.0
  0
LINE
  5
2C4
330
3C
100
AcDbEntity
  8
1
  6
DOT_CENTER
 62
     2
100
AcDbLine
 10
157.5652877498334
 20
108.4616482227904
 30
0.0
 11
157.5676505474271
 21
62.49328301264725
 31
0.0
  0
ARC
  5
2C5
330
3C
100
AcDbEntity
  8
1
  6
Continuous
 62
     7
100
AcDbCircle
 10
130.5650678214092
 20
89.99393078089031
 30
0.0
 40
12.49999999999999
100
AcDbArc
 50
131.7916668414016
 51
180.0
  0
ARC
  5
2C6
330
3C
100
AcDbEntity
  8
1
  6
Continuous
 62
     7
100
AcDbCircle
 10
130.5650678214092
 20
89.99393078089031
 30
0.0
 40
12.5
100
AcDbArc
 50
180.0
 51
-163.739795291689
  0
ARC
  5
2C7
330
3C
100
AcDbEntity
  8
1
  6
Continuous
 62
     3
100
AcDbCircle
 10
31.71627800000034
 20
95.57282526004701
 30
0.0
 40
2.828691520843275
100
AcDbArc
 50
15.84270966064572
 51
164.1572903393566
  0
ARC
  5
2C8
330
3C
100
AcDbEntity
  8
1
  6
Continuous
 62
     3
100
AcDbCircle
 10
31.71627800000034
 20
84.4126171666731
 30
0.0
 40
2.828032060752036
100
AcDbArc
 50
-164.2044401773416
 51
-15.79555982266067
  0
ARC
  5
2C9
330
3C
100
AcDbEntity
  8
1
  6
Continuous
 62
     3
100
AcDbCircle
 10
38.03568921494913
 20
93.40991438191011
 30
0.0
 40
9.505180393600705
100
AcDbArc
 50
162.0134734104099
 51
-178.2276651707516
  0
ARC
  5
2CA
330
3C
100
AcDbEntity
  8
1
  6
Continuous
 62
     3
100
AcDbCircle
 10
38.03568921494936
 20
86.5779471798705
 30
0.0
 40
9.505180393600883
100
AcDbArc
 50
178.2276651707517
 51
-162.0134734104103
  0
ARC
  5
2CB
330
3C
100
AcDbEntity
  8
1
  6
Continuous
 62
     3
100
AcDbCircle
 10
25.39692239484783
 20
93.4099193612204
 30
0.0
 40
9.5051259639322
100
AcDbArc
 50
-1.77237501055628
 51
17.98660155213791
  0
ARC
  5
2CC
330
3C
100
AcDbEntity
  8
1
  6
Continuous
 62
     3
100
AcDbCircle
 10
25.39692239484783
 20
86.5779422005603
 30
0.0
 40
9.505125963932269
100
AcDbArc
 50
-17.9866015521384
 51
1.77237501055576
  0
ARC
  5
2CD
330
3C
100
AcDbEntity
  8
1
  6
Continuous
 62
     3
100
AcDbCircle
 10
10.56778513100961
 20
90.0279088581052
 30
0.0
 40
6.999999999999931
100
AcDbArc
 50
-35.83290971214007
 51
35.80001208873788
  0
ARC
  5
2CE
330
3C
100
AcDbEntity
  8
1
  6
Continuous
 62
     3
100
AcDbCircle
 10
-15.0338169383001
 20
105.6978048366247
 30
0.0
 40
36.99999999999993
100
AcDbArc
 50
-43.97690659750725
 51
-32.2941801019027
  0
ARC
  5
2CF
330
3C
100
AcDbEntity
  8
1
  6
Continuous
 62
     3
100
AcDbCircle
 10
15.22502522365836
 20
103.6778827975435
 30
0.0
 40
5.000000000000013
100
AcDbArc
 50
-169.6736311270697
 51
-147.2760245827841
  0
ARC
  5
2D0
330
3C
100
AcDbEntity
  8
1
  6
Continuous
 62
     3
100
AcDbCircle
 10
26.28264045307176
 20
110.5147913304918
 30
0.0
 40
17.99999999999996
100
AcDbArc
 50
-147.9950310843463
 51
-137.3670960076018
  0
ARC
  5
2D1
330
3C
100
AcDbEntity
  8
1
  6
Continuous
 62
     3
100
AcDbCircle
 10
-13.89250627609214
 20
32.08427852005551
 30
0.0
 40
66.10169938058931
100
AcDbArc
 50
43.39045719333744
 51
51.25947665728774
  0
ARC
  5
2D2
330
3C
100
AcDbEntity
  8
1
  6
Continuous
 62
     3
100
AcDbCircle
 10
22.1428785000003
 20
83.81488772215742
 30
0.0
 40
2.999999999999989
100
AcDbArc
 50
43.11406702827604
 51
136.8859329717257
  0
ARC
  5
2D3
330
3C
100
AcDbEntity
  8
1
  6
Continuous
 62
     3
100
AcDbCircle
 10
58.02844533860959
 20
32.09458267332913
 30
0.0
 40
66.0
100
AcDbArc
 50
127.3361739419134
 51
130.4244494423627
  0
ARC
  5
2D4
330
3C
100
AcDbEntity
  8
1
  6
Continuous
 62
     3
100
AcDbCircle
 10
58.02844533860959
 20
32.09458267332913
 30
0.0
 40
65.99999999999996
100
AcDbArc
 50
133.4534643289624
 51
136.538349467506
  0
ARC
  5
2D5
330
3C
100
AcDbEntity
  8
1
  6
Continuous
 62
     3
100
AcDbCircle
 10
-13.74268933860918
 20
32.09458267332913
 30
0.0
 40
66.00000000000003
100
AcDbArc
 50
51.35532310571561
 51
52.66382605808662
  0
ARC
  5
2D6
330
3C
100
AcDbEntity
  8
1
  6
Continuous
 62
     3
100
AcDbCircle
 10
58.02844533860959
 20
32.09458267332913
 30
0.0
 40
65.99999999999999
100
AcDbArc
 50
130.4244494423627
 51
133.4534643289624
  0
ARC
  5
2D7
330
3C
100
AcDbEntity
  8
1
  6
Continuous
 62
     7
100
AcDbCircle
 10
135.5364454493868
 20
87.48000451473942
 30
0.0
 40
17.00000000000016
100
AcDbArc
 50
-176.6747298525219
 51
-150.3966691892989
  0
ARC
  5
2D8
330
3C
100
AcDbEntity
  8
1
  6
Continuous
 62
     7
100
AcDbCircle
 10
126.5801495497071
 20
87.18847224617912
 30
0.0
 40
16.00000000000001
100
AcDbArc
 50
-30.44068999899292
 51
-2.48792517799264
  0
ARC
  5
2D9
330
3C
100
AcDbEntity
  8
1
  6
Continuous
 62
     7
100
AcDbCircle
 10
130.5650677827474
 20
87.5258702853229
 30
0.0
 40
13.28165528532313
100
AcDbArc
 50
-121.3591701441289
 51
-58.6408547245963
  0
ARC
  5
2DA
330
3C
100
AcDbEntity
  8
1
  6
Continuous
 62
     7
100
AcDbCircle
 10
130.5650678214092
 20
89.99393078089031
 30
0.0
 40
12.49999999999994
100
AcDbArc
 50
-163.739795291689
 51
-16.26020470831196
  0
ARC
  5
2DB
330
3C
100
AcDbEntity
  8
1
  6
Continuous
 62
     7
100
AcDbCircle
 10
142.3796631953853
 20
105.3848105470465
 30
0.0
 40
6.999999999999885
100
AcDbArc
 50
-153.0067442793674
 51
-119.8516759502465
  0
ARC
  5
2DC
330
3C
100
AcDbEntity
  8
1
  6
Continuous
 62
     7
100
AcDbCircle
 10
130.5650673214092
 20
32.99395958524251
 30
0.0
 40
69.99997119564782
100
AcDbArc
 50
86.36555075479049
 51
93.63444836870289
  0
ARC
  5
2DD
330
3C
100
AcDbEntity
  8
1
  6
Continuous
 62
     7
100
AcDbCircle
 10
130.5650678214092
 20
89.99393078089031
 30
0.0
 40
12.5
100
AcDbArc
 50
-16.26020470831196
 51
48.2083331585983
  0
ARC
  5
2DE
330
3C
100
AcDbEntity
  8
1
  6
Continuous
 62
     7
100
AcDbCircle
 10
118.7504724474331
 20
105.3848105470465
 30
0.0
 40
6.999999999999898
100
AcDbArc
 50
-60.14832404975326
 51
-29.66860429911026
  0
ARC
  5
2DF
330
3C
100
AcDbEntity
  8
1
  6
Continuous
 62
     7
100
AcDbCircle
 10
157.5674191783934
 20
89.99393078089031
 30
0.0
 40
12.5
100
AcDbArc
 50
0.0
 51
48.208333158598
  0
ARC
  5
2E0
330
3C
100
AcDbEntity
  8
1
  6
Continuous
 62
     7
100
AcDbCircle
 10
157.5674191783934
 20
89.99393078089031
 30
0.0
 40
12.49999999999994
100
AcDbArc
 50
-16.26020470831102
 51
0.0
  0
ARC
  5
2E1
330
3C
100
AcDbEntity
  8
1
  6
Continuous
 62
     7
100
AcDbCircle
 10
152.5960415504159
 20
87.48000451473942
 30
0.0
 40
17.00000000000007
100
AcDbArc
 50
-29.60333081070117
 51
-3.32527014747809
  0
ARC
  5
2E2
330
3C
100
AcDbEntity
  8
1
  6
Continuous
 62
     7
100
AcDbCircle
 10
161.5523374500955
 20
87.18847224617912
 30
0.0
 40
16.00000000000004
100
AcDbArc
 50
-177.5120748220074
 51
-149.5593100010071
  0
ARC
  5
2E3
330
3C
100
AcDbEntity
  8
1
  6
Continuous
 62
     7
100
AcDbCircle
 10
157.5674192170554
 20
87.5258702853229
 30
0.0
 40
13.28165528532316
100
AcDbArc
 50
-121.3591452754044
 51
-58.64082985587183
  0
ARC
  5
2E4
330
3C
100
AcDbEntity
  8
1
  6
Continuous
 62
     7
100
AcDbCircle
 10
157.5674191783934
 20
89.99393078089031
 30
0.0
 40
12.5
100
AcDbArc
 50
-163.7397952916881
 51
-16.26020470831102
  0
ARC
  5
2E5
330
3C
100
AcDbEntity
  8
1
  6
Continuous
 62
     7
100
AcDbCircle
 10
145.7528238044174
 20
105.3848105470465
 30
0.0
 40
6.999999999999841
100
AcDbArc
 50
-60.14832404975408
 51
-26.9932557206329
  0
ARC
  5
2E6
330
3C
100
AcDbEntity
  8
1
  6
Continuous
 62
     7
100
AcDbCircle
 10
157.5674196783934
 20
32.99395958524251
 30
0.0
 40
69.99997119564783
100
AcDbArc
 50
90.00151497074185
 51
93.63444924520951
  0
ARC
  5
2E7
330
3C
100
AcDbEntity
  8
1
  6
Continuous
 62
     7
100
AcDbCircle
 10
157.5674191783934
 20
89.99393078089031
 30
0.0
 40
12.5
100
AcDbArc
 50
131.7916668414017
 51
-163.7397952916881
  0
ARC
  5
2E8
330
3C
100
AcDbEntity
  8
1
  6
Continuous
 62
     7
100
AcDbCircle
 10
169.3820145523695
 20
105.3848105470465
 30
0.0
 40
6.999999999999946
100
AcDbArc
 50
-150.3313957008897
 51
-119.8516759502459
  0
ARC
  5
2E9
330
3C
100
AcDbEntity
  8
1
  6
Continuous
 62
     7
100
AcDbCircle
 10
157.5674196783934
 20
32.99395958524251
 30
0.0
 40
69.99997119564776
100
AcDbArc
 50
86.36555163129711
 51
90.00151497074185
  0
XLINE
  5
2EA
330
3C
100
AcDbEntity
  8
1
  6
DOT_CENTER
 62
     3
 60
     1
100
AcDbXline
 10
34.99287800000026
 20
73.49393162223652
 30
0.0
 11
0.0
 21
1.0
 31
0.0
  0
ARC
  5
2EB
330
3C
100
AcDbEntity
  8
1
  6
Continuous
 62
     7
100
AcDbCircle
 10
16.23108800000025
 20
75.9939307808902
 30
0.0
 40
1.0
100
AcDbArc
 50
90.0
 51
180.0
  0
ARC
  5
2EC
330
3C
100
AcDbEntity
  8
1
  6
Continuous
 62
     7
100
AcDbCircle
 10
16.23108800000025
 20
75.9939307808902
 30
0.0
 40
1.0
100
AcDbArc
 50
0.0
 51
90.0
  0
ARC
  5
2ED
330
3C
100
AcDbEntity
  8
1
  6
Continuous
 62
     7
100
AcDbCircle
 10
134.9073198461583
 20
101.3561633005696
 30
0.0
 40
1.499999999999978
100
AcDbArc
 50
34.58525929494302
 51
86.36555075479296
  0
ARC
  5
2EE
330
3C
100
AcDbEntity
  8
1
  6
Continuous
 62
     7
100
AcDbCircle
 10
126.2228158424602
 20
101.356163366997
 30
0.0
 40
1.500000000000068
100
AcDbArc
 50
93.63444836870491
 51
157.9233961932075
  0
ARC
  5
2EF
330
3C
100
AcDbEntity
  8
1
  6
Continuous
 62
     7
100
AcDbCircle
 10
153.2251671536443
 20
101.3561633005696
 30
0.0
 40
1.500000000000066
100
AcDbArc
 50
93.63444924520596
 51
145.4147407050563
  0
ARC
  5
2F0
330
3C
100
AcDbEntity
  8
1
  6
Continuous
 62
     7
100
AcDbCircle
 10
161.9096711573424
 20
101.356163366997
 30
0.0
 40
1.500000000000005
100
AcDbArc
 50
22.07660380679205
 51
86.36555163129403
  0
ENDBLK
  5
3F
330
3C
100
AcDbEntity
  8
0
100
AcDbBlockEnd
  0
BLOCK
  5
41
330
40
100
AcDbEntity
  8
0
100
AcDbBlockBegin
  2
Geh_use
 70
     0
 71
     0
 10
-47.35713800000001
 20
0.49394799999999
 30
0.0
  3
Geh_use
  1

  0
POINT
  5
2F1
330
40
100
AcDbEntity
  8
1
 62
     3
 60
     1
100
AcDbPoint
 10
-38.35713199999999
 20
7.99394799999999
 30
0.0
  0
POINT
  5
2F2
330
40
100
AcDbEntity
  8
1
 62
     3
 60
     1
100
AcDbPoint
 10
-38.35713199999999
 20
70.49393800000001
 30
0.0
  0
LINE
  5
2F3
330
40
100
AcDbEntity
  8
1
  6
Continuous
 62
     7
100
AcDbLine
 10
0.64287300000002
 20
54.693943
 30
0.0
 11
0.64287300000002
 21
52.793943
 31
0.0
  0
LINE
  5
2F4
330
40
100
AcDbEntity
  8
1
  6
Continuous
 62
     7
100
AcDbLine
 10
-38.35713199999999
 20
54.693943
 30
0.0
 11
-38.35713199999999
 21
52.793943
 31
0.0
  0
LINE
  5
2F5
330
40
100
AcDbEntity
  8
1
  6
Continuous
 62
     7
100
AcDbLine
 10
-38.35713199999999
 20
54.693943
 30
0.0
 11
0.64287300000002
 21
54.693943
 31
0.0
  0
LINE
  5
2F6
330
40
100
AcDbEntity
  8
1
  6
Continuous
 62
     7
100
AcDbLine
 10
0.64287300000002
 20
52.793943
 30
0.0
 11
0.64287300000002
 21
18.193943
 31
0.0
  0
LINE
  5
2F7
330
40
100
AcDbEntity
  8
1
  6
Continuous
 62
     7
100
AcDbLine
 10
-38.35713199999999
 20
52.793943
 30
0.0
 11
-38.35713199999999
 21
18.193943
 31
0.0
  0
LINE
  5
2F8
330
40
100
AcDbEntity
  8
1
  6
Continuous
 62
     7
100
AcDbLine
 10
-38.35713199999999
 20
52.793943
 30
0.0
 11
0.64287300000002
 21
52.793943
 31
0.0
  0
LINE
  5
2F9
330
40
100
AcDbEntity
  8
1
  6
Continuous
 62
     7
100
AcDbLine
 10
0.64287300000002
 20
18.193943
 30
0.0
 11
0.64287300000002
 21
16.293943
 31
0.0
  0
LINE
  5
2FA
330
40
100
AcDbEntity
  8
1
  6
Continuous
 62
     7
100
AcDbLine
 10
-38.35713199999999
 20
18.193943
 30
0.0
 11
-38.35713199999999
 21
16.293943
 31
0.0
  0
LINE
  5
2FB
330
40
100
AcDbEntity
  8
1
  6
Continuous
 62
     7
100
AcDbLine
 10
-38.35713199999999
 20
18.193943
 30
0.0
 11
0.64287300000002
 21
18.193943
 31
0.0
  0
LINE
  5
2FC
330
40
100
AcDbEntity
  8
1
  6
Continuous
 62
     7
100
AcDbLine
 10
0.64287300000002
 20
16.293943
 30
0.0
 11
0.64287300000002
 21
9.493943
 31
0.0
  0
LINE
  5
2FD
330
40
100
AcDbEntity
  8
1
  6
Continuous
 62
     7
100
AcDbLine
 10
-38.35713199999999
 20
16.293943
 30
0.0
 11
-38.35713199999999
 21
9.493943
 31
0.0
  0
LINE
  5
2FE
330
40
100
AcDbEntity
  8
1
  6
Continuous
 62
     7
100
AcDbLine
 10
-38.35713199999999
 20
16.293943
 30
0.0
 11
0.64287300000002
 21
16.293943
 31
0.0
  0
LINE
  5
2FF
330
40
100
AcDbEntity
  8
1
  6
Continuous
 62
     7
100
AcDbLine
 10
0.64287300000002
 20
9.493943
 30
0.0
 11
0.64287300000002
 21
7.99394799999999
 31
0.0
  0
LINE
  5
300
330
40
100
AcDbEntity
  8
1
  6
Continuous
 62
     7
100
AcDbLine
 10
-38.35713199999999
 20
9.493943
 30
0.0
 11
-38.35713199999999
 21
7.99394799999999
 31
0.0
  0
LINE
  5
301
330
40
100
AcDbEntity
  8
1
  6
Continuous
 62
     7
100
AcDbLine
 10
-38.35713199999999
 20
9.493943
 30
0.0
 11
0.64287300000002
 21
9.493943
 31
0.0
  0
LINE
  5
302
330
40
100
AcDbEntity
  8
1
  6
Continuous
 62
     7
100
AcDbLine
 10
0.64287300000002
 20
61.493943
 30
0.0
 11
0.64287300000002
 21
54.693943
 31
0.0
  0
LINE
  5
303
330
40
100
AcDbEntity
  8
1
  6
Continuous
 62
     7
100
AcDbLine
 10
-38.35713199999999
 20
61.493943
 30
0.0
 11
-38.35713199999999
 21
54.693943
 31
0.0
  0
LINE
  5
304
330
40
100
AcDbEntity
  8
1
  6
Continuous
 62
     7
100
AcDbLine
 10
-38.35713199999999
 20
61.493943
 30
0.0
 11
0.64287300000002
 21
61.493943
 31
0.0
  0
LINE
  5
305
330
40
100
AcDbEntity
  8
1
  6
Continuous
 62
     7
100
AcDbLine
 10
0.64287300000002
 20
62.99393800000001
 30
0.0
 11
-38.35713199999999
 21
62.99393800000001
 31
0.0
  0
LINE
  5
306
330
40
100
AcDbEntity
  8
1
  6
Continuous
 62
     7
100
AcDbLine
 10
0.64287300000002
 20
62.99393800000001
 30
0.0
 11
0.64287300000002
 21
61.493943
 31
0.0
  0
LINE
  5
307
330
40
100
AcDbEntity
  8
1
  6
Continuous
 62
     7
100
AcDbLine
 10
0.64287300000002
 20
7.99394799999999
 30
0.0
 11
-38.35713199999999
 21
7.99394799999999
 31
0.0
  0
LINE
  5
308
330
40
100
AcDbEntity
  8
1
  6
Continuous
 62
     7
100
AcDbLine
 10
-38.35713199999999
 20
62.99393800000001
 30
0.0
 11
-38.35713199999999
 21
61.493943
 31
0.0
  0
ENDBLK
  5
42
330
40
100
AcDbEntity
  8
0
100
AcDbBlockEnd
  0
BLOCK
  5
45
330
43
100
AcDbEntity
  8
0
100
AcDbBlockBegin
  2
Lagerschild__1
 70
     0
 71
     0
 10
-38.35713199999999
 20
7.99394799999999
 30
0.0
  3
Lagerschild__1
  1

  0
INSERT
  5
44
330
43
100
AcDbEntity
  8
1
100
AcDbBlockReference
  2
Geh_use
 10
-47.35713800000001
 20
0.49394799999999
 30
0.0
  0
ENDBLK
  5
46
330
43
100
AcDbEntity
  8
0
100
AcDbBlockEnd
  0
BLOCK
  5
48
330
47
100
AcDbEntity
  8
0
100
AcDbBlockBegin
  2
Lagerschild__2
 70
     0
 71
     0
 10
1.64287300000002
 20
7.99394799999999
 30
0.0
  3
Lagerschild__2
  1

  0
POINT
  5
309
330
47
100
AcDbEntity
  8
1
 62
     3
 60
     1
100
AcDbPoint
 10
2.15058995904255
 20
64.4939435
 30
0.0
  0
POINT
  5
30A
330
47
100
AcDbEntity
  8
1
 62
     3
 60
     1
100
AcDbPoint
 10
0.64287300000002
 20
62.99393800000001
 30
0.0
  0
POINT
  5
30B
330
47
100
AcDbEntity
  8
1
 62
     3
 60
     1
100
AcDbPoint
 10
0.64287300000002
 20
16.293943
 30
0.0
  0
POINT
  5
30C
330
47
100
AcDbEntity
  8
1
 62
     3
 60
     1
100
AcDbPoint
 10
0.64287300000002
 20
64.4939435
 30
0.0
  0
POINT
  5
30D
330
47
100
AcDbEntity
  8
1
 62
     3
 60
     1
100
AcDbPoint
 10
0.64287300000002
 20
7.99394799999999
 30
0.0
  0
LINE
  5
30E
330
47
100
AcDbEntity
  8
1
  6
Continuous
 62
     7
100
AcDbLine
 10
43.642878
 20
64.4939435
 30
0.0
 11
43.642878
 21
7.99394799999999
 31
0.0
  0
LINE
  5
30F
330
47
100
AcDbEntity
  8
1
  6
Continuous
 62
     7
100
AcDbLine
 10
0.64287300000002
 20
62.99393800000001
 30
0.0
 11
0.64287300000002
 21
54.693943
 31
0.0
  0
LINE
  5
310
330
47
100
AcDbEntity
  8
1
  6
Continuous
 62
     7
100
AcDbLine
 10
0.64287300000002
 20
62.99393800000001
 30
0.0
 11
2.15058995904255
 21
64.4939435
 31
0.0
  0
LINE
  5
311
330
47
100
AcDbEntity
  8
1
  6
Continuous
 62
     7
100
AcDbLine
 10
7.14287300000002
 20
64.4939435
 30
0.0
 11
2.15058995904255
 21
64.4939435
 31
0.0
  0
LINE
  5
312
330
47
100
AcDbEntity
  8
1
  6
Continuous
 62
     7
100
AcDbLine
 10
0.64287300000002
 20
54.693943
 30
0.0
 11
0.64287300000002
 21
16.293943
 31
0.0
  0
LINE
  5
313
330
47
100
AcDbEntity
  8
1
  6
Continuous
 62
     7
100
AcDbLine
 10
0.64287300000002
 20
54.693943
 30
0.0
 11
7.14287300000002
 21
64.4939435
 31
0.0
  0
LINE
  5
314
330
47
100
AcDbEntity
  8
1
  6
Continuous
 62
     7
100
AcDbLine
 10
0.64287300000002
 20
16.293943
 30
0.0
 11
0.64287300000002
 21
7.99394799999999
 31
0.0
  0
LINE
  5
315
330
47
100
AcDbEntity
  8
1
  6
Continuous
 62
     7
100
AcDbLine
 10
3.64287300000002
 20
11.493943
 30
0.0
 11
0.64287300000002
 21
16.293943
 31
0.0
  0
LINE
  5
316
330
47
100
AcDbEntity
  8
1
  6
Continuous
 62
     7
100
AcDbLine
 10
3.64287300000002
 20
7.99394799999999
 30
0.0
 11
0.64287300000002
 21
7.99394799999999
 31
0.0
  0
LINE
  5
317
330
47
100
AcDbEntity
  8
1
  6
Continuous
 62
     7
100
AcDbLine
 10
3.64287300000002
 20
11.493943
 30
0.0
 11
43.642878
 21
11.493943
 31
0.0
  0
LINE
  5
318
330
47
100
AcDbEntity
  8
1
  6
Continuous
 62
     7
100
AcDbLine
 10
3.64287300000002
 20
7.99394799999999
 30
0.0
 11
3.64287300000002
 21
11.493943
 31
0.0
  0
LINE
  5
319
330
47
100
AcDbEntity
  8
1
  6
Continuous
 62
     7
100
AcDbLine
 10
43.642878
 20
7.99394799999999
 30
0.0
 11
3.64287300000002
 21
7.99394799999999
 31
0.0
  0
LINE
  5
31A
330
47
100
AcDbEntity
  8
1
  6
Continuous
 62
     7
100
AcDbLine
 10
43.642878
 20
59.493943
 30
0.0
 11
3.82654630695546
 21
59.493943
 31
0.0
  0
LINE
  5
31B
330
47
100
AcDbEntity
  8
1
  6
Continuous
 62
     7
100
AcDbLine
 10
43.642878
 20
64.4939435
 30
0.0
 11
7.14287300000002
 21
64.4939435
 31
0.0
  0
LINE
  5
31C
330
47
100
AcDbEntity
  8
1
  6
Continuous
 62
     7
100
AcDbLine
 10
116.566237
 20
60.24773058897313
 30
0.0
 11
116.566237
 21
64.4939435
 31
0.0
  0
LINE
  5
31D
330
47
100
AcDbEntity
  8
1
  6
Continuous
 62
     7
100
AcDbLine
 10
171.566237
 20
60.24773058897318
 30
0.0
 11
171.566237
 21
64.4939435
 31
0.0
  0
LINE
  5
31E
330
47
100
AcDbEntity
  8
1
  6
Continuous
 62
     7
100
AcDbLine
 10
121.9020773949078
 20
64.4939435
 30
0.0
 11
116.566237
 21
64.4939435
 31
0.0
  0
LINE
  5
31F
330
47
100
AcDbEntity
  8
1
  6
Continuous
 62
     7
100
AcDbLine
 10
166.2303966050922
 20
64.4939435
 30
0.0
 11
171.566237
 21
64.4939435
 31
0.0
  0
ENDBLK
  5
49
330
47
100
AcDbEntity
  8
0
100
AcDbBlockEnd
  0
BLOCK
  5
3FF
330
3F8
100
AcDbEntity
  8
0
100
AcDbBlockBegin
  2
*D8
 70
     1
 71
     0
 10
0.0
 20
0.0
 30
0.0
  3
*D8
  1

  0
LINE
  5
3F9
330
3F8
100
AcDbEntity
  8
1
  6
Continuous
 62
     2
100
AcDbLine
 10
-138.085567908232
 20
29.493943
 30
0.0
 11
-138.085567908232
 21
41.493943
 31
0.0
  0
LINE
  5
3FA
330
3F8
100
AcDbEntity
  8
1
  6
Continuous
 62
     2
100
AcDbLine
 10
-130.357122
 20
29.493943
 30
0.0
 11
-139.085567908232
 21
29.493943
 31
0.0
  0
LINE
  5
3FB
330
3F8
100
AcDbEntity
  8
1
  6
Continuous
 62
     2
100
AcDbLine
 10
-130.357122
 20
41.493943
 30
0.0
 11
-139.085567908232
 21
41.493943
 31
0.0
  0
SOLID
  5
3FC
330
3F8
100
AcDbEntity
  8
1
 62
     2
100
AcDbTrace
 10
-138.5463516497879
 20
32.993943
 30
0.0
 11
-137.6247841666761
 21
32.993943
 31
0.0
 12
-138.085567908232
 22
29.493943
 32
0.0
 13
-138.085567908232
 23
29.493943
 33
0.0
  0
SOLID
  5
3FD
330
3F8
100
AcDbEntity
  8
1
 62
     2
100
AcDbTrace
 10
-137.6247841666761
 20
37.993943
 30
0.0
 11
-138.5463516497879
 21
37.993943
 31
0.0
 12
-138.085567908232
 22
41.493943
 32
0.0
 13
-138.085567908232
 23
41.493943
 33
0.0
  0
MTEXT
  5
3FE
330
3F8
100
AcDbEntity
  8
1
 62
     3
100
AcDbMText
 10
-140.960567908232
 20
27.8265323110927
 30
0.0
 40
3.5
 41
0.0
 71
     7
 72
     1
  1
\C3;{\Fgdt;n}\C3;\C3;12\C2;\H2.1;\S^ k6;
  7
CONVERTER_11
 11
0.0
 21
1.0
 31
0.0
 73
     1
 44
0.60024009603842
  0
ENDBLK
  5
400
330
3F8
100
AcDbEntity
  8
0
100
AcDbBlockEnd
  0
BLOCK
  5
40A
330
403
100
AcDbEntity
  8
0
100
AcDbBlockBegin
  2
*D9
 70
     1
 71
     0
 10
0.0
 20
0.0
 30
0.0
  3
*D9
  1

  0
LINE
  5
404
330
403
100
AcDbEntity
  8
1
  6
Continuous
 62
     2
100
AcDbLine
 10
-149.117314480828
 20
17.993943
 30
0.0
 11
-149.117314480828
 21
52.993943
 31
0.0
  0
LINE
  5
405
330
403
100
AcDbEntity
  8
1
  6
Continuous
 62
     2
100
AcDbLine
 10
-109.857122
 20
17.993943
 30
0.0
 11
-150.117314480828
 21
17.993943
 31
0.0
  0
LINE
  5
406
330
403
100
AcDbEntity
  8
1
  6
Continuous
 62
     2
100
AcDbLine
 10
-109.857122
 20
52.993943
 30
0.0
 11
-150.117314480828
 21
52.993943
 31
0.0
  0
SOLID
  5
407
330
403
100
AcDbEntity
  8
1
 62
     2
100
AcDbTrace
 10
-149.5780982223839
 20
21.493943
 30
0.0
 11
-148.6565307392721
 21
21.493943
 31
0.0
 12
-149.117314480828
 22
17.993943
 32
0.0
 13
-149.117314480828
 23
17.993943
 33
0.0
  0
SOLID
  5
408
330
403
100
AcDbEntity
  8
1
 62
     2
100
AcDbTrace
 10
-148.6565307392721
 20
49.493943
 30
0.0
 11
-149.5780982223839
 21
49.493943
 31
0.0
 12
-149.117314480828
 22
52.993943
 32
0.0
 13
-149.117314480828
 23
52.993943
 33
0.0
  0
MTEXT
  5
409
330
403
100
AcDbEntity
  8
1
 62
     3
100
AcDbMText
 10
-152.779814480828
 20
27.1991771080647
 30
0.0
 40
3.5
 41
0.0
 71
     7
 72
     1
  1
\C3;{\Fgdt;n}\C3;\C3;35\C2;\H2.1;\S^ g6;
  7
CONVERTER_11
 11
0.0
 21
1.0
 31
0.0
 73
     1
 44
0.60024009603842
  0
ENDBLK
  5
40B
330
403
100
AcDbEntity
  8
0
100
AcDbBlockEnd
  0
BLOCK
  5
415
330
40E
100
AcDbEntity
  8
0
100
AcDbBlockBegin
  2
*D10
 70
     1
 71
     0
 10
0.0
 20
0.0
 30
0.0
  3
*D10
  1

  0
LINE
  5
40F
330
40E
100
AcDbEntity
  8
1
  6
Continuous
 62
     2
100
AcDbLine
 10
116.066237
 20
-4.48480869896874
 30
0.0
 11
172.066237
 21
-4.48480869896874
 31
0.0
  0
LINE
  5
410
330
40E
100
AcDbEntity
  8
1
  6
Continuous
 62
     2
100
AcDbLine
 10
116.066237
 20
11.30716975510435
 30
0.0
 11
116.066237
 21
-5.48480869896874
 31
0.0
  0
LINE
  5
411
330
40E
100
AcDbEntity
  8
1
  6
Continuous
 62
     2
100
AcDbLine
 10
172.066237
 20
11.30716975510435
 30
0.0
 11
172.066237
 21
-5.48480869896874
 31
0.0
  0
SOLID
  5
412
330
40E
100
AcDbEntity
  8
1
 62
     2
100
AcDbTrace
 10
119.566237
 20
-4.02402495741285
 30
0.0
 11
119.566237
 21
-4.94559244052462
 31
0.0
 12
116.066237
 22
-4.48480869896874
 32
0.0
 13
116.066237
 23
-4.48480869896874
 33
0.0
  0
SOLID
  5
413
330
40E
100
AcDbEntity
  8
1
 62
     2
100
AcDbTrace
 10
168.566237
 20
-4.94559244052462
 30
0.0
 11
168.566237
 21
-4.02402495741285
 31
0.0
 12
172.066237
 22
-4.48480869896874
 32
0.0
 13
172.066237
 23
-4.48480869896874
 33
0.0
  0
MTEXT
  5
414
330
40E
100
AcDbEntity
  8
1
 62
     3
100
AcDbMText
 10
141.966237
 20
-2.48480869896874
 30
0.0
 40
3.5
 41
0.0
 71
     7
 72
     1
  1
56
  7
CONVERTER_11
 11
0.9999999999970621
 21
2.424068405545307E-6
 31
0.0
 73
     1
 44
0.60024009603842
  0
ENDBLK
  5
416
330
40E
100
AcDbEntity
  8
0
100
AcDbBlockEnd
  0
BLOCK
  5
420
330
419
100
AcDbEntity
  8
0
100
AcDbBlockBegin
  2
*D11
 70
     1
 71
     0
 10
0.0
 20
0.0
 30
0.0
  3
*D11
  1

  0
LINE
  5
41A
330
419
100
AcDbEntity
  8
1
  6
Continuous
 62
     2
100
AcDbLine
 10
130.5671773462071
 20
124.981032258065
 30
0.0
 11
157.5652877498334
 21
124.981032258065
 31
0.0
  0
LINE
  5
41B
330
419
100
AcDbEntity
  8
1
  6
Continuous
 62
     2
100
AcDbLine
 10
130.5671773462071
 20
108.0355074629339
 30
0.0
 11
130.5671773462071
 21
125.981032258065
 31
0.0
  0
LINE
  5
41C
330
419
100
AcDbEntity
  8
1
  6
Continuous
 62
     2
100
AcDbLine
 10
157.5652877498334
 20
108.4616482227904
 30
0.0
 11
157.5652877498334
 21
125.981032258065
 31
0.0
  0
SOLID
  5
41D
330
419
100
AcDbEntity
  8
1
 62
     2
100
AcDbTrace
 10
134.0671773462071
 20
125.4418159996209
 30
0.0
 11
134.0671773462071
 21
124.5202485165091
 31
0.0
 12
130.5671773462071
 22
124.981032258065
 32
0.0
 13
130.5671773462071
 23
124.981032258065
 33
0.0
  0
SOLID
  5
41E
330
419
100
AcDbEntity
  8
1
 62
     2
100
AcDbTrace
 10
154.0652877498334
 20
124.5202485165091
 30
0.0
 11
154.0652877498334
 21
125.4418159996209
 31
0.0
 12
157.5652877498334
 22
124.981032258065
 32
0.0
 13
157.5652877498334
 23
124.981032258065
 33
0.0
  0
MTEXT
  5
41F
330
419
100
AcDbEntity
  8
1
 62
     3
100
AcDbMText
 10
141.9662434999013
 20
126.981032258065
 30
0.0
 40
3.5
 41
0.0
 71
     7
 72
     1
  1
27
  7
CONVERTER_11
 11
0.9999999999970621
 21
2.424068405545307E-6
 31
0.0
 73
     1
 44
0.60024009603842
  0
ENDBLK
  5
421
330
419
100
AcDbEntity
  8
0
100
AcDbBlockEnd
  0
BLOCK
  5
42B
330
424
100
AcDbEntity
  8
0
100
AcDbBlockBegin
  2
*D12
 70
     1
 71
     0
 10
0.0
 20
0.0
 30
0.0
  3
*D12
  1

  0
LINE
  5
425
330
424
100
AcDbEntity
  8
1
  6
Continuous
 62
     2
100
AcDbLine
 10
-87.9862912656097
 20
10.493943
 30
0.0
 11
-87.9862912656097
 21
60.493943
 31
0.0
  0
LINE
  5
426
330
424
100
AcDbEntity
  8
1
  6
Continuous
 62
     2
100
AcDbLine
 10
-74.35712199999998
 20
10.493943
 30
0.0
 11
-88.9862912656097
 21
10.493943
 31
0.0
  0
LINE
  5
427
330
424
100
AcDbEntity
  8
1
  6
Continuous
 62
     2
100
AcDbLine
 10
-74.35712199999998
 20
60.493943
 30
0.0
 11
-88.9862912656097
 21
60.493943
 31
0.0
  0
SOLID
  5
428
330
424
100
AcDbEntity
  8
1
 62
     2
100
AcDbTrace
 10
-88.44707500716558
 20
13.993943
 30
0.0
 11
-87.52550752405381
 21
13.993943
 31
0.0
 12
-87.9862912656097
 22
10.493943
 32
0.0
 13
-87.9862912656097
 23
10.493943
 33
0.0
  0
SOLID
  5
429
330
424
100
AcDbEntity
  8
1
 62
     2
100
AcDbTrace
 10
-87.52550752405381
 20
56.993943
 30
0.0
 11
-88.44707500716558
 21
56.993943
 31
0.0
 12
-87.9862912656097
 22
60.493943
 32
0.0
 13
-87.9862912656097
 23
60.493943
 33
0.0
  0
MTEXT
  5
42A
330
424
100
AcDbEntity
  8
1
 62
     3
100
AcDbMText
 10
-89.9862912656097
 20
19.7042297736732
 30
0.0
 40
3.5
 41
0.0
 71
     7
 72
     1
  1
\C3;{\Fgdt;n}\C3;50
  7
CONVERTER_11
 11
0.0
 21
1.0
 31
0.0
 73
     1
 44
0.60024009603842
  0
ENDBLK
  5
42C
330
424
100
AcDbEntity
  8
0
100
AcDbBlockEnd
  0
BLOCK
  5
436
330
42F
100
AcDbEntity
  8
0
100
AcDbBlockBegin
  2
*D13
 70
     1
 71
     0
 10
0.0
 20
0.0
 30
0.0
  3
*D13
  1

  0
LINE
  5
430
330
42F
100
AcDbEntity
  8
1
  6
Continuous
 62
     2
100
AcDbLine
 10
-112.357122
 20
80.9833022242457
 30
0.0
 11
-130.357122
 21
80.9833022242457
 31
0.0
  0
LINE
  5
431
330
42F
100
AcDbEntity
  8
1
  6
Continuous
 62
     2
100
AcDbLine
 10
-112.357122
 20
42.993943
 30
0.0
 11
-112.357122
 21
81.9833022242457
 31
0.0
  0
LINE
  5
432
330
42F
100
AcDbEntity
  8
1
  6
Continuous
 62
     2
100
AcDbLine
 10
-130.357122
 20
29.493943
 30
0.0
 11
-130.357122
 21
81.9833022242457
 31
0.0
  0
SOLID
  5
433
330
42F
100
AcDbEntity
  8
1
 62
     2
100
AcDbTrace
 10
-115.857122
 20
80.52251848268982
 30
0.0
 11
-115.857122
 21
81.44408596580159
 31
0.0
 12
-112.357122
 22
80.9833022242457
 32
0.0
 13
-112.357122
 23
80.9833022242457
 33
0.0
  0
SOLID
  5
434
330
42F
100
AcDbEntity
  8
1
 62
     2
100
AcDbTrace
 10
-126.857122
 20
81.44408596580159
 30
0.0
 11
-126.857122
 21
80.52251848268982
 31
0.0
 12
-130.357122
 22
80.9833022242457
 32
0.0
 13
-130.357122
 23
80.9833022242457
 33
0.0
  0
MTEXT
  5
435
330
42F
100
AcDbEntity
  8
1
 62
     3
100
AcDbMText
 10
-123.15864119407
 20
82.9833022242457
 30
0.0
 40
3.5
 41
0.0
 71
     7
 72
     1
  1
18
  7
CONVERTER_11
 11
0.9999999999970621
 21
2.424068405545307E-6
 31
0.0
 73
     1
 44
0.60024009603842
  0
ENDBLK
  5
437
330
42F
100
AcDbEntity
  8
0
100
AcDbBlockEnd
  0
BLOCK
  5
441
330
43A
100
AcDbEntity
  8
0
100
AcDbBlockBegin
  2
*D14
 70
     1
 71
     0
 10
0.0
 20
0.0
 30
0.0
  3
*D14
  1

  0
LINE
  5
43B
330
43A
100
AcDbEntity
  8
1
  6
Continuous
 62
     2
100
AcDbLine
 10
-129.357122
 20
55.8496302444835
 30
0.0
 11
-113.357122
 21
55.8496302444835
 31
0.0
  0
LINE
  5
43C
330
43A
100
AcDbEntity
  8
1
  6
Continuous
 62
     2
100
AcDbLine
 10
-129.357122
 20
42.993943
 30
0.0
 11
-129.357122
 21
56.8496302444835
 31
0.0
  0
LINE
  5
43D
330
43A
100
AcDbEntity
  8
1
  6
Continuous
 62
     2
100
AcDbLine
 10
-113.357122
 20
42.993943
 30
0.0
 11
-113.357122
 21
56.8496302444835
 31
0.0
  0
SOLID
  5
43E
330
43A
100
AcDbEntity
  8
1
 62
     2
100
AcDbTrace
 10
-125.857122
 20
56.31041398603939
 30
0.0
 11
-125.857122
 21
55.38884650292761
 31
0.0
 12
-129.357122
 22
55.8496302444835
 32
0.0
 13
-129.357122
 23
55.8496302444835
 33
0.0
  0
SOLID
  5
43F
330
43A
100
AcDbEntity
  8
1
 62
     2
100
AcDbTrace
 10
-116.857122
 20
55.38884650292761
 30
0.0
 11
-116.857122
 21
56.31041398603939
 31
0.0
 12
-113.357122
 22
55.8496302444835
 32
0.0
 13
-113.357122
 23
55.8496302444835
 33
0.0
  0
MTEXT
  5
440
330
43A
100
AcDbEntity
  8
1
 62
     3
100
AcDbMText
 10
-123.130182317092
 20
57.8496302444835
 30
0.0
 40
3.5
 41
0.0
 71
     7
 72
     1
  1
16
  7
CONVERTER_11
 11
0.9999999999970621
 21
2.424068405545307E-6
 31
0.0
 73
     1
 44
0.60024009603842
  0
ENDBLK
  5
442
330
43A
100
AcDbEntity
  8
0
100
AcDbBlockEnd
  0
BLOCK
  5
44E
330
445
100
AcDbEntity
  8
0
100
AcDbBlockBegin
  2
*D15
 70
     1
 71
     0
 10
0.0
 20
0.0
 30
0.0
  3
*D15
  1

  0
LINE
  5
446
330
445
100
AcDbEntity
  8
1
  6
Continuous
 62
     2
100
AcDbLine
 10
-129.357122
 20
55.6900887118008
 30
0.0
 11
-122.357122
 21
55.6900887118008
 31
0.0
  0
LINE
  5
447
330
445
100
AcDbEntity
  8
1
  6
Continuous
 62
     2
100
AcDbLine
 10
-130.357122
 20
55.6900887118008
 30
0.0
 11
-129.357122
 21
55.6900887118008
 31
0.0
  0
LINE
  5
448
330
445
100
AcDbEntity
  8
1
  6
Continuous
 62
     2
100
AcDbLine
 10
-137.357122
 20
55.6900887118008
 30
0.0
 11
-130.357122
 21
55.6900887118008
 31
0.0
  0
LINE
  5
449
330
445
100
AcDbEntity
  8
1
  6
Continuous
 62
     2
100
AcDbLine
 10
-130.357122
 20
41.493943
 30
0.0
 11
-130.357122
 21
56.6900887118008
 31
0.0
  0
LINE
  5
44A
330
445
100
AcDbEntity
  8
1
  6
Continuous
 62
     2
100
AcDbLine
 10
-129.357122
 20
42.993943
 30
0.0
 11
-129.357122
 21
56.6900887118008
 31
0.0
  0
SOLID
  5
44B
330
445
100
AcDbEntity
  8
1
 62
     2
100
AcDbTrace
 10
-133.857122
 20
55.22930497024491
 30
0.0
 11
-133.857122
 21
56.15087245335668
 31
0.0
 12
-130.357122
 22
55.6900887118008
 32
0.0
 13
-130.357122
 23
55.6900887118008
 33
0.0
  0
SOLID
  5
44C
330
445
100
AcDbEntity
  8
1
 62
     2
100
AcDbTrace
 10
-125.857122
 20
56.15087245335668
 30
0.0
 11
-125.857122
 21
55.22930497024491
 31
0.0
 12
-129.357122
 22
55.6900887118008
 32
0.0
 13
-129.357122
 23
55.6900887118008
 33
0.0
  0
MTEXT
  5
44D
330
445
100
AcDbEntity
  8
1
 62
     3
100
AcDbMText
 10
-133.676255735613
 20
57.6900887118008
 30
0.0
 40
3.5
 41
0.0
 71
     7
 72
     1
  1
1
  7
CONVERTER_11
 11
0.9999999999970621
 21
2.424068405545307E-6
 31
0.0
 73
     1
 44
0.60024009603842
  0
ENDBLK
  5
44F
330
445
100
AcDbEntity
  8
0
100
AcDbBlockEnd
  0
BLOCK
  5
45B
330
452
100
AcDbEntity
  8
0
100
AcDbBlockBegin
  2
*D16
 70
     1
 71
     0
 10
0.0
 20
0.0
 30
0.0
  3
*D16
  1

  0
LINE
  5
453
330
452
100
AcDbEntity
  8
1
  6
Continuous
 62
     2
100
AcDbLine
 10
-112.357122
 20
66.4425978147764
 30
0.0
 11
-120.067994536942
 21
66.4425978147764
 31
0.0
  0
LINE
  5
454
330
452
100
AcDbEntity
  8
1
  6
Continuous
 62
     2
100
AcDbLine
 10
-109.857122
 20
66.4425978147764
 30
0.0
 11
-112.357122
 21
66.4425978147764
 31
0.0
  0
LINE
  5
455
330
452
100
AcDbEntity
  8
1
  6
Continuous
 62
     2
100
AcDbLine
 10
-102.857122
 20
66.4425978147764
 30
0.0
 11
-109.857122
 21
66.4425978147764
 31
0.0
  0
LINE
  5
456
330
452
100
AcDbEntity
  8
1
  6
Continuous
 62
     2
100
AcDbLine
 10
-109.857122
 20
52.993943
 30
0.0
 11
-109.857122
 21
67.4425978147764
 31
0.0
  0
LINE
  5
457
330
452
100
AcDbEntity
  8
1
  6
Continuous
 62
     2
100
AcDbLine
 10
-112.357122
 20
42.993943
 30
0.0
 11
-112.357122
 21
67.4425978147764
 31
0.0
  0
SOLID
  5
458
330
452
100
AcDbEntity
  8
1
 62
     2
100
AcDbTrace
 10
-106.357122
 20
66.90338155633229
 30
0.0
 11
-106.357122
 21
65.98181407322052
 31
0.0
 12
-109.857122
 22
66.4425978147764
 32
0.0
 13
-109.857122
 23
66.4425978147764
 33
0.0
  0
SOLID
  5
459
330
452
100
AcDbEntity
  8
1
 62
     2
100
AcDbTrace
 10
-115.857122
 20
65.98181407322052
 30
0.0
 11
-115.857122
 21
66.90338155633229
 31
0.0
 12
-112.357122
 22
66.4425978147764
 32
0.0
 13
-112.357122
 23
66.4425978147764
 33
0.0
  0
MTEXT
  5
45A
330
452
100
AcDbEntity
  8
1
 62
     3
100
AcDbMText
 10
-120.067994536942
 20
68.4425978147764
 30
0.0
 40
3.5
 41
0.0
 71
     7
 72
     1
  1
2.5
  7
CONVERTER_11
 11
0.9999999999970621
 21
2.424068405545307E-6
 31
0.0
 73
     1
 44
0.60024009603842
  0
ENDBLK
  5
45C
330
452
100
AcDbEntity
  8
0
100
AcDbBlockEnd
  0
BLOCK
  5
468
330
45F
100
AcDbEntity
  8
0
100
AcDbBlockBegin
  2
*D17
 70
     1
 71
     0
 10
0.0
 20
0.0
 30
0.0
  3
*D17
  1

  0
LINE
  5
460
330
45F
100
AcDbEntity
  8
1
  6
Continuous
 62
     2
100
AcDbLine
 10
-105.857122
 20
90.8974188670658
 30
0.0
 11
-98.1666434703444
 21
90.8974188670658
 31
0.0
  0
LINE
  5
461
330
45F
100
AcDbEntity
  8
1
  6
Continuous
 62
     2
100
AcDbLine
 10
-109.857122
 20
90.8974188670658
 30
0.0
 11
-105.857122
 21
90.8974188670658
 31
0.0
  0
LINE
  5
462
330
45F
100
AcDbEntity
  8
1
  6
Continuous
 62
     2
100
AcDbLine
 10
-116.857122
 20
90.8974188670658
 30
0.0
 11
-109.857122
 21
90.8974188670658
 31
0.0
  0
LINE
  5
463
330
45F
100
AcDbEntity
  8
1
  6
Continuous
 62
     2
100
AcDbLine
 10
-109.857122
 20
52.99394300000001
 30
0.0
 11
-109.857122
 21
91.8974188670658
 31
0.0
  0
LINE
  5
464
330
45F
100
AcDbEntity
  8
1
  6
Continuous
 62
     2
100
AcDbLine
 10
-105.857122
 20
60.49394300000001
 30
0.0
 11
-105.857122
 21
91.8974188670658
 31
0.0
  0
SOLID
  5
465
330
45F
100
AcDbEntity
  8
1
 62
     2
100
AcDbTrace
 10
-113.357122
 20
90.43663512550991
 30
0.0
 11
-113.357122
 21
91.35820260862168
 31
0.0
 12
-109.857122
 22
90.8974188670658
 32
0.0
 13
-109.857122
 23
90.8974188670658
 33
0.0
  0
SOLID
  5
466
330
45F
100
AcDbEntity
  8
1
 62
     2
100
AcDbTrace
 10
-102.357122
 20
91.35820260862168
 30
0.0
 11
-102.357122
 21
90.43663512550991
 31
0.0
 12
-105.857122
 22
90.8974188670658
 32
0.0
 13
-105.857122
 23
90.8974188670658
 33
0.0
  0
MTEXT
  5
467
330
45F
100
AcDbEntity
  8
1
 62
     3
100
AcDbMText
 10
-99.8466434703444
 20
92.8974188670658
 30
0.0
 40
3.5
 41
0.0
 71
     7
 72
     1
  1
4
  7
CONVERTER_11
 11
0.9999999999970621
 21
2.424068405545307E-6
 31
0.0
 73
     1
 44
0.60024009603842
  0
ENDBLK
  5
469
330
45F
100
AcDbEntity
  8
0
100
AcDbBlockEnd
  0
BLOCK
  5
473
330
46C
100
AcDbEntity
  8
0
100
AcDbBlockBegin
  2
*D18
 70
     1
 71
     0
 10
0.0
 20
0.0
 30
0.0
  3
*D18
  1

  0
LINE
  5
46D
330
46C
100
AcDbEntity
  8
1
  6
Continuous
 62
     2
100
AcDbLine
 10
-105.857122
 20
110.285024746358
 30
0.0
 11
22.14287800000056
 21
110.285024746358
 31
0.0
  0
LINE
  5
46E
330
46C
100
AcDbEntity
  8
1
  6
Continuous
 62
     2
100
AcDbLine
 10
-105.857122
 20
60.493943
 30
0.0
 11
-105.857122
 21
111.285024746358
 31
0.0
  0
LINE
  5
46F
330
46C
100
AcDbEntity
  8
1
  6
Continuous
 62
     2
100
AcDbLine
 10
22.14287800000056
 20
64.2937518127957
 30
0.0
 11
22.14287800000056
 21
111.285024746358
 31
0.0
  0
SOLID
  5
470
330
46C
100
AcDbEntity
  8
1
 62
     2
100
AcDbTrace
 10
-102.357122
 20
110.7458084879139
 30
0.0
 11
-102.357122
 21
109.8242410048021
 31
0.0
 12
-105.857122
 22
110.285024746358
 32
0.0
 13
-105.857122
 23
110.285024746358
 33
0.0
  0
SOLID
  5
471
330
46C
100
AcDbEntity
  8
1
 62
     2
100
AcDbTrace
 10
18.64287800000056
 20
109.8242410048021
 30
0.0
 11
18.64287800000056
 21
110.7458084879139
 31
0.0
 12
22.14287800000056
 22
110.285024746358
 32
0.0
 13
22.14287800000056
 23
110.285024746358
 33
0.0
  0
MTEXT
  5
472
330
46C
100
AcDbEntity
  8
1
 62
     3
100
AcDbMText
 10
-48.71532675064293
 20
113.335024746358
 30
0.0
 40
3.5
 41
0.0
 71
     7
 72
     1
  1
q
  7
CONVERTER_11
 11
0.9999999999970621
 21
2.424068405545307E-6
 31
0.0
 73
     1
 44
0.60024009603842
  0
ENDBLK
  5
474
330
46C
100
AcDbEntity
  8
0
100
AcDbBlockEnd
  0
BLOCK
  5
47E
330
477
100
AcDbEntity
  8
0
100
AcDbBlockBegin
  2
*D19
 70
     1
 71
     0
 10
0.0
 20
0.0
 30
0.0
  3
*D19
  1

  0
LINE
  5
478
330
477
100
AcDbEntity
  8
1
  6
Continuous
 62
     2
100
AcDbLine
 10
-105.857122
 20
124.605415452654
 30
0.0
 11
46.142878
 21
124.605415452654
 31
0.0
  0
LINE
  5
479
330
477
100
AcDbEntity
  8
1
  6
Continuous
 62
     2
100
AcDbLine
 10
-105.857122
 20
60.493943
 30
0.0
 11
-105.857122
 21
125.605415452654
 31
0.0
  0
LINE
  5
47A
330
477
100
AcDbEntity
  8
1
  6
Continuous
 62
     2
100
AcDbLine
 10
46.142878
 20
64.4939435
 30
0.0
 11
46.142878
 21
125.605415452654
 31
0.0
  0
SOLID
  5
47B
330
477
100
AcDbEntity
  8
1
 62
     2
100
AcDbTrace
 10
-102.357122
 20
125.0661991942099
 30
0.0
 11
-102.357122
 21
124.1446317110981
 31
0.0
 12
-105.857122
 22
124.605415452654
 32
0.0
 13
-105.857122
 23
124.605415452654
 33
0.0
  0
SOLID
  5
47C
330
477
100
AcDbEntity
  8
1
 62
     2
100
AcDbTrace
 10
42.642878
 20
124.1446317110981
 30
0.0
 11
42.642878
 21
125.0661991942099
 31
0.0
 12
46.142878
 22
124.605415452654
 32
0.0
 13
46.142878
 23
124.605415452654
 33
0.0
  0
MTEXT
  5
47D
330
477
100
AcDbEntity
  8
1
 62
     3
100
AcDbMText
 10
-32.04739972139545
 20
126.605415452654
 30
0.0
 40
3.5
 41
0.0
 71
     7
 72
     1
  1
k
  7
CONVERTER_11
 11
0.9999999999970621
 21
2.424068405545307E-6
 31
0.0
 73
     1
 44
0.60024009603842
  0
ENDBLK
  5
47F
330
477
100
AcDbEntity
  8
0
100
AcDbBlockEnd
  0
BLOCK
  5
48B
330
482
100
AcDbEntity
  8
0
100
AcDbBlockBegin
  2
*D20
 70
     1
 71
     0
 10
0.0
 20
0.0
 30
0.0
  3
*D20
  1

  0
LINE
  5
483
330
482
100
AcDbEntity
  8
1
  6
Continuous
 62
     2
100
AcDbLine
 10
146.566237
 20
45.94348715022114
 30
0.0
 11
153.566237
 21
45.94348715022114
 31
0.0
  0
LINE
  5
484
330
482
100
AcDbEntity
  8
1
  6
Continuous
 62
     2
100
AcDbLine
 10
141.566237
 20
45.94348715022114
 30
0.0
 11
146.566237
 21
45.94348715022114
 31
0.0
  0
LINE
  5
485
330
482
100
AcDbEntity
  8
1
  6
Continuous
 62
     2
100
AcDbLine
 10
134.566237
 20
45.94348715022114
 30
0.0
 11
141.566237
 21
45.94348715022114
 31
0.0
  0
LINE
  5
486
330
482
100
AcDbEntity
  8
1
  6
Continuous
 62
     2
100
AcDbLine
 10
141.566237
 20
43.063943
 30
0.0
 11
141.566237
 21
46.94348715022114
 31
0.0
  0
LINE
  5
487
330
482
100
AcDbEntity
  8
1
  6
Continuous
 62
     2
100
AcDbLine
 10
146.566237
 20
43.063943
 30
0.0
 11
146.566237
 21
46.94348715022114
 31
0.0
  0
SOLID
  5
488
330
482
100
AcDbEntity
  8
1
 62
     2
100
AcDbTrace
 10
138.066237
 20
45.48270340866525
 30
0.0
 11
138.066237
 21
46.40427089177702
 31
0.0
 12
141.566237
 22
45.94348715022114
 32
0.0
 13
141.566237
 23
45.94348715022114
 33
0.0
  0
SOLID
  5
489
330
482
100
AcDbEntity
  8
1
 62
     2
100
AcDbTrace
 10
150.066237
 20
46.40427089177702
 30
0.0
 11
150.066237
 21
45.48270340866525
 31
0.0
 12
146.566237
 22
45.94348715022114
 32
0.0
 13
146.566237
 23
45.94348715022114
 33
0.0
  0
MTEXT
  5
48A
330
482
100
AcDbEntity
  8
1
 62
     3
100
AcDbMText
 10
145.42101052777
 20
47.94348715022114
 30
0.0
 40
3.5
 41
0.0
 71
     7
 72
     1
  1
5
  7
CONVERTER_11
 11
0.9999999999970621
 21
2.424068405545307E-6
 31
0.0
 73
     1
 44
0.60024009603842
  0
ENDBLK
  5
48C
330
482
100
AcDbEntity
  8
0
100
AcDbBlockEnd
  0
BLOCK
  5
494
330
48F
100
AcDbEntity
  8
0
100
AcDbBlockBegin
  2
*D21
 70
     1
 71
     0
 10
0.0
 20
0.0
 30
0.0
  3
*D21
  1

  0
LINE
  5
490
330
48F
100
AcDbEntity
  8
1
  6
Continuous
 62
     2
100
AcDbLine
 10
122.7358289170839
 20
14.29439858427023
 30
0.0
 11
108.8013978665282
 21
2.25765129439794
 31
0.0
  0
LINE
  5
491
330
48F
100
AcDbEntity
  8
1
  6
Continuous
 62
     2
100
AcDbLine
 10
116.066237
 20
11.30716975510435
 30
0.0
 11
118.092228193973
 21
8.96176580820889
 31
0.0
  0
SOLID
  5
492
330
48F
100
AcDbEntity
  8
1
 62
     2
100
AcDbTrace
 10
119.7859675151394
 20
12.35516178444401
 30
0.0
 11
120.3883930217311
 21
11.65775936479186
 31
0.0
 12
117.4385316197866
 22
9.71852256496565
 32
0.0
 13
117.4385316197866
 23
9.71852256496565
 33
0.0
  0
MTEXT
  5
493
330
48F
100
AcDbEntity
  8
1
 62
     3
100
AcDbMText
 10
105.9577885019393
 20
2.44416076231313
 30
0.0
 40
3.5
 41
0.0
 71
     7
 72
     1
  1
\C3;{\Fgdt;n}\C3;74
  7
CONVERTER_11
 11
0.7567567567567567
 21
0.653696574186369
 31
0.0
 73
     1
 44
0.60024009603842
  0
ENDBLK
  5
495
330
48F
100
AcDbEntity
  8
0
100
AcDbBlockEnd
  0
BLOCK
  5
49C
330
497
100
AcDbEntity
  8
0
100
AcDbBlockBegin
  2
*D22
 70
     1
 71
     0
 10
0.0
 20
0.0
 30
0.0
  3
*D22
  1

  0
LINE
  5
498
330
497
100
AcDbEntity
  8
1
  6
Continuous
 62
     2
100
AcDbLine
 10
168.5503256770158
 20
47.45604572719746
 30
0.0
 11
101.8134912532763
 21
14.85067169854728
 31
0.0
  0
SOLID
  5
499
330
497
100
AcDbEntity
  8
1
 62
     2
100
AcDbTrace
 10
121.3567941078022
 20
23.88603512723975
 30
0.0
 11
120.9522478728287
 21
24.71406228240904
 31
0.0
 12
124.299266324978
 22
25.83646556886811
 32
0.0
 13
124.299266324978
 23
25.83646556886811
 33
0.0
  0
SOLID
  5
49A
330
497
100
AcDbEntity
  8
1
 62
     2
100
AcDbTrace
 10
166.7756798921978
 20
47.10185087276024
 30
0.0
 11
167.1802261271713
 21
46.27382371759096
 31
0.0
 12
163.833207675022
 22
45.1514204311319
 32
0.0
 13
163.833207675022
 23
45.1514204311319
 33
0.0
  0
MTEXT
  5
49B
330
497
100
AcDbEntity
  8
1
 62
     3
100
AcDbMText
 10
99.1115864654327
 20
15.75654725149483
 30
0.0
 40
3.5
 41
0.0
 71
     7
 72
     1
  1
\C3;{\Fgdt;n}\C3;\C3;44\C2;\H2.1;±0,1
  7
CONVERTER_11
 11
0.8984986670464529
 21
0.4389762468696313
 31
0.0
 73
     1
 44
0.60024009603842
  0
ENDBLK
  5
49D
330
497
100
AcDbEntity
  8
0
100
AcDbBlockEnd
  0
BLOCK
  5
4A6
330
49F
100
AcDbEntity
  8
0
100
AcDbBlockBegin
  2
*D23
 70
     1
 71
     0
 10
0.0
 20
0.0
 30
0.0
  3
*D23
  1

  0
LINE
  5
4A0
330
49F
100
AcDbEntity
  8
1
  6
Continuous
 62
     2
100
AcDbLine
 10
134.319721673154
 20
29.493943
 30
0.0
 11
134.319721673154
 21
43.063943
 31
0.0
  0
LINE
  5
4A1
330
49F
100
AcDbEntity
  8
1
  6
Continuous
 62
     2
100
AcDbLine
 10
144.066237
 20
29.493943
 30
0.0
 11
133.319721673154
 21
29.493943
 31
0.0
  0
LINE
  5
4A2
330
49F
100
AcDbEntity
  8
1
  6
Continuous
 62
     2
100
AcDbLine
 10
146.566237
 20
43.063943
 30
0.0
 11
133.319721673154
 21
43.063943
 31
0.0
  0
SOLID
  5
4A3
330
49F
100
AcDbEntity
  8
1
 62
     2
100
AcDbTrace
 10
133.8589379315981
 20
32.993943
 30
0.0
 11
134.7805054147099
 21
32.993943
 31
0.0
 12
134.319721673154
 22
29.493943
 32
0.0
 13
134.319721673154
 23
29.493943
 33
0.0
  0
SOLID
  5
4A4
330
49F
100
AcDbEntity
  8
1
 62
     2
100
AcDbTrace
 10
134.7805054147099
 20
39.563943
 30
0.0
 11
133.8589379315981
 21
39.563943
 31
0.0
 12
134.319721673154
 22
43.063943
 32
0.0
 13
134.319721673154
 23
43.063943
 33
0.0
  0
MTEXT
  5
4A5
330
49F
100
AcDbEntity
  8
1
 62
     3
100
AcDbMText
 10
132.319721673154
 20
33.73789744992349
 30
0.0
 40
3.5
 41
0.0
 71
     7
 72
     1
  1
13.5
  7
CONVERTER_11
 11
0.0
 21
1.0
 31
0.0
 73
     1
 44
0.60024009603842
  0
ENDBLK
  5
4A7
330
49F
100
AcDbEntity
  8
0
100
AcDbBlockEnd
  0
BLOCK
  5
4B2
330
4A9
100
AcDbEntity
  8
0
100
AcDbBlockBegin
  2
*D24
 70
     1
 71
     0
 10
0.0
 20
0.0
 30
0.0
  3
*D24
  1

  0
LINE
  5
4AA
330
4A9
100
AcDbEntity
  8
1
  6
Continuous
 62
     2
100
AcDbLine
 10
110.2020106414196
 20
53.18869286643802
 30
0.0
 11
110.2549046720219
 21
60.1884930222658
 31
0.0
  0
LINE
  5
4AB
330
4A9
100
AcDbEntity
  8
1
  6
Continuous
 62
     2
100
AcDbLine
 10
110.1717854810755
 20
49.18880706310785
 30
0.0
 11
110.2020106414196
 21
53.18869286643802
 31
0.0
  0
LINE
  5
4AC
330
4A9
100
AcDbEntity
  8
1
  6
Continuous
 62
     2
100
AcDbLine
 10
110.1188914504732
 20
42.18900690728007
 30
0.0
 11
110.1717854810755
 21
49.18880706310785
 31
0.0
  0
LINE
  5
4AD
330
4A9
100
AcDbEntity
  8
1
  6
Continuous
 62
     2
100
AcDbLine
 10
128.4947752337239
 20
49.05034928443898
 30
0.0
 11
109.1718140302429
 21
49.1963633531939
 31
0.0
  0
LINE
  5
4AE
330
4A9
100
AcDbEntity
  8
1
  6
Continuous
 62
     2
100
AcDbLine
 10
128.525000394068
 20
53.05023508776914
 30
0.0
 11
109.2020391905871
 21
53.19624915652406
 31
0.0
  0
SOLID
  5
4AF
330
4A9
100
AcDbEntity
  8
1
 62
     2
100
AcDbTrace
 10
110.606109052338
 20
45.68542516957583
 30
0.0
 11
109.6845678792106
 21
45.69238880081209
 31
0.0
 12
110.1717854810755
 22
49.18880706310785
 32
0.0
 13
110.1717854810755
 23
49.18880706310785
 33
0.0
  0
SOLID
  5
4B0
330
4A9
100
AcDbEntity
  8
1
 62
     2
100
AcDbTrace
 10
109.7676870701571
 20
56.69207475997004
 30
0.0
 11
110.6892282432845
 21
56.68511112873378
 31
0.0
 12
110.2020106414196
 22
53.18869286643802
 32
0.0
 13
110.2020106414196
 23
53.18869286643802
 33
0.0
  0
MTEXT
  5
4B1
330
4A9
100
AcDbEntity
  8
1
 62
     3
100
AcDbMText
 10
108.1698242498793
 20
48.93682138653906
 30
0.0
 40
3.5
 41
0.0
 71
     7
 72
     1
  1
\C3;M\C3;4
  7
CONVERTER_11
 11
0.007556290086041148
 21
0.9999714508325404
 31
0.0
 73
     1
 44
0.60024009603842
  0
ENDBLK
  5
4B3
330
4A9
100
AcDbEntity
  8
0
100
AcDbBlockEnd
  0
BLOCK
  5
4BE
330
4B5
100
AcDbEntity
  8
0
100
AcDbBlockBegin
  2
*D25
 70
     1
 71
     0
 10
0.0
 20
0.0
 30
0.0
  3
*D25
  1

  0
LINE
  5
4B6
330
4B5
100
AcDbEntity
  8
1
  6
Continuous
 62
     2
100
AcDbLine
 10
161.4177031304957
 20
52.8454091304957
 30
0.0
 11
173.9111545679082
 21
65.33886056790821
 31
0.0
  0
LINE
  5
4B7
330
4B5
100
AcDbEntity
  8
1
  6
Continuous
 62
     2
100
AcDbLine
 10
174.343373682835
 20
35.493943
 30
0.0
 11
186.2733241924429
 21
35.493943
 31
0.0
  0
LINE
  5
4B8
330
4B5
100
AcDbEntity
  8
1
  6
Continuous
 62
     2
100
AcDbLine
 10
173.9111545679082
 20
65.33886056790821
 30
0.0
 11
174.6182613490948
 21
66.04596734909475
 31
0.0
  0
LINE
  5
4B9
330
4B5
100
AcDbEntity
  8
1
  6
Continuous
 62
     2
100
AcDbLine
 10
186.2733241924429
 20
35.493943
 30
0.0
 11
187.2733241924429
 21
35.493943
 31
0.0
  0
ARC
  5
4BA
330
4B5
100
AcDbEntity
  8
1
  6
Continuous
 62
     2
100
AcDbCircle
 10
144.066237
 20
35.493943
 30
0.0
 40
42.20708719244286
100
AcDbArc
 50
0.0
 51
44.99999999999999
  0
SOLID
  5
4BB
330
4B5
100
AcDbEntity
  8
1
 62
     2
100
AcDbTrace
 10
185.6678602315556
 20
38.97183532848703
 30
0.0
 11
186.588635687163
 21
39.01003462533908
 31
0.0
 12
186.2733241924429
 22
35.493943
 32
0.0
 13
186.2733241924429
 23
35.493943
 33
0.0
  0
SOLID
  5
4BC
330
4B5
100
AcDbEntity
  8
1
 62
     2
100
AcDbTrace
 10
176.6203656955614
 20
63.07556723246038
 30
0.0
 11
175.9422681451106
 21
62.45149164569091
 31
0.0
 12
173.9111545679082
 22
65.33886056790821
 32
0.0
 13
173.9111545679082
 23
65.33886056790821
 33
0.0
  0
MTEXT
  5
4BD
330
4B5
100
AcDbEntity
  8
1
 62
     3
100
AcDbMText
 10
185.2353635924837
 20
51.89077115828402
 30
0.0
 40
3.5
 41
0.0
 71
     7
 72
     1
  1
45{\Fgdt;~}
  7
CONVERTER_11
 11
0.3045470153051998
 21
-0.9524973047041626
 31
0.0
 73
     1
 44
0.60024009603842
  0
ENDBLK
  5
4BF
330
4B5
100
AcDbEntity
  8
0
100
AcDbBlockEnd
  0
BLOCK
  5
4CB
330
4C2
100
AcDbEntity
  8
0
100
AcDbBlockBegin
  2
*D26
 70
     1
 71
     0
 10
0.0
 20
0.0
 30
0.0
  3
*D26
  1

  0
LINE
  5
4C3
330
4C2
100
AcDbEntity
  8
1
  6
Continuous
 62
     2
100
AcDbLine
 10
174.343373682835
 20
35.493943
 30
0.0
 11
186.3896973609293
 21
35.493943
 31
0.0
  0
LINE
  5
4C4
330
4C2
100
AcDbEntity
  8
1
  6
Continuous
 62
     2
100
AcDbLine
 10
161.2508720448029
 20
18.3093079551971
 30
0.0
 11
173.9934428244932
 21
5.56673717550683
 31
0.0
  0
LINE
  5
4C5
330
4C2
100
AcDbEntity
  8
1
  6
Continuous
 62
     2
100
AcDbLine
 10
186.3896973609293
 20
35.493943
 30
0.0
 11
187.3896973609293
 21
35.493943
 31
0.0
  0
LINE
  5
4C6
330
4C2
100
AcDbEntity
  8
1
  6
Continuous
 62
     2
100
AcDbLine
 10
173.9934428244932
 20
5.56673717550683
 30
0.0
 11
174.7005496056798
 21
4.85963039432028
 31
0.0
  0
ARC
  5
4C7
330
4C2
100
AcDbEntity
  8
1
  6
Continuous
 62
     2
100
AcDbCircle
 10
144.0662369999999
 20
35.493943
 30
0.0
 40
42.32346036092941
100
AcDbArc
 50
-44.99999999999989
 51
0.0
  0
SOLID
  5
4C8
330
4C2
100
AcDbEntity
  8
1
 62
     2
100
AcDbTrace
 10
176.0248855633373
 20
8.45387452161281
 30
0.0
 11
176.7029119615691
 21
7.8297216323062
 31
0.0
 12
173.9934428244932
 22
5.56673717550683
 32
0.0
 13
173.9934428244932
 23
5.56673717550683
 33
0.0
  0
SOLID
  5
4C9
330
4C2
100
AcDbEntity
  8
1
 62
     2
100
AcDbTrace
 10
186.7054097060488
 20
31.9778873446354
 30
0.0
 11
185.7846299015097
 21
32.0159816681227
 31
0.0
 12
186.3896973609293
 22
35.493943
 32
0.0
 13
186.3896973609293
 23
35.493943
 33
0.0
  0
MTEXT
  5
4CA
330
4C2
100
AcDbEntity
  8
1
 62
     3
100
AcDbMText
 10
180.7520464214774
 20
18.47573972907625
 30
0.0
 40
3.5
 41
0.0
 71
     7
 72
     1
  1
45{\Fgdt;~}
  7
CONVERTER_11
 11
0.3505055449855569
 21
0.9365606563028249
 31
0.0
 73
     1
 44
0.60024009603842
  0
ENDBLK
  5
4CC
330
4C2
100
AcDbEntity
  8
0
100
AcDbBlockEnd
  0
ENDSEC
  0
SECTION
  2
ENTITIES
  0
INSERT
  5
4A
330
1F
100
AcDbEntity
  8
1
100
AcDbBlockReference
  2
tb_frame_A3
 10
0.0
 20
0.0
 30
0.0
  0
INSERT
  5
4B
330
1F
100
AcDbEntity
  8
1
100
AcDbBlockReference
  2
M2_5x6_DIN_7985
 10
7.243392
 20
64.7439185
 30
0.0
  0
INSERT
  5
4C
330
1F
100
AcDbEntity
  8
0
100
AcDbBlockReference
  2
Winkelflanschdose_8-polig_drehbar
 10
392.746688887328
 20
134.6758920297913
 30
0.0
  0
INSERT
  5
4D
330
1F
100
AcDbEntity
  8
1
100
AcDbBlockReference
  2
Lagerschild__1
 10
-38.35713199999999
 20
7.99394799999999
 30
0.0
  0
INSERT
  5
4E
330
1F
100
AcDbEntity
  8
1
100
AcDbBlockReference
  2
Lagerschild__2
 10
1.64287300000002
 20
7.99394799999999
 30
0.0
  0
POINT
  5
320
330
1F
100
AcDbEntity
  8
1
 62
     3
 60
     1
100
AcDbPoint
 10
-162.0
 20
-45.83854213191
 30
0.0
  0
POINT
  5
321
330
1F
100
AcDbEntity
  8
1
 62
     3
 60
     1
100
AcDbPoint
 10
-162.0
 20
-63.83854213191
 30
0.0
  0
POINT
  5
322
330
1F
100
AcDbEntity
  8
1
 62
     3
 60
     1
100
AcDbPoint
 10
-162.0
 20
-72.83854213191
 30
0.0
  0
POINT
  5
323
330
1F
100
AcDbEntity
  8
1
 62
     3
 60
     1
100
AcDbPoint
 10
-162.0
 20
-81.83854213191
 30
0.0
  0
POINT
  5
324
330
1F
100
AcDbEntity
  8
1
 62
     3
 60
     1
100
AcDbPoint
 10
-162.0
 20
-24.23854213191004
 30
0.0
  0
POINT
  5
325
330
1F
100
AcDbEntity
  8
1
 62
     3
 60
     1
100
AcDbPoint
 10
-162.0
 20
-55.0
 30
0.0
  0
POINT
  5
326
330
1F
100
AcDbEntity
  8
1
 62
     3
 60
     1
100
AcDbPoint
 10
137.547232601751
 20
-2.52427040081312
 30
0.0
  0
POINT
  5
327
330
1F
100
AcDbEntity
  8
1
 62
     3
 60
     1
100
AcDbPoint
 10
140.547232601751
 20
-2.52427040081312
 30
0.0
  0
POINT
  5
328
330
1F
100
AcDbEntity
  8
1
 62
     3
 60
     1
100
AcDbPoint
 10
137.547232601751
 20
0.47572959918688
 30
0.0
  0
POINT
  5
329
330
1F
100
AcDbEntity
  8
1
 62
     3
 60
     1
100
AcDbPoint
 10
-115.857122
 20
40.94829905731786
 30
0.0
  0
POINT
  5
32A
330
1F
100
AcDbEntity
  8
1
 62
     3
 60
     1
100
AcDbPoint
 10
-126.857122
 20
40.94829905731786
 30
0.0
  0
POINT
  5
32B
330
1F
100
AcDbEntity
  8
1
 62
     3
 60
     1
100
AcDbPoint
 10
130.174993803005
 20
49.38518619699506
 30
0.0
  0
POINT
  5
32C
330
1F
100
AcDbEntity
  8
1
 62
     3
 60
     1
100
AcDbPoint
 10
126.6671301274712
 20
52.89304987252885
 30
0.0
  0
POINT
  5
32D
330
1F
100
AcDbEntity
  8
1
 62
     3
 60
     1
100
AcDbPoint
 10
161.4177031304957
 20
52.8454091304957
 30
0.0
  0
POINT
  5
32E
330
1F
100
AcDbEntity
  8
1
 62
     3
 60
     1
100
AcDbPoint
 10
157.7344462711856
 20
49.16215227118556
 30
0.0
  0
POINT
  5
32F
330
1F
100
AcDbEntity
  8
1
 62
     3
 60
     1
100
AcDbPoint
 10
161.2508720448029
 20
18.3093079551971
 30
0.0
  0
POINT
  5
330
330
1F
100
AcDbEntity
  8
1
 62
     3
 60
     1
100
AcDbPoint
 10
157.6992911430853
 20
21.86088885691475
 30
0.0
  0
POINT
  5
331
330
1F
100
AcDbEntity
  8
1
 62
     3
 60
     1
100
AcDbPoint
 10
130.2729968810022
 20
21.7007028810022
 30
0.0
  0
POINT
  5
332
330
1F
100
AcDbEntity
  8
1
 62
     3
 60
     1
100
AcDbPoint
 10
126.7504106126407
 20
18.17811661264065
 30
0.0
  0
POINT
  5
333
330
1F
100
AcDbEntity
  8
1
 62
     3
 60
     1
100
AcDbPoint
 10
144.066237
 20
35.493943
 30
0.0
  0
POINT
  5
334
330
1F
100
AcDbEntity
  8
1
 62
     3
 60
     1
100
AcDbPoint
 10
172.066237
 20
59.68071624489565
 30
0.0
  0
POINT
  5
335
330
1F
100
AcDbEntity
  8
1
 62
     3
 60
     1
100
AcDbPoint
 10
172.066237
 20
11.30716975510435
 30
0.0
  0
POINT
  5
336
330
1F
100
AcDbEntity
  8
1
 62
     3
 60
     1
100
AcDbPoint
 10
116.066237
 20
11.30716975510435
 30
0.0
  0
POINT
  5
337
330
1F
100
AcDbEntity
  8
1
 62
     3
 60
     1
100
AcDbPoint
 10
116.066237
 20
59.68071624489565
 30
0.0
  0
POINT
  5
338
330
1F
100
AcDbEntity
  8
1
 62
     3
 60
     1
100
AcDbPoint
 10
168.2530102448957
 20
7.493943
 30
0.0
  0
POINT
  5
339
330
1F
100
AcDbEntity
  8
1
 62
     3
 60
     1
100
AcDbPoint
 10
119.8794637551044
 20
7.493943
 30
0.0
  0
POINT
  5
33A
330
1F
100
AcDbEntity
  8
1
 62
     3
 60
     1
100
AcDbPoint
 10
168.2530102448957
 20
63.493943
 30
0.0
  0
POINT
  5
33B
330
1F
100
AcDbEntity
  8
1
 62
     3
 60
     1
100
AcDbPoint
 10
119.8794637551044
 20
63.493943
 30
0.0
  0
POINT
  5
33C
330
1F
100
AcDbEntity
  8
1
 62
     3
 60
     1
100
AcDbPoint
 10
146.566237
 20
40.94829905731786
 30
0.0
  0
POINT
  5
33D
330
1F
100
AcDbEntity
  8
1
 62
     3
 60
     1
100
AcDbPoint
 10
146.566237
 20
43.063943
 30
0.0
  0
POINT
  5
33E
330
1F
100
AcDbEntity
  8
1
 62
     3
 60
     1
100
AcDbPoint
 10
141.566237
 20
43.063943
 30
0.0
  0
POINT
  5
33F
330
1F
100
AcDbEntity
  8
1
 62
     3
 60
     1
100
AcDbPoint
 10
141.566237
 20
40.94829905731786
 30
0.0
  0
POINT
  5
340
330
1F
100
AcDbEntity
  8
1
 62
     3
 60
     1
100
AcDbPoint
 10
-113.357122
 20
41.493943
 30
0.0
  0
POINT
  5
341
330
1F
100
AcDbEntity
  8
1
 62
     3
 60
     1
100
AcDbPoint
 10
-113.357122
 20
42.993943
 30
0.0
  0
POINT
  5
342
330
1F
100
AcDbEntity
  8
1
 62
     3
 60
     1
100
AcDbPoint
 10
-129.357122
 20
42.993943
 30
0.0
  0
POINT
  5
343
330
1F
100
AcDbEntity
  8
1
 62
     3
 60
     1
100
AcDbPoint
 10
-129.357122
 20
41.493943
 30
0.0
  0
POINT
  5
344
330
1F
100
AcDbEntity
  8
1
 62
     3
 60
     1
100
AcDbPoint
 10
-109.857122
 20
27.993943
 30
0.0
  0
POINT
  5
345
330
1F
100
AcDbEntity
  8
1
 62
     3
 60
     1
100
AcDbPoint
 10
-109.857122
 20
42.993943
 30
0.0
  0
POINT
  5
346
330
1F
100
AcDbEntity
  8
1
 62
     3
 60
     1
100
AcDbPoint
 10
-112.357122
 20
27.993943
 30
0.0
  0
POINT
  5
347
330
1F
100
AcDbEntity
  8
1
 62
     3
 60
     1
100
AcDbPoint
 10
-112.357122
 20
42.993943
 30
0.0
  0
POINT
  5
348
330
1F
100
AcDbEntity
  8
1
 62
     3
 60
     1
100
AcDbPoint
 10
-38.85712199999999
 20
11.493943
 30
0.0
  0
POINT
  5
349
330
1F
100
AcDbEntity
  8
1
 62
     3
 60
     1
100
AcDbPoint
 10
-38.85712199999999
 20
59.493943
 30
0.0
  0
POINT
  5
34A
330
1F
100
AcDbEntity
  8
1
 62
     3
 60
     1
100
AcDbPoint
 10
-57.35712199999998
 20
11.493943
 30
0.0
  0
POINT
  5
34B
330
1F
100
AcDbEntity
  8
1
 62
     3
 60
     1
100
AcDbPoint
 10
-57.35712199999998
 20
7.493943
 30
0.0
  0
POINT
  5
34C
330
1F
100
AcDbEntity
  8
1
 62
     3
 60
     1
100
AcDbPoint
 10
-57.35712199999998
 20
59.493943
 30
0.0
  0
POINT
  5
34D
330
1F
100
AcDbEntity
  8
1
 62
     3
 60
     1
100
AcDbPoint
 10
-57.35712199999998
 20
63.493943
 30
0.0
  0
POINT
  5
34E
330
1F
100
AcDbEntity
  8
1
 62
     3
 60
     1
100
AcDbPoint
 10
-105.857122
 20
10.493943
 30
0.0
  0
POINT
  5
34F
330
1F
100
AcDbEntity
  8
1
 62
     3
 60
     1
100
AcDbPoint
 10
-105.857122
 20
60.493943
 30
0.0
  0
POINT
  5
350
330
1F
100
AcDbEntity
  8
1
 62
     3
 60
     1
100
AcDbPoint
 10
-74.35712199999998
 20
60.493943
 30
0.0
  0
POINT
  5
351
330
1F
100
AcDbEntity
  8
1
 62
     3
 60
     1
100
AcDbPoint
 10
-74.35712199999998
 20
10.493943
 30
0.0
  0
POINT
  5
352
330
1F
100
AcDbEntity
  8
1
 62
     3
 60
     1
100
AcDbPoint
 10
-74.35712199999998
 20
11.493943
 30
0.0
  0
POINT
  5
353
330
1F
100
AcDbEntity
  8
1
 62
     3
 60
     1
100
AcDbPoint
 10
-68.35712199999998
 20
11.493943
 30
0.0
  0
POINT
  5
354
330
1F
100
AcDbEntity
  8
1
 62
     3
 60
     1
100
AcDbPoint
 10
-68.35712199999998
 20
10.493943
 30
0.0
  0
POINT
  5
355
330
1F
100
AcDbEntity
  8
1
 62
     3
 60
     1
100
AcDbPoint
 10
-105.857122
 20
17.993943
 30
0.0
  0
POINT
  5
356
330
1F
100
AcDbEntity
  8
1
 62
     3
 60
     1
100
AcDbPoint
 10
-109.857122
 20
17.993943
 30
0.0
  0
POINT
  5
357
330
1F
100
AcDbEntity
  8
1
 62
     3
 60
     1
100
AcDbPoint
 10
-109.857122
 20
52.993943
 30
0.0
  0
POINT
  5
358
330
1F
100
AcDbEntity
  8
1
 62
     3
 60
     1
100
AcDbPoint
 10
-105.857122
 20
52.993943
 30
0.0
  0
POINT
  5
359
330
1F
100
AcDbEntity
  8
1
 62
     3
 60
     1
100
AcDbPoint
 10
-112.357122
 20
29.493943
 30
0.0
  0
POINT
  5
35A
330
1F
100
AcDbEntity
  8
1
 62
     3
 60
     1
100
AcDbPoint
 10
-130.357122
 20
29.493943
 30
0.0
  0
POINT
  5
35B
330
1F
100
AcDbEntity
  8
1
 62
     3
 60
     1
100
AcDbPoint
 10
-112.357122
 20
41.493943
 30
0.0
  0
POINT
  5
35C
330
1F
100
AcDbEntity
  8
1
 62
     3
 60
     1
100
AcDbPoint
 10
-130.357122
 20
41.493943
 30
0.0
  0
POINT
  5
35D
330
1F
100
AcDbEntity
  8
1
 62
     3
 60
     1
100
AcDbPoint
 10
-68.35712199999998
 20
9.493943
 30
0.0
  0
POINT
  5
35E
330
1F
100
AcDbEntity
  8
1
 62
     3
 60
     1
100
AcDbPoint
 10
-68.35712199999998
 20
61.493943
 30
0.0
  0
POINT
  5
35F
330
1F
100
AcDbEntity
  8
1
 62
     3
 60
     1
100
AcDbPoint
 10
-66.35712199999998
 20
7.493943
 30
0.0
  0
POINT
  5
360
330
1F
100
AcDbEntity
  8
1
 62
     3
 60
     1
100
AcDbPoint
 10
-66.35712199999998
 20
63.493943
 30
0.0
  0
POINT
  5
361
330
1F
100
AcDbEntity
  8
1
 62
     3
 60
     1
100
AcDbPoint
 10
-38.85712199999999
 20
7.493943
 30
0.0
  0
POINT
  5
362
330
1F
100
AcDbEntity
  8
1
 62
     3
 60
     1
100
AcDbPoint
 10
-38.85712199999999
 20
63.493943
 30
0.0
  0
POINT
  5
363
330
1F
100
AcDbEntity
  8
1
 62
     3
 60
     1
100
AcDbPoint
 10
-38.35713199999999
 20
7.99394799999999
 30
0.0
  0
POINT
  5
364
330
1F
100
AcDbEntity
  8
1
 62
     3
 60
     1
100
AcDbPoint
 10
-38.35713199999999
 20
62.99393800000001
 30
0.0
  0
POINT
  5
365
330
1F
100
AcDbEntity
  8
1
 62
     3
 60
     1
100
AcDbPoint
 10
46.142878
 20
64.4939435
 30
0.0
  0
POINT
  5
366
330
1F
100
AcDbEntity
  8
1
 62
     3
 60
     1
100
AcDbPoint
 10
43.642878
 20
64.4939435
 30
0.0
  0
POINT
  5
367
330
1F
100
AcDbEntity
  8
1
 62
     3
 60
     1
100
AcDbPoint
 10
43.642878
 20
7.99394799999999
 30
0.0
  0
POINT
  5
368
330
1F
100
AcDbEntity
  8
1
 62
     3
 60
     1
100
AcDbPoint
 10
-66.79688670689939
 20
-37.6573603445561
 30
0.0
  0
POINT
  5
369
330
1F
100
AcDbEntity
  8
1
 62
     3
 60
     1
100
AcDbPoint
 10
-67.79688670689939
 20
-38.6573603445561
 30
0.0
  0
LINE
  5
36A
330
1F
100
AcDbEntity
  8
1
  6
Continuous
 62
     7
100
AcDbLine
 10
-162.0
 20
-45.83854213191
 30
0.0
 11
-162.0
 21
-81.83854213191
 31
0.0
  0
LINE
  5
36B
330
1F
100
AcDbEntity
  8
1
  6
Continuous
 62
     2
100
AcDbLine
 10
-151.0887864335175
 20
-45.83854213191
 30
0.0
 11
-162.0
 21
-45.83854213191
 31
0.0
  0
LINE
  5
36C
330
1F
100
AcDbEntity
  8
1
  6
Continuous
 62
     7
100
AcDbLine
 10
-162.0
 20
-24.23854213191004
 30
0.0
 11
-162.0
 21
-45.83854213191
 31
0.0
  0
LINE
  5
36D
330
1F
100
AcDbEntity
  8
1
  6
Continuous
 62
     2
100
AcDbLine
 10
-151.0887864335175
 20
-63.83854213191
 30
0.0
 11
-162.0
 21
-63.83854213191
 31
0.0
  0
LINE
  5
36E
330
1F
100
AcDbEntity
  8
1
  6
Continuous
 62
     2
100
AcDbLine
 10
-151.0887864335175
 20
-72.83854213191
 30
0.0
 11
-162.0
 21
-72.83854213191
 31
0.0
  0
LINE
  5
36F
330
1F
100
AcDbEntity
  8
1
  6
Continuous
 62
     7
100
AcDbLine
 10
-151.0887864335175
 20
-81.83854213191
 30
0.0
 11
-162.0
 21
-81.83854213191
 31
0.0
  0
LINE
  5
370
330
1F
100
AcDbEntity
  8
1
  6
Continuous
 62
     7
100
AcDbLine
 10
-151.0887864335175
 20
-54.83854213191
 30
0.0
 11
-162.0
 21
-54.83854213191
 31
0.0
  0
LINE
  5
371
330
1F
100
AcDbEntity
  8
1
  6
Continuous
 62
     7
100
AcDbLine
 10
-151.0887864335175
 20
-24.23854213191004
 30
0.0
 11
-162.0
 21
-24.23854213191004
 31
0.0
  0
LINE
  5
372
330
1F
100
AcDbEntity
  8
1
  6
Continuous
 62
     2
100
AcDbLine
 10
137.547232601751
 20
-2.52427040081312
 30
0.0
 11
137.547232601751
 21
0.47572959918688
 31
0.0
  0
LINE
  5
373
330
1F
100
AcDbEntity
  8
1
  6
Continuous
 62
     2
100
AcDbLine
 10
140.547232601751
 20
-2.52427040081312
 30
0.0
 11
137.547232601751
 21
-2.52427040081312
 31
0.0
  0
LINE
  5
374
330
1F
100
AcDbEntity
  8
1
  6
Continuous
 62
     2
100
AcDbLine
 10
140.547232601751
 20
0.47572959918688
 30
0.0
 11
140.547232601751
 21
-2.52427040081312
 31
0.0
  0
LINE
  5
375
330
1F
100
AcDbEntity
  8
1
  6
Continuous
 62
     2
100
AcDbLine
 10
137.547232601751
 20
0.47572959918688
 30
0.0
 11
140.547232601751
 21
0.47572959918688
 31
0.0
  0
LINE
  5
376
330
1F
100
AcDbEntity
  8
1
  6
Continuous
 62
     7
100
AcDbLine
 10
-126.857122
 20
40.94829905731786
 30
0.0
 11
-115.857122
 21
40.94829905731786
 31
0.0
  0
LINE
  5
377
330
1F
100
AcDbEntity
  8
1
  6
DOT_CENTER
 62
     2
100
AcDbLine
 10
126.6671301274712
 20
52.89304987252885
 30
0.0
 11
130.174993803005
 21
49.38518619699506
 31
0.0
  0
LINE
  5
378
330
1F
100
AcDbEntity
  8
1
  6
DOT_CENTER
 62
     2
100
AcDbLine
 10
157.7344462711856
 20
49.16215227118556
 30
0.0
 11
161.4177031304957
 21
52.8454091304957
 31
0.0
  0
LINE
  5
379
330
1F
100
AcDbEntity
  8
1
  6
DOT_CENTER
 62
     2
100
AcDbLine
 10
157.6992911430853
 20
21.86088885691475
 30
0.0
 11
161.2508720448029
 21
18.3093079551971
 31
0.0
  0
LINE
  5
37A
330
1F
100
AcDbEntity
  8
1
  6
DOT_CENTER
 62
     2
100
AcDbLine
 10
126.7504106126407
 20
18.17811661264065
 30
0.0
 11
130.2729968810022
 21
21.7007028810022
 31
0.0
  0
LINE
  5
37B
330
1F
100
AcDbEntity
  8
1
  6
Continuous
 62
     7
100
AcDbLine
 10
172.066237
 20
11.30716975510435
 30
0.0
 11
172.066237
 21
59.68071624489565
 31
0.0
  0
LINE
  5
37C
330
1F
100
AcDbEntity
  8
1
  6
Continuous
 62
     7
100
AcDbLine
 10
116.066237
 20
59.68071624489565
 30
0.0
 11
116.066237
 21
11.30716975510435
 31
0.0
  0
LINE
  5
37D
330
1F
100
AcDbEntity
  8
1
  6
Continuous
 62
     7
100
AcDbLine
 10
119.8794637551044
 20
7.493943
 30
0.0
 11
168.2530102448957
 21
7.493943
 31
0.0
  0
LINE
  5
37E
330
1F
100
AcDbEntity
  8
1
  6
Continuous
 62
     7
100
AcDbLine
 10
119.8794637551044
 20
63.493943
 30
0.0
 11
168.2530102448957
 21
63.493943
 31
0.0
  0
LINE
  5
37F
330
1F
100
AcDbEntity
  8
1
  6
Continuous
 62
     7
100
AcDbLine
 10
146.566237
 20
43.063943
 30
0.0
 11
146.566237
 21
40.94829905731786
 31
0.0
  0
LINE
  5
380
330
1F
100
AcDbEntity
  8
1
  6
Continuous
 62
     7
100
AcDbLine
 10
141.566237
 20
43.063943
 30
0.0
 11
146.566237
 21
43.063943
 31
0.0
  0
LINE
  5
381
330
1F
100
AcDbEntity
  8
1
  6
Continuous
 62
     7
100
AcDbLine
 10
141.566237
 20
40.94829905731786
 30
0.0
 11
141.566237
 21
43.063943
 31
0.0
  0
LINE
  5
382
330
1F
100
AcDbEntity
  8
1
  6
DOT_CENTER
 62
     2
100
AcDbLine
 10
144.066237
 20
64.4939435
 30
0.0
 11
144.066237
 21
5.6708544623389
 31
0.0
  0
LINE
  5
383
330
1F
100
AcDbEntity
  8
1
  6
DOT_CENTER
 62
     2
100
AcDbLine
 10
174.343373682835
 20
35.493943
 30
0.0
 11
115.0153908870602
 21
35.493943
 31
0.0
  0
LINE
  5
384
330
1F
100
AcDbEntity
  8
1
  6
DOT_CENTER
 62
     2
100
AcDbLine
 10
-131.575148689517
 20
35.49394299999999
 30
0.0
 11
-103.857122
 21
35.493943
 31
0.0
  0
LINE
  5
385
330
1F
100
AcDbEntity
  8
1
  6
DOT_CENTER
 62
     2
100
AcDbLine
 10
-107.857122
 20
35.493943
 30
0.0
 11
-72.35712199999998
 21
35.493943
 31
0.0
  0
LINE
  5
386
330
1F
100
AcDbEntity
  8
1
  6
DOT_CENTER
 62
     2
100
AcDbLine
 10
-66.35712199999998
 20
35.493943
 30
0.0
 11
-76.35712199999998
 21
35.493943
 31
0.0
  0
LINE
  5
387
330
1F
100
AcDbEntity
  8
1
  6
DOT_CENTER
 62
     2
100
AcDbLine
 10
-55.35712199999998
 20
35.493943
 30
0.0
 11
-68.35712199999998
 21
35.493943
 31
0.0
  0
LINE
  5
388
330
1F
100
AcDbEntity
  8
1
  6
DOT_CENTER
 62
     2
100
AcDbLine
 10
46.142878
 20
35.49394299999999
 30
0.0
 11
-59.35712199999998
 21
35.493943
 31
0.0
  0
LINE
  5
389
330
1F
100
AcDbEntity
  8
1
  6
Continuous
 62
     7
100
AcDbLine
 10
-113.357122
 20
41.493943
 30
0.0
 11
-112.357122
 21
41.493943
 31
0.0
  0
LINE
  5
38A
330
1F
100
AcDbEntity
  8
1
  6
Continuous
 62
     7
100
AcDbLine
 10
-113.357122
 20
42.993943
 30
0.0
 11
-113.357122
 21
41.493943
 31
0.0
  0
LINE
  5
38B
330
1F
100
AcDbEntity
  8
1
  6
Continuous
 62
     7
100
AcDbLine
 10
-129.357122
 20
42.993943
 30
0.0
 11
-113.357122
 21
42.993943
 31
0.0
  0
LINE
  5
38C
330
1F
100
AcDbEntity
  8
1
  6
Continuous
 62
     7
100
AcDbLine
 10
-129.357122
 20
41.493943
 30
0.0
 11
-129.357122
 21
42.993943
 31
0.0
  0
LINE
  5
38D
330
1F
100
AcDbEntity
  8
1
  6
Continuous
 62
     7
100
AcDbLine
 10
-109.857122
 20
27.993943
 30
0.0
 11
-109.857122
 21
17.993943
 31
0.0
  0
LINE
  5
38E
330
1F
100
AcDbEntity
  8
1
  6
Continuous
 62
     7
100
AcDbLine
 10
-112.357122
 20
27.993943
 30
0.0
 11
-109.857122
 21
27.993943
 31
0.0
  0
LINE
  5
38F
330
1F
100
AcDbEntity
  8
1
  6
Continuous
 62
     7
100
AcDbLine
 10
-109.857122
 20
42.993943
 30
0.0
 11
-109.857122
 21
27.993943
 31
0.0
  0
LINE
  5
390
330
1F
100
AcDbEntity
  8
1
  6
Continuous
 62
     7
100
AcDbLine
 10
-112.357122
 20
42.993943
 30
0.0
 11
-109.857122
 21
42.993943
 31
0.0
  0
LINE
  5
391
330
1F
100
AcDbEntity
  8
1
  6
Continuous
 62
     7
100
AcDbLine
 10
-112.357122
 20
42.993943
 30
0.0
 11
-112.357122
 21
27.993943
 31
0.0
  0
LINE
  5
392
330
1F
100
AcDbEntity
  8
1
  6
Continuous
 62
     7
100
AcDbLine
 10
-68.35712199999998
 20
59.493943
 30
0.0
 11
-74.35712199999998
 21
59.493943
 31
0.0
  0
LINE
  5
393
330
1F
100
AcDbEntity
  8
1
  6
Continuous
 62
     7
100
AcDbLine
 10
-68.35712199999998
 20
59.493943
 30
0.0
 11
-68.35712199999998
 21
61.493943
 31
0.0
  0
LINE
  5
394
330
1F
100
AcDbEntity
  8
1
  6
Continuous
 62
     7
100
AcDbLine
 10
-38.85712199999999
 20
11.493943
 30
0.0
 11
-38.85712199999999
 21
7.493943
 31
0.0
  0
LINE
  5
395
330
1F
100
AcDbEntity
  8
1
  6
Continuous
 62
     7
100
AcDbLine
 10
-57.35712199999998
 20
11.493943
 30
0.0
 11
-38.85712199999999
 21
11.493943
 31
0.0
  0
LINE
  5
396
330
1F
100
AcDbEntity
  8
1
  6
Continuous
 62
     7
100
AcDbLine
 10
-38.85712199999999
 20
59.493943
 30
0.0
 11
-38.85712199999999
 21
11.493943
 31
0.0
  0
LINE
  5
397
330
1F
100
AcDbEntity
  8
1
  6
Continuous
 62
     7
100
AcDbLine
 10
-57.35712199999998
 20
59.493943
 30
0.0
 11
-38.85712199999999
 21
59.493943
 31
0.0
  0
LINE
  5
398
330
1F
100
AcDbEntity
  8
1
  6
Continuous
 62
     7
100
AcDbLine
 10
-57.35712199999998
 20
7.493943
 30
0.0
 11
-66.35712199999998
 21
7.493943
 31
0.0
  0
LINE
  5
399
330
1F
100
AcDbEntity
  8
1
  6
Continuous
 62
     7
100
AcDbLine
 10
-57.35712199999998
 20
7.493943
 30
0.0
 11
-57.35712199999998
 21
11.493943
 31
0.0
  0
LINE
  5
39A
330
1F
100
AcDbEntity
  8
1
  6
Continuous
 62
     7
100
AcDbLine
 10
-57.35712199999998
 20
63.493943
 30
0.0
 11
-66.35712199999998
 21
63.493943
 31
0.0
  0
LINE
  5
39B
330
1F
100
AcDbEntity
  8
1
  6
Continuous
 62
     7
100
AcDbLine
 10
-57.35712199999998
 20
63.493943
 30
0.0
 11
-57.35712199999998
 21
59.493943
 31
0.0
  0
LINE
  5
39C
330
1F
100
AcDbEntity
  8
1
  6
Continuous
 62
     7
100
AcDbLine
 10
-105.857122
 20
10.493943
 30
0.0
 11
-74.35712199999998
 21
10.493943
 31
0.0
  0
LINE
  5
39D
330
1F
100
AcDbEntity
  8
1
  6
Continuous
 62
     7
100
AcDbLine
 10
-105.857122
 20
60.493943
 30
0.0
 11
-105.857122
 21
10.493943
 31
0.0
  0
LINE
  5
39E
330
1F
100
AcDbEntity
  8
1
  6
Continuous
 62
     7
100
AcDbLine
 10
-74.35712199999998
 20
60.493943
 30
0.0
 11
-105.857122
 21
60.493943
 31
0.0
  0
LINE
  5
39F
330
1F
100
AcDbEntity
  8
1
  6
Continuous
 62
     7
100
AcDbLine
 10
-74.35712199999998
 20
10.493943
 30
0.0
 11
-74.35712199999998
 21
60.493943
 31
0.0
  0
LINE
  5
3A0
330
1F
100
AcDbEntity
  8
1
  6
Continuous
 62
     7
100
AcDbLine
 10
-68.35712199999998
 20
11.493943
 30
0.0
 11
-68.35712199999998
 21
59.493943
 31
0.0
  0
LINE
  5
3A1
330
1F
100
AcDbEntity
  8
1
  6
Continuous
 62
     7
100
AcDbLine
 10
-68.35712199999998
 20
11.493943
 30
0.0
 11
-74.35712199999998
 21
11.493943
 31
0.0
  0
LINE
  5
3A2
330
1F
100
AcDbEntity
  8
1
  6
Continuous
 62
     7
100
AcDbLine
 10
-68.35712199999998
 20
9.493943
 30
0.0
 11
-68.35712199999998
 21
11.493943
 31
0.0
  0
LINE
  5
3A3
330
1F
100
AcDbEntity
  8
1
  6
Continuous
 62
     7
100
AcDbLine
 10
-109.857122
 20
17.993943
 30
0.0
 11
-105.857122
 21
17.993943
 31
0.0
  0
LINE
  5
3A4
330
1F
100
AcDbEntity
  8
1
  6
Continuous
 62
     7
100
AcDbLine
 10
-109.857122
 20
52.993943
 30
0.0
 11
-109.857122
 21
42.993943
 31
0.0
  0
LINE
  5
3A5
330
1F
100
AcDbEntity
  8
1
  6
Continuous
 62
     7
100
AcDbLine
 10
-105.857122
 20
52.993943
 30
0.0
 11
-109.857122
 21
52.993943
 31
0.0
  0
LINE
  5
3A6
330
1F
100
AcDbEntity
  8
1
  6
Continuous
 62
     7
100
AcDbLine
 10
-130.357122
 20
29.493943
 30
0.0
 11
-112.357122
 21
29.493943
 31
0.0
  0
LINE
  5
3A7
330
1F
100
AcDbEntity
  8
1
  6
Continuous
 62
     7
100
AcDbLine
 10
-130.357122
 20
41.493943
 30
0.0
 11
-130.357122
 21
29.493943
 31
0.0
  0
LINE
  5
3A8
330
1F
100
AcDbEntity
  8
1
  6
Continuous
 62
     7
100
AcDbLine
 10
-130.357122
 20
41.493943
 30
0.0
 11
-129.357122
 21
41.493943
 31
0.0
  0
LINE
  5
3A9
330
1F
100
AcDbEntity
  8
1
  6
Continuous
 62
     7
100
AcDbLine
 10
-66.35712199999998
 20
7.493943
 30
0.0
 11
-68.35712199999998
 21
9.493943
 31
0.0
  0
LINE
  5
3AA
330
1F
100
AcDbEntity
  8
1
  6
Continuous
 62
     7
100
AcDbLine
 10
-66.35712199999998
 20
63.493943
 30
0.0
 11
-68.35712199999998
 21
61.493943
 31
0.0
  0
LINE
  5
3AB
330
1F
100
AcDbEntity
  8
1
  6
Continuous
 62
     7
100
AcDbLine
 10
-38.85712199999999
 20
7.493943
 30
0.0
 11
-57.35712199999998
 21
7.493943
 31
0.0
  0
LINE
  5
3AC
330
1F
100
AcDbEntity
  8
1
  6
Continuous
 62
     7
100
AcDbLine
 10
-38.85712199999999
 20
63.493943
 30
0.0
 11
-57.35712199999998
 21
63.493943
 31
0.0
  0
LINE
  5
3AD
330
1F
100
AcDbEntity
  8
1
  6
Continuous
 62
     7
100
AcDbLine
 10
-38.85712199999999
 20
63.493943
 30
0.0
 11
-38.85712199999999
 21
59.493943
 31
0.0
  0
LINE
  5
3AE
330
1F
100
AcDbEntity
  8
1
  6
Continuous
 62
     7
100
AcDbLine
 10
-38.35713199999999
 20
7.99394799999999
 30
0.0
 11
-38.85712199999999
 21
7.493943
 31
0.0
  0
LINE
  5
3AF
330
1F
100
AcDbEntity
  8
1
  6
Continuous
 62
     7
100
AcDbLine
 10
-38.35713199999999
 20
62.99393800000001
 30
0.0
 11
-38.85712199999999
 21
63.493943
 31
0.0
  0
LINE
  5
3B0
330
1F
100
AcDbEntity
  8
1
  6
Continuous
 62
     7
100
AcDbLine
 10
-38.35713199999999
 20
62.99393800000001
 30
0.0
 11
-38.35713199999999
 21
7.99394799999999
 31
0.0
  0
LINE
  5
3B1
330
1F
100
AcDbEntity
  8
1
  6
Continuous
 62
     7
100
AcDbLine
 10
46.142878
 20
64.4939435
 30
0.0
 11
46.142878
 21
7.99394799999999
 31
0.0
  0
LINE
  5
3B2
330
1F
100
AcDbEntity
  8
1
  6
Continuous
 62
     7
100
AcDbLine
 10
43.642878
 20
64.4939435
 30
0.0
 11
43.642878
 21
7.99394799999999
 31
0.0
  0
LINE
  5
3B3
330
1F
100
AcDbEntity
  8
1
  6
Continuous
 62
     7
100
AcDbLine
 10
43.642878
 20
7.99394799999999
 30
0.0
 11
46.142878
 21
7.99394799999999
 31
0.0
  0
LINE
  5
3B4
330
1F
100
AcDbEntity
  8
1
  6
Continuous
 62
     7
100
AcDbLine
 10
43.642878
 20
64.4939435
 30
0.0
 11
46.142878
 21
64.4939435
 31
0.0
  0
LINE
  5
3B5
330
1F
100
AcDbEntity
  8
1
  6
Continuous
 62
     7
100
AcDbLine
 10
-29.79688670689939
 20
-38.6573603445561
 30
0.0
 11
-28.79688670689939
 21
-37.6573603445561
 31
0.0
  0
LINE
  5
3B6
330
1F
100
AcDbEntity
  8
1
  6
Continuous
 62
     7
100
AcDbLine
 10
-67.79688670689939
 20
-38.6573603445561
 30
0.0
 11
-66.79688670689939
 21
-37.6573603445561
 31
0.0
  0
LINE
  5
3B7
330
1F
100
AcDbEntity
  8
1
  6
Continuous
 62
     2
100
AcDbLine
 10
-151.0887864335175
 20
-45.83854213191
 30
0.0
 11
118.911213566482
 21
-45.83854213191
 31
0.0
  0
LINE
  5
3B8
330
1F
100
AcDbEntity
  8
1
  6
Continuous
 62
     2
100
AcDbLine
 10
102.9112135664819
 20
-24.23854213191004
 30
0.0
 11
102.9112135664819
 21
-81.83854213191
 31
0.0
  0
LINE
  5
3B9
330
1F
100
AcDbEntity
  8
1
  6
Continuous
 62
     2
100
AcDbLine
 10
45.9112135664821
 20
-24.23854213191004
 30
0.0
 11
45.9112135664821
 21
-81.83854213191
 31
0.0
  0
LINE
  5
3BA
330
1F
100
AcDbEntity
  8
1
  6
Continuous
 62
     2
100
AcDbLine
 10
8.9112135664822
 20
-24.23854213191004
 30
0.0
 11
8.9112135664822
 21
-81.83854213191
 31
0.0
  0
LINE
  5
3BB
330
1F
100
AcDbEntity
  8
1
  6
Continuous
 62
     2
100
AcDbLine
 10
-151.0887864335175
 20
-72.83854213191
 30
0.0
 11
118.911213566482
 21
-72.83854213191
 31
0.0
  0
LINE
  5
3BC
330
1F
100
AcDbEntity
  8
1
  6
Continuous
 62
     2
100
AcDbLine
 10
-151.0887864335175
 20
-63.83854213191
 30
0.0
 11
118.911213566482
 21
-63.83854213191
 31
0.0
  0
LINE
  5
3BD
330
1F
100
AcDbEntity
  8
1
  6
Continuous
 62
     2
100
AcDbLine
 10
-48.0887864335176
 20
-24.23854213191004
 30
0.0
 11
-48.0887864335176
 21
-81.83854213191
 31
0.0
  0
LINE
  5
3BE
330
1F
100
AcDbEntity
  8
1
  6
Continuous
 62
     7
100
AcDbLine
 10
-151.0887864335175
 20
-24.23854213191004
 30
0.0
 11
118.911213566482
 21
-24.23854213191004
 31
0.0
  0
LINE
  5
3BF
330
1F
100
AcDbEntity
  8
1
  6
Continuous
 62
     7
100
AcDbLine
 10
-151.0887864335175
 20
-54.83854213191
 30
0.0
 11
118.911213566482
 21
-54.83854213191
 31
0.0
  0
LINE
  5
3C0
330
1F
100
AcDbEntity
  8
1
  6
Continuous
 62
     7
100
AcDbLine
 10
118.911213566482
 20
-24.23854213191004
 30
0.0
 11
118.911213566482
 21
-81.83854213191
 31
0.0
  0
LINE
  5
3C1
330
1F
100
AcDbEntity
  8
1
  6
Continuous
 62
     7
100
AcDbLine
 10
-151.0887864335175
 20
-81.83854213191
 30
0.0
 11
118.911213566482
 21
-81.83854213191
 31
0.0
  0
LINE
  5
3C2
330
1F
100
AcDbEntity
  8
1
  6
Continuous
 62
     2
100
AcDbLine
 10
-85.0887864335175
 20
-24.23854213191004
 30
0.0
 11
-85.0887864335175
 21
-81.83854213191
 31
0.0
  0
ARC
  5
3C3
330
1F
100
AcDbEntity
  8
1
  6
Continuous
 62
     7
100
AcDbCircle
 10
-127.0764298122569
 20
45.94348715022105
 30
0.0
 40
4.999999999999878
100
AcDbArc
 50
-117.1382072552201
 51
-87.48611109694413
  0
ARC
  5
3C4
330
1F
100
AcDbEntity
  8
1
  6
Continuous
 62
     7
100
AcDbCircle
 10
-115.6378141877431
 20
45.94348715022114
 30
0.0
 40
4.999999999999958
100
AcDbArc
 50
-92.51388890305583
 51
-62.8617927447804
  0
ARC
  5
3C5
330
1F
100
AcDbEntity
  8
1
  6
Continuous
 62
     2
100
AcDbCircle
 10
128.5098878138959
 20
19.93759381389594
 30
0.0
 40
2.000000000000077
100
AcDbArc
 50
14.99999999999935
 51
-74.99999999999805
  0
ARC
  5
3C6
330
1F
100
AcDbEntity
  8
1
  6
Continuous
 62
     2
100
AcDbCircle
 10
159.6225861861041
 20
19.93759381389594
 30
0.0
 40
1.999999999999968
100
AcDbArc
 50
15.0000000000002
 51
-75.00000000000041
  0
ARC
  5
3C7
330
1F
100
AcDbEntity
  8
1
  6
Continuous
 62
     2
100
AcDbCircle
 10
159.6225861861041
 20
51.05029218610406
 30
0.0
 40
1.999999999999968
100
AcDbArc
 50
15.0000000000002
 51
-75.00000000000047
  0
ARC
  5
3C8
330
1F
100
AcDbEntity
  8
1
  6
Continuous
 62
     2
100
AcDbCircle
 10
128.5098878138959
 20
51.05029218610406
 30
0.0
 40
2.000000000000077
100
AcDbArc
 50
14.99999999999935
 51
-74.99999999999811
  0
ARC
  5
3C9
330
1F
100
AcDbEntity
  8
1
  6
Continuous
 62
     7
100
AcDbCircle
 10
144.066237
 20
35.493943
 30
0.0
 40
37.00000000000004
100
AcDbArc
 50
-49.17910895668292
 51
-40.82089104331702
  0
ARC
  5
3CA
330
1F
100
AcDbEntity
  8
1
  6
Continuous
 62
     7
100
AcDbCircle
 10
144.066237
 20
35.493943
 30
0.0
 40
36.99999999999997
100
AcDbArc
 50
130.8208910433169
 51
139.179108956683
  0
ARC
  5
3CB
330
1F
100
AcDbEntity
  8
1
  6
Continuous
 62
     7
100
AcDbCircle
 10
144.066237
 20
35.493943
 30
0.0
 40
37.0
100
AcDbArc
 50
-139.179108956683
 51
-130.8208910433169
  0
ARC
  5
3CC
330
1F
100
AcDbEntity
  8
1
  6
Continuous
 62
     7
100
AcDbCircle
 10
144.066237
 20
35.493943
 30
0.0
 40
37.0
100
AcDbArc
 50
40.82089104331701
 51
49.17910895668292
  0
ARC
  5
3CD
330
1F
100
AcDbEntity
  8
1
  6
Continuous
 62
     7
100
AcDbCircle
 10
144.066237
 20
35.493943
 30
0.0
 40
7.500000000000001
100
AcDbArc
 50
109.4712206344907
 51
0.0
  0
ARC
  5
3CE
330
1F
100
AcDbEntity
  8
1
  6
Continuous
 62
     7
100
AcDbCircle
 10
144.066237
 20
35.493943
 30
0.0
 40
7.5
100
AcDbArc
 50
0.0
 51
70.52877936550931
  0
ARC
  5
3CF
330
1F
100
AcDbEntity
  8
1
  6
Continuous
 62
     7
100
AcDbCircle
 10
144.066237
 20
35.493943
 30
0.0
 40
6.000000000000003
100
AcDbArc
 50
65.37568164783593
 51
114.6243183521641
  0
ARC
  5
3D0
330
1F
100
AcDbEntity
  8
1
  6
Continuous
 62
     7
100
AcDbCircle
 10
144.066237
 20
35.493943
 30
0.0
 40
6.000000000000003
100
AcDbArc
 50
114.6243183521641
 51
65.37568164783593
  0
ARC
  5
3D1
330
1F
100
AcDbEntity
  8
1
  6
Continuous
 62
     7
100
AcDbCircle
 10
-29.85712199999997
 20
35.493943
 30
0.0
 40
36.50000000000001
100
AcDbArc
 50
138.8879095608331
 51
-138.8879095608331
  0
CIRCLE
  5
3D2
330
1F
100
AcDbEntity
  8
1
  6
Continuous
 62
     7
100
AcDbCircle
 10
144.066237
 20
35.493943
 30
0.0
 40
26.0
  0
CIRCLE
  5
3D3
330
1F
100
AcDbEntity
  8
1
  6
DOT_CENTER
 62
     2
100
AcDbCircle
 10
144.066237
 20
35.493943
 30
0.0
 40
22.00000000000006
  0
CIRCLE
  5
3D4
330
1F
100
AcDbEntity
  8
1
  6
Continuous
 62
     7
100
AcDbCircle
 10
128.5098878138959
 20
19.93759381389594
 30
0.0
 40
1.600000000000023
  0
CIRCLE
  5
3D5
330
1F
100
AcDbEntity
  8
1
  6
Continuous
 62
     7
100
AcDbCircle
 10
159.6225861861041
 20
19.93759381389594
 30
0.0
 40
1.600000000000023
  0
CIRCLE
  5
3D6
330
1F
100
AcDbEntity
  8
1
  6
Continuous
 62
     7
100
AcDbCircle
 10
159.6225861861041
 20
51.05029218610406
 30
0.0
 40
1.600000000000023
  0
CIRCLE
  5
3D7
330
1F
100
AcDbEntity
  8
1
  6
Continuous
 62
     7
100
AcDbCircle
 10
128.5098878138959
 20
51.05029218610406
 30
0.0
 40
1.600000000000023
  0
CIRCLE
  5
3D8
330
1F
100
AcDbEntity
  8
1
  6
Continuous
 62
     7
100
AcDbCircle
 10
144.066237
 20
35.493943
 30
0.0
 40
17.5
  0
CIRCLE
  5
3D9
330
1F
100
AcDbEntity
  8
1
  6
Continuous
 62
     7
100
AcDbCircle
 10
144.066237
 20
35.493943
 30
0.0
 40
25.0
  0
MTEXT
  5
3DA
330
1F
100
AcDbEntity
  8
1
 62
     3
100
AcDbMText
 10
-161.4205777883555
 20
-111.33854213191
 30
0.0
 40
3.5
 41
0.0
 71
     4
 72
     1
  1
Welle ohne Passfedernut Sonderausführung/S22
  7
CONVERTER_11
 73
     1
 44
1.32052821128451
  0
MTEXT
  5
3DB
330
1F
100
AcDbEntity
  8
1
 62
     3
100
AcDbMText
 10
-161.4205777883555
 20
-98.33854213191
 30
0.0
 40
3.5
 41
0.0
 71
     4
 72
     1
  1
Welle mit Passfedernut nach DIN 6885-1(Standard)
  7
CONVERTER_11
 73
     1
 44
1.32052821128451
  0
MTEXT
  5
3DC
330
1F
100
AcDbEntity
  8
1
 62
     3
100
AcDbMText
 10
75.5713209519117
 20
-77.33854213191
 30
0.0
 40
3.5
 41
0.0
 71
     5
 72
     1
  1
max. 281
  7
CONVERTER_11
 73
     1
 44
1.32052821128451
  0
MTEXT
  5
3DD
330
1F
100
AcDbEntity
  8
1
 62
     3
100
AcDbMText
 10
75.5713209519117
 20
-68.33854213191
 30
0.0
 40
3.5
 41
0.0
 71
     5
 72
     1
  1
max. 241
  7
CONVERTER_11
 73
     1
 44
1.32052821128451
  0
MTEXT
  5
3DE
330
1F
100
AcDbEntity
  8
1
 62
     3
100
AcDbMText
 10
75.5713209519117
 20
-59.33854213191
 30
0.0
 40
3.5
 41
0.0
 71
     5
 72
     1
  1
max. 221
  7
CONVERTER_11
 73
     1
 44
1.32052821128451
  0
MTEXT
  5
3DF
330
1F
100
AcDbEntity
  8
1
 62
     3
100
AcDbMText
 10
75.5713209519117
 20
-50.63854213191
 30
0.0
 40
3.5
 41
0.0
 71
     5
 72
     1
  1
k
  7
CONVERTER_11
 73
     1
 44
1.32052821128451
  0
MTEXT
  5
3E0
330
1F
100
AcDbEntity
  8
1
 62
     3
100
AcDbMText
 10
-67.08878643351755
 20
-50.63854213191
 30
0.0
 40
3.5
 41
0.0
 71
     5
 72
     1
  1
k
  7
CONVERTER_11
 73
     1
 44
1.32052821128451
  0
MTEXT
  5
3E1
330
1F
100
AcDbEntity
  8
1
 62
     3
100
AcDbMText
 10
26.91121356648215
 20
-68.33854213191
 30
0.0
 40
3.5
 41
0.0
 71
     5
 72
     1
  1
max. 194
  7
CONVERTER_11
 73
     1
 44
1.32052821128451
  0
MTEXT
  5
3E2
330
1F
100
AcDbEntity
  8
1
 62
     3
100
AcDbMText
 10
26.91121356648215
 20
-59.33854213191
 30
0.0
 40
3.5
 41
0.0
 71
     5
 72
     1
  1
max. 174
  7
CONVERTER_11
 73
     1
 44
1.32052821128451
  0
MTEXT
  5
3E3
330
1F
100
AcDbEntity
  8
1
 62
     3
100
AcDbMText
 10
26.91121356648215
 20
-50.63854213191
 30
0.0
 40
3.5
 41
0.0
 71
     5
 72
     1
  1
k
  7
CONVERTER_11
 73
     1
 44
1.32052821128451
  0
MTEXT
  5
3E4
330
1F
100
AcDbEntity
  8
1
 62
     3
100
AcDbMText
 10
26.91121356648215
 20
-77.33854213191
 30
0.0
 40
3.5
 41
0.0
 71
     5
 72
     1
  1
max. 234
  7
CONVERTER_11
 73
     1
 44
1.32052821128451
  0
MTEXT
  5
3E5
330
1F
100
AcDbEntity
  8
1
 62
     7
100
AcDbMText
 10
-85.21988562064227
 20
-34.6320658398194
 30
0.0
 40
3.5
 41
0.0
 71
     4
 72
     1
  1
mit Resolver\Pwith resolver\Pavec resolveur
  7
CONVERTER_11
 73
     1
 44
1.08043217286915
  0
MTEXT
  5
3E6
330
1F
100
AcDbEntity
  8
1
 62
     7
100
AcDbMText
 10
44.18011437935732
 20
-34.6320658398194
 30
0.0
 40
3.5
 41
0.0
 71
     4
 72
     1
  1
mit Drehgeber und Bremse\Pwith encoder and brake\Pavec codeur et frein
  7
CONVERTER_11
 73
     1
 44
1.08043217286915
  0
MTEXT
  5
3E7
330
1F
100
AcDbEntity
  8
1
 62
     7
100
AcDbMText
 10
10.04011437935743
 20
-34.6320658398194
 30
0.0
 40
3.5
 41
0.0
 71
     4
 72
     1
  1
mit Drehgeber\Pwith encoder\Pavec codeur
  7
CONVERTER_11
 73
     1
 44
1.08043217286915
  0
MTEXT
  5
3E8
330
1F
100
AcDbEntity
  8
1
 62
     7
100
AcDbMText
 10
-49.55988562064239
 20
-34.6320658398194
 30
0.0
 40
3.5
 41
0.0
 71
     4
 72
     1
  1
mit Resolver und Bremse\Pwith resolver and Brake\Pavec resolveur et frein
  7
CONVERTER_11
 73
     1
 44
1.08043217286915
  0
MTEXT
  5
3E9
330
1F
100
AcDbEntity
  8
1
 62
     3
100
AcDbMText
 10
110.9112135664819
 20
-68.33854213191
 30
0.0
 40
3.5
 41
0.0
 71
     5
 72
     1
  1
128
  7
CONVERTER_11
 73
     1
 44
1.32052821128451
  0
MTEXT
  5
3EA
330
1F
100
AcDbEntity
  8
1
 62
     3
100
AcDbMText
 10
110.9112135664819
 20
-59.33854213191
 30
0.0
 40
3.5
 41
0.0
 71
     5
 72
     1
  1
108
  7
CONVERTER_11
 73
     1
 44
1.32052821128451
  0
MTEXT
  5
3EB
330
1F
100
AcDbEntity
  8
1
 62
     3
100
AcDbMText
 10
110.9112135664819
 20
-50.63854213191
 30
0.0
 40
3.5
 41
0.0
 71
     5
 72
     1
  1
q
  7
CONVERTER_11
 73
     1
 44
1.32052821128451
  0
MTEXT
  5
3EC
330
1F
100
AcDbEntity
  8
1
 62
     3
100
AcDbMText
 10
-157.0887864335175
 20
-68.33854213191
 30
0.0
 40
3.5
 41
0.0
 71
     4
 72
     1
  1
KSG 1104... Q(-MF)-R..(/S23)/PLG50
  7
CONVERTER_11
 73
     1
 44
1.32052821128451
  0
MTEXT
  5
3ED
330
1F
100
AcDbEntity
  8
1
 62
     3
100
AcDbMText
 10
-157.0887864335175
 20
-59.33854213191
 30
0.0
 40
3.5
 41
0.0
 71
     4
 72
     1
  1
KSG 1102... Q(-MF)-R..(/S23)/PLG50
  7
CONVERTER_11
 73
     1
 44
1.32052821128451
  0
MTEXT
  5
3EE
330
1F
100
AcDbEntity
  8
1
 62
     3
100
AcDbMText
 10
-157.5884604841
 20
-40.63854213191
 30
0.0
 40
3.5
 41
0.0
 71
     4
 72
     1
  1
Motor-Typ
  7
CONVERTER_11
 73
     1
 44
1.32052821128451
  0
MTEXT
  5
3EF
330
1F
100
AcDbEntity
  8
1
 62
     3
100
AcDbMText
 10
-67.08878643351755
 20
-59.33854213191
 30
0.0
 40
3.5
 41
0.0
 71
     5
 72
     1
  1
132
  7
CONVERTER_11
 73
     1
 44
1.32052821128451
  0
MTEXT
  5
3F0
330
1F
100
AcDbEntity
  8
1
 62
     3
100
AcDbMText
 10
-67.08878643351755
 20
-68.33854213191
 30
0.0
 40
3.5
 41
0.0
 71
     5
 72
     1
  1
152
  7
CONVERTER_11
 73
     1
 44
1.32052821128451
  0
MTEXT
  5
3F1
330
1F
100
AcDbEntity
  8
1
 62
     3
100
AcDbMText
 10
-20.0887864335177
 20
-68.33854213191
 30
0.0
 40
3.5
 41
0.0
 71
     5
 72
     1
  1
199
  7
CONVERTER_11
 73
     1
 44
1.32052821128451
  0
MTEXT
  5
3F2
330
1F
100
AcDbEntity
  8
1
 62
     3
100
AcDbMText
 10
-20.0887864335177
 20
-59.33854213191
 30
0.0
 40
3.5
 41
0.0
 71
     5
 72
     1
  1
179
  7
CONVERTER_11
 73
     1
 44
1.32052821128451
  0
MTEXT
  5
3F3
330
1F
100
AcDbEntity
  8
1
 62
     3
100
AcDbMText
 10
-20.0887864335177
 20
-50.63854213191
 30
0.0
 40
3.5
 41
0.0
 71
     5
 72
     1
  1
k
  7
CONVERTER_11
 73
     1
 44
1.32052821128451
  0
MTEXT
  5
3F4
330
1F
100
AcDbEntity
  8
1
 62
     3
100
AcDbMText
 10
110.9112135664819
 20
-77.33854213191
 30
0.0
 40
3.5
 41
0.0
 71
     5
 72
     1
  1
168
  7
CONVERTER_11
 73
     1
 44
1.32052821128451
  0
MTEXT
  5
3F5
330
1F
100
AcDbEntity
  8
1
 62
     3
100
AcDbMText
 10
-20.0887864335177
 20
-77.33854213191
 30
0.0
 40
3.5
 41
0.0
 71
     5
 72
     1
  1
239
  7
CONVERTER_11
 73
     1
 44
1.32052821128451
  0
MTEXT
  5
3F6
330
1F
100
AcDbEntity
  8
1
 62
     3
100
AcDbMText
 10
-67.08878643351755
 20
-77.33854213191
 30
0.0
 40
3.5
 41
0.0
 71
     5
 72
     1
  1
192
  7
CONVERTER_11
 73
     1
 44
1.32052821128451
  0
MTEXT
  5
3F7
330
1F
100
AcDbEntity
  8
1
 62
     3
100
AcDbMText
 10
-157.0887864335175
 20
-77.33854213191
 30
0.0
 40
3.5
 41
0.0
 71
     4
 72
     1
  1
KSG 1108... Q(-MF)-R..(/S23)/PLG50
  7
CONVERTER_11
 73
     1
 44
1.32052821128451
  0
DIMENSION
  5
402
330
1F
100
AcDbEntity
  8
1
100
AcDbDimension
  2
*D8
 10
-138.085567908232
 20
29.493943
 30
0.0
 11
-142.710567908232
 21
35.5265323110927
 31
0.0
 70
    32
  1
<>
 71
     5
 42
-1.0
 53
90.0
  3
ME10_DIM_10
100
AcDbAlignedDimension
 13
-130.357122
 23
41.493943
 33
0.0
 14
-130.357122
 24
29.493943
 34
0.0
 50
90.0
100
AcDbRotatedDimension
  0
DIMENSION
  5
40D
330
1F
100
AcDbEntity
  8
1
100
AcDbDimension
  2
*D9
 10
-149.117314480828
 20
17.993943
 30
0.0
 11
-154.529814480828
 21
35.3191771080647
 31
0.0
 70
    32
  1
<>
 71
     5
 42
-1.0
 53
90.0
  3
ME10_DIM_11
100
AcDbAlignedDimension
 13
-109.857122
 23
52.993943
 33
0.0
 14
-109.857122
 24
17.993943
 34
0.0
 50
90.0
100
AcDbRotatedDimension
  0
DIMENSION
  5
418
330
1F
100
AcDbEntity
  8
1
100
AcDbDimension
  2
*D10
 10
116.066237
 20
-4.48480869896874
 30
0.0
 11
144.066237
 21
-0.73480869896874
 31
0.0
 70
    32
  1
<>
 71
     5
 42
-1.0
 53
0.00013888888889
  3
ME10_DIM_12
100
AcDbAlignedDimension
 13
172.066237
 23
11.30716975510435
 33
0.0
 14
116.066237
 24
11.30716975510435
 34
0.0
100
AcDbRotatedDimension
  0
DIMENSION
  5
423
330
1F
100
AcDbEntity
  8
1
100
AcDbDimension
  2
*D11
 10
130.5671773462071
 20
124.981032258065
 30
0.0
 11
144.0662434999013
 21
128.731032258065
 31
0.0
 70
    32
  1
27
 71
     5
 42
-1.0
 53
0.00013888888889
  3
ME10_DIM_13
100
AcDbAlignedDimension
 13
157.5652877498334
 23
108.4616482227904
 33
0.0
 14
130.5671773462071
 24
108.0355074629339
 34
0.0
100
AcDbRotatedDimension
  0
DIMENSION
  5
42E
330
1F
100
AcDbEntity
  8
1
100
AcDbDimension
  2
*D12
 10
-87.9862912656097
 20
10.493943
 30
0.0
 11
-91.7362912656097
 21
25.6892297736732
 31
0.0
 70
    32
  1
<>
 71
     5
 42
-1.0
 53
90.0
  3
ME10_DIM_14
100
AcDbAlignedDimension
 13
-74.35712199999998
 23
60.493943
 33
0.0
 14
-74.35712199999998
 24
10.493943
 34
0.0
 50
90.0
100
AcDbRotatedDimension
  0
DIMENSION
  5
439
330
1F
100
AcDbEntity
  8
1
100
AcDbDimension
  2
*D13
 10
-112.357122
 20
80.9833022242457
 30
0.0
 11
-121.47864119407
 21
84.7333022242457
 31
0.0
 70
    32
  1
<>
 71
     5
 42
-1.0
 53
0.00013888888889
  3
ME10_DIM_15
100
AcDbAlignedDimension
 13
-130.357122
 23
29.493943
 33
0.0
 14
-112.357122
 24
42.993943
 34
0.0
100
AcDbRotatedDimension
  0
DIMENSION
  5
444
330
1F
100
AcDbEntity
  8
1
100
AcDbDimension
  2
*D14
 10
-129.357122
 20
55.8496302444835
 30
0.0
 11
-121.450182317092
 21
59.5996302444835
 31
0.0
 70
    32
  1
<>
 71
     5
 42
-1.0
 53
0.00013888888889
  3
ME10_DIM_16
100
AcDbAlignedDimension
 13
-113.357122
 23
42.993943
 33
0.0
 14
-129.357122
 24
42.993943
 34
0.0
100
AcDbRotatedDimension
  0
DIMENSION
  5
451
330
1F
100
AcDbEntity
  8
1
100
AcDbDimension
  2
*D15
 10
-130.357122
 20
55.6900887118008
 30
0.0
 11
-133.256255735613
 21
59.4400887118008
 31
0.0
 70
    32
  1
<>
 71
     5
 42
-1.0
 53
0.00013888888889
  3
ME10_DIM_17
100
AcDbAlignedDimension
 13
-129.357122
 23
42.993943
 33
0.0
 14
-130.357122
 24
41.493943
 34
0.0
100
AcDbRotatedDimension
  0
DIMENSION
  5
45E
330
1F
100
AcDbEntity
  8
1
100
AcDbDimension
  2
*D16
 10
-109.857122
 20
66.4425978147764
 30
0.0
 11
-117.512994536942
 21
70.1925978147764
 31
0.0
 70
    32
  1
<>
 71
     5
 42
-1.0
 53
0.00013888888889
  3
ME10_DIM_18
100
AcDbAlignedDimension
 13
-112.357122
 23
42.993943
 33
0.0
 14
-109.857122
 24
52.993943
 34
0.0
100
AcDbRotatedDimension
  0
DIMENSION
  5
46B
330
1F
100
AcDbEntity
  8
1
100
AcDbDimension
  2
*D17
 10
-109.857122
 20
90.8974188670658
 30
0.0
 11
-99.0066434703444
 21
94.6474188670658
 31
0.0
 70
    32
  1
<>
 71
     5
 42
-1.0
 53
0.00013888888889
  3
ME10_DIM_19
100
AcDbAlignedDimension
 13
-105.857122
 23
60.493943
 33
0.0
 14
-109.857122
 24
52.993943
 34
0.0
100
AcDbRotatedDimension
  0
DIMENSION
  5
476
330
1F
100
AcDbEntity
  8
1
100
AcDbDimension
  2
*D18
 10
-105.857122
 20
110.285024746358
 30
0.0
 11
-47.87532675064293
 21
114.035024746358
 31
0.0
 70
    32
  1
q
 71
     5
 42
-1.0
 53
0.00013888888889
  3
ME10_DIM_20
100
AcDbAlignedDimension
 13
22.14287800000056
 23
64.2937518127957
 33
0.0
 14
-105.857122
 24
60.493943
 34
0.0
100
AcDbRotatedDimension
  0
DIMENSION
  5
481
330
1F
100
AcDbEntity
  8
1
100
AcDbDimension
  2
*D19
 10
-105.857122
 20
124.605415452654
 30
0.0
 11
-31.20739972139545
 21
128.355415452654
 31
0.0
 70
    32
  1
k
 71
     5
 42
-1.0
 53
0.00013888888889
  3
ME10_DIM_21
100
AcDbAlignedDimension
 13
46.142878
 23
64.4939435
 33
0.0
 14
-105.857122
 24
60.493943
 34
0.0
100
AcDbRotatedDimension
  0
DIMENSION
  5
48E
330
1F
100
AcDbEntity
  8
1
100
AcDbDimension
  2
*D20
 10
141.566237
 20
45.94348715022114
 30
0.0
 11
146.26101052777
 21
49.69348715022114
 31
0.0
 70
    32
  1
<>
 71
     5
 42
-1.0
 53
0.00013888888889
  3
ME10_DIM_22
100
AcDbAlignedDimension
 13
146.566237
 23
43.063943
 33
0.0
 14
141.566237
 24
43.063943
 34
0.0
100
AcDbRotatedDimension
  0
INSERT
  5
496
330
1F
100
AcDbEntity
  8
1
100
AcDbBlockReference
  2
*D21
 10
0.0
 20
0.0
 30
0.0
  0
INSERT
  5
49E
330
1F
100
AcDbEntity
  8
1
100
AcDbBlockReference
  2
*D22
 10
0.0
 20
0.0
 30
0.0
  0
INSERT
  5
4A8
330
1F
100
AcDbEntity
  8
1
100
AcDbBlockReference
  2
*D23
 10
0.0
 20
0.0
 30
0.0
  0
INSERT
  5
4B4
330
1F
100
AcDbEntity
  8
1
100
AcDbBlockReference
  2
*D24
 10
0.0
 20
0.0
 30
0.0
  0
DIMENSION
  5
4C1
330
1F
100
AcDbEntity
  8
1
100
AcDbDimension
  2
*D25
 10
183.0605009840172
 20
51.64589599693663
 30
0.0
 11
187.840238682856
 21
49.4900367365793
 31
0.0
 70
    37
  1
<>
 71
     5
 42
-1.0
  3
ME10_DIM_23
100
AcDb3PointAngularDimension
 13
174.343373682835
 23
35.493943
 33
0.0
 14
157.7344462711856
 24
49.16215227118556
 34
0.0
 15
144.066237
 25
35.493943
 35
0.0
  0
DIMENSION
  5
4CE
330
1F
100
AcDbEntity
  8
1
100
AcDbDimension
  2
*D26
 10
183.1680157725154
 20
19.29745591951179
 30
0.0
 11
180.192622351503
 21
21.97373125421367
 31
0.0
 70
    37
  1
<>
 71
     5
 42
-1.0
  3
ME10_DIM_24
100
AcDb3PointAngularDimension
 13
157.6992911430853
 23
21.86088885691475
 33
0.0
 14
174.343373682835
 24
35.493943
 34
0.0
 15
144.0662369999999
 25
35.493943
 35
0.0
  0
ENDSEC
  0
SECTION
  2
OBJECTS
  0
DICTIONARY
  5
C
330
0
100
AcDbDictionary
281
     1
  3
ACAD_GROUP
350
D
  3
ACAD_LAYOUT
350
1A
  3
ACAD_MLINESTYLE
350
17
  3
ACAD_PLOTSETTINGS
350
19
  3
ACAD_PLOTSTYLENAME
350
E
  0
DICTIONARY
  5
D
102
{ACAD_REACTORS
330
C
102
}
330
C
100
AcDbDictionary
281
     1
  0
DICTIONARY
  5
1A
102
{ACAD_REACTORS
330
C
102
}
330
C
100
AcDbDictionary
281
     1
  3
Layout1
350
1E
  3
Layout2
350
26
  3
Model
350
22
  0
DICTIONARY
  5
17
102
{ACAD_REACTORS
330
C
102
}
330
C
100
AcDbDictionary
281
     1
  3
Standard
350
18
  0
DICTIONARY
  5
19
102
{ACAD_REACTORS
330
C
102
}
330
C
100
AcDbDictionary
281
     1
  0
ACDBDICTIONARYWDFLT
  5
E
102
{ACAD_REACTORS
330
C
102
}
330
C
100
AcDbDictionary
281
     1
  3
Normal
350
F
100
AcDbDictionaryWithDefault
340
F
  0
LAYOUT
  5
1E
102
{ACAD_REACTORS
330
1A
102
}
330
1A
100
AcDbPlotSettings
  1

  2

  4

  6

 40
0.0
 41
0.0
 42
0.0
 43
0.0
 44
0.0
 45
0.0
 46
0.0
 47
0.0
 48
0.0
 49
0.0
140
0.0
141
0.0
142
1.0
143
1.0
 70
   688
 72
     0
 73
     0
 74
     5
  7

 75
    16
 76
     0
 77
     2
 78
   300
147
1.0
148
0.0
149
0.0
100
AcDbLayout
  1
Layout1
 70
     1
 71
     1
 10
0.0
 20
0.0
 11
0.0
 21
0.0
 12
0.0
 22
0.0
 32
0.0
 14
0.0
 24
0.0
 34
0.0
 15
0.0
 25
0.0
 35
0.0
146
0.0
 13
0.0
 23
0.0
 33
0.0
 16
1.0
 26
0.0
 36
0.0
 17
0.0
 27
1.0
 37
0.0
 76
     0
330
1B
  0
LAYOUT
  5
26
102
{ACAD_REACTORS
330
1A
102
}
330
1A
100
AcDbPlotSettings
  1

  2

  4

  6

 40
0.0
 41
0.0
 42
0.0
 43
0.0
 44
0.0
 45
0.0
 46
0.0
 47
0.0
 48
0.0
 49
0.0
140
0.0
141
0.0
142
1.0
143
1.0
 70
   688
 72
     0
 73
     0
 74
     5
  7

 75
    16
 76
     0
 77
     2
 78
   300
147
1.0
148
0.0
149
0.0
100
AcDbLayout
  1
Layout2
 70
     1
 71
     2
 10
0.0
 20
0.0
 11
0.0
 21
0.0
 12
0.0
 22
0.0
 32
0.0
 14
0.0
 24
0.0
 34
0.0
 15
0.0
 25
0.0
 35
0.0
146
0.0
 13
0.0
 23
0.0
 33
0.0
 16
1.0
 26
0.0
 36
0.0
 17
0.0
 27
1.0
 37
0.0
 76
     0
330
23
  0
LAYOUT
  5
22
102
{ACAD_REACTORS
330
1A
102
}
330
1A
100
AcDbPlotSettings
  1

  2

  4

  6

 40
0.0
 41
0.0
 42
0.0
 43
0.0
 44
0.0
 45
0.0
 46
0.0
 47
0.0
 48
0.0
 49
0.0
140
0.0
141
0.0
142
1.0
143
1.0
 70
  1712
 72
     0
 73
     0
 74
     0
  7

 75
     0
 76
     0
 77
     2
 78
   300
147
1.0
148
0.0
149
0.0
100
AcDbLayout
  1
Model
 70
     1
 71
     0
 10
0.0
 20
0.0
 11
0.0
 21
0.0
 12
0.0
 22
0.0
 32
0.0
 14
-198.880000000001
 24
-142.5
 34
0.0
 15
205.0
 25
142.0
 35
0.0
146
0.0
 13
0.0
 23
0.0
 33
0.0
 16
1.0
 26
0.0
 36
0.0
 17
0.0
 27
1.0
 37
0.0
 76
     0
330
1F
  0
MLINESTYLE
  5
18
102
{ACAD_REACTORS
330
17
102
}
330
17
100
AcDbMlineStyle
  2
Standard
 70
     0
  3

 62
   256
 51
90.0
 52
90.0
 71
     2
 49
0.5
 62
   256
  6
BYLAYER
 49
-0.5
 62
   256
  6
BYLAYER
  0
ACDBPLACEHOLDER
  5
F
102
{ACAD_REACTORS
330
E
102
}
330
E
  0
ENDSEC
  0
EOF
