  0
SECTION
  2
HEADER
  9
$ACADVER
  1
AC1018
  9
$ACADMAINTVER
 70
     0
  9
$DWGCODEPAGE
  3
ANSI_1252
  9
$INSBASE
 10
0.0
 20
0.0
 30
0.0
  9
$EXTMIN
 10
-397.760000000002
 20
-285.0
 30
0.0
  9
$EXTMAX
 10
410.0
 20
284.0
 30
0.0
  9
$LIMMIN
 10
0.0
 20
0.0
  9
$LIMMAX
 10
12.0
 20
9.0
  9
$ORTHOMODE
 70
     0
  9
$REGENMODE
 70
     1
  9
$FILLMODE
 70
     1
  9
$QTEXTMODE
 70
     0
  9
$MIRRTEXT
 70
     1
  9
$LTSCALE
 40
1.0
  9
$ATTMODE
 70
     1
  9
$TEXTSIZE
 40
0.2
  9
$TRACEWID
 40
0.05
  9
$TEXTSTYLE
  7
Standard
  9
$CLAYER
  8
0
  9
$CELTYPE
  6
ByLayer
  9
$CECOLOR
 62
   256
  9
$CELTSCALE
 40
1.0
  9
$DISPSILH
 70
     0
  9
$DIMSCALE
 40
1.0
  9
$DIMASZ
 40
0.18
  9
$DIMEXO
 40
0.0625
  9
$DIMDLI
 40
0.38
  9
$DIMRND
 40
0.0
  9
$DIMDLE
 40
0.0
  9
$DIMEXE
 40
0.18
  9
$DIMTP
 40
0.0
  9
$DIMTM
 40
0.0
  9
$DIMTXT
 40
0.18
  9
$DIMCEN
 40
0.09
  9
$DIMTSZ
 40
0.0
  9
$DIMTOL
 70
     0
  9
$DIMLIM
 70
     0
  9
$DIMTIH
 70
     1
  9
$DIMTOH
 70
     1
  9
$DIMSE1
 70
     0
  9
$DIMSE2
 70
     0
  9
$DIMTAD
 70
     0
  9
$DIMZIN
 70
     0
  9
$DIMBLK
  1

  9
$DIMASO
 70
     1
  9
$DIMSHO
 70
     1
  9
$DIMPOST
  1

  9
$DIMAPOST
  1

  9
$DIMALT
 70
     0
  9
$DIMALTD
 70
     2
  9
$DIMALTF
 40
25.4
  9
$DIMLFAC
 40
1.0
  9
$DIMTOFL
 70
     0
  9
$DIMTVP
 40
0.0
  9
$DIMTIX
 70
     0
  9
$DIMSOXD
 70
     0
  9
$DIMSAH
 70
     0
  9
$DIMBLK1
  1

  9
$DIMBLK2
  1

  9
$DIMSTYLE
  2
Standard
  9
$DIMCLRD
 70
     0
  9
$DIMCLRE
 70
     0
  9
$DIMCLRT
 70
     0
  9
$DIMTFAC
 40
1.0
  9
$DIMGAP
 40
0.09
  9
$DIMJUST
 70
     0
  9
$DIMSD1
 70
     0
  9
$DIMSD2
 70
     0
  9
$DIMTOLJ
 70
     1
  9
$DIMTZIN
 70
     0
  9
$DIMALTZ
 70
     0
  9
$DIMALTTZ
 70
     0
  9
$DIMUPT
 70
     0
  9
$DIMDEC
 70
     4
  9
$DIMTDEC
 70
     4
  9
$DIMALTU
 70
     2
  9
$DIMALTTD
 70
     2
  9
$DIMTXSTY
  7
Standard
  9
$DIMAUNIT
 70
     0
  9
$DIMADEC
 70
     0
  9
$DIMALTRND
 40
0.0
  9
$DIMAZIN
 70
     0
  9
$DIMDSEP
 70
    46
  9
$DIMATFIT
 70
     3
  9
$DIMFRAC
 70
     0
  9
$DIMLDRBLK
  1

  9
$DIMLUNIT
 70
     2
  9
$DIMLWD
 70
    -2
  9
$DIMLWE
 70
    -2
  9
$DIMTMOVE
 70
     0
  9
$LUNITS
 70
     2
  9
$LUPREC
 70
     4
  9
$SKETCHINC
 40
0.1
  9
$FILLETRAD
 40
0.5
  9
$AUNITS
 70
     0
  9
$AUPREC
 70
     0
  9
$MENU
  1
.
  9
$ELEVATION
 40
0.0
  9
$PELEVATION
 40
0.0
  9
$THICKNESS
 40
0.0
  9
$LIMCHECK
 70
     0
  9
$CHAMFERA
 40
0.5
  9
$CHAMFERB
 40
0.5
  9
$CHAMFERC
 40
1.0
  9
$CHAMFERD
 40
0.0
  9
$SKPOLY
 70
     0
  9
$TDCREATE
 40
2454966.454077292
  9
$TDUCREATE
 40
2454966.370743958
  9
$TDUPDATE
 40
2454966.454077303
  9
$TDUUPDATE
 40
2454966.37074397
  9
$TDINDWG
 40
0.0000000116
  9
$TDUSRTIMER
 40
0.0000000116
  9
$USRTIMER
 70
     1
  9
$ANGBASE
 50
0.0
  9
$ANGDIR
 70
     0
  9
$PDMODE
 70
     0
  9
$PDSIZE
 40
0.0
  9
$PLINEWID
 40
0.0
  9
$SPLFRAME
 70
     0
  9
$SPLINETYPE
 70
     6
  9
$SPLINESEGS
 70
     8
  9
$HANDSEED
  5
4B9
  9
$SURFTAB1
 70
     6
  9
$SURFTAB2
 70
     6
  9
$SURFTYPE
 70
     6
  9
$SURFU
 70
     6
  9
$SURFV
 70
     6
  9
$UCSBASE
  2

  9
$UCSNAME
  2

  9
$UCSORG
 10
0.0
 20
0.0
 30
0.0
  9
$UCSXDIR
 10
1.0
 20
0.0
 30
0.0
  9
$UCSYDIR
 10
0.0
 20
1.0
 30
0.0
  9
$UCSORTHOREF
  2

  9
$UCSORTHOVIEW
 70
     0
  9
$UCSORGTOP
 10
0.0
 20
0.0
 30
0.0
  9
$UCSORGBOTTOM
 10
0.0
 20
0.0
 30
0.0
  9
$UCSORGLEFT
 10
0.0
 20
0.0
 30
0.0
  9
$UCSORGRIGHT
 10
0.0
 20
0.0
 30
0.0
  9
$UCSORGFRONT
 10
0.0
 20
0.0
 30
0.0
  9
$UCSORGBACK
 10
0.0
 20
0.0
 30
0.0
  9
$PUCSBASE
  2

  9
$PUCSNAME
  2

  9
$PUCSORG
 10
0.0
 20
0.0
 30
0.0
  9
$PUCSXDIR
 10
1.0
 20
0.0
 30
0.0
  9
$PUCSYDIR
 10
0.0
 20
1.0
 30
0.0
  9
$PUCSORTHOREF
  2

  9
$PUCSORTHOVIEW
 70
     0
  9
$PUCSORGTOP
 10
0.0
 20
0.0
 30
0.0
  9
$PUCSORGBOTTOM
 10
0.0
 20
0.0
 30
0.0
  9
$PUCSORGLEFT
 10
0.0
 20
0.0
 30
0.0
  9
$PUCSORGRIGHT
 10
0.0
 20
0.0
 30
0.0
  9
$PUCSORGFRONT
 10
0.0
 20
0.0
 30
0.0
  9
$PUCSORGBACK
 10
0.0
 20
0.0
 30
0.0
  9
$USERI1
 70
     0
  9
$USERI2
 70
     0
  9
$USERI3
 70
     0
  9
$USERI4
 70
     0
  9
$USERI5
 70
     0
  9
$USERR1
 40
14.5
  9
$USERR2
 40
0.0
  9
$USERR3
 40
0.0
  9
$USERR4
 40
0.0
  9
$USERR5
 40
0.0
  9
$WORLDVIEW
 70
     1
  9
$SHADEDGE
 70
     3
  9
$SHADEDIF
 70
    70
  9
$TILEMODE
 70
     1
  9
$MAXACTVP
 70
    64
  9
$PINSBASE
 10
0.0
 20
0.0
 30
0.0
  9
$PLIMCHECK
 70
     0
  9
$PEXTMIN
 10
1.00000000000000E+20
 20
1.00000000000000E+20
 30
1.00000000000000E+20
  9
$PEXTMAX
 10
-1.00000000000000E+20
 20
-1.00000000000000E+20
 30
-1.00000000000000E+20
  9
$PLIMMIN
 10
0.0
 20
0.0
  9
$PLIMMAX
 10
12.0
 20
9.0
  9
$UNITMODE
 70
     0
  9
$VISRETAIN
 70
     1
  9
$PLINEGEN
 70
     0
  9
$PSLTSCALE
 70
     1
  9
$TREEDEPTH
 70
  3020
  9
$CMLSTYLE
  2
Standard
  9
$CMLJUST
 70
     0
  9
$CMLSCALE
 40
1.0
  9
$PROXYGRAPHICS
 70
     1
  9
$MEASUREMENT
 70
     1
  9
$CELWEIGHT
370
    -1
  9
$ENDCAPS
280
     0
  9
$JOINSTYLE
280
     0
  9
$LWDISPLAY
290
     0
  9
$INSUNITS
 70
     1
  9
$HYPERLINKBASE
  1

  9
$STYLESHEET
  1

  9
$XEDIT
290
     1
  9
$CEPSNTYPE
380
     0
  9
$PSTYLEMODE
290
     1
  9
$FINGERPRINTGUID
  2
{05D496A5-E471-490F-BB22-6C56E26D3673}
  9
$VERSIONGUID
  2
{FAEB1C32-E019-11D5-929B-00C0DF256EC4}
  9
$EXTNAMES
290
     1
  9
$PSVPSCALE
 40
0.0
  9
$OLESTARTUP
290
     0
  9
$SORTENTS
280
   127
  9
$INDEXCTL
280
     0
  9
$HIDETEXT
280
     1
  9
$XCLIPFRAME
290
     0
  9
$HALOGAP
280
     0
  9
$OBSCOLOR
 70
   257
  9
$OBSLTYPE
280
     0
  9
$INTERSECTIONDISPLAY
280
     0
  9
$INTERSECTIONCOLOR
 70
   257
  9
$DIMASSOC
280
     2
  9
$PROJECTNAME
  1

  0
ENDSEC
  0
SECTION
  2
CLASSES
  0
CLASS
  1
ACDBDICTIONARYWDFLT
  2
AcDbDictionaryWithDefault
  3
ObjectDBX Classes
 90
        0
 91
        3
280
     0
281
     0
  0
CLASS
  1

  2
exOdDbCircle
  3

 90
        0
 91
        3
280
     0
281
     1
  0
ENDSEC
  0
SECTION
  2
TABLES
  0
TABLE
  2
VPORT
  5
8
330
0
100
AcDbSymbolTable
 70
     1
  0
VPORT
  5
29
330
8
100
AcDbSymbolTableRecord
100
AcDbViewportTableRecord
  2
*Active
 70
     0
 10
0.0
 20
0.0
 11
1.0
 21
1.0
 12
6.11999999999901
 22
-0.5
 13
0.0
 23
0.0
 14
0.5
 24
0.5
 15
0.5
 25
0.5
 16
0.0
 26
0.0
 36
1.0
 17
0.0
 27
0.0
 37
0.0
 40
625.9000000000001
 41
1.60267857142857
 42
50.0
 43
0.0
 44
0.0
 50
0.0
 51
0.0
 71
     0
 72
   100
 73
     1
 74
     3
 75
     0
 76
     0
 77
     0
 78
     0
281
     0
 65
     1
110
0.0
120
0.0
130
0.0
111
1.0
121
0.0
131
0.0
112
0.0
122
1.0
132
0.0
 79
     0
146
0.0
  0
ENDTAB
  0
TABLE
  2
LTYPE
  5
5
330
0
100
AcDbSymbolTable
 70
     8
  0
LTYPE
  5
14
330
5
100
AcDbSymbolTableRecord
100
AcDbLinetypeTableRecord
  2
ByBlock
 70
     0
  3

 72
    65
 73
     0
 40
0.0
  0
LTYPE
  5
15
330
5
100
AcDbSymbolTableRecord
100
AcDbLinetypeTableRecord
  2
ByLayer
 70
     0
  3

 72
    65
 73
     0
 40
0.0
  0
LTYPE
  5
16
330
5
100
AcDbSymbolTableRecord
100
AcDbLinetypeTableRecord
  2
Continuous
 70
     0
  3
Solid line
 72
    65
 73
     0
 40
0.0
  0
LTYPE
  5
2A
330
5
100
AcDbSymbolTableRecord
100
AcDbLinetypeTableRecord
  2
DASHED
 70
     0
  3
Dashed
 72
    65
 73
     2
 40
15.0
 49
7.0
 74
     0
 49
-8.0
 74
     0
  0
LTYPE
  5
2B
330
5
100
AcDbSymbolTableRecord
100
AcDbLinetypeTableRecord
  2
DOTTED
 70
     0
  3
Dotted
 72
    65
 73
     2
 40
1.0
 49
0.0
 74
     0
 49
-1.0
 74
     0
  0
LTYPE
  5
2C
330
5
100
AcDbSymbolTableRecord
100
AcDbLinetypeTableRecord
  2
DOT_CENTER
 70
     0
  3
Dot_Center
 72
    65
 73
     4
 40
14.0
 49
12.0
 74
     0
 49
-1.0
 74
     0
 49
0.0
 74
     0
 49
-1.0
 74
     0
  0
LTYPE
  5
2D
330
5
100
AcDbSymbolTableRecord
100
AcDbLinetypeTableRecord
  2
LONG_DASHED
 70
     0
  3
Long_Dashed
 72
    65
 73
     2
 40
15.0
 49
10.0
 74
     0
 49
-5.0
 74
     0
  0
LTYPE
  5
2E
330
5
100
AcDbSymbolTableRecord
100
AcDbLinetypeTableRecord
  2
DASH_CENTER
 70
     0
  3
Dash_Center
 72
    65
 73
     4
 40
14.0
 49
11.0
 74
     0
 49
-1.0
 74
     0
 49
1.0
 74
     0
 49
-1.0
 74
     0
  0
LTYPE
  5
2F
330
5
100
AcDbSymbolTableRecord
100
AcDbLinetypeTableRecord
  2
PHANTOM
 70
     0
  3
Phantom
 72
    65
 73
     6
 40
13.0
 49
10.0
 74
     0
 49
-1.0
 74
     0
 49
0.0
 74
     0
 49
-1.0
 74
     0
 49
0.0
 74
     0
 49
-1.0
 74
     0
  0
LTYPE
  5
30
330
5
100
AcDbSymbolTableRecord
100
AcDbLinetypeTableRecord
  2
CENTER_DASH_DASH
 70
     0
  3
Center_Dash_Dash
 72
    65
 73
     6
 40
14.0
 49
9.0
 74
     0
 49
-1.0
 74
     0
 49
1.0
 74
     0
 49
-1.0
 74
     0
 49
1.0
 74
     0
 49
-1.0
 74
     0
  0
ENDTAB
  0
TABLE
  2
LAYER
  5
2
330
0
100
AcDbSymbolTable
 70
     3
  0
LAYER
  5
10
330
2
100
AcDbSymbolTableRecord
100
AcDbLayerTableRecord
  2
0
 70
     0
 62
     7
  6
Continuous
370
    -3
390
F
  0
LAYER
  5
31
330
2
100
AcDbSymbolTableRecord
100
AcDbLayerTableRecord
  2
1
 70
     0
 62
     7
  6
Continuous
370
    -3
390
F
  0
LAYER
  5
32
330
2
100
AcDbSymbolTableRecord
100
AcDbLayerTableRecord
  2
AM_VIS
 70
     0
 62
     7
  6
Continuous
370
    -3
390
F
  0
ENDTAB
  0
TABLE
  2
STYLE
  5
3
330
0
100
AcDbSymbolTable
 70
     6
  0
STYLE
  5
11
330
3
100
AcDbSymbolTableRecord
100
AcDbTextStyleTableRecord
  2
Standard
 70
     0
 40
0.0
 41
1.0
 50
0.0
 71
     0
 42
0.2
  3
txt
  4

  0
STYLE
  5
313
330
3
100
AcDbSymbolTableRecord
100
AcDbTextStyleTableRecord
  2
CONVERTER_11
 70
     0
 40
0.0
 41
0.855
 50
0.0
 71
     0
 42
0.2
  3
complex.shx
  4

  0
STYLE
  5
315
330
3
100
AcDbSymbolTableRecord
100
AcDbTextStyleTableRecord
  2
CONVERTER_12
 70
     0
 40
0.0
 41
0.9
 50
0.0
 71
     0
 42
0.2
  3
txt.shx
  4

  0
STYLE
  5
31D
330
3
100
AcDbSymbolTableRecord
100
AcDbTextStyleTableRecord
  2
CONVERTER_13
 70
     0
 40
0.0
 41
0.765
 50
0.0
 71
     0
 42
0.2
  3
txt.shx
  4

  0
STYLE
  5
321
330
3
100
AcDbSymbolTableRecord
100
AcDbTextStyleTableRecord
  2
CONVERTER_14
 70
     0
 40
0.0
 41
0.81
 50
0.0
 71
     0
 42
0.2
  3
txt.shx
  4

  0
STYLE
  5
325
330
3
100
AcDbSymbolTableRecord
100
AcDbTextStyleTableRecord
  2
CONVERTER_15
 70
     0
 40
0.0
 41
0.72
 50
0.0
 71
     0
 42
0.2
  3
txt.shx
  4

  0
ENDTAB
  0
TABLE
  2
VIEW
  5
6
330
0
100
AcDbSymbolTable
 70
     0
  0
ENDTAB
  0
TABLE
  2
UCS
  5
7
330
0
100
AcDbSymbolTable
 70
     0
  0
ENDTAB
  0
TABLE
  2
APPID
  5
9
330
0
100
AcDbSymbolTable
 70
     1
  0
APPID
  5
12
330
9
100
AcDbSymbolTableRecord
100
AcDbRegAppTableRecord
  2
ACAD
 70
     0
  0
ENDTAB
  0
TABLE
  2
DIMSTYLE
  5
A
330
0
100
AcDbSymbolTable
 70
    15
100
AcDbDimStyleTable
  0
DIMSTYLE
105
27
330
A
100
AcDbSymbolTableRecord
100
AcDbDimStyleTableRecord
  2
Standard
 70
     0
340
11
  0
DIMSTYLE
105
404
102
{ACAD_REACTORS
330
405
102
}
330
A
100
AcDbSymbolTableRecord
100
AcDbDimStyleTableRecord
  2
ME10_DIM_10
 70
     0
 41
7.0
 42
0.0
 44
2.0
 73
     0
 74
     0
 77
     1
 78
     8
140
7.0
147
4.0
172
     1
173
     1
176
     2
177
     2
178
     3
271
     3
340
325
  0
DIMSTYLE
105
40F
102
{ACAD_REACTORS
330
410
102
}
330
A
100
AcDbSymbolTableRecord
100
AcDbDimStyleTableRecord
  2
ME10_DIM_11
 70
     0
 41
7.0
 42
0.0
 44
2.0
 73
     0
 74
     0
 77
     1
 78
     8
140
7.0
147
4.0
172
     1
173
     1
176
     2
177
     2
178
     3
271
     3
340
325
  0
DIMSTYLE
105
41C
102
{ACAD_REACTORS
330
41D
102
}
330
A
100
AcDbSymbolTableRecord
100
AcDbDimStyleTableRecord
  2
ME10_DIM_12
 70
     0
 41
7.0
 42
0.0
 44
2.0
 73
     0
 74
     0
 77
     1
 78
     8
140
7.0
147
4.0
172
     1
173
     1
176
     2
177
     2
178
     3
271
     3
340
325
  0
DIMSTYLE
105
427
102
{ACAD_REACTORS
330
428
102
}
330
A
100
AcDbSymbolTableRecord
100
AcDbDimStyleTableRecord
  2
ME10_DIM_13
 70
     0
  3
{\Fgdt;n}<>
 41
7.0
 42
0.0
 44
2.0
 48
-6.0
 71
     1
 73
     0
 74
     0
 77
     1
 78
     8
140
7.0
146
0.6
147
4.0
172
     1
173
     1
176
     2
177
     2
178
     3
271
     3
272
     0
340
325
  0
DIMSTYLE
105
432
102
{ACAD_REACTORS
330
433
102
}
330
A
100
AcDbSymbolTableRecord
100
AcDbDimStyleTableRecord
  2
ME10_DIM_14
 70
     0
  3
{\Fgdt;n}<>
 41
7.0
 42
0.0
 44
2.0
 48
-6.0
 71
     1
 73
     0
 74
     0
 77
     1
 78
     8
140
7.0
146
0.6
147
4.0
172
     1
173
     1
176
     2
177
     2
178
     3
271
     3
272
     0
340
325
  0
DIMSTYLE
105
43D
102
{ACAD_REACTORS
330
43E
102
}
330
A
100
AcDbSymbolTableRecord
100
AcDbDimStyleTableRecord
  2
ME10_DIM_15
 70
     0
  3
{\Fgdt;n}<>
 41
7.0
 42
0.0
 44
2.0
 73
     0
 74
     0
 77
     1
 78
     8
140
7.0
147
4.0
172
     1
173
     1
176
     2
177
     2
178
     3
271
     3
340
325
  0
DIMSTYLE
105
448
102
{ACAD_REACTORS
330
449
102
}
330
A
100
AcDbSymbolTableRecord
100
AcDbDimStyleTableRecord
  2
ME10_DIM_16
 70
     0
 41
7.0
 42
0.0
 44
2.0
 73
     0
 74
     0
 77
     1
 78
     8
140
7.0
147
4.0
172
     1
173
     1
176
     2
177
     2
178
     3
271
     3
340
325
  0
DIMSTYLE
105
455
102
{ACAD_REACTORS
330
456
102
}
330
A
100
AcDbSymbolTableRecord
100
AcDbDimStyleTableRecord
  2
ME10_DIM_17
 70
     0
 41
7.0
 42
0.0
 44
2.0
 73
     0
 74
     0
 77
     1
 78
     8
140
7.0
147
4.0
172
     1
173
     1
176
     2
177
     2
178
     3
271
     3
340
325
  0
DIMSTYLE
105
462
102
{ACAD_REACTORS
330
463
102
}
330
A
100
AcDbSymbolTableRecord
100
AcDbDimStyleTableRecord
  2
ME10_DIM_18
 70
     0
 41
7.0
 42
0.0
 44
2.0
 73
     0
 74
     0
 77
     1
 78
     8
140
7.0
147
4.0
172
     1
173
     1
176
     2
177
     2
178
     3
271
     3
340
325
  0
DIMSTYLE
105
46D
102
{ACAD_REACTORS
330
46E
102
}
330
A
100
AcDbSymbolTableRecord
100
AcDbDimStyleTableRecord
  2
ME10_DIM_19
 70
     0
 41
7.0
 42
0.0
 44
2.0
 73
     0
 74
     0
 77
     1
 78
     8
140
7.0
147
4.0
172
     1
173
     1
176
     2
177
     2
178
     3
271
     3
340
325
  0
DIMSTYLE
105
478
102
{ACAD_REACTORS
330
479
102
}
330
A
100
AcDbSymbolTableRecord
100
AcDbDimStyleTableRecord
  2
ME10_DIM_20
 70
     0
 41
7.0
 42
0.0
 44
2.0
 73
     0
 74
     0
 77
     1
 78
     8
140
7.0
147
4.0
172
     1
173
     1
176
     2
177
     2
178
     3
271
     3
340
325
  0
DIMSTYLE
105
483
102
{ACAD_REACTORS
330
484
102
}
330
A
100
AcDbSymbolTableRecord
100
AcDbDimStyleTableRecord
  2
ME10_DIM_21
 70
     0
 41
7.0
 42
0.0
 44
2.0
 73
     0
 74
     0
 77
     1
 78
     8
140
7.0
147
4.0
172
     1
173
     1
176
     2
177
     2
178
     3
271
     3
340
325
  0
DIMSTYLE
105
4AA
102
{ACAD_REACTORS
330
4AB
102
}
330
A
100
AcDbSymbolTableRecord
100
AcDbDimStyleTableRecord
  2
ME10_DIM_22
 70
     0
 41
7.0
 42
0.0
 44
2.0
 73
     0
 74
     0
 77
     1
 78
     8
140
7.0
147
4.0
172
     1
173
     1
176
     2
177
     2
178
     3
271
     3
340
325
  0
DIMSTYLE
105
4B7
102
{ACAD_REACTORS
330
4B8
102
}
330
A
100
AcDbSymbolTableRecord
100
AcDbDimStyleTableRecord
  2
ME10_DIM_23
 70
     0
 41
7.0
 42
0.0
 44
2.0
 73
     0
 74
     0
 77
     1
 78
     8
140
7.0
147
4.0
172
     1
173
     1
176
     2
177
     2
178
     3
271
     3
340
325
  0
ENDTAB
  0
TABLE
  2
BLOCK_RECORD
  5
1
330
0
100
AcDbSymbolTable
 70
    28
  0
BLOCK_RECORD
  5
1F
330
1
100
AcDbSymbolTableRecord
100
AcDbBlockTableRecord
  2
*Model_Space
340
22
  0
BLOCK_RECORD
  5
1B
330
1
100
AcDbSymbolTableRecord
100
AcDbBlockTableRecord
  2
*Paper_Space
340
1E
  0
BLOCK_RECORD
  5
23
330
1
100
AcDbSymbolTableRecord
100
AcDbBlockTableRecord
  2
*Paper_Space0
340
26
  0
BLOCK_RECORD
  5
33
330
1
100
AcDbSymbolTableRecord
100
AcDbBlockTableRecord
  2
Flanschlagerschild
340
0
102
{BLKREFS
331
52
102
}
  0
BLOCK_RECORD
  5
36
330
1
100
AcDbSymbolTableRecord
100
AcDbBlockTableRecord
  2
Deckel
340
0
102
{BLKREFS
331
53
102
}
  0
BLOCK_RECORD
  5
39
330
1
100
AcDbSymbolTableRecord
100
AcDbBlockTableRecord
  2
Zwischenst_ck__1
340
0
102
{BLKREFS
331
54
102
}
  0
BLOCK_RECORD
  5
3C
330
1
100
AcDbSymbolTableRecord
100
AcDbBlockTableRecord
  2
O-Ring
340
0
102
{BLKREFS
331
40
102
}
  0
BLOCK_RECORD
  5
3F
330
1
100
AcDbSymbolTableRecord
100
AcDbBlockTableRecord
  2
Winkelflanschdose_8-polig_drehbar__2
340
0
102
{BLKREFS
331
55
102
}
  0
BLOCK_RECORD
  5
43
330
1
100
AcDbSymbolTableRecord
100
AcDbBlockTableRecord
  2
Linsenschraube_DIN_7985_-_M2_5_x_6_-__-___3
340
0
102
{BLKREFS
331
56
102
}
  0
BLOCK_RECORD
  5
46
330
1
100
AcDbSymbolTableRecord
100
AcDbBlockTableRecord
  2
Linsenschraube_DIN_7985_-_M2_5_x_6_-__-___4
340
0
102
{BLKREFS
331
57
102
}
  0
BLOCK_RECORD
  5
49
330
1
100
AcDbSymbolTableRecord
100
AcDbBlockTableRecord
  2
Winkelflanschdose_8-polig_drehbar__5
340
0
102
{BLKREFS
331
58
102
}
  0
BLOCK_RECORD
  5
4C
330
1
100
AcDbSymbolTableRecord
100
AcDbBlockTableRecord
  2
Zwischenst_ck__6
340
0
102
{BLKREFS
331
59
102
}
  0
BLOCK_RECORD
  5
4F
330
1
100
AcDbSymbolTableRecord
100
AcDbBlockTableRecord
  2
tb_frame_A3
340
0
102
{BLKREFS
331
5A
102
}
  0
BLOCK_RECORD
  5
3FB
330
1
100
AcDbSymbolTableRecord
100
AcDbBlockTableRecord
  2
*D11
340
0
  0
BLOCK_RECORD
  5
406
330
1
100
AcDbSymbolTableRecord
100
AcDbBlockTableRecord
  2
*D12
340
0
  0
BLOCK_RECORD
  5
411
330
1
100
AcDbSymbolTableRecord
100
AcDbBlockTableRecord
  2
*D13
340
0
  0
BLOCK_RECORD
  5
41E
330
1
100
AcDbSymbolTableRecord
100
AcDbBlockTableRecord
  2
*D14
340
0
  0
BLOCK_RECORD
  5
429
330
1
100
AcDbSymbolTableRecord
100
AcDbBlockTableRecord
  2
*D15
340
0
  0
BLOCK_RECORD
  5
434
330
1
100
AcDbSymbolTableRecord
100
AcDbBlockTableRecord
  2
*D16
340
0
  0
BLOCK_RECORD
  5
43F
330
1
100
AcDbSymbolTableRecord
100
AcDbBlockTableRecord
  2
*D17
340
0
  0
BLOCK_RECORD
  5
44A
330
1
100
AcDbSymbolTableRecord
100
AcDbBlockTableRecord
  2
*D18
340
0
  0
BLOCK_RECORD
  5
457
330
1
100
AcDbSymbolTableRecord
100
AcDbBlockTableRecord
  2
*D19
340
0
  0
BLOCK_RECORD
  5
464
330
1
100
AcDbSymbolTableRecord
100
AcDbBlockTableRecord
  2
*D20
340
0
  0
BLOCK_RECORD
  5
46F
330
1
100
AcDbSymbolTableRecord
100
AcDbBlockTableRecord
  2
*D21
340
0
  0
BLOCK_RECORD
  5
47A
330
1
100
AcDbSymbolTableRecord
100
AcDbBlockTableRecord
  2
*D22
340
0
  0
BLOCK_RECORD
  5
485
330
1
100
AcDbSymbolTableRecord
100
AcDbBlockTableRecord
  2
*D23
340
0
102
{BLKREFS
331
48B
102
}
  0
BLOCK_RECORD
  5
48C
330
1
100
AcDbSymbolTableRecord
100
AcDbBlockTableRecord
  2
*D24
340
0
102
{BLKREFS
331
492
102
}
  0
BLOCK_RECORD
  5
493
330
1
100
AcDbSymbolTableRecord
100
AcDbBlockTableRecord
  2
*D25
340
0
102
{BLKREFS
331
49E
102
}
  0
BLOCK_RECORD
  5
49F
330
1
100
AcDbSymbolTableRecord
100
AcDbBlockTableRecord
  2
*D26
340
0
  0
BLOCK_RECORD
  5
4AC
330
1
100
AcDbSymbolTableRecord
100
AcDbBlockTableRecord
  2
*D27
340
0
  0
ENDTAB
  0
ENDSEC
  0
SECTION
  2
BLOCKS
  0
BLOCK
  5
20
330
1F
100
AcDbEntity
  8
0
100
AcDbBlockBegin
  2
*Model_Space
 70
     0
 71
     0
 10
0.0
 20
0.0
 30
0.0
  3
*Model_Space
  1

  0
ENDBLK
  5
21
330
1F
100
AcDbEntity
  8
0
100
AcDbBlockEnd
  0
BLOCK
  5
1C
330
1B
100
AcDbEntity
 67
     1
  8
0
100
AcDbBlockBegin
  2
*Paper_Space
 70
     0
 71
     0
 10
0.0
 20
0.0
 30
0.0
  3
*Paper_Space
  1

  0
ENDBLK
  5
1D
330
1B
100
AcDbEntity
 67
     1
  8
0
100
AcDbBlockEnd
  0
BLOCK
  5
24
330
23
100
AcDbEntity
  8
0
100
AcDbBlockBegin
  2
*Paper_Space0
 70
     0
 71
     0
 10
0.0
 20
0.0
 30
0.0
  3
*Paper_Space0
  1

  0
ENDBLK
  5
25
330
23
100
AcDbEntity
  8
0
100
AcDbBlockEnd
  0
BLOCK
  5
34
330
33
100
AcDbEntity
  8
0
100
AcDbBlockBegin
  2
Flanschlagerschild
 70
     0
 71
     0
 10
82.99605084426703
 20
273.539584626464
 30
0.0
  3
Flanschlagerschild
  1

  0
POINT
  5
5B
330
33
100
AcDbEntity
  8
1
 62
     3
 60
     1
100
AcDbPoint
 10
202.809397513309
 20
149.0
 30
0.0
  0
POINT
  5
5C
330
33
100
AcDbEntity
  8
1
 62
     3
 60
     1
100
AcDbPoint
 10
202.809397513309
 20
151.0
 30
0.0
  0
POINT
  5
5D
330
33
100
AcDbEntity
  8
1
 62
     3
 60
     1
100
AcDbPoint
 10
136.809397513309
 20
151.0
 30
0.0
  0
POINT
  5
5E
330
33
100
AcDbEntity
  8
1
 62
     3
 60
     1
100
AcDbPoint
 10
136.809397513309
 20
149.0
 30
0.0
  0
POINT
  5
5F
330
33
100
AcDbEntity
  8
1
 62
     3
 60
     1
100
AcDbPoint
 10
172.809397513309
 20
115.5830052442583
 30
0.0
  0
POINT
  5
60
330
33
100
AcDbEntity
  8
1
 62
     3
 60
     1
100
AcDbPoint
 10
172.809397513309
 20
118.4999999999999
 30
0.0
  0
POINT
  5
61
330
33
100
AcDbEntity
  8
1
 62
     3
 60
     1
100
AcDbPoint
 10
166.809397513309
 20
118.4999999999999
 30
0.0
  0
POINT
  5
62
330
33
100
AcDbEntity
  8
1
 62
     3
 60
     1
100
AcDbPoint
 10
166.809397513309
 20
115.5830052442583
 30
0.0
  0
POINT
  5
63
330
33
100
AcDbEntity
  8
1
 62
     3
 60
     1
100
AcDbPoint
 10
169.809397513309
 20
104.9999999999999
 30
0.0
  0
LINE
  5
64
330
33
100
AcDbEntity
  8
1
  6
Continuous
 62
     7
100
AcDbLine
 10
202.809397513309
 20
149.0
 30
0.0
 11
205.2530147102034
 21
149.0
 31
0.0
  0
LINE
  5
65
330
33
100
AcDbEntity
  8
1
  6
Continuous
 62
     7
100
AcDbLine
 10
202.809397513309
 20
151.0
 30
0.0
 11
202.809397513309
 21
149.0
 31
0.0
  0
LINE
  5
66
330
33
100
AcDbEntity
  8
1
  6
Continuous
 62
     7
100
AcDbLine
 10
136.809397513309
 20
151.0
 30
0.0
 11
202.809397513309
 21
151.0
 31
0.0
  0
LINE
  5
67
330
33
100
AcDbEntity
  8
1
  6
Continuous
 62
     7
100
AcDbLine
 10
136.809397513309
 20
149.0
 30
0.0
 11
160.3754163812529
 21
149.0
 31
0.0
  0
LINE
  5
68
330
33
100
AcDbEntity
  8
1
  6
Continuous
 62
     7
100
AcDbLine
 10
136.809397513309
 20
149.0
 30
0.0
 11
136.809397513309
 21
151.0
 31
0.0
  0
LINE
  5
69
330
33
100
AcDbEntity
  8
1
  6
Continuous
 62
     7
100
AcDbLine
 10
172.809397513309
 20
118.4999999999999
 30
0.0
 11
172.809397513309
 21
115.5830052442583
 31
0.0
  0
LINE
  5
6A
330
33
100
AcDbEntity
  8
1
  6
Continuous
 62
     7
100
AcDbLine
 10
166.809397513309
 20
118.4999999999999
 30
0.0
 11
172.809397513309
 21
118.4999999999999
 31
0.0
  0
LINE
  5
6B
330
33
100
AcDbEntity
  8
1
  6
Continuous
 62
     7
100
AcDbLine
 10
166.809397513309
 20
115.5830052442583
 30
0.0
 11
166.809397513309
 21
118.4999999999999
 31
0.0
  0
LINE
  5
6C
330
33
100
AcDbEntity
  8
1
  6
DOT_CENTER
 62
     2
100
AcDbLine
 10
194.7236257044956
 20
129.9142281911865
 30
0.0
 11
198.0936687607709
 21
133.2842712474618
 31
0.0
  0
LINE
  5
6D
330
33
100
AcDbEntity
  8
1
  6
DOT_CENTER
 62
     2
100
AcDbLine
 10
144.7530308773291
 20
130.05636663598
 30
0.0
 11
141.5251262658472
 21
133.2842712474619
 31
0.0
  0
LINE
  5
6E
330
33
100
AcDbEntity
  8
1
  6
DOT_CENTER
 62
     2
100
AcDbLine
 10
144.8591458927223
 20
80.04974837941334
 30
0.0
 11
141.525126265847
 21
76.71572875253808
 31
0.0
  0
LINE
  5
6F
330
33
100
AcDbEntity
  8
1
  6
DOT_CENTER
 62
     2
100
AcDbLine
 10
194.8662169285228
 20
79.94318058478609
 30
0.0
 11
198.0936687607709
 21
76.715728752538
 31
0.0
  0
LINE
  5
70
330
33
100
AcDbEntity
  8
1
  6
DOT_CENTER
 62
     2
100
AcDbLine
 10
198.0936687607709
 20
76.715728752538
 30
0.0
 11
201.2608673272538
 21
73.54853018605505
 31
0.0
  0
LINE
  5
71
330
33
100
AcDbEntity
  8
1
  6
DOT_CENTER
 62
     2
100
AcDbLine
 10
141.525126265847
 20
76.71572875253808
 30
0.0
 11
138.4644954939912
 21
73.65509798068229
 31
0.0
  0
LINE
  5
72
330
33
100
AcDbEntity
  8
1
  6
DOT_CENTER
 62
     2
100
AcDbLine
 10
141.5251262658472
 20
133.2842712474619
 30
0.0
 11
138.582441338437
 21
136.226956174872
 31
0.0
  0
LINE
  5
73
330
33
100
AcDbEntity
  8
1
  6
DOT_CENTER
 62
     2
100
AcDbLine
 10
198.0936687607709
 20
133.2842712474618
 30
0.0
 11
201.1515488720941
 21
136.342151358785
 31
0.0
  0
LINE
  5
74
330
33
100
AcDbEntity
  8
1
  6
Continuous
 62
     7
100
AcDbLine
 10
213.809397513309
 20
140.4436171968945
 30
0.0
 11
213.809397513309
 21
114.4339811320565
 31
0.0
  0
LINE
  5
75
330
33
100
AcDbEntity
  8
1
  6
Continuous
 62
     7
100
AcDbLine
 10
213.809397513309
 20
69.55638280310532
 30
0.0
 11
213.809397513309
 21
95.56601886794328
 31
0.0
  0
LINE
  5
76
330
33
100
AcDbEntity
  8
1
  6
Continuous
 62
     7
100
AcDbLine
 10
179.2433786453661
 20
61.0
 30
0.0
 11
205.2530147102037
 21
61.0
 31
0.0
  0
LINE
  5
77
330
33
100
AcDbEntity
  8
1
  6
Continuous
 62
     7
100
AcDbLine
 10
134.3657803164143
 20
61.0
 30
0.0
 11
160.3754163812519
 21
61.0
 31
0.0
  0
LINE
  5
78
330
33
100
AcDbEntity
  8
1
  6
Continuous
 62
     7
100
AcDbLine
 10
125.809397513309
 20
95.56601886794328
 30
0.0
 11
125.809397513309
 21
69.55638280310532
 31
0.0
  0
LINE
  5
79
330
33
100
AcDbEntity
  8
1
  6
Continuous
 62
     7
100
AcDbLine
 10
125.809397513309
 20
140.4436171968945
 30
0.0
 11
125.809397513309
 21
114.4339811320565
 31
0.0
  0
LINE
  5
7A
330
33
100
AcDbEntity
  8
1
  6
Continuous
 62
     7
100
AcDbLine
 10
179.2433786453651
 20
149.0
 30
0.0
 11
202.809397513309
 21
149.0
 31
0.0
  0
LINE
  5
7B
330
33
100
AcDbEntity
  8
1
  6
Continuous
 62
     7
100
AcDbLine
 10
134.3657803164145
 20
149.0
 30
0.0
 11
136.809397513309
 21
149.0
 31
0.0
  0
LINE
  5
7C
330
33
100
AcDbEntity
  8
1
  6
DOT_CENTER
 62
     2
100
AcDbLine
 10
209.809397513309
 20
105.0
 30
0.0
 11
203.809397513309
 21
105.0
 31
0.0
  0
LINE
  5
7D
330
33
100
AcDbEntity
  8
1
  6
DOT_CENTER
 62
     2
100
AcDbLine
 10
214.809397513309
 20
105.0
 30
0.0
 11
209.809397513309
 21
105.0
 31
0.0
  0
LINE
  5
7E
330
33
100
AcDbEntity
  8
1
  6
DOT_CENTER
 62
     2
100
AcDbLine
 10
203.509397513309
 20
105.0
 30
0.0
 11
184.809397513309
 21
105.0
 31
0.0
  0
LINE
  5
7F
330
33
100
AcDbEntity
  8
1
  6
DOT_CENTER
 62
     2
100
AcDbLine
 10
203.809397513309
 20
105.0
 30
0.0
 11
203.509397513309
 21
105.0
 31
0.0
  0
LINE
  5
80
330
33
100
AcDbEntity
  8
1
  6
DOT_CENTER
 62
     2
100
AcDbLine
 10
180.809397513309
 20
105.0
 30
0.0
 11
184.809397513309
 21
105.0
 31
0.0
  0
LINE
  5
81
330
33
100
AcDbEntity
  8
1
  6
DOT_CENTER
 62
     2
100
AcDbLine
 10
219.7938675471421
 20
104.9999999999999
 30
0.0
 11
224.5333733581463
 21
105.0
 31
0.0
  0
LINE
  5
82
330
33
100
AcDbEntity
  8
1
  6
DOT_CENTER
 62
     2
100
AcDbLine
 10
112.296291491659
 20
105.0
 30
0.0
 11
180.809397513309
 21
105.0
 31
0.0
  0
LINE
  5
83
330
33
100
AcDbEntity
  8
1
  6
DOT_CENTER
 62
     2
100
AcDbLine
 10
169.809397513309
 20
150.000023651759
 30
0.0
 11
169.809397513309
 21
47.46219163271499
 31
0.0
  0
LINE
  5
84
330
33
100
AcDbEntity
  8
1
  6
DOT_CENTER
 62
     2
100
AcDbLine
 10
215.809397513309
 20
105.0
 30
0.0
 11
219.7938675471421
 21
104.9999999999999
 31
0.0
  0
LINE
  5
85
330
33
100
AcDbEntity
  8
1
  6
DOT_CENTER
 62
     2
100
AcDbLine
 10
169.809397513309
 20
144.9999999999999
 30
0.0
 11
169.809397513309
 21
152.4045160408031
 31
0.0
  0
LINE
  5
86
330
33
100
AcDbEntity
  8
1
  6
DOT_CENTER
 62
     2
100
AcDbLine
 10
215.809397513309
 20
105.0
 30
0.0
 11
214.809397513309
 21
105.0
 31
0.0
  0
ARC
  5
87
330
33
100
AcDbEntity
  8
1
  6
Continuous
 62
     7
100
AcDbCircle
 10
169.809397513309
 20
104.9999999999999
 30
0.0
 40
11.0
100
AcDbArc
 50
0.00000000000052
 51
74.17337986812771
  0
ARC
  5
88
330
33
100
AcDbEntity
  8
1
  6
Continuous
 62
     7
100
AcDbCircle
 10
169.809397513309
 20
104.9999999999999
 30
0.0
 40
11.00000000000004
100
AcDbArc
 50
105.8266201318723
 51
0.00000000000052
  0
ARC
  5
89
330
33
100
AcDbEntity
  8
1
  6
Continuous
 62
     7
100
AcDbCircle
 10
169.809397513309
 20
104.9999999999999
 30
0.0
 40
11.00000000000004
100
AcDbArc
 50
74.17337986812771
 51
105.8266201318723
  0
ARC
  5
8A
330
33
100
AcDbEntity
  8
1
  6
DOT_CENTER
 62
     2
100
AcDbCircle
 10
169.809397513309
 20
104.9999999999999
 30
0.0
 40
40.0
100
AcDbArc
 50
-135.0000000000002
 51
-45.0
  0
ARC
  5
8B
330
33
100
AcDbEntity
  8
1
  6
Continuous
 62
     2
100
AcDbCircle
 10
198.0936687607709
 20
76.715728752538
 30
0.0
 40
2.999999999999994
100
AcDbArc
 50
15.00000000000012
 51
-74.99999999999943
  0
ARC
  5
8C
330
33
100
AcDbEntity
  8
1
  6
DOT_CENTER
 62
     2
100
AcDbCircle
 10
169.809397513309
 20
104.9999999999999
 30
0.0
 40
39.99999999999999
100
AcDbArc
 50
134.9999999999998
 51
-135.0000000000002
  0
ARC
  5
8D
330
33
100
AcDbEntity
  8
1
  6
Continuous
 62
     2
100
AcDbCircle
 10
141.525126265847
 20
76.71572875253808
 30
0.0
 40
2.999999999999994
100
AcDbArc
 50
15.00000000000012
 51
-74.99999999999943
  0
ARC
  5
8E
330
33
100
AcDbEntity
  8
1
  6
DOT_CENTER
 62
     2
100
AcDbCircle
 10
169.809397513309
 20
104.9999999999999
 30
0.0
 40
39.99999999999999
100
AcDbArc
 50
44.99999999999999
 51
134.9999999999998
  0
ARC
  5
8F
330
33
100
AcDbEntity
  8
1
  6
Continuous
 62
     2
100
AcDbCircle
 10
141.5251262658472
 20
133.2842712474619
 30
0.0
 40
3.000000000000002
100
AcDbArc
 50
15.00000000000064
 51
-75.00000000000146
  0
ARC
  5
90
330
33
100
AcDbEntity
  8
1
  6
DOT_CENTER
 62
     2
100
AcDbCircle
 10
169.809397513309
 20
104.9999999999999
 30
0.0
 40
40.0
100
AcDbArc
 50
-45.0
 51
0.00000000000014
  0
ARC
  5
91
330
33
100
AcDbEntity
  8
1
  6
DOT_CENTER
 62
     2
100
AcDbCircle
 10
169.809397513309
 20
104.9999999999999
 30
0.0
 40
40.0
100
AcDbArc
 50
0.00000000000014
 51
44.99999999999999
  0
ARC
  5
92
330
33
100
AcDbEntity
  8
1
  6
Continuous
 62
     2
100
AcDbCircle
 10
198.0936687607709
 20
133.2842712474618
 30
0.0
 40
3.000000000000009
100
AcDbArc
 50
15.00000000000116
 51
-74.99999999999937
  0
ARC
  5
93
330
33
100
AcDbEntity
  8
1
  6
Continuous
 62
     7
100
AcDbCircle
 10
169.809397513309
 20
104.9999999999999
 30
0.0
 40
45.0
100
AcDbArc
 50
0.00000000000013
 51
12.10149203182349
  0
ARC
  5
94
330
33
100
AcDbEntity
  8
1
  6
Continuous
 62
     7
100
AcDbCircle
 10
169.809397513309
 20
104.9999999999999
 30
0.0
 40
56.50000000000001
100
AcDbArc
 50
-51.14727895551823
 51
-38.8527210444816
  0
ARC
  5
95
330
33
100
AcDbEntity
  8
1
  6
Continuous
 62
     7
100
AcDbCircle
 10
169.809397513309
 20
104.9999999999999
 30
0.0
 40
45.00000000000001
100
AcDbArc
 50
-77.89850796817586
 51
-12.1014920318235
  0
ARC
  5
96
330
33
100
AcDbEntity
  8
1
  6
Continuous
 62
     7
100
AcDbCircle
 10
169.809397513309
 20
104.9999999999999
 30
0.0
 40
45.00000000000001
100
AcDbArc
 50
-102.1014920318241
 51
-77.89850796817586
  0
ARC
  5
97
330
33
100
AcDbEntity
  8
1
  6
Continuous
 62
     7
100
AcDbCircle
 10
169.809397513309
 20
104.9999999999999
 30
0.0
 40
56.50000000000001
100
AcDbArc
 50
-141.1472789555184
 51
-128.8527210444818
  0
ARC
  5
98
330
33
100
AcDbEntity
  8
1
  6
Continuous
 62
     7
100
AcDbCircle
 10
169.809397513309
 20
104.9999999999999
 30
0.0
 40
45.0
100
AcDbArc
 50
-167.8985079681765
 51
-102.1014920318241
  0
ARC
  5
99
330
33
100
AcDbEntity
  8
1
  6
Continuous
 62
     7
100
AcDbCircle
 10
169.809397513309
 20
104.9999999999999
 30
0.0
 40
45.0
100
AcDbArc
 50
167.8985079681765
 51
-167.8985079681765
  0
ARC
  5
9A
330
33
100
AcDbEntity
  8
1
  6
Continuous
 62
     7
100
AcDbCircle
 10
169.809397513309
 20
104.9999999999999
 30
0.0
 40
56.50000000000004
100
AcDbArc
 50
128.8527210444815
 51
141.1472789555184
  0
ARC
  5
9B
330
33
100
AcDbEntity
  8
1
  6
Continuous
 62
     7
100
AcDbCircle
 10
169.809397513309
 20
104.9999999999999
 30
0.0
 40
44.99999999999999
100
AcDbArc
 50
102.1014920318228
 51
167.8985079681765
  0
ARC
  5
9C
330
33
100
AcDbEntity
  8
1
  6
Continuous
 62
     7
100
AcDbCircle
 10
169.809397513309
 20
104.9999999999999
 30
0.0
 40
45.0
100
AcDbArc
 50
12.10149203182349
 51
77.89850796817714
  0
ARC
  5
9D
330
33
100
AcDbEntity
  8
1
  6
Continuous
 62
     7
100
AcDbCircle
 10
169.809397513309
 20
104.9999999999999
 30
0.0
 40
56.50000000000003
100
AcDbArc
 50
38.85272104448163
 51
51.14727895551861
  0
ARC
  5
9E
330
33
100
AcDbEntity
  8
1
  6
Continuous
 62
     7
100
AcDbCircle
 10
169.809397513309
 20
104.9999999999999
 30
0.0
 40
45.0
100
AcDbArc
 50
-12.1014920318235
 51
0.00000000000013
  0
ARC
  5
9F
330
33
100
AcDbEntity
  8
1
  6
Continuous
 62
     7
100
AcDbCircle
 10
169.809397513309
 20
104.9999999999999
 30
0.0
 40
45.0
100
AcDbArc
 50
77.89850796817714
 51
102.1014920318228
  0
CIRCLE
  5
A0
330
33
100
AcDbEntity
  8
1
  6
Continuous
 62
     7
100
AcDbCircle
 10
198.0936687607709
 20
76.715728752538
 30
0.0
 40
2.400000000000006
  0
CIRCLE
  5
A1
330
33
100
AcDbEntity
  8
1
  6
Continuous
 62
     7
100
AcDbCircle
 10
141.525126265847
 20
76.71572875253808
 30
0.0
 40
2.400000000000006
  0
CIRCLE
  5
A2
330
33
100
AcDbEntity
  8
1
  6
Continuous
 62
     7
100
AcDbCircle
 10
141.5251262658472
 20
133.2842712474619
 30
0.0
 40
2.400000000000006
  0
CIRCLE
  5
A3
330
33
100
AcDbEntity
  8
1
  6
Continuous
 62
     7
100
AcDbCircle
 10
198.0936687607709
 20
133.2842712474618
 30
0.0
 40
2.400000000000006
  0
CIRCLE
  5
A4
330
33
100
AcDbEntity
  8
1
  6
Continuous
 62
     7
100
AcDbCircle
 10
169.809397513309
 20
104.9999999999999
 30
0.0
 40
33.70000000000002
  0
CIRCLE
  5
A5
330
33
100
AcDbEntity
  8
1
  6
Continuous
 62
     7
100
AcDbCircle
 10
169.809397513309
 20
104.9999999999999
 30
0.0
 40
34.0
  0
CIRCLE
  5
A6
330
33
100
AcDbEntity
  8
1
  6
Continuous
 62
     7
100
AcDbCircle
 10
169.809397513309
 20
104.9999999999999
 30
0.0
 40
15.0
  0
ENDBLK
  5
35
330
33
100
AcDbEntity
  8
0
100
AcDbBlockEnd
  0
BLOCK
  5
37
330
36
100
AcDbEntity
  8
0
100
AcDbBlockBegin
  2
Deckel
 70
     0
 71
     0
 10
119.740257612901
 20
250.537107208105
 30
0.0
  3
Deckel
  1

  0
LINE
  5
A7
330
36
100
AcDbEntity
  8
1
  6
Continuous
 62
     7
100
AcDbLine
 10
12.00000000000007
 20
148.5
 30
0.0
 11
15.00000000000002
 21
148.5
 31
0.0
  0
LINE
  5
A8
330
36
100
AcDbEntity
  8
1
  6
Continuous
 62
     7
100
AcDbLine
 10
12.00000000000007
 20
148.5
 30
0.0
 11
12.00000000000007
 21
140.317279836453
 31
0.0
  0
LINE
  5
A9
330
36
100
AcDbEntity
  8
1
  6
Continuous
 62
     7
100
AcDbLine
 10
15.00000000000002
 20
61.49999999999999
 30
0.0
 11
12.00000000000007
 21
61.49999999999999
 31
0.0
  0
LINE
  5
AA
330
36
100
AcDbEntity
  8
1
  6
Continuous
 62
     7
100
AcDbLine
 10
12.00000000000007
 20
140.317279836453
 30
0.0
 11
15.00000000000002
 21
140.317279836453
 31
0.0
  0
LINE
  5
AB
330
36
100
AcDbEntity
  8
1
  6
Continuous
 62
     7
100
AcDbLine
 10
12.00000000000007
 20
69.682720163547
 30
0.0
 11
12.00000000000007
 21
61.49999999999999
 31
0.0
  0
LINE
  5
AC
330
36
100
AcDbEntity
  8
1
  6
Continuous
 62
     7
100
AcDbLine
 10
15.00000000000002
 20
69.682720163547
 30
0.0
 11
12.00000000000007
 21
69.682720163547
 31
0.0
  0
LINE
  5
AD
330
36
100
AcDbEntity
  8
1
  6
Continuous
 62
     7
100
AcDbLine
 10
12.00000000000007
 20
140.317279836453
 30
0.0
 11
12.00000000000007
 21
69.682720163547
 31
0.0
  0
LINE
  5
AE
330
36
100
AcDbEntity
  8
1
  6
Continuous
 62
     7
100
AcDbLine
 10
15.00000000000002
 20
148.5
 30
0.0
 11
16.5
 21
148.5
 31
0.0
  0
LINE
  5
AF
330
36
100
AcDbEntity
  8
1
  6
Continuous
 62
     7
100
AcDbLine
 10
15.00000000000002
 20
140.317279836453
 30
0.0
 11
16.5
 21
140.317279836453
 31
0.0
  0
LINE
  5
B0
330
36
100
AcDbEntity
  8
1
  6
Continuous
 62
     7
100
AcDbLine
 10
15.00000000000002
 20
69.682720163547
 30
0.0
 11
16.5
 21
69.682720163547
 31
0.0
  0
LINE
  5
B1
330
36
100
AcDbEntity
  8
1
  6
Continuous
 62
     7
100
AcDbLine
 10
15.00000000000002
 20
61.49999999999999
 30
0.0
 11
16.5
 21
61.49999999999999
 31
0.0
  0
LINE
  5
B2
330
36
100
AcDbEntity
  8
1
  6
Continuous
 62
     7
100
AcDbLine
 10
16.5
 20
148.5
 30
0.0
 11
16.5
 21
61.49999999999999
 31
0.0
  0
ENDBLK
  5
38
330
36
100
AcDbEntity
  8
0
100
AcDbBlockEnd
  0
BLOCK
  5
3A
330
39
100
AcDbEntity
  8
0
100
AcDbBlockBegin
  2
Zwischenst_ck__1
 70
     0
 71
     0
 10
231.46868736308
 20
-172.93644081309
 30
0.0
  3
Zwischenst_ck__1
  1

  0
POINT
  5
B3
330
39
100
AcDbEntity
  8
1
 62
     3
 60
     1
100
AcDbPoint
 10
12.00000000000004
 20
140.317279836453
 30
0.0
  0
POINT
  5
B4
330
39
100
AcDbEntity
  8
1
 62
     3
 60
     1
100
AcDbPoint
 10
-69.9224733080139
 20
140.3172798364529
 30
0.0
  0
LINE
  5
B5
330
39
100
AcDbEntity
  8
1
  6
DOT_CENTER
 62
     2
100
AcDbLine
 10
14.00000000000007
 20
105.0
 30
0.0
 11
-37.0
 21
105.0
 31
0.0
  0
LINE
  5
B6
330
39
100
AcDbEntity
  8
1
  6
Continuous
 62
     7
100
AcDbLine
 10
12.00000000000007
 20
69.68272016354706
 30
0.0
 11
-31.99999999999996
 21
69.68272016354706
 31
0.0
  0
LINE
  5
B7
330
39
100
AcDbEntity
  8
1
  6
Continuous
 62
     7
100
AcDbLine
 10
12.00000000000004
 20
140.317279836453
 30
0.0
 11
12.00000000000007
 21
148.5
 31
0.0
  0
LINE
  5
B8
330
39
100
AcDbEntity
  8
1
  6
Continuous
 62
     7
100
AcDbLine
 10
-35.0
 20
148.5
 30
0.0
 11
-34.99999999999996
 21
137.3172798364529
 31
0.0
  0
LINE
  5
B9
330
39
100
AcDbEntity
  8
1
  6
Continuous
 62
     7
100
AcDbLine
 10
12.00000000000007
 20
61.50000000000001
 30
0.0
 11
-31.99999999999996
 21
61.50000000000001
 31
0.0
  0
LINE
  5
BA
330
39
100
AcDbEntity
  8
1
  6
Continuous
 62
     7
100
AcDbLine
 10
12.00000000000007
 20
61.50000000000001
 30
0.0
 11
12.00000000000004
 21
140.317279836453
 31
0.0
  0
LINE
  5
BB
330
39
100
AcDbEntity
  8
1
  6
Continuous
 62
     7
100
AcDbLine
 10
-35.0
 20
148.5
 30
0.0
 11
-31.99999999999996
 21
148.5
 31
0.0
  0
LINE
  5
BC
330
39
100
AcDbEntity
  8
1
  6
Continuous
 62
     7
100
AcDbLine
 10
-31.99999999999996
 20
140.3172798364529
 30
0.0
 11
-34.99999999999996
 21
137.3172798364529
 31
0.0
  0
LINE
  5
BD
330
39
100
AcDbEntity
  8
1
  6
Continuous
 62
     7
100
AcDbLine
 10
-34.99999999999996
 20
137.3172798364529
 30
0.0
 11
-34.99999999999996
 21
72.68272016354706
 31
0.0
  0
LINE
  5
BE
330
39
100
AcDbEntity
  8
1
  6
Continuous
 62
     7
100
AcDbLine
 10
-31.99999999999996
 20
140.3172798364529
 30
0.0
 11
12.00000000000004
 21
140.317279836453
 31
0.0
  0
LINE
  5
BF
330
39
100
AcDbEntity
  8
1
  6
Continuous
 62
     7
100
AcDbLine
 10
-31.99999999999996
 20
148.5
 30
0.0
 11
-31.99999999999996
 21
140.3172798364529
 31
0.0
  0
LINE
  5
C0
330
39
100
AcDbEntity
  8
1
  6
Continuous
 62
     7
100
AcDbLine
 10
-31.99999999999996
 20
148.5
 30
0.0
 11
12.00000000000007
 21
148.5
 31
0.0
  0
LINE
  5
C1
330
39
100
AcDbEntity
  8
1
  6
Continuous
 62
     7
100
AcDbLine
 10
-31.99999999999996
 20
69.68272016354706
 30
0.0
 11
-34.99999999999996
 21
72.68272016354706
 31
0.0
  0
LINE
  5
C2
330
39
100
AcDbEntity
  8
1
  6
Continuous
 62
     7
100
AcDbLine
 10
-34.99999999999996
 20
72.68272016354706
 30
0.0
 11
-34.99999999999989
 21
61.50000000000001
 31
0.0
  0
LINE
  5
C3
330
39
100
AcDbEntity
  8
1
  6
Continuous
 62
     7
100
AcDbLine
 10
-31.99999999999996
 20
69.68272016354706
 30
0.0
 11
-31.99999999999996
 21
61.50000000000001
 31
0.0
  0
LINE
  5
C4
330
39
100
AcDbEntity
  8
1
  6
Continuous
 62
     7
100
AcDbLine
 10
-31.99999999999996
 20
61.50000000000001
 30
0.0
 11
-34.99999999999989
 21
61.50000000000001
 31
0.0
  0
ENDBLK
  5
3B
330
39
100
AcDbEntity
  8
0
100
AcDbBlockEnd
  0
BLOCK
  5
3D
330
3C
100
AcDbEntity
  8
0
100
AcDbBlockBegin
  2
O-Ring
 70
     0
 71
     0
 10
312.3356406666401
 20
-131.2593453266859
 30
0.0
  3
O-Ring
  1

  0
LINE
  5
C5
330
3C
100
AcDbEntity
  8
1
  6
Continuous
 62
     7
100
AcDbLine
 10
14.5633
 20
165.6136114126711
 30
0.0
 11
14.5633
 21
166.1886114126711
 31
0.0
  0
LINE
  5
C6
330
3C
100
AcDbEntity
  8
1
  6
Continuous
 62
     7
100
AcDbLine
 10
14.5633
 20
187.7886114126711
 30
0.0
 11
14.5633
 21
188.3636114126711
 31
0.0
  0
ARC
  5
C7
102
{ACAD_REACTORS
330
CB
330
CB
102
}
330
3C
100
AcDbEntity
  8
1
  6
Continuous
 62
     7
100
AcDbCircle
 10
13.7633
 20
188.3636114126711
 30
0.0
 40
0.8000000000000007
100
AcDbArc
 50
0.0
 51
180.0
  0
ARC
  5
C8
102
{ACAD_REACTORS
330
CB
330
CB
102
}
330
3C
100
AcDbEntity
  8
1
  6
Continuous
 62
     7
100
AcDbCircle
 10
13.7633
 20
188.3636114126711
 30
0.0
 40
0.7999999999999989
100
AcDbArc
 50
180.0
 51
0.0
  0
CIRCLE
  5
C9
102
{ACAD_REACTORS
330
CA
330
CA
102
}
330
3C
100
AcDbEntity
  8
1
  6
Continuous
 62
     7
100
AcDbCircle
 10
13.7633
 20
165.6136114126711
 30
0.0
 40
0.8000000000000007
  0
HATCH
  5
CA
330
3C
100
AcDbEntity
  8
1
  6
Continuous
 62
     2
100
AcDbHatch
 10
0.0
 20
0.0
 30
0.0
210
0.0
220
0.0
230
1.0
  2
CUSTOM0
 70
     0
 71
     1
 91
        1
 92
        1
 93
        1
 72
     2
 10
13.7633
 20
165.6136114126711
 40
0.8000000000000007
 50
0.0
 51
360.0
 73
     1
 97
        1
330
C9
 75
     1
 76
     2
 52
45.0
 41
0.5
 77
     0
 78
     2
 53
45.0
 43
0.0
 44
0.0
 45
-0.7071067811865475
 46
0.0000000000000001
 79
     0
 53
135.0
 43
0.0
 44
0.0
 45
0.0000000000000003
 46
-0.7071067811865475
 79
     0
 98
        1
 10
0.0
 20
0.0
  0
HATCH
  5
CB
330
3C
100
AcDbEntity
  8
1
  6
Continuous
 62
     2
100
AcDbHatch
 10
0.0
 20
0.0
 30
0.0
210
0.0
220
0.0
230
1.0
  2
CUSTOM1
 70
     0
 71
     1
 91
        1
 92
        1
 93
        2
 72
     2
 10
13.7633
 20
188.3636114126711
 40
0.8000000000000007
 50
0.0
 51
180.0
 73
     1
 72
     2
 10
13.7633
 20
188.3636114126711
 40
0.7999999999999989
 50
180.0
 51
360.0
 73
     1
 97
        2
330
C7
330
C8
 75
     1
 76
     2
 52
45.0
 41
0.5
 77
     0
 78
     2
 53
45.0
 43
0.0
 44
0.0
 45
-0.7071067811865475
 46
0.0000000000000001
 79
     0
 53
135.0
 43
0.0
 44
0.0
 45
0.0000000000000003
 46
-0.7071067811865475
 79
     0
 98
        1
 10
0.0
 20
0.0
  0
ENDBLK
  5
3E
330
3C
100
AcDbEntity
  8
0
100
AcDbBlockEnd
  0
BLOCK
  5
41
330
3F
100
AcDbEntity
  8
0
100
AcDbBlockBegin
  2
Winkelflanschdose_8-polig_drehbar__2
 70
     0
 71
     0
 10
349.0238149551591
 20
-12.66173146347131
 30
0.0
  3
Winkelflanschdose_8-polig_drehbar__2
  1

  0
INSERT
  5
40
330
3F
100
AcDbEntity
  8
1
100
AcDbBlockReference
  2
O-Ring
 10
312.3356406666401
 20
-131.2593453266859
 30
0.0
  0
POINT
  5
CC
330
3F
100
AcDbEntity
  8
1
 62
     3
 60
     1
100
AcDbPoint
 10
163.1593975133091
 20
163.5
 30
0.0
  0
POINT
  5
CD
330
3F
100
AcDbEntity
  8
1
 62
     3
 60
     1
100
AcDbPoint
 10
163.1593975133091
 20
153.5
 30
0.0
  0
POINT
  5
CE
330
3F
100
AcDbEntity
  8
1
 62
     3
 60
     1
100
AcDbPoint
 10
151.309397513309
 20
164.0400642056229
 30
0.0
  0
POINT
  5
CF
330
3F
100
AcDbEntity
  8
1
 62
     3
 60
     1
100
AcDbPoint
 10
151.309397513309
 20
160.0000117293001
 30
0.0
  0
POINT
  5
D0
330
3F
100
AcDbEntity
  8
1
 62
     3
 60
     1
100
AcDbPoint
 10
149.309397513309
 20
164.0400642056229
 30
0.0
  0
POINT
  5
D1
330
3F
100
AcDbEntity
  8
1
 62
     3
 60
     1
100
AcDbPoint
 10
149.309397513309
 20
160.0000137089281
 30
0.0
  0
POINT
  5
D2
330
3F
100
AcDbEntity
  8
1
 62
     3
 60
     1
100
AcDbPoint
 10
2.34999999999999
 20
160.4999765129528
 30
0.0
  0
POINT
  5
D3
330
3F
100
AcDbEntity
  8
1
 62
     3
 60
     1
100
AcDbPoint
 10
2.34999999999999
 20
160.4999756716066
 30
0.0
  0
LINE
  5
D4
330
3F
100
AcDbEntity
  8
1
  6
DOT_CENTER
 62
     2
100
AcDbLine
 10
-10.5
 20
153.0
 30
0.0
 11
-10.5
 21
146.5
 31
0.0
  0
LINE
  5
D5
330
3F
100
AcDbEntity
  8
AM_VIS
  6
Continuous
 62
     7
100
AcDbLine
 10
2.34999999999999
 20
151.0
 30
0.0
 11
2.34999999999999
 21
153.9999756716065
 31
0.0
  0
LINE
  5
D6
330
3F
100
AcDbEntity
  8
1
  6
Continuous
 62
     7
100
AcDbLine
 10
-25.5
 20
148.5
 30
0.0
 11
4.5
 21
148.5
 31
0.0
  0
LINE
  5
D7
330
3F
100
AcDbEntity
  8
1
  6
Continuous
 62
     7
100
AcDbLine
 10
4.5
 20
151.0
 30
0.0
 11
4.5
 21
148.5
 31
0.0
  0
LINE
  5
D8
330
3F
100
AcDbEntity
  8
1
  6
Continuous
 62
     7
100
AcDbLine
 10
-25.5
 20
151.0
 30
0.0
 11
4.5
 21
151.0
 31
0.0
  0
LINE
  5
D9
330
3F
100
AcDbEntity
  8
1
  6
Continuous
 62
     7
100
AcDbLine
 10
-25.5
 20
148.5
 30
0.0
 11
-25.5
 21
151.0
 31
0.0
  0
LINE
  5
DA
330
3F
100
AcDbEntity
  8
AM_VIS
  6
Continuous
 62
     7
100
AcDbLine
 10
163.1593975133091
 20
151.0
 30
0.0
 11
163.1593975133091
 21
153.5
 31
0.0
  0
LINE
  5
DB
330
3F
100
AcDbEntity
  8
AM_VIS
  6
Continuous
 62
     7
100
AcDbLine
 10
191.159397513309
 20
151.0
 30
0.0
 11
191.159397513309
 21
153.5
 31
0.0
  0
LINE
  5
DC
330
3F
100
AcDbEntity
  8
AM_VIS
  6
Continuous
 62
     7
100
AcDbLine
 10
162.3093975133091
 20
163.5
 30
0.0
 11
162.3093975133091
 21
173.0000000000003
 31
0.0
  0
LINE
  5
DD
330
3F
100
AcDbEntity
  8
1
  6
Continuous
 62
     7
100
AcDbLine
 10
163.1593975133091
 20
163.5
 30
0.0
 11
162.3093975133091
 21
163.5
 31
0.0
  0
LINE
  5
DE
330
3F
100
AcDbEntity
  8
1
  6
Continuous
 62
     7
100
AcDbLine
 10
163.1593975133091
 20
153.5
 30
0.0
 11
163.1593975133091
 21
163.5
 31
0.0
  0
LINE
  5
DF
330
3F
100
AcDbEntity
  8
1
  6
Continuous
 62
     7
100
AcDbLine
 10
151.309397513309
 20
160.0000117293001
 30
0.0
 11
162.4758088909798
 21
160.00000067663
 31
0.0
  0
LINE
  5
E0
330
3F
100
AcDbEntity
  8
1
  6
Continuous
 62
     7
100
AcDbLine
 10
151.309397513309
 20
160.0000117293001
 30
0.0
 11
151.309397513309
 21
164.0400642056229
 31
0.0
  0
LINE
  5
E1
330
3F
100
AcDbEntity
  8
1
  6
Continuous
 62
     7
100
AcDbLine
 10
149.309397513309
 20
160.0000137089281
 30
0.0
 11
151.309397513309
 21
160.0000117293001
 31
0.0
  0
LINE
  5
E2
330
3F
100
AcDbEntity
  8
1
  6
Continuous
 62
     7
100
AcDbLine
 10
149.309397513309
 20
160.0000137089281
 30
0.0
 11
149.309397513309
 21
164.0400642056229
 31
0.0
  0
LINE
  5
E3
330
3F
100
AcDbEntity
  8
AM_VIS
  6
Continuous
 62
     7
100
AcDbLine
 10
138.3093975133091
 20
160.0000245968819
 30
0.0
 11
138.3093975133091
 21
153.5
 31
0.0
  0
LINE
  5
E4
330
3F
100
AcDbEntity
  8
1
  6
Continuous
 62
     7
100
AcDbLine
 10
138.3093975133091
 20
160.0000245968819
 30
0.0
 11
149.309397513309
 21
160.0000137089281
 31
0.0
  0
LINE
  5
E5
330
3F
100
AcDbEntity
  8
AM_VIS
  6
Continuous
 62
     7
100
AcDbLine
 10
163.1593975133091
 20
153.5
 30
0.0
 11
163.1461355133091
 21
153.5
 31
0.0
  0
LINE
  5
E6
330
3F
100
AcDbEntity
  8
AM_VIS
  6
Continuous
 62
     7
100
AcDbLine
 10
163.1461355133091
 20
153.5
 30
0.0
 11
162.3093975133091
 21
153.5
 31
0.0
  0
LINE
  5
E7
330
3F
100
AcDbEntity
  8
AM_VIS
  6
Continuous
 62
     7
100
AcDbLine
 10
160.1189425133091
 20
168.7525599780977
 30
0.0
 11
160.1189425133091
 21
153.5
 31
0.0
  0
LINE
  5
E8
330
3F
100
AcDbEntity
  8
AM_VIS
  6
Continuous
 62
     7
100
AcDbLine
 10
162.3093975133091
 20
153.5
 30
0.0
 11
162.3093975133091
 21
163.5
 31
0.0
  0
LINE
  5
E9
330
3F
100
AcDbEntity
  8
AM_VIS
  6
Continuous
 62
     7
100
AcDbLine
 10
150.893053513309
 20
153.5
 30
0.0
 11
149.725741513309
 21
153.5
 31
0.0
  0
LINE
  5
EA
330
3F
100
AcDbEntity
  8
AM_VIS
  6
Continuous
 62
     7
100
AcDbLine
 10
157.221187513309
 20
153.4999999999999
 30
0.0
 11
157.221187513309
 21
166.0847631329913
 31
0.0
  0
LINE
  5
EB
330
3F
100
AcDbEntity
  8
AM_VIS
  6
Continuous
 62
     7
100
AcDbLine
 10
137.459397513309
 20
153.5
 30
0.0
 11
137.459397513309
 21
151.0
 31
0.0
  0
LINE
  5
EC
330
3F
100
AcDbEntity
  8
AM_VIS
  6
Continuous
 62
     7
100
AcDbLine
 10
140.285741513309
 20
153.5
 30
0.0
 11
138.3093975133091
 21
153.5
 31
0.0
  0
LINE
  5
ED
330
3F
100
AcDbEntity
  8
AM_VIS
  6
Continuous
 62
     7
100
AcDbLine
 10
143.397607513309
 20
166.0847631329911
 30
0.0
 11
143.397607513309
 21
153.5
 31
0.0
  0
LINE
  5
EE
330
3F
100
AcDbEntity
  8
AM_VIS
  6
Continuous
 62
     7
100
AcDbLine
 10
140.499853513309
 20
153.5
 30
0.0
 11
140.499853513309
 21
168.7525587119318
 31
0.0
  0
LINE
  5
EF
330
3F
100
AcDbEntity
  8
AM_VIS
  6
Continuous
 62
     7
100
AcDbLine
 10
138.3093975133091
 20
172.9999999999998
 30
0.0
 11
138.3093975133091
 21
160.0000245968819
 31
0.0
  0
LINE
  5
F0
330
3F
100
AcDbEntity
  8
AM_VIS
  6
Continuous
 62
     7
100
AcDbLine
 10
149.725741513309
 20
153.5
 30
0.0
 11
140.285741513309
 21
153.5
 31
0.0
  0
LINE
  5
F1
330
3F
100
AcDbEntity
  8
AM_VIS
  6
Continuous
 62
     7
100
AcDbLine
 10
160.3330535133091
 20
153.5
 30
0.0
 11
150.893053513309
 21
153.5
 31
0.0
  0
LINE
  5
F2
330
3F
100
AcDbEntity
  8
AM_VIS
  6
Continuous
 62
     7
100
AcDbLine
 10
162.3093975133091
 20
153.5
 30
0.0
 11
160.3330535133091
 21
153.5
 31
0.0
  0
LINE
  5
F3
330
3F
100
AcDbEntity
  8
AM_VIS
  6
Continuous
 62
     7
100
AcDbLine
 10
138.3093975133091
 20
153.5
 30
0.0
 11
137.459397513309
 21
153.5
 31
0.0
  0
LINE
  5
F4
330
3F
100
AcDbEntity
  8
AM_VIS
  6
Continuous
 62
     2
100
AcDbLine
 10
142.2625811985734
 20
184.993453196251
 30
0.0
 11
142.262478513309
 21
184.993453
 31
0.0
  0
LINE
  5
F5
330
3F
100
AcDbEntity
  8
AM_VIS
  6
Continuous
 62
     7
100
AcDbLine
 10
145.390270513309
 20
186.95
 30
0.0
 11
145.390048513309
 21
186.95
 31
0.0
  0
LINE
  5
F6
330
3F
100
AcDbEntity
  8
1
  6
Continuous
 62
     7
100
AcDbLine
 10
2.34999999999999
 20
160.4999756716066
 30
0.0
 11
2.34999999999999
 21
160.4999765129528
 31
0.0
  0
LINE
  5
F7
330
3F
100
AcDbEntity
  8
1
  6
Continuous
 62
     7
100
AcDbLine
 10
2.34999999999999
 20
160.4999765129528
 30
0.0
 11
1.5
 21
160.4999765129528
 31
0.0
  0
LINE
  5
F8
330
3F
100
AcDbEntity
  8
AM_VIS
  6
Continuous
 62
     7
100
AcDbLine
 10
1.5
 20
164.4999756716066
 30
0.0
 11
2.34999999999999
 21
164.4999756716066
 31
0.0
  0
LINE
  5
F9
330
3F
100
AcDbEntity
  8
1
  6
Continuous
 62
     7
100
AcDbLine
 10
2.34999999999999
 20
160.4999765129528
 30
0.0
 11
2.34999999999999
 21
164.4999756716066
 31
0.0
  0
LINE
  5
FA
330
3F
100
AcDbEntity
  8
AM_VIS
  6
Continuous
 62
     2
100
AcDbLine
 10
12.16329999999999
 20
184.5162736716066
 30
0.0
 11
1.117257
 21
184.5162736716066
 31
0.0
  0
LINE
  5
FB
330
3F
100
AcDbEntity
  8
AM_VIS
  6
Continuous
 62
     2
100
AcDbLine
 10
12.16329999999999
 20
183.3510956716066
 30
0.0
 11
1.79464300000001
 21
183.3510956716067
 31
0.0
  0
LINE
  5
FC
330
3F
100
AcDbEntity
  8
AM_VIS
  6
Continuous
 62
     2
100
AcDbLine
 10
12.16329999999999
 20
182.4233356716066
 30
0.0
 11
2.0447859999999
 21
182.4233356716066
 31
0.0
  0
LINE
  5
FD
330
3F
100
AcDbEntity
  8
AM_VIS
  6
Continuous
 62
     2
100
AcDbLine
 10
12.16329999999999
 20
181.1286586716066
 30
0.0
 11
2.20637199579571
 21
181.1286586716066
 31
0.0
  0
LINE
  5
FE
330
3F
100
AcDbEntity
  8
AM_VIS
  6
Continuous
 62
     2
100
AcDbLine
 10
12.16329999999999
 20
180.1219816716066
 30
0.0
 11
2.25462300000001
 21
180.1219816716066
 31
0.0
  0
LINE
  5
FF
330
3F
100
AcDbEntity
  8
AM_VIS
  6
Continuous
 62
     2
100
AcDbLine
 10
12.16329999999999
 20
178.7475596716065
 30
0.0
 11
2.27257299999991
 21
178.7475596716066
 31
0.0
  0
LINE
  5
100
330
3F
100
AcDbEntity
  8
AM_VIS
  6
Continuous
 62
     2
100
AcDbLine
 10
12.16329999999999
 20
176.2993016716066
 30
0.0
 11
2.26684284603269
 21
176.2993016716066
 31
0.0
  0
LINE
  5
101
330
3F
100
AcDbEntity
  8
AM_VIS
  6
Continuous
 62
     2
100
AcDbLine
 10
12.16329999999999
 20
177.7006496716066
 30
0.0
 11
2.2691566728931
 21
177.7006496716066
 31
0.0
  0
LINE
  5
102
330
3F
100
AcDbEntity
  8
AM_VIS
  6
Continuous
 62
     7
100
AcDbLine
 10
12.16329999999999
 20
189.8254286716066
 30
0.0
 11
12.16329999999999
 21
189.9999756716066
 31
0.0
  0
LINE
  5
103
330
3F
100
AcDbEntity
  8
AM_VIS
  6
Continuous
 62
     7
100
AcDbLine
 10
12.16329999999999
 20
189.5915946716066
 30
0.0
 11
12.16329999999999
 21
189.8254286716066
 31
0.0
  0
LINE
  5
104
330
3F
100
AcDbEntity
  8
AM_VIS
  6
Continuous
 62
     7
100
AcDbLine
 10
12.16329999999999
 20
189.5915946716066
 30
0.0
 11
12.16329999999999
 21
188.5499756716065
 31
0.0
  0
LINE
  5
105
330
3F
100
AcDbEntity
  8
AM_VIS
  6
Continuous
 62
     7
100
AcDbLine
 10
12.16329999999999
 20
187.2120616716066
 30
0.0
 11
12.16329999999999
 21
186.3196376716066
 31
0.0
  0
LINE
  5
106
330
3F
100
AcDbEntity
  8
AM_VIS
  6
Continuous
 62
     7
100
AcDbLine
 10
12.16329999999999
 20
185.3294626716066
 30
0.0
 11
12.16329999999999
 21
184.5162736716066
 31
0.0
  0
LINE
  5
107
330
3F
100
AcDbEntity
  8
AM_VIS
  6
Continuous
 62
     7
100
AcDbLine
 10
15.16330000000001
 20
188.5499756716065
 30
0.0
 11
14.5633
 21
188.5499756716065
 31
0.0
  0
LINE
  5
108
330
3F
100
AcDbEntity
  8
AM_VIS
  6
Continuous
 62
     7
100
AcDbLine
 10
14.5633
 20
187.5749756716066
 30
0.0
 11
12.9633
 21
187.5749756716066
 31
0.0
  0
LINE
  5
109
330
3F
100
AcDbEntity
  8
AM_VIS
  6
Continuous
 62
     7
100
AcDbLine
 10
12.9633
 20
188.5499756716065
 30
0.0
 11
12.16329999999999
 21
188.5499756716065
 31
0.0
  0
LINE
  5
10A
330
3F
100
AcDbEntity
  8
AM_VIS
  6
Continuous
 62
     7
100
AcDbLine
 10
20.16329999999999
 20
188.4999756716066
 30
0.0
 11
15.16330000000001
 21
188.4999756716066
 31
0.0
  0
LINE
  5
10B
330
3F
100
AcDbEntity
  8
AM_VIS
  6
Continuous
 62
     7
100
AcDbLine
 10
12.16329999999999
 20
183.3510956716066
 30
0.0
 11
12.16329999999999
 21
182.4233356716066
 31
0.0
  0
LINE
  5
10C
330
3F
100
AcDbEntity
  8
AM_VIS
  6
Continuous
 62
     7
100
AcDbLine
 10
12.16329999999999
 20
181.1286586716066
 30
0.0
 11
12.16329999999999
 21
182.4233356716066
 31
0.0
  0
LINE
  5
10D
330
3F
100
AcDbEntity
  8
AM_VIS
  6
Continuous
 62
     7
100
AcDbLine
 10
12.16329999999999
 20
181.1286586716066
 30
0.0
 11
12.16329999999999
 21
180.1219816716066
 31
0.0
  0
LINE
  5
10E
330
3F
100
AcDbEntity
  8
AM_VIS
  6
Continuous
 62
     7
100
AcDbLine
 10
12.16329999999999
 20
178.7475596716065
 30
0.0
 11
12.16329999999999
 21
180.1219816716066
 31
0.0
  0
LINE
  5
10F
330
3F
100
AcDbEntity
  8
AM_VIS
  6
Continuous
 62
     7
100
AcDbLine
 10
12.16329999999999
 20
178.7475596716065
 30
0.0
 11
12.16329999999999
 21
177.7006496716066
 31
0.0
  0
LINE
  5
110
330
3F
100
AcDbEntity
  8
AM_VIS
  6
Continuous
 62
     7
100
AcDbLine
 10
12.16329999999999
 20
176.2993016716066
 30
0.0
 11
12.16329999999999
 21
177.7006496716066
 31
0.0
  0
LINE
  5
111
330
3F
100
AcDbEntity
  8
AM_VIS
  6
Continuous
 62
     7
100
AcDbLine
 10
12.16329999999999
 20
176.2993016716066
 30
0.0
 11
12.16329999999999
 21
175.7845626716066
 31
0.0
  0
LINE
  5
112
330
3F
100
AcDbEntity
  8
AM_VIS
  6
Continuous
 62
     7
100
AcDbLine
 10
12.16329999999999
 20
167.6795866716066
 30
0.0
 11
12.16329999999999
 21
168.6704886716066
 31
0.0
  0
LINE
  5
113
330
3F
100
AcDbEntity
  8
AM_VIS
  6
Continuous
 62
     7
100
AcDbLine
 10
15.16330000000001
 20
181.0941786716066
 30
0.0
 11
15.16330000000001
 21
180.9509246716066
 31
0.0
  0
LINE
  5
114
330
3F
100
AcDbEntity
  8
AM_VIS
  6
Continuous
 62
     7
100
AcDbLine
 10
14.5633
 20
181.0941786716066
 30
0.0
 11
15.16330000000001
 21
181.0941786716066
 31
0.0
  0
LINE
  5
115
330
3F
100
AcDbEntity
  8
AM_VIS
  6
Continuous
 62
     7
100
AcDbLine
 10
14.5633
 20
172.9057726716066
 30
0.0
 11
14.5633
 21
181.0941786716066
 31
0.0
  0
LINE
  5
116
330
3F
100
AcDbEntity
  8
AM_VIS
  6
Continuous
 62
     7
100
AcDbLine
 10
15.16330000000001
 20
172.9057726716066
 30
0.0
 11
14.5633
 21
172.9057726716066
 31
0.0
  0
LINE
  5
117
330
3F
100
AcDbEntity
  8
AM_VIS
  6
Continuous
 62
     7
100
AcDbLine
 10
15.16330000000001
 20
173.0490266716065
 30
0.0
 11
15.16330000000001
 21
172.9057726716066
 31
0.0
  0
LINE
  5
118
330
3F
100
AcDbEntity
  8
AM_VIS
  6
Continuous
 62
     7
100
AcDbLine
 10
14.5633
 20
165.4499756716066
 30
0.0
 11
14.5633
 21
166.4249756716065
 31
0.0
  0
LINE
  5
119
330
3F
100
AcDbEntity
  8
AM_VIS
  6
Continuous
 62
     7
100
AcDbLine
 10
12.16329999999999
 20
175.7845626716066
 30
0.0
 11
12.16329999999999
 21
175.2523916716066
 31
0.0
  0
LINE
  5
11A
330
3F
100
AcDbEntity
  8
AM_VIS
  6
Continuous
 62
     7
100
AcDbLine
 10
12.16329999999999
 20
173.8779696716066
 30
0.0
 11
12.16329999999999
 21
175.2523916716066
 31
0.0
  0
LINE
  5
11B
330
3F
100
AcDbEntity
  8
AM_VIS
  6
Continuous
 62
     7
100
AcDbLine
 10
12.16329999999999
 20
173.8779696716066
 30
0.0
 11
12.16329999999999
 21
172.8712916716066
 31
0.0
  0
LINE
  5
11C
330
3F
100
AcDbEntity
  8
AM_VIS
  6
Continuous
 62
     7
100
AcDbLine
 10
12.16329999999999
 20
171.5766156716066
 30
0.0
 11
12.16329999999999
 21
172.8712916716066
 31
0.0
  0
LINE
  5
11D
330
3F
100
AcDbEntity
  8
AM_VIS
  6
Continuous
 62
     7
100
AcDbLine
 10
12.16329999999999
 20
171.5766156716066
 30
0.0
 11
12.16329999999999
 21
170.6488556716065
 31
0.0
  0
LINE
  5
11E
330
3F
100
AcDbEntity
  8
AM_VIS
  6
Continuous
 62
     7
100
AcDbLine
 10
12.16329999999999
 20
169.4836776716066
 30
0.0
 11
12.16329999999999
 21
170.6488556716065
 31
0.0
  0
LINE
  5
11F
330
3F
100
AcDbEntity
  8
AM_VIS
  6
Continuous
 62
     7
100
AcDbLine
 10
12.16329999999999
 20
169.4836776716066
 30
0.0
 11
12.16329999999999
 21
168.6704886716066
 31
0.0
  0
LINE
  5
120
330
3F
100
AcDbEntity
  8
AM_VIS
  6
Continuous
 62
     7
100
AcDbLine
 10
12.16329999999999
 20
167.6795866716066
 30
0.0
 11
12.16329999999999
 21
167.0122196716066
 31
0.0
  0
LINE
  5
121
330
3F
100
AcDbEntity
  8
AM_VIS
  6
Continuous
 62
     7
100
AcDbLine
 10
12.16329999999999
 20
166.2336726716066
 30
0.0
 11
12.16329999999999
 21
167.0122196716066
 31
0.0
  0
LINE
  5
122
330
3F
100
AcDbEntity
  8
AM_VIS
  6
Continuous
 62
     7
100
AcDbLine
 10
12.16329999999999
 20
166.2336726716066
 30
0.0
 11
12.16329999999999
 21
165.7377746716066
 31
0.0
  0
LINE
  5
123
330
3F
100
AcDbEntity
  8
AM_VIS
  6
Continuous
 62
     7
100
AcDbLine
 10
15.16330000000001
 20
165.4499756716066
 30
0.0
 11
15.16330000000001
 21
165.4999756716066
 31
0.0
  0
LINE
  5
124
330
3F
100
AcDbEntity
  8
AM_VIS
  6
Continuous
 62
     7
100
AcDbLine
 10
14.5633
 20
165.4499756716066
 30
0.0
 11
15.16330000000001
 21
165.4499756716066
 31
0.0
  0
LINE
  5
125
330
3F
100
AcDbEntity
  8
AM_VIS
  6
Continuous
 62
     7
100
AcDbLine
 10
12.9633
 20
166.4249756716065
 30
0.0
 11
14.5633
 21
166.4249756716065
 31
0.0
  0
LINE
  5
126
330
3F
100
AcDbEntity
  8
AM_VIS
  6
Continuous
 62
     7
100
AcDbLine
 10
12.16329999999999
 20
165.4499756716066
 30
0.0
 11
12.9633
 21
165.4499756716066
 31
0.0
  0
LINE
  5
127
330
3F
100
AcDbEntity
  8
AM_VIS
  6
Continuous
 62
     7
100
AcDbLine
 10
15.16330000000001
 20
180.9509246716066
 30
0.0
 11
20.16329999999999
 21
180.9509246716066
 31
0.0
  0
LINE
  5
128
330
3F
100
AcDbEntity
  8
AM_VIS
  6
Continuous
 62
     7
100
AcDbLine
 10
20.16329999999999
 20
173.0490266716065
 30
0.0
 11
15.16330000000001
 21
173.0490266716065
 31
0.0
  0
LINE
  5
129
330
3F
100
AcDbEntity
  8
AM_VIS
  6
Continuous
 62
     7
100
AcDbLine
 10
15.16330000000001
 20
165.4999756716066
 30
0.0
 11
20.16329999999999
 21
165.4999756716066
 31
0.0
  0
LINE
  5
12A
330
3F
100
AcDbEntity
  8
AM_VIS
  6
Continuous
 62
     7
100
AcDbLine
 10
12.16329999999999
 20
183.3510956716066
 30
0.0
 11
12.16329999999999
 21
184.5162736716066
 31
0.0
  0
LINE
  5
12B
330
3F
100
AcDbEntity
  8
AM_VIS
  6
Continuous
 62
     7
100
AcDbLine
 10
14.5633
 20
181.0941786716066
 30
0.0
 11
14.5633
 21
187.5749756716066
 31
0.0
  0
LINE
  5
12C
330
3F
100
AcDbEntity
  8
AM_VIS
  6
Continuous
 62
     7
100
AcDbLine
 10
15.16330000000001
 20
181.0941786716066
 30
0.0
 11
15.16330000000001
 21
188.4999756716066
 31
0.0
  0
LINE
  5
12D
330
3F
100
AcDbEntity
  8
AM_VIS
  6
Continuous
 62
     7
100
AcDbLine
 10
12.9633
 20
165.4499756716066
 30
0.0
 11
12.9633
 21
166.4249756716065
 31
0.0
  0
LINE
  5
12E
330
3F
100
AcDbEntity
  8
AM_VIS
  6
Continuous
 62
     7
100
AcDbLine
 10
7.9714229999999
 20
189.9999756716066
 30
0.0
 11
7.9714229999999
 21
189.9713986716065
 31
0.0
  0
LINE
  5
12F
330
3F
100
AcDbEntity
  8
AM_VIS
  6
Continuous
 62
     7
100
AcDbLine
 10
7.9714229999999
 20
189.9713986716065
 30
0.0
 11
6.4714229999999
 21
189.9713986716065
 31
0.0
  0
LINE
  5
130
330
3F
100
AcDbEntity
  8
AM_VIS
  6
Continuous
 62
     7
100
AcDbLine
 10
6.49285599999999
 20
189.9928306716065
 30
0.0
 11
6.5
 21
189.9999756716066
 31
0.0
  0
LINE
  5
131
330
3F
100
AcDbEntity
  8
AM_VIS
  6
Continuous
 62
     7
100
AcDbLine
 10
6.4714229999999
 20
189.9713986716065
 30
0.0
 11
6.49285599999999
 21
189.9928306716065
 31
0.0
  0
LINE
  5
132
330
3F
100
AcDbEntity
  8
AM_VIS
  6
Continuous
 62
     7
100
AcDbLine
 10
6.5
 20
189.9999756716066
 30
0.0
 11
-23.3367
 21
189.9999756716066
 31
0.0
  0
LINE
  5
133
330
3F
100
AcDbEntity
  8
AM_VIS
  6
Continuous
 62
     2
100
AcDbLine
 10
12.16329999999999
 20
187.2120616716066
 30
0.0
 11
-21.12588
 21
187.2120616716066
 31
0.0
  0
LINE
  5
134
330
3F
100
AcDbEntity
  8
AM_VIS
  6
Continuous
 62
     2
100
AcDbLine
 10
12.16329999999999
 20
186.3196376716066
 30
0.0
 11
-20.4600750000001
 21
186.3196376716066
 31
0.0
  0
LINE
  5
135
330
3F
100
AcDbEntity
  8
AM_VIS
  6
Continuous
 62
     2
100
AcDbLine
 10
12.16329999999999
 20
167.6795866716066
 30
0.0
 11
-1.8617330000001
 21
167.6795866716066
 31
0.0
  0
LINE
  5
136
330
3F
100
AcDbEntity
  8
AM_VIS
  6
Continuous
 62
     2
100
AcDbLine
 10
12.16329999999999
 20
168.6704886716066
 30
0.0
 11
-0.25911400000001
 21
168.6704886716066
 31
0.0
  0
LINE
  5
137
330
3F
100
AcDbEntity
  8
AM_VIS
  6
Continuous
 62
     7
100
AcDbLine
 10
12.16329999999999
 20
175.7845626716066
 30
0.0
 11
2.2715189999999
 21
175.7845626716066
 31
0.0
  0
LINE
  5
138
330
3F
100
AcDbEntity
  8
AM_VIS
  6
Continuous
 62
     2
100
AcDbLine
 10
12.16329999999999
 20
175.2523916716066
 30
0.0
 11
2.27257299999991
 21
175.2523916716066
 31
0.0
  0
LINE
  5
139
330
3F
100
AcDbEntity
  8
AM_VIS
  6
Continuous
 62
     2
100
AcDbLine
 10
12.16329999999999
 20
173.8779696716066
 30
0.0
 11
2.25462300000001
 21
173.8779696716066
 31
0.0
  0
LINE
  5
13A
330
3F
100
AcDbEntity
  8
AM_VIS
  6
Continuous
 62
     2
100
AcDbLine
 10
12.16329999999999
 20
172.8712916716066
 30
0.0
 11
2.2063719999999
 21
172.8712916716066
 31
0.0
  0
LINE
  5
13B
330
3F
100
AcDbEntity
  8
AM_VIS
  6
Continuous
 62
     2
100
AcDbLine
 10
12.16329999999999
 20
171.5766156716066
 30
0.0
 11
2.0447859999999
 21
171.5766156716066
 31
0.0
  0
LINE
  5
13C
330
3F
100
AcDbEntity
  8
AM_VIS
  6
Continuous
 62
     2
100
AcDbLine
 10
12.16329999999999
 20
170.6488556716065
 30
0.0
 11
1.79464300000001
 21
170.6488556716065
 31
0.0
  0
LINE
  5
13D
330
3F
100
AcDbEntity
  8
AM_VIS
  6
Continuous
 62
     2
100
AcDbLine
 10
12.16329999999999
 20
169.4836776716066
 30
0.0
 11
1.117257
 21
169.4836776716066
 31
0.0
  0
LINE
  5
13E
330
3F
100
AcDbEntity
  8
AM_VIS
  6
Continuous
 62
     2
100
AcDbLine
 10
12.16329999999999
 20
167.0122196716066
 30
0.0
 11
-1.14557500000001
 21
167.0122196716066
 31
0.0
  0
LINE
  5
13F
330
3F
100
AcDbEntity
  8
AM_VIS
  6
Continuous
 62
     2
100
AcDbLine
 10
12.16329999999999
 20
166.2336726716066
 30
0.0
 11
-0.3184830000001
 21
166.2336726716066
 31
0.0
  0
LINE
  5
140
330
3F
100
AcDbEntity
  8
AM_VIS
  6
Continuous
 62
     2
100
AcDbLine
 10
12.16329999999999
 20
165.7377746716066
 30
0.0
 11
0.20454000000001
 21
165.7377746716066
 31
0.0
  0
LINE
  5
141
330
3F
100
AcDbEntity
  8
AM_VIS
  6
Continuous
 62
     2
100
AcDbLine
 10
12.16329999999999
 20
165.2015026716066
 30
0.0
 11
0.81398854663041
 21
165.2015026716066
 31
0.0
  0
LINE
  5
142
330
3F
100
AcDbEntity
  8
AM_VIS
  6
Continuous
 62
     2
100
AcDbLine
 10
12.16329999999999
 20
164.8961296716065
 30
0.0
 11
1.0867639999999
 21
164.8961296716065
 31
0.0
  0
LINE
  5
143
330
3F
100
AcDbEntity
  8
AM_VIS
  6
Continuous
 62
     2
100
AcDbLine
 10
12.16329999999999
 20
164.6227406716065
 30
0.0
 11
1.45833340979161
 21
164.6227406716065
 31
0.0
  0
LINE
  5
144
330
3F
100
AcDbEntity
  8
AM_VIS
  6
Continuous
 62
     2
100
AcDbLine
 10
12.16329999999999
 20
164.5196286716066
 30
0.0
 11
1.47952699999999
 21
164.5196286716066
 31
0.0
  0
LINE
  5
145
330
3F
100
AcDbEntity
  8
AM_VIS
  6
Continuous
 62
     7
100
AcDbLine
 10
12.16329999999999
 20
189.9999756716066
 30
0.0
 11
7.9714229999999
 21
189.9999756716066
 31
0.0
  0
LINE
  5
146
330
3F
100
AcDbEntity
  8
AM_VIS
  6
Continuous
 62
     7
100
AcDbLine
 10
2.34999999999999
 20
164.4999756716066
 30
0.0
 11
12.16329999999999
 21
164.4999756716066
 31
0.0
  0
LINE
  5
147
330
3F
100
AcDbEntity
  8
AM_VIS
  6
Continuous
 62
     7
100
AcDbLine
 10
14.5633
 20
166.4249756716065
 30
0.0
 11
14.5633
 21
172.9057726716066
 31
0.0
  0
LINE
  5
148
330
3F
100
AcDbEntity
  8
AM_VIS
  6
Continuous
 62
     7
100
AcDbLine
 10
12.9633
 20
166.4249756716065
 30
0.0
 11
12.9633
 21
187.5749756716066
 31
0.0
  0
LINE
  5
149
330
3F
100
AcDbEntity
  8
AM_VIS
  6
Continuous
 62
     7
100
AcDbLine
 10
12.9633
 20
187.5749756716066
 30
0.0
 11
12.9633
 21
188.5499756716065
 31
0.0
  0
LINE
  5
14A
330
3F
100
AcDbEntity
  8
AM_VIS
  6
Continuous
 62
     7
100
AcDbLine
 10
14.5633
 20
187.5749756716066
 30
0.0
 11
14.5633
 21
188.5499756716065
 31
0.0
  0
LINE
  5
14B
330
3F
100
AcDbEntity
  8
AM_VIS
  6
Continuous
 62
     7
100
AcDbLine
 10
12.16329999999999
 20
188.5499756716065
 30
0.0
 11
12.16329999999999
 21
187.2120616716066
 31
0.0
  0
LINE
  5
14C
330
3F
100
AcDbEntity
  8
AM_VIS
  6
Continuous
 62
     7
100
AcDbLine
 10
12.16329999999999
 20
164.4999756716066
 30
0.0
 11
12.16329999999999
 21
164.5196286716066
 31
0.0
  0
LINE
  5
14D
330
3F
100
AcDbEntity
  8
AM_VIS
  6
Continuous
 62
     7
100
AcDbLine
 10
15.16330000000001
 20
188.4999756716066
 30
0.0
 11
15.16330000000001
 21
188.5499756716065
 31
0.0
  0
LINE
  5
14E
330
3F
100
AcDbEntity
  8
AM_VIS
  6
Continuous
 62
     7
100
AcDbLine
 10
12.16329999999999
 20
165.2015026716066
 30
0.0
 11
12.16329999999999
 21
165.4499756716066
 31
0.0
  0
LINE
  5
14F
330
3F
100
AcDbEntity
  8
AM_VIS
  6
Continuous
 62
     7
100
AcDbLine
 10
12.16329999999999
 20
164.8961296716065
 30
0.0
 11
12.16329999999999
 21
165.2015026716066
 31
0.0
  0
LINE
  5
150
330
3F
100
AcDbEntity
  8
AM_VIS
  6
Continuous
 62
     7
100
AcDbLine
 10
12.16329999999999
 20
164.6227406716065
 30
0.0
 11
12.16329999999999
 21
164.8961296716065
 31
0.0
  0
LINE
  5
151
330
3F
100
AcDbEntity
  8
AM_VIS
  6
Continuous
 62
     7
100
AcDbLine
 10
12.16329999999999
 20
164.5196286716066
 30
0.0
 11
12.16329999999999
 21
164.6227406716065
 31
0.0
  0
LINE
  5
152
330
3F
100
AcDbEntity
  8
AM_VIS
  6
Continuous
 62
     7
100
AcDbLine
 10
12.16329999999999
 20
165.4499756716066
 30
0.0
 11
12.16329999999999
 21
165.7377746716066
 31
0.0
  0
LINE
  5
153
330
3F
100
AcDbEntity
  8
AM_VIS
  6
Continuous
 62
     7
100
AcDbLine
 10
15.16330000000001
 20
165.4999756716066
 30
0.0
 11
15.16330000000001
 21
172.9057726716066
 31
0.0
  0
LINE
  5
154
330
3F
100
AcDbEntity
  8
AM_VIS
  6
Continuous
 62
     7
100
AcDbLine
 10
-20.309547
 20
153.9999756716065
 30
0.0
 11
-20.309547
 21
166.5799756716066
 31
0.0
  0
LINE
  5
155
330
3F
100
AcDbEntity
  8
AM_VIS
  6
Continuous
 62
     7
100
AcDbLine
 10
-17.41179
 20
153.9999756716066
 30
0.0
 11
-20.309547
 21
153.9999756716065
 31
0.0
  0
LINE
  5
156
330
3F
100
AcDbEntity
  8
AM_VIS
  6
Continuous
 62
     2
100
AcDbLine
 10
-23.3367
 20
164.4999756716066
 30
0.0
 11
-23.336384139408
 21
164.4999756716066
 31
0.0
  0
LINE
  5
157
330
3F
100
AcDbEntity
  8
1
  6
Continuous
 62
     3
100
AcDbLine
 10
-14.64280600000001
 20
171.5766156716066
 30
0.0
 11
-12.68998400000001
 21
172.8712916716066
 31
0.0
  0
LINE
  5
158
330
3F
100
AcDbEntity
  8
AM_VIS
  6
Continuous
 62
     2
100
AcDbLine
 10
-4.107822
 20
173.8779696716066
 30
0.0
 11
-15.81557200000001
 21
173.8779696716066
 31
0.0
  0
LINE
  5
159
330
3F
100
AcDbEntity
  8
1
  6
Continuous
 62
     3
100
AcDbLine
 10
-8.31001599999999
 20
172.8712916716066
 30
0.0
 11
-6.35719399999991
 21
171.5766156716066
 31
0.0
  0
LINE
  5
15A
330
3F
100
AcDbEntity
  8
1
  6
Continuous
 62
     3
100
AcDbLine
 10
-23.3367
 20
189.9999756716066
 30
0.0
 11
-22.336866
 21
189.7876526716066
 31
0.0
  0
LINE
  5
15B
330
3F
100
AcDbEntity
  8
1
  6
Continuous
 62
     3
100
AcDbLine
 10
-23.336384139408
 20
164.4999756716066
 30
0.0
 11
-21.050765
 21
167.0122196716066
 31
0.0
  0
LINE
  5
15C
330
3F
100
AcDbEntity
  8
1
  6
Continuous
 62
     3
100
AcDbLine
 10
-19.6059275987533
 20
185.3294626716066
 30
0.0
 11
-16.39764700000001
 21
181.1286586716066
 31
0.0
  0
LINE
  5
15D
330
3F
100
AcDbEntity
  8
1
  6
Continuous
 62
     3
100
AcDbLine
 10
-4.107822
 20
173.8779696716066
 30
0.0
 11
-4.107822
 21
180.1219816716066
 31
0.0
  0
LINE
  5
15E
330
3F
100
AcDbEntity
  8
1
  6
Continuous
 62
     3
100
AcDbLine
 10
2.25462300000001
 20
173.8779696716066
 30
0.0
 11
2.25462300000001
 21
180.1219816716066
 31
0.0
  0
LINE
  5
15F
330
3F
100
AcDbEntity
  8
AM_VIS
  6
Continuous
 62
     7
100
AcDbLine
 10
1.5
 20
153.9999756716065
 30
0.0
 11
1.5
 21
160.4999765129528
 31
0.0
  0
LINE
  5
160
330
3F
100
AcDbEntity
  8
AM_VIS
  6
Continuous
 62
     7
100
AcDbLine
 10
-22.5
 20
160.9999756716066
 30
0.0
 11
-22.5
 21
160.5000002684885
 31
0.0
  0
LINE
  5
161
330
3F
100
AcDbEntity
  8
1
  6
Continuous
 62
     7
100
AcDbLine
 10
-15.41179
 20
160.4999932524791
 30
0.0
 11
1.5
 21
160.4999765129528
 31
0.0
  0
LINE
  5
162
330
3F
100
AcDbEntity
  8
AM_VIS
  6
Continuous
 62
     7
100
AcDbLine
 10
-22.5
 20
160.5000002684885
 30
0.0
 11
-22.5
 21
153.9999756716065
 31
0.0
  0
LINE
  5
163
330
3F
100
AcDbEntity
  8
1
  6
DOT_CENTER
 62
     2
100
AcDbLine
 10
-0.58989600000001
 20
147.6301587325096
 30
0.0
 11
-0.58989600000001
 21
154.5733251525486
 31
0.0
  0
LINE
  5
164
330
3F
100
AcDbEntity
  8
1
  6
DOT_CENTER
 62
     2
100
AcDbLine
 10
-20.41010400000001
 20
154.5733251525486
 30
0.0
 11
-20.41010400000001
 21
147.6301587325096
 31
0.0
  0
LINE
  5
165
330
3F
100
AcDbEntity
  8
AM_VIS
  6
Continuous
 62
     7
100
AcDbLine
 10
2.34999999999999
 20
153.9999756716065
 30
0.0
 11
1.5
 21
153.9999756716065
 31
0.0
  0
LINE
  5
166
330
3F
100
AcDbEntity
  8
AM_VIS
  6
Continuous
 62
     7
100
AcDbLine
 10
-9.91634400000001
 20
153.9999756716066
 30
0.0
 11
-11.08365499999999
 21
153.9999756716066
 31
0.0
  0
LINE
  5
167
330
3F
100
AcDbEntity
  8
AM_VIS
  6
Continuous
 62
     7
100
AcDbLine
 10
-3.58821
 20
153.9999756716065
 30
0.0
 11
-9.91634400000001
 21
153.9999756716066
 31
0.0
  0
LINE
  5
168
330
3F
100
AcDbEntity
  8
AM_VIS
  6
Continuous
 62
     7
100
AcDbLine
 10
-20.52365500000001
 20
153.9999756716065
 30
0.0
 11
-22.5
 21
153.9999756716065
 31
0.0
  0
LINE
  5
169
330
3F
100
AcDbEntity
  8
AM_VIS
  6
Continuous
 62
     7
100
AcDbLine
 10
-23.35
 20
153.9999756716066
 30
0.0
 11
-23.35
 21
151.0
 31
0.0
  0
LINE
  5
16A
330
3F
100
AcDbEntity
  8
AM_VIS
  6
Continuous
 62
     7
100
AcDbLine
 10
-20.309547
 20
153.9999756716065
 30
0.0
 11
-20.52365500000001
 21
153.9999756716065
 31
0.0
  0
LINE
  5
16B
330
3F
100
AcDbEntity
  8
AM_VIS
  6
Continuous
 62
     7
100
AcDbLine
 10
2.34999999999999
 20
148.4999756716066
 30
0.0
 11
1.6664034693444
 21
148.4999763482399
 31
0.0
  0
LINE
  5
16C
330
3F
100
AcDbEntity
  8
AM_VIS
  6
Continuous
 62
     7
100
AcDbLine
 10
-22.5
 20
153.9999756716065
 30
0.0
 11
-23.35
 21
153.9999756716066
 31
0.0
  0
LINE
  5
16D
330
3F
100
AcDbEntity
  8
AM_VIS
  6
Continuous
 62
     7
100
AcDbLine
 10
-22.2287529513216
 20
148.4999999999999
 30
0.0
 11
-23.35
 21
148.5000011098259
 31
0.0
  0
LINE
  5
16E
330
3F
100
AcDbEntity
  8
AM_VIS
  6
Continuous
 62
     7
100
AcDbLine
 10
1.5
 20
153.9999756716065
 30
0.0
 11
-0.4763440000001
 21
153.9999756716066
 31
0.0
  0
LINE
  5
16F
330
3F
100
AcDbEntity
  8
1
  6
Continuous
 62
     2
100
AcDbLine
 10
-19.6059275987533
 20
185.3294626716066
 30
0.0
 11
12.16329999999999
 21
185.3294626716066
 31
0.0
  0
LINE
  5
170
330
3F
100
AcDbEntity
  8
1
  6
Continuous
 62
     2
100
AcDbLine
 10
-16.39764700000001
 20
181.1286586716066
 30
0.0
 11
-4.059572
 21
181.1286596716066
 31
0.0
  0
LINE
  5
171
330
3F
100
AcDbEntity
  8
AM_VIS
  6
Continuous
 62
     2
100
AcDbLine
 10
-4.124718
 20
177.7006496716066
 30
0.0
 11
-14.98363499999999
 21
177.7006496716066
 31
0.0
  0
LINE
  5
172
330
3F
100
AcDbEntity
  8
AM_VIS
  6
Continuous
 62
     2
100
AcDbLine
 10
-4.12577200000001
 20
178.7475596716066
 30
0.0
 11
-15.22688100000011
 21
178.7475596716066
 31
0.0
  0
LINE
  5
173
330
3F
100
AcDbEntity
  8
AM_VIS
  6
Continuous
 62
     2
100
AcDbLine
 10
-4.107822
 20
180.1219816716066
 30
0.0
 11
-15.81557200000001
 21
180.1219816716066
 31
0.0
  0
LINE
  5
174
330
3F
100
AcDbEntity
  8
AM_VIS
  6
Continuous
 62
     2
100
AcDbLine
 10
-3.89798500000001
 20
182.4233356716066
 30
0.0
 11
-17.28067999999999
 21
182.4233356716066
 31
0.0
  0
LINE
  5
175
330
3F
100
AcDbEntity
  8
AM_VIS
  6
Continuous
 62
     2
100
AcDbLine
 10
-3.64784299999999
 20
183.3510956716066
 30
0.0
 11
-17.981436
 21
183.3510956716066
 31
0.0
  0
LINE
  5
176
330
3F
100
AcDbEntity
  8
AM_VIS
  6
Continuous
 62
     2
100
AcDbLine
 10
-2.97045700000001
 20
184.5162736716066
 30
0.0
 11
-18.919361
 21
184.5162736716066
 31
0.0
  0
LINE
  5
177
330
3F
100
AcDbEntity
  8
AM_VIS
  6
Continuous
 62
     2
100
AcDbLine
 10
-4.124718
 20
176.2993016716066
 30
0.0
 11
-14.98363499999999
 21
176.2993016716066
 31
0.0
  0
LINE
  5
178
330
3F
100
AcDbEntity
  8
AM_VIS
  6
Continuous
 62
     2
100
AcDbLine
 10
-14.64280600000001
 20
171.5766156716066
 30
0.0
 11
-17.30170553658681
 21
171.5766156716066
 31
0.0
  0
LINE
  5
179
330
3F
100
AcDbEntity
  8
AM_VIS
  6
Continuous
 62
     2
100
AcDbLine
 10
-15.83069376026811
 20
170.6488556716066
 30
0.0
 11
-17.9684934242148
 21
170.6488556716066
 31
0.0
  0
LINE
  5
17A
330
3F
100
AcDbEntity
  8
AM_VIS
  6
Continuous
 62
     2
100
AcDbLine
 10
-17.24714617881739
 20
169.4836776716066
 30
0.0
 11
-18.87003581749831
 21
169.4836776716066
 31
0.0
  0
LINE
  5
17B
330
3F
100
AcDbEntity
  8
AM_VIS
  6
Continuous
 62
     7
100
AcDbLine
 10
-23.3367
 20
189.9999756716066
 30
0.0
 11
-23.3367
 21
164.4999756716066
 31
0.0
  0
LINE
  5
17C
330
3F
100
AcDbEntity
  8
AM_VIS
  6
Continuous
 62
     7
100
AcDbLine
 10
-22.5
 20
164.4999756716066
 30
0.0
 11
-22.5
 21
160.9999756716066
 31
0.0
  0
LINE
  5
17D
330
3F
100
AcDbEntity
  8
AM_VIS
  6
Continuous
 62
     7
100
AcDbLine
 10
-7.71541299999959
 20
175.7845626716066
 30
0.0
 11
-22.5
 21
160.9999756716066
 31
0.0
  0
LINE
  5
17E
330
3F
100
AcDbEntity
  8
AM_VIS
  6
Continuous
 62
     7
100
AcDbLine
 10
-17.41179
 20
162.9999756716065
 30
0.0
 11
-17.41179
 21
153.9999756716066
 31
0.0
  0
LINE
  5
17F
330
3F
100
AcDbEntity
  8
AM_VIS
  6
Continuous
 62
     7
100
AcDbLine
 10
-22.5
 20
160.9999756716066
 30
0.0
 11
-22.5
 21
160.4999756716065
 31
0.0
  0
LINE
  5
180
330
3F
100
AcDbEntity
  8
AM_VIS
  6
Continuous
 62
     2
100
AcDbLine
 10
-23.3367
 20
164.4999756716066
 30
0.0
 11
-22.5
 21
164.4999756716066
 31
0.0
  0
LINE
  5
181
330
3F
100
AcDbEntity
  8
AM_VIS
  6
Continuous
 62
     2
100
AcDbLine
 10
-19.2919967403095
 20
167.6795866716066
 30
0.0
 11
-20.4225895866766
 21
167.6795866716066
 31
0.0
  0
LINE
  5
182
330
3F
100
AcDbEntity
  8
AM_VIS
  6
Continuous
 62
     2
100
AcDbLine
 10
-20.0069358058382
 20
167.0122196716066
 30
0.0
 11
-21.050765
 21
167.0122196716066
 31
0.0
  0
LINE
  5
183
330
3F
100
AcDbEntity
  8
AM_VIS
  6
Continuous
 62
     2
100
AcDbLine
 10
-20.8148229074546
 20
166.2336726716066
 30
0.0
 11
-21.7590807225686
 21
166.2336726716066
 31
0.0
  0
LINE
  5
184
330
3F
100
AcDbEntity
  8
AM_VIS
  6
Continuous
 62
     2
100
AcDbLine
 10
-21.3153588799112
 20
165.7377746716066
 30
0.0
 11
-22.2102446859393
 21
165.7377746716066
 31
0.0
  0
LINE
  5
185
330
3F
100
AcDbEntity
  8
AM_VIS
  6
Continuous
 62
     2
100
AcDbLine
 10
-21.8448181596802
 20
165.2015026716066
 30
0.0
 11
-22.6981405858314
 21
165.2015026716066
 31
0.0
  0
LINE
  5
186
330
3F
100
AcDbEntity
  8
AM_VIS
  6
Continuous
 62
     2
100
AcDbLine
 10
-22.14097247564981
 20
164.8961296716066
 30
0.0
 11
-22.9759664552367
 21
164.8961296716066
 31
0.0
  0
LINE
  5
187
330
3F
100
AcDbEntity
  8
AM_VIS
  6
Continuous
 62
     2
100
AcDbLine
 10
-22.40289589492021
 20
164.6227406716066
 30
0.0
 11
-23.223109
 21
164.6227406716066
 31
0.0
  0
LINE
  5
188
330
3F
100
AcDbEntity
  8
AM_VIS
  6
Continuous
 62
     2
100
AcDbLine
 10
-18.18998624108821
 20
168.6704886716066
 30
0.0
 11
-19.5449058667766
 21
168.6704886716066
 31
0.0
  0
LINE
  5
189
330
3F
100
AcDbEntity
  8
AM_VIS
  6
Continuous
 62
     7
100
AcDbLine
 10
-20.309547
 20
166.5799756716066
 30
0.0
 11
-17.41178500000001
 21
166.5799756716066
 31
0.0
  0
LINE
  5
18A
330
3F
100
AcDbEntity
  8
AM_VIS
  6
Continuous
 62
     2
100
AcDbLine
 10
-3.64784299999999
 20
170.6488556716066
 30
0.0
 11
-5.1693062397319
 21
170.6488556716066
 31
0.0
  0
LINE
  5
18B
330
3F
100
AcDbEntity
  8
AM_VIS
  6
Continuous
 62
     2
100
AcDbLine
 10
-4.12577200000001
 20
175.2523916716066
 30
0.0
 11
-15.22688100000011
 21
175.2523916716066
 31
0.0
  0
LINE
  5
18C
330
3F
100
AcDbEntity
  8
AM_VIS
  6
Continuous
 62
     2
100
AcDbLine
 10
-12.68998300000001
 20
172.8712916716066
 30
0.0
 11
-16.39764700000001
 21
172.8712916716066
 31
0.0
  0
LINE
  5
18D
330
3F
100
AcDbEntity
  8
AM_VIS
  6
Continuous
 62
     2
100
AcDbLine
 10
-4.059572
 20
172.8712916716066
 30
0.0
 11
-8.31001599999999
 21
172.8712916716066
 31
0.0
  0
LINE
  5
18E
330
3F
100
AcDbEntity
  8
AM_VIS
  6
Continuous
 62
     2
100
AcDbLine
 10
-3.89798500000001
 20
171.5766156716066
 30
0.0
 11
-6.35719399999991
 21
171.5766156716066
 31
0.0
  0
LINE
  5
18F
330
3F
100
AcDbEntity
  8
AM_VIS
  6
Continuous
 62
     7
100
AcDbLine
 10
-4.124718
 20
175.7845626716066
 30
0.0
 11
-7.71541299999959
 21
175.7845626716066
 31
0.0
  0
LINE
  5
190
330
3F
100
AcDbEntity
  8
AM_VIS
  6
Continuous
 62
     7
100
AcDbLine
 10
1.5
 20
160.4999765129528
 30
0.0
 11
1.5
 21
164.4999756716066
 31
0.0
  0
LINE
  5
191
330
3F
100
AcDbEntity
  8
AM_VIS
  6
Continuous
 62
     7
100
AcDbLine
 10
-3.58821
 20
153.9999756716065
 30
0.0
 11
-3.58821
 21
169.2821756716066
 31
0.0
  0
LINE
  5
192
330
3F
100
AcDbEntity
  8
AM_VIS
  6
Continuous
 62
     7
100
AcDbLine
 10
-0.69045499999999
 20
166.7236966415615
 30
0.0
 11
-0.69045499999999
 21
153.9999756716066
 31
0.0
  0
LINE
  5
193
330
3F
100
AcDbEntity
  8
AM_VIS
  6
Continuous
 62
     2
100
AcDbLine
 10
-2.97045700000001
 20
169.4836776716066
 30
0.0
 11
-3.75285382118261
 21
169.4836776716066
 31
0.0
  0
LINE
  5
194
330
3F
100
AcDbEntity
  8
AM_VIS
  6
Continuous
 62
     2
100
AcDbLine
 10
-1.59408500000001
 20
168.6704886716066
 30
0.0
 11
-2.81001375891179
 21
168.6704886716066
 31
0.0
  0
LINE
  5
195
330
3F
100
AcDbEntity
  8
AM_VIS
  6
Continuous
 62
     7
100
AcDbLine
 10
-0.4763440000001
 20
153.9999756716066
 30
0.0
 11
-0.69045499999999
 21
153.9999756716066
 31
0.0
  0
LINE
  5
196
330
3F
100
AcDbEntity
  8
AM_VIS
  6
Continuous
 62
     7
100
AcDbLine
 10
-0.69045499999999
 20
153.9999756716066
 30
0.0
 11
-3.58821
 21
153.9999756716065
 31
0.0
  0
LINE
  5
197
330
3F
100
AcDbEntity
  8
AM_VIS
  6
Continuous
 62
     7
100
AcDbLine
 10
-15.41179
 20
153.9999756716065
 30
0.0
 11
-17.41179
 21
153.9999756716066
 31
0.0
  0
LINE
  5
198
330
3F
100
AcDbEntity
  8
1
  6
Continuous
 62
     7
100
AcDbLine
 10
-15.41179
 20
162.9999756716065
 30
0.0
 11
-15.41179
 21
153.9999756716065
 31
0.0
  0
LINE
  5
199
330
3F
100
AcDbEntity
  8
AM_VIS
  6
Continuous
 62
     7
100
AcDbLine
 10
-11.08365499999999
 20
153.9999756716066
 30
0.0
 11
-15.41179
 21
153.9999756716065
 31
0.0
  0
LINE
  5
19A
330
3F
100
AcDbEntity
  8
AM_VIS
  6
Continuous
 62
     7
100
AcDbLine
 10
-17.41179
 20
169.3438978082421
 30
0.0
 11
-17.41179
 21
162.9999756716065
 31
0.0
  0
LINE
  5
19B
330
3F
100
AcDbEntity
  8
1
  6
Continuous
 62
     7
100
AcDbLine
 10
-22.5
 20
160.5000002684885
 30
0.0
 11
-17.41179
 21
160.4999952321071
 31
0.0
  0
LINE
  5
19C
330
3F
100
AcDbEntity
  8
AM_VIS
  6
Continuous
 62
     7
100
AcDbLine
 10
12.16329999999999
 20
186.3196376716066
 30
0.0
 11
12.16329999999999
 21
185.3294626716066
 31
0.0
  0
LINE
  5
19D
330
3F
100
AcDbEntity
  8
1
  6
DOT_CENTER
 62
     2
100
AcDbLine
 10
13.16329999999999
 20
176.9999756716066
 30
0.0
 11
22.16329999999999
 21
176.9999756716066
 31
0.0
  0
LINE
  5
19E
330
3F
100
AcDbEntity
  8
1
  6
DOT_CENTER
 62
     2
100
AcDbLine
 10
150.3093975133095
 20
190.2500000000001
 30
0.0
 11
150.3093975133095
 21
146.8561401044124
 31
0.0
  0
LINE
  5
19F
330
3F
100
AcDbEntity
  8
1
  6
DOT_CENTER
 62
     2
100
AcDbLine
 10
164.0593975133094
 20
176.5000000000002
 30
0.0
 11
136.5593975133096
 21
176.5000000000002
 31
0.0
  0
LINE
  5
1A0
330
3F
100
AcDbEntity
  8
AM_VIS
  6
Continuous
 62
     7
100
AcDbLine
 10
166.3093975133089
 20
173.0000000000003
 30
0.0
 11
166.3093975133089
 21
163.5
 31
0.0
  0
LINE
  5
1A1
330
3F
100
AcDbEntity
  8
1
  6
Continuous
 62
     7
100
AcDbLine
 10
166.3093975133089
 20
163.5
 30
0.0
 11
165.459397513309
 21
163.5
 31
0.0
  0
LINE
  5
1A2
330
3F
100
AcDbEntity
  8
1
  6
Continuous
 62
     7
100
AcDbLine
 10
165.459397513309
 20
163.5
 30
0.0
 11
165.459397513309
 21
153.5
 31
0.0
  0
LINE
  5
1A3
330
3F
100
AcDbEntity
  8
1
  6
Continuous
 62
     7
100
AcDbLine
 10
166.1429861356383
 20
160.00000067663
 30
0.0
 11
177.309397513309
 21
160.0000117293001
 31
0.0
  0
LINE
  5
1A4
330
3F
100
AcDbEntity
  8
1
  6
Continuous
 62
     7
100
AcDbLine
 10
177.309397513309
 20
164.0400642056229
 30
0.0
 11
177.309397513309
 21
160.0000117293001
 31
0.0
  0
LINE
  5
1A5
330
3F
100
AcDbEntity
  8
1
  6
Continuous
 62
     7
100
AcDbLine
 10
177.309397513309
 20
160.0000117293001
 30
0.0
 11
179.309397513309
 21
160.0000137089281
 31
0.0
  0
LINE
  5
1A6
330
3F
100
AcDbEntity
  8
1
  6
Continuous
 62
     7
100
AcDbLine
 10
179.309397513309
 20
164.0400642056229
 30
0.0
 11
179.309397513309
 21
160.0000137089281
 31
0.0
  0
LINE
  5
1A7
330
3F
100
AcDbEntity
  8
AM_VIS
  6
Continuous
 62
     7
100
AcDbLine
 10
190.3093975133089
 20
153.5
 30
0.0
 11
190.3093975133089
 21
160.0000245968819
 31
0.0
  0
LINE
  5
1A8
330
3F
100
AcDbEntity
  8
1
  6
Continuous
 62
     7
100
AcDbLine
 10
179.309397513309
 20
160.0000137089281
 30
0.0
 11
190.3093975133089
 21
160.0000245968819
 31
0.0
  0
LINE
  5
1A9
330
3F
100
AcDbEntity
  8
AM_VIS
  6
Continuous
 62
     7
100
AcDbLine
 10
165.4726595133089
 20
153.5
 30
0.0
 11
165.459397513309
 21
153.5
 31
0.0
  0
LINE
  5
1AA
330
3F
100
AcDbEntity
  8
AM_VIS
  6
Continuous
 62
     7
100
AcDbLine
 10
166.3093975133089
 20
153.5
 30
0.0
 11
165.4726595133089
 21
153.5
 31
0.0
  0
LINE
  5
1AB
330
3F
100
AcDbEntity
  8
AM_VIS
  6
Continuous
 62
     7
100
AcDbLine
 10
165.459397513309
 20
153.5
 30
0.0
 11
165.459397513309
 21
151.0
 31
0.0
  0
LINE
  5
1AC
330
3F
100
AcDbEntity
  8
AM_VIS
  6
Continuous
 62
     7
100
AcDbLine
 10
168.4998525133089
 20
153.5
 30
0.0
 11
168.4998525133089
 21
168.7525599780977
 31
0.0
  0
LINE
  5
1AD
330
3F
100
AcDbEntity
  8
AM_VIS
  6
Continuous
 62
     7
100
AcDbLine
 10
166.3093975133089
 20
163.5
 30
0.0
 11
166.3093975133089
 21
153.5
 31
0.0
  0
LINE
  5
1AE
330
3F
100
AcDbEntity
  8
AM_VIS
  6
Continuous
 62
     7
100
AcDbLine
 10
178.893053513309
 20
153.5
 30
0.0
 11
177.725741513309
 21
153.5
 31
0.0
  0
LINE
  5
1AF
330
3F
100
AcDbEntity
  8
AM_VIS
  6
Continuous
 62
     7
100
AcDbLine
 10
171.397607513309
 20
166.0847631329913
 30
0.0
 11
171.397607513309
 21
153.4999999999999
 31
0.0
  0
LINE
  5
1B0
330
3F
100
AcDbEntity
  8
AM_VIS
  6
Continuous
 62
     7
100
AcDbLine
 10
190.3093975133089
 20
153.5
 30
0.0
 11
188.333053513309
 21
153.5
 31
0.0
  0
LINE
  5
1B1
330
3F
100
AcDbEntity
  8
AM_VIS
  6
Continuous
 62
     7
100
AcDbLine
 10
185.221187513309
 20
153.5
 30
0.0
 11
185.221187513309
 21
166.0847631329911
 31
0.0
  0
LINE
  5
1B2
330
3F
100
AcDbEntity
  8
AM_VIS
  6
Continuous
 62
     7
100
AcDbLine
 10
188.118941513309
 20
168.7525587119318
 30
0.0
 11
188.118941513309
 21
153.5
 31
0.0
  0
LINE
  5
1B3
330
3F
100
AcDbEntity
  8
AM_VIS
  6
Continuous
 62
     7
100
AcDbLine
 10
190.3093975133089
 20
160.0000245968819
 30
0.0
 11
190.3093975133089
 21
172.9999999999998
 31
0.0
  0
LINE
  5
1B4
330
3F
100
AcDbEntity
  8
AM_VIS
  6
Continuous
 62
     7
100
AcDbLine
 10
188.333053513309
 20
153.5
 30
0.0
 11
178.893053513309
 21
153.5
 31
0.0
  0
LINE
  5
1B5
330
3F
100
AcDbEntity
  8
AM_VIS
  6
Continuous
 62
     7
100
AcDbLine
 10
177.725741513309
 20
153.5
 30
0.0
 11
168.285741513309
 21
153.5
 31
0.0
  0
LINE
  5
1B6
330
3F
100
AcDbEntity
  8
AM_VIS
  6
Continuous
 62
     7
100
AcDbLine
 10
168.285741513309
 20
153.5
 30
0.0
 11
166.3093975133089
 21
153.5
 31
0.0
  0
LINE
  5
1B7
330
3F
100
AcDbEntity
  8
AM_VIS
  6
Continuous
 62
     7
100
AcDbLine
 10
191.159397513309
 20
153.5
 30
0.0
 11
190.3093975133089
 21
153.5
 31
0.0
  0
LINE
  5
1B8
330
3F
100
AcDbEntity
  8
AM_VIS
  6
Continuous
 62
     7
100
AcDbLine
 10
191.159397513309
 20
149.500023651759
 30
0.0
 11
191.159397513309
 21
149.5000490899784
 31
0.0
  0
LINE
  5
1B9
330
3F
100
AcDbEntity
  8
AM_VIS
  6
Continuous
 62
     2
100
AcDbLine
 10
186.356316513309
 20
184.993453
 30
0.0
 11
186.3562138280446
 21
184.993453196251
 31
0.0
  0
LINE
  5
1BA
330
3F
100
AcDbEntity
  8
AM_VIS
  6
Continuous
 62
     7
100
AcDbLine
 10
183.228746513309
 20
186.95
 30
0.0
 11
183.228524513309
 21
186.95
 31
0.0
  0
LINE
  5
1BB
330
3F
100
AcDbEntity
  8
1
  6
DOT_CENTER
 62
     2
100
AcDbLine
 10
192.0593975133084
 20
176.5000000000002
 30
0.0
 11
164.5593975133086
 21
176.5000000000002
 31
0.0
  0
LINE
  5
1BC
330
3F
100
AcDbEntity
  8
1
  6
DOT_CENTER
 62
     2
100
AcDbLine
 10
178.3093975133085
 20
146.8561401044124
 30
0.0
 11
178.3093975133085
 21
190.2500000000001
 31
0.0
  0
ARC
  5
1BD
330
3F
100
AcDbEntity
  8
1
  6
Continuous
 62
     7
100
AcDbCircle
 10
150.309397513309
 20
176.4999999999999
 30
0.0
 40
12.49999999999986
100
AcDbArc
 50
-94.58856573578589
 51
-85.41143426421412
  0
ARC
  5
1BE
330
3F
100
AcDbEntity
  8
1
  6
Continuous
 62
     7
100
AcDbCircle
 10
150.309397513309
 20
176.4999999999999
 30
0.0
 40
12.49999999999996
100
AcDbArc
 50
-123.5691640368266
 51
-94.58856573578589
  0
ARC
  5
1BF
330
3F
100
AcDbEntity
  8
1
  6
Continuous
 62
     7
100
AcDbCircle
 10
162.1239928872851
 20
191.8908797661562
 30
0.0
 40
6.999999999999905
100
AcDbArc
 50
-153.0067442793676
 51
-119.8516759502467
  0
ARC
  5
1C0
330
3F
100
AcDbEntity
  8
1
  6
Continuous
 62
     7
100
AcDbCircle
 10
138.4948021393329
 20
191.8908797661562
 30
0.0
 40
6.999999999999898
100
AcDbArc
 50
-60.14832404975326
 51
-26.99325572063248
  0
ARC
  5
1C1
330
3F
100
AcDbEntity
  8
1
  6
Continuous
 62
     7
100
AcDbCircle
 10
150.309398013309
 20
119.5000288043523
 30
0.0
 40
69.9999711956477
100
AcDbArc
 50
90.00000040925573
 51
93.63444924520952
  0
ARC
  5
1C2
330
3F
100
AcDbEntity
  8
1
  6
Continuous
 62
     7
100
AcDbCircle
 10
150.309397513309
 20
176.4999999999999
 30
0.0
 40
12.49999999999999
100
AcDbArc
 50
-16.26020470830994
 51
48.20833315859864
  0
ARC
  5
1C3
330
3F
100
AcDbEntity
  8
1
  6
Continuous
 62
     7
100
AcDbCircle
 10
150.309397513309
 20
176.4999999999999
 30
0.0
 40
12.49999999999994
100
AcDbArc
 50
-38.30118056285343
 51
-16.26020470830994
  0
ARC
  5
1C4
330
3F
100
AcDbEntity
  8
1
  6
Continuous
 62
     7
100
AcDbCircle
 10
150.309397513309
 20
176.4999999999999
 30
0.0
 40
12.49999999999979
100
AcDbArc
 50
-56.43083596317288
 51
-38.30118056285343
  0
ARC
  5
1C5
330
3F
100
AcDbEntity
  8
1
  6
Continuous
 62
     7
100
AcDbCircle
 10
150.309397513309
 20
176.4999999999999
 30
0.0
 40
12.49999999999986
100
AcDbArc
 50
-85.41143426421412
 51
-56.43083596317288
  0
ARC
  5
1C6
330
3F
100
AcDbEntity
  8
1
  6
Continuous
 62
     7
100
AcDbCircle
 10
150.309397513309
 20
176.4999999999999
 30
0.0
 40
12.49999999999989
100
AcDbArc
 50
180.0
 51
-163.7397952916875
  0
ARC
  5
1C7
330
3F
100
AcDbEntity
  8
1
  6
Continuous
 62
     7
100
AcDbCircle
 10
150.309397513309
 20
176.4999999999999
 30
0.0
 40
12.49999999999991
100
AcDbArc
 50
-163.7397952916875
 51
-141.6988120416999
  0
ARC
  5
1C8
330
3F
100
AcDbEntity
  8
1
  6
Continuous
 62
     7
100
AcDbCircle
 10
150.309397513309
 20
176.4999999999999
 30
0.0
 40
12.49999999999991
100
AcDbArc
 50
-141.6988120416999
 51
-123.5691640368266
  0
ARC
  5
1C9
330
3F
100
AcDbEntity
  8
1
  6
Continuous
 62
     3
100
AcDbCircle
 10
25.38556733860941
 20
119.1006275640454
 30
0.0
 40
66.00000000000006
100
AcDbArc
 50
130.4244494423627
 51
133.4534643289625
  0
ARC
  5
1CA
330
3F
100
AcDbEntity
  8
1
  6
Continuous
 62
     3
100
AcDbCircle
 10
-46.38556733860929
 20
119.1006275640454
 30
0.0
 40
65.99999999999999
100
AcDbArc
 50
51.35532310571571
 51
52.6638260580866
  0
ARC
  5
1CB
330
3F
100
AcDbEntity
  8
1
  6
Continuous
 62
     3
100
AcDbCircle
 10
25.38556733860941
 20
119.1006275640454
 30
0.0
 40
66.00000000000006
100
AcDbArc
 50
133.4534643289625
 51
136.538349467506
  0
ARC
  5
1CC
330
3F
100
AcDbEntity
  8
1
  6
Continuous
 62
     3
100
AcDbCircle
 10
25.38556733860941
 20
119.1006275640454
 30
0.0
 40
66.0
100
AcDbArc
 50
127.3361739419134
 51
130.4244494423627
  0
ARC
  5
1CD
330
3F
100
AcDbEntity
  8
1
  6
Continuous
 62
     3
100
AcDbCircle
 10
-10.4999995
 20
170.8209326128737
 30
0.0
 40
3.000000000000065
100
AcDbArc
 50
43.11406702827505
 51
136.885932971725
  0
ARC
  5
1CE
330
3F
100
AcDbEntity
  8
1
  6
Continuous
 62
     3
100
AcDbCircle
 10
-46.5353842760924
 20
119.0903234107718
 30
0.0
 40
66.10169938058932
100
AcDbArc
 50
43.39045719333742
 51
51.25947665728773
  0
ARC
  5
1CF
330
3F
100
AcDbEntity
  8
1
  6
Continuous
 62
     3
100
AcDbCircle
 10
-6.36023754692849
 20
197.5208362212081
 30
0.0
 40
17.99999999999999
100
AcDbArc
 50
-147.9950310843467
 51
-137.367096007602
  0
ARC
  5
1D0
330
3F
100
AcDbEntity
  8
1
  6
Continuous
 62
     3
100
AcDbCircle
 10
-17.41785277634199
 20
190.6839276882598
 30
0.0
 40
4.999999999999909
100
AcDbArc
 50
-169.6736311270705
 51
-147.276024582785
  0
ARC
  5
1D1
330
3F
100
AcDbEntity
  8
1
  6
Continuous
 62
     3
100
AcDbCircle
 10
-47.6766949383005
 20
192.703849727341
 30
0.0
 40
37.00000000000004
100
AcDbArc
 50
-43.97690659750717
 51
-32.29418010190264
  0
ARC
  5
1D2
330
3F
100
AcDbEntity
  8
1
  6
Continuous
 62
     3
100
AcDbCircle
 10
-22.0750928689907
 20
177.0339537488215
 30
0.0
 40
6.999999999999961
100
AcDbArc
 50
-35.83290971213989
 51
35.80001208873758
  0
ARC
  5
1D3
330
3F
100
AcDbEntity
  8
1
  6
Continuous
 62
     3
100
AcDbCircle
 10
-7.24595560515249
 20
173.5839870912766
 30
0.0
 40
9.505125963932302
100
AcDbArc
 50
-17.98660155213851
 51
1.77237501055558
  0
ARC
  5
1D4
330
3F
100
AcDbEntity
  8
1
  6
Continuous
 62
     3
100
AcDbCircle
 10
-7.24595560515249
 20
180.4159642519367
 30
0.0
 40
9.505125963932247
100
AcDbArc
 50
-1.77237501055644
 51
17.98660155213786
  0
ARC
  5
1D5
330
3F
100
AcDbEntity
  8
1
  6
Continuous
 62
     3
100
AcDbCircle
 10
5.39281121494901
 20
173.5839920705868
 30
0.0
 40
9.505180393600838
100
AcDbArc
 50
178.2276651707517
 51
-162.0134734104103
  0
ARC
  5
1D6
330
3F
100
AcDbEntity
  8
1
  6
Continuous
 62
     3
100
AcDbCircle
 10
5.39281121494881
 20
180.4159592726264
 30
0.0
 40
9.505180393600638
100
AcDbArc
 50
162.0134734104098
 51
-178.2276651707516
  0
ARC
  5
1D7
330
3F
100
AcDbEntity
  8
1
  6
Continuous
 62
     3
100
AcDbCircle
 10
-0.92660000000001
 20
171.4186620573894
 30
0.0
 40
2.828032060751941
100
AcDbArc
 50
-164.2044401773411
 51
-15.79555982266094
  0
ARC
  5
1D8
330
3F
100
AcDbEntity
  8
1
  6
Continuous
 62
     3
100
AcDbCircle
 10
-0.92660000000001
 20
182.5788701507633
 30
0.0
 40
2.828691520843334
100
AcDbArc
 50
15.84270966064598
 51
164.1572903393561
  0
ARC
  5
1D9
330
3F
100
AcDbEntity
  8
1
  6
Continuous
 62
     7
100
AcDbCircle
 10
150.309398013309
 20
119.5000288043523
 30
0.0
 40
69.99997119564765
100
AcDbArc
 50
86.36555163129711
 51
90.00000040925573
  0
ARC
  5
1DA
330
3F
100
AcDbEntity
  8
1
  6
Continuous
 62
     7
100
AcDbCircle
 10
150.309397513309
 20
176.4999999999999
 30
0.0
 40
12.50000000000007
100
AcDbArc
 50
131.7916668414013
 51
180.0
  0
ARC
  5
1DB
330
3F
100
AcDbEntity
  8
1
  6
Continuous
 62
     7
100
AcDbCircle
 10
178.309397513309
 20
176.4999999999999
 30
0.0
 40
12.49999999999986
100
AcDbArc
 50
-94.58856573578589
 51
-85.41143426421412
  0
ARC
  5
1DC
330
3F
100
AcDbEntity
  8
1
  6
Continuous
 62
     7
100
AcDbCircle
 10
178.309397513309
 20
176.4999999999999
 30
0.0
 40
12.49999999999986
100
AcDbArc
 50
-85.41143426421412
 51
-56.43083596317339
  0
ARC
  5
1DD
330
3F
100
AcDbEntity
  8
1
  6
Continuous
 62
     7
100
AcDbCircle
 10
166.4948021393329
 20
191.8908797661562
 30
0.0
 40
6.999999999999898
100
AcDbArc
 50
-60.14832404975326
 51
-26.99325572063248
  0
ARC
  5
1DE
330
3F
100
AcDbEntity
  8
1
  6
Continuous
 62
     7
100
AcDbCircle
 10
190.1239928872851
 20
191.8908797661562
 30
0.0
 40
6.999999999999905
100
AcDbArc
 50
-153.0067442793676
 51
-119.8516759502467
  0
ARC
  5
1DF
330
3F
100
AcDbEntity
  8
1
  6
Continuous
 62
     7
100
AcDbCircle
 10
178.309397013309
 20
119.5000288043523
 30
0.0
 40
69.99997119564773
100
AcDbArc
 50
86.36555075479049
 51
89.99999959074427
  0
ARC
  5
1E0
330
3F
100
AcDbEntity
  8
1
  6
Continuous
 62
     7
100
AcDbCircle
 10
178.309397513309
 20
176.4999999999999
 30
0.0
 40
12.50000000000007
100
AcDbArc
 50
131.7916668414013
 51
-163.73979529169
  0
ARC
  5
1E1
330
3F
100
AcDbEntity
  8
1
  6
Continuous
 62
     7
100
AcDbCircle
 10
178.309397513309
 20
176.4999999999999
 30
0.0
 40
12.49999999999996
100
AcDbArc
 50
-163.73979529169
 51
-141.6988194371466
  0
ARC
  5
1E2
330
3F
100
AcDbEntity
  8
1
  6
Continuous
 62
     7
100
AcDbCircle
 10
178.309397513309
 20
176.4999999999999
 30
0.0
 40
12.49999999999994
100
AcDbArc
 50
-141.6988194371466
 51
-123.5691640368271
  0
ARC
  5
1E3
330
3F
100
AcDbEntity
  8
1
  6
Continuous
 62
     7
100
AcDbCircle
 10
178.309397513309
 20
176.4999999999999
 30
0.0
 40
12.49999999999979
100
AcDbArc
 50
-123.5691640368271
 51
-94.58856573578589
  0
ARC
  5
1E4
330
3F
100
AcDbEntity
  8
1
  6
Continuous
 62
     7
100
AcDbCircle
 10
178.309397513309
 20
176.4999999999999
 30
0.0
 40
12.49999999999994
100
AcDbArc
 50
-16.26020470831244
 51
0.0
  0
ARC
  5
1E5
330
3F
100
AcDbEntity
  8
1
  6
Continuous
 62
     7
100
AcDbCircle
 10
178.309397513309
 20
176.4999999999999
 30
0.0
 40
12.49999999999993
100
AcDbArc
 50
-38.30118795830003
 51
-16.26020470831244
  0
ARC
  5
1E6
330
3F
100
AcDbEntity
  8
1
  6
Continuous
 62
     7
100
AcDbCircle
 10
178.309397513309
 20
176.4999999999999
 30
0.0
 40
12.49999999999996
100
AcDbArc
 50
-56.43083596317339
 51
-38.30118795830003
  0
ARC
  5
1E7
330
3F
100
AcDbEntity
  8
1
  6
Continuous
 62
     7
100
AcDbCircle
 10
178.309397013309
 20
119.5000288043523
 30
0.0
 40
69.9999711956477
100
AcDbArc
 50
89.99999959074427
 51
93.6344483687028
  0
ARC
  5
1E8
330
3F
100
AcDbEntity
  8
1
  6
Continuous
 62
     7
100
AcDbCircle
 10
178.309397513309
 20
176.4999999999999
 30
0.0
 40
12.49999999999991
100
AcDbArc
 50
0.0
 51
48.20833315859864
  0
XLINE
  5
1E9
330
3F
100
AcDbEntity
  8
1
  6
DOT_CENTER
 62
     3
 60
     1
100
AcDbXline
 10
2.34999999999999
 20
160.4999765129528
 30
0.0
 11
0.0
 21
1.0
 31
0.0
  0
ARC
  5
1EA
330
3F
100
AcDbEntity
  8
1
  6
Continuous
 62
     7
100
AcDbCircle
 10
145.96714548856
 20
187.8622325196793
 30
0.0
 40
1.500000000000074
100
AcDbArc
 50
93.63444924521029
 51
145.4147407050588
  0
ARC
  5
1EB
330
3F
100
AcDbEntity
  8
1
  6
Continuous
 62
     7
100
AcDbCircle
 10
154.651649492258
 20
187.8622325861067
 30
0.0
 40
1.500000000000071
100
AcDbArc
 50
34.58525621296137
 51
86.36555163129506
  0
ARC
  5
1EC
330
3F
100
AcDbEntity
  8
1
  6
Continuous
 62
     7
100
AcDbCircle
 10
-16.41179
 20
162.9999756716065
 30
0.0
 40
1.0
100
AcDbArc
 50
0.0
 51
90.0
  0
ARC
  5
1ED
330
3F
100
AcDbEntity
  8
1
  6
Continuous
 62
     7
100
AcDbCircle
 10
-16.41179
 20
162.9999756716065
 30
0.0
 40
1.0
100
AcDbArc
 50
90.0
 51
180.0
  0
ARC
  5
1EE
330
3F
100
AcDbEntity
  8
1
  6
Continuous
 62
     7
100
AcDbCircle
 10
182.651649538058
 20
187.8622325196793
 30
0.0
 40
1.500000000000048
100
AcDbArc
 50
34.58525929494117
 51
86.36555075478971
  0
ARC
  5
1EF
330
3F
100
AcDbEntity
  8
1
  6
Continuous
 62
     7
100
AcDbCircle
 10
173.96714553436
 20
187.8622325861067
 30
0.0
 40
1.500000000000047
100
AcDbArc
 50
93.6344483687006
 51
145.4147437870386
  0
ENDBLK
  5
42
330
3F
100
AcDbEntity
  8
0
100
AcDbBlockEnd
  0
BLOCK
  5
44
330
43
100
AcDbEntity
  8
0
100
AcDbBlockBegin
  2
Linsenschraube_DIN_7985_-_M2_5_x_6_-__-___3
 70
     0
 71
     0
 10
-75.0236559999999
 20
-68.55955924482868
 30
0.0
  3
Linsenschraube_DIN_7985_-_M2_5_x_6_-__-___3
  1

  0
LINE
  5
1F0
330
43
100
AcDbEntity
  8
1
  6
Continuous
 62
     7
100
AcDbLine
 10
-3.08989600000001
 20
153.9999756716066
 30
0.0
 11
-3.08989600000001
 21
155.2999756716066
 31
0.0
  0
LINE
  5
1F1
330
43
100
AcDbEntity
  8
1
  6
Continuous
 62
     7
100
AcDbLine
 10
1.91010399999999
 20
153.9999756716066
 30
0.0
 11
-3.08989600000001
 21
153.9999756716066
 31
0.0
  0
LINE
  5
1F2
330
43
100
AcDbEntity
  8
1
  6
Continuous
 62
     7
100
AcDbLine
 10
1.91010399999999
 20
155.2999756716066
 30
0.0
 11
1.91010399999999
 21
153.9999756716066
 31
0.0
  0
LINE
  5
1F3
330
43
100
AcDbEntity
  8
1
  6
Continuous
 62
     7
100
AcDbLine
 10
-3.08989600000001
 20
155.2999756716066
 30
0.0
 11
1.91010399999999
 21
155.2999756716066
 31
0.0
  0
LINE
  5
1F4
330
43
100
AcDbEntity
  8
1
  6
Continuous
 62
     7
100
AcDbLine
 10
-1.83989600000001
 20
153.9999756716066
 30
0.0
 11
0.66010399999999
 21
153.9999756716066
 31
0.0
  0
LINE
  5
1F5
330
43
100
AcDbEntity
  8
1
  6
LONG_DASHED
 62
     2
100
AcDbLine
 10
-0.58989600000001
 20
153.9999756716066
 30
0.0
 11
0.49350859867221
 21
155.8764874816606
 31
0.0
  0
LINE
  5
1F6
330
43
100
AcDbEntity
  8
1
  6
LONG_DASHED
 62
     2
100
AcDbLine
 10
-1.6733005986722
 20
155.8764874816606
 30
0.0
 11
-0.58989600000001
 21
153.9999756716066
 31
0.0
  0
ARC
  5
1F7
330
43
100
AcDbEntity
  8
1
  6
Continuous
 62
     7
100
AcDbCircle
 10
-0.58989600000001
 20
151.1856899573209
 30
0.0
 40
4.814285714285702
100
AcDbArc
 50
58.71550708558246
 51
121.2844929144176
  0
ENDBLK
  5
45
330
43
100
AcDbEntity
  8
0
100
AcDbBlockEnd
  0
BLOCK
  5
47
330
46
100
AcDbEntity
  8
0
100
AcDbBlockBegin
  2
Linsenschraube_DIN_7985_-_M2_5_x_6_-__-___4
 70
     0
 71
     0
 10
-55.089896
 20
152.4999756716065
 30
0.0
  3
Linsenschraube_DIN_7985_-_M2_5_x_6_-__-___4
  1

  0
POINT
  5
1F8
330
46
100
AcDbEntity
  8
1
 62
     3
 60
     1
100
AcDbPoint
 10
160.3093975133095
 20
153.5
 30
0.0
  0
LINE
  5
1F9
330
46
100
AcDbEntity
  8
1
  6
Continuous
 62
     7
100
AcDbLine
 10
-22.91010400000011
 20
153.9999756716065
 30
0.0
 11
-22.91010400000011
 21
155.2999756716065
 31
0.0
  0
LINE
  5
1FA
330
46
100
AcDbEntity
  8
1
  6
Continuous
 62
     7
100
AcDbLine
 10
-17.91010400000011
 20
153.9999756716065
 30
0.0
 11
-22.91010400000011
 21
153.9999756716065
 31
0.0
  0
LINE
  5
1FB
330
46
100
AcDbEntity
  8
1
  6
Continuous
 62
     7
100
AcDbLine
 10
-17.91010400000011
 20
155.2999756716065
 30
0.0
 11
-17.91010400000011
 21
153.9999756716065
 31
0.0
  0
LINE
  5
1FC
330
46
100
AcDbEntity
  8
1
  6
Continuous
 62
     7
100
AcDbLine
 10
-22.91010400000011
 20
155.2999756716065
 30
0.0
 11
-17.91010400000011
 21
155.2999756716065
 31
0.0
  0
LINE
  5
1FD
330
46
100
AcDbEntity
  8
1
  6
Continuous
 62
     7
100
AcDbLine
 10
-21.66010400000011
 20
153.9999756716065
 30
0.0
 11
-19.16010400000011
 21
153.9999756716065
 31
0.0
  0
LINE
  5
1FE
330
46
100
AcDbEntity
  8
1
  6
LONG_DASHED
 62
     2
100
AcDbLine
 10
-20.41010400000011
 20
153.9999756716065
 30
0.0
 11
-19.3266994013279
 21
155.8764874816605
 31
0.0
  0
LINE
  5
1FF
330
46
100
AcDbEntity
  8
1
  6
LONG_DASHED
 62
     2
100
AcDbLine
 10
-21.4935085986722
 20
155.8764874816605
 30
0.0
 11
-20.41010400000011
 21
153.9999756716065
 31
0.0
  0
LINE
  5
200
330
46
100
AcDbEntity
  8
1
  6
Continuous
 62
     7
100
AcDbLine
 10
137.8093975133095
 20
153.5
 30
0.0
 11
137.8093975133095
 21
154.8
 31
0.0
  0
LINE
  5
201
330
46
100
AcDbEntity
  8
1
  6
Continuous
 62
     7
100
AcDbLine
 10
142.8093975133095
 20
153.5
 30
0.0
 11
137.8093975133095
 21
153.5
 31
0.0
  0
LINE
  5
202
330
46
100
AcDbEntity
  8
1
  6
Continuous
 62
     7
100
AcDbLine
 10
142.8093975133095
 20
154.8
 30
0.0
 11
142.8093975133095
 21
153.5
 31
0.0
  0
LINE
  5
203
330
46
100
AcDbEntity
  8
1
  6
Continuous
 62
     7
100
AcDbLine
 10
137.8093975133095
 20
154.8
 30
0.0
 11
142.8093975133095
 21
154.8
 31
0.0
  0
LINE
  5
204
330
46
100
AcDbEntity
  8
1
  6
Continuous
 62
     7
100
AcDbLine
 10
139.0593975133095
 20
153.5
 30
0.0
 11
141.5593975133095
 21
153.5
 31
0.0
  0
LINE
  5
205
330
46
100
AcDbEntity
  8
1
  6
LONG_DASHED
 62
     2
100
AcDbLine
 10
140.3093975133095
 20
153.5
 30
0.0
 11
141.3928021119817
 21
155.376511810054
 31
0.0
  0
LINE
  5
206
330
46
100
AcDbEntity
  8
1
  6
LONG_DASHED
 62
     2
100
AcDbLine
 10
139.2259929146374
 20
155.376511810054
 30
0.0
 11
140.3093975133095
 21
153.5
 31
0.0
  0
LINE
  5
207
330
46
100
AcDbEntity
  8
1
  6
Continuous
 62
     7
100
AcDbLine
 10
157.8093975133095
 20
153.5
 30
0.0
 11
157.8093975133095
 21
154.8
 31
0.0
  0
LINE
  5
208
330
46
100
AcDbEntity
  8
1
  6
Continuous
 62
     7
100
AcDbLine
 10
162.8093975133095
 20
153.5
 30
0.0
 11
157.8093975133095
 21
153.5
 31
0.0
  0
LINE
  5
209
330
46
100
AcDbEntity
  8
1
  6
Continuous
 62
     7
100
AcDbLine
 10
162.8093975133095
 20
154.8
 30
0.0
 11
162.8093975133095
 21
153.5
 31
0.0
  0
LINE
  5
20A
330
46
100
AcDbEntity
  8
1
  6
Continuous
 62
     7
100
AcDbLine
 10
157.8093975133095
 20
154.8
 30
0.0
 11
162.8093975133095
 21
154.8
 31
0.0
  0
LINE
  5
20B
330
46
100
AcDbEntity
  8
1
  6
Continuous
 62
     7
100
AcDbLine
 10
159.0593975133095
 20
153.5
 30
0.0
 11
161.5593975133095
 21
153.5
 31
0.0
  0
LINE
  5
20C
330
46
100
AcDbEntity
  8
1
  6
LONG_DASHED
 62
     2
100
AcDbLine
 10
160.3093975133095
 20
153.5
 30
0.0
 11
161.3928021119817
 21
155.376511810054
 31
0.0
  0
LINE
  5
20D
330
46
100
AcDbEntity
  8
1
  6
LONG_DASHED
 62
     2
100
AcDbLine
 10
159.2259929146374
 20
155.376511810054
 30
0.0
 11
160.3093975133095
 21
153.5
 31
0.0
  0
LINE
  5
20E
330
46
100
AcDbEntity
  8
1
  6
Continuous
 62
     7
100
AcDbLine
 10
190.8093975133086
 20
154.8
 30
0.0
 11
190.8093975133086
 21
153.5
 31
0.0
  0
LINE
  5
20F
330
46
100
AcDbEntity
  8
1
  6
Continuous
 62
     7
100
AcDbLine
 10
190.8093975133086
 20
153.5
 30
0.0
 11
185.8093975133085
 21
153.5
 31
0.0
  0
LINE
  5
210
330
46
100
AcDbEntity
  8
1
  6
Continuous
 62
     7
100
AcDbLine
 10
185.8093975133085
 20
153.5
 30
0.0
 11
185.8093975133085
 21
154.8
 31
0.0
  0
LINE
  5
211
330
46
100
AcDbEntity
  8
1
  6
Continuous
 62
     7
100
AcDbLine
 10
185.8093975133085
 20
154.8
 30
0.0
 11
190.8093975133086
 21
154.8
 31
0.0
  0
LINE
  5
212
330
46
100
AcDbEntity
  8
1
  6
Continuous
 62
     7
100
AcDbLine
 10
187.0593975133085
 20
153.5
 30
0.0
 11
189.5593975133085
 21
153.5
 31
0.0
  0
LINE
  5
213
330
46
100
AcDbEntity
  8
1
  6
LONG_DASHED
 62
     2
100
AcDbLine
 10
187.2259929146364
 20
155.376511810054
 30
0.0
 11
188.3093975133085
 21
153.5
 31
0.0
  0
LINE
  5
214
330
46
100
AcDbEntity
  8
1
  6
LONG_DASHED
 62
     2
100
AcDbLine
 10
188.3093975133085
 20
153.5
 30
0.0
 11
189.3928021119806
 21
155.376511810054
 31
0.0
  0
LINE
  5
215
330
46
100
AcDbEntity
  8
1
  6
Continuous
 62
     7
100
AcDbLine
 10
170.8093975133085
 20
154.8
 30
0.0
 11
170.8093975133085
 21
153.5
 31
0.0
  0
LINE
  5
216
330
46
100
AcDbEntity
  8
1
  6
Continuous
 62
     7
100
AcDbLine
 10
170.8093975133085
 20
153.5
 30
0.0
 11
165.8093975133085
 21
153.5
 31
0.0
  0
LINE
  5
217
330
46
100
AcDbEntity
  8
1
  6
Continuous
 62
     7
100
AcDbLine
 10
165.8093975133085
 20
153.5
 30
0.0
 11
165.8093975133085
 21
154.8
 31
0.0
  0
LINE
  5
218
330
46
100
AcDbEntity
  8
1
  6
Continuous
 62
     7
100
AcDbLine
 10
165.8093975133085
 20
154.8
 30
0.0
 11
170.8093975133085
 21
154.8
 31
0.0
  0
LINE
  5
219
330
46
100
AcDbEntity
  8
1
  6
Continuous
 62
     7
100
AcDbLine
 10
167.0593975133085
 20
153.5
 30
0.0
 11
169.5593975133085
 21
153.5
 31
0.0
  0
LINE
  5
21A
330
46
100
AcDbEntity
  8
1
  6
LONG_DASHED
 62
     2
100
AcDbLine
 10
167.2259929146364
 20
155.376511810054
 30
0.0
 11
168.3093975133085
 21
153.5
 31
0.0
  0
LINE
  5
21B
330
46
100
AcDbEntity
  8
1
  6
LONG_DASHED
 62
     2
100
AcDbLine
 10
168.3093975133085
 20
153.5
 30
0.0
 11
169.3928021119806
 21
155.376511810054
 31
0.0
  0
ARC
  5
21C
330
46
100
AcDbEntity
  8
1
  6
Continuous
 62
     7
100
AcDbCircle
 10
-20.41010400000011
 20
151.1856899573208
 30
0.0
 40
4.814285714285702
100
AcDbArc
 50
58.71550708558246
 51
121.2844929144176
  0
ARC
  5
21D
330
46
100
AcDbEntity
  8
1
  6
Continuous
 62
     7
100
AcDbCircle
 10
140.3093975133095
 20
150.6857142857143
 30
0.0
 40
4.814285714285702
100
AcDbArc
 50
58.71550708558246
 51
121.2844929144176
  0
ARC
  5
21E
330
46
100
AcDbEntity
  8
1
  6
Continuous
 62
     7
100
AcDbCircle
 10
160.3093975133095
 20
150.6857142857143
 30
0.0
 40
4.814285714285702
100
AcDbArc
 50
58.71550708558246
 51
121.2844929144176
  0
ARC
  5
21F
330
46
100
AcDbEntity
  8
1
  6
Continuous
 62
     7
100
AcDbCircle
 10
188.3093975133085
 20
150.6857142857143
 30
0.0
 40
4.814285714285746
100
AcDbArc
 50
58.71550708558159
 51
121.2844929144176
  0
ARC
  5
220
330
46
100
AcDbEntity
  8
1
  6
Continuous
 62
     7
100
AcDbCircle
 10
168.3093975133085
 20
150.6857142857143
 30
0.0
 40
4.814285714285702
100
AcDbArc
 50
58.71550708558246
 51
121.2844929144176
  0
ENDBLK
  5
48
330
46
100
AcDbEntity
  8
0
100
AcDbBlockEnd
  0
BLOCK
  5
4A
330
49
100
AcDbEntity
  8
0
100
AcDbBlockBegin
  2
Winkelflanschdose_8-polig_drehbar__5
 70
     0
 71
     0
 10
344.3254836891306
 20
569.51293335638
 30
0.0
  3
Winkelflanschdose_8-polig_drehbar__5
  1

  0
LINE
  5
221
330
49
100
AcDbEntity
  8
AM_VIS
  6
Continuous
 62
     7
100
AcDbLine
 10
26.06330000000014
 20
187.7999756716064
 30
0.0
 11
20.86330000000004
 21
187.7999756716064
 31
0.0
  0
LINE
  5
222
330
49
100
AcDbEntity
  8
AM_VIS
  6
Continuous
 62
     7
100
AcDbLine
 10
20.86330000000004
 20
176.9999756716066
 30
0.0
 11
20.86330000000004
 21
187.7999756716064
 31
0.0
  0
LINE
  5
223
330
49
100
AcDbEntity
  8
AM_VIS
  6
Continuous
 62
     7
100
AcDbLine
 10
20.16329999999999
 20
180.9509246716066
 30
0.0
 11
20.16329999999999
 21
188.4999756716066
 31
0.0
  0
LINE
  5
224
330
49
100
AcDbEntity
  8
AM_VIS
  6
Continuous
 62
     7
100
AcDbLine
 10
20.16329999999999
 20
165.4999756716066
 30
0.0
 11
20.86330000000004
 21
166.1999756716065
 31
0.0
  0
LINE
  5
225
330
49
100
AcDbEntity
  8
AM_VIS
  6
Continuous
 62
     7
100
AcDbLine
 10
20.16329999999999
 20
180.9509246716066
 30
0.0
 11
20.68969599999997
 21
178.9441976716064
 31
0.0
  0
LINE
  5
226
330
49
100
AcDbEntity
  8
AM_VIS
  6
Continuous
 62
     7
100
AcDbLine
 10
20.68969599999997
 20
178.9441976716064
 30
0.0
 11
20.86330000000004
 21
176.9999756716066
 31
0.0
  0
LINE
  5
227
330
49
100
AcDbEntity
  8
AM_VIS
  6
Continuous
 62
     7
100
AcDbLine
 10
20.86330000000004
 20
176.9999756716066
 30
0.0
 11
20.68969599999997
 21
175.0557536716066
 31
0.0
  0
LINE
  5
228
330
49
100
AcDbEntity
  8
AM_VIS
  6
Continuous
 62
     7
100
AcDbLine
 10
20.68969599999997
 20
175.0557536716066
 30
0.0
 11
20.16329999999999
 21
173.0490266716064
 31
0.0
  0
LINE
  5
229
330
49
100
AcDbEntity
  8
AM_VIS
  6
Continuous
 62
     7
100
AcDbLine
 10
20.16329999999999
 20
165.4999756716066
 30
0.0
 11
20.16329999999999
 21
173.0490266716064
 31
0.0
  0
LINE
  5
22A
330
49
100
AcDbEntity
  8
AM_VIS
  6
Continuous
 62
     7
100
AcDbLine
 10
20.86330000000004
 20
166.1999756716065
 30
0.0
 11
26.06330000000014
 21
166.1999756716065
 31
0.0
  0
LINE
  5
22B
330
49
100
AcDbEntity
  8
AM_VIS
  6
Continuous
 62
     7
100
AcDbLine
 10
20.86330000000004
 20
166.1999756716065
 30
0.0
 11
20.86330000000004
 21
176.9999756716066
 31
0.0
  0
LINE
  5
22C
330
49
100
AcDbEntity
  8
AM_VIS
  6
Continuous
 62
     7
100
AcDbLine
 10
20.86330000000004
 20
187.7999756716064
 30
0.0
 11
20.16329999999999
 21
188.4999756716066
 31
0.0
  0
LINE
  5
22D
330
49
100
AcDbEntity
  8
1
  6
Continuous
 62
     7
100
AcDbLine
 10
26.06330000000014
 20
187.7999756716064
 30
0.0
 11
26.06330000000014
 21
166.1999756716065
 31
0.0
  0
ENDBLK
  5
4B
330
49
100
AcDbEntity
  8
0
100
AcDbBlockEnd
  0
BLOCK
  5
4D
330
4C
100
AcDbEntity
  8
0
100
AcDbBlockBegin
  2
Zwischenst_ck__6
 70
     0
 71
     0
 10
11.13608328375693
 20
298.100979177073
 30
0.0
  3
Zwischenst_ck__6
  1

  0
LINE
  5
22E
330
4C
100
AcDbEntity
  8
1
  6
Continuous
 62
     7
100
AcDbLine
 10
-109.0000000000001
 20
148.5
 30
0.0
 11
-35.0
 21
148.5
 31
0.0
  0
LINE
  5
22F
330
4C
100
AcDbEntity
  8
1
  6
Continuous
 62
     7
100
AcDbLine
 10
-109.0000000000001
 20
148.5
 30
0.0
 11
-109.0
 21
139.0
 31
0.0
  0
LINE
  5
230
330
4C
100
AcDbEntity
  8
1
  6
Continuous
 62
     7
100
AcDbLine
 10
-35.0
 20
148.5
 30
0.0
 11
-34.99999999999997
 21
139.0
 31
0.0
  0
LINE
  5
231
330
4C
100
AcDbEntity
  8
1
  6
Continuous
 62
     7
100
AcDbLine
 10
-35.0
 20
61.49999999999999
 30
0.0
 11
-109.0
 21
61.49999999999999
 31
0.0
  0
LINE
  5
232
330
4C
100
AcDbEntity
  8
1
  6
Continuous
 62
     7
100
AcDbLine
 10
-109.0
 20
139.0
 30
0.0
 11
-34.99999999999997
 21
139.0
 31
0.0
  0
LINE
  5
233
330
4C
100
AcDbEntity
  8
1
  6
Continuous
 62
     7
100
AcDbLine
 10
-109.0
 20
139.0
 30
0.0
 11
-109.0
 21
134.75
 31
0.0
  0
LINE
  5
234
330
4C
100
AcDbEntity
  8
1
  6
Continuous
 62
     7
100
AcDbLine
 10
-34.99999999999997
 20
139.0
 30
0.0
 11
-34.99999999999997
 21
134.75
 31
0.0
  0
LINE
  5
235
330
4C
100
AcDbEntity
  8
1
  6
Continuous
 62
     7
100
AcDbLine
 10
-109.0
 20
134.75
 30
0.0
 11
-34.99999999999997
 21
134.75
 31
0.0
  0
LINE
  5
236
330
4C
100
AcDbEntity
  8
1
  6
Continuous
 62
     7
100
AcDbLine
 10
-109.0
 20
134.75
 30
0.0
 11
-109.0
 21
75.25
 31
0.0
  0
LINE
  5
237
330
4C
100
AcDbEntity
  8
1
  6
Continuous
 62
     7
100
AcDbLine
 10
-34.99999999999997
 20
134.75
 30
0.0
 11
-34.99999999999997
 21
75.25
 31
0.0
  0
LINE
  5
238
330
4C
100
AcDbEntity
  8
1
  6
Continuous
 62
     7
100
AcDbLine
 10
-109.0
 20
75.25
 30
0.0
 11
-34.99999999999997
 21
75.25
 31
0.0
  0
LINE
  5
239
330
4C
100
AcDbEntity
  8
1
  6
Continuous
 62
     7
100
AcDbLine
 10
-109.0
 20
75.25
 30
0.0
 11
-109.0
 21
71.0
 31
0.0
  0
LINE
  5
23A
330
4C
100
AcDbEntity
  8
1
  6
Continuous
 62
     7
100
AcDbLine
 10
-34.99999999999997
 20
75.25
 30
0.0
 11
-34.99999999999999
 21
71.0
 31
0.0
  0
LINE
  5
23B
330
4C
100
AcDbEntity
  8
1
  6
Continuous
 62
     7
100
AcDbLine
 10
-34.99999999999999
 20
71.0
 30
0.0
 11
-109.0
 21
71.0
 31
0.0
  0
LINE
  5
23C
330
4C
100
AcDbEntity
  8
1
  6
Continuous
 62
     7
100
AcDbLine
 10
-109.0
 20
71.0
 30
0.0
 11
-109.0
 21
61.49999999999999
 31
0.0
  0
LINE
  5
23D
330
4C
100
AcDbEntity
  8
1
  6
Continuous
 62
     7
100
AcDbLine
 10
-34.99999999999999
 20
71.0
 30
0.0
 11
-35.0
 21
61.49999999999999
 31
0.0
  0
ENDBLK
  5
4E
330
4C
100
AcDbEntity
  8
0
100
AcDbBlockEnd
  0
BLOCK
  5
50
330
4F
100
AcDbEntity
  8
0
100
AcDbBlockBegin
  2
tb_frame_A3
 70
     0
 71
     0
 10
0.0
 20
0.0
 30
0.0
  3
tb_frame_A3
  1

  0
POINT
  5
23E
330
4F
100
AcDbEntity
  8
1
 62
   250
100
AcDbPoint
 10
205.0
 20
-142.5
 30
0.0
  0
LINE
  5
23F
102
{ACAD_REACTORS
330
342
330
342
102
}
330
4F
100
AcDbEntity
  8
1
  6
Continuous
 62
     2
100
AcDbLine
 10
145.8516542509982
 20
-115.0199999999999
 30
0.0
 11
145.8516542509982
 21
-118.30758746051
 31
0.0
  0
LINE
  5
240
102
{ACAD_REACTORS
330
342
330
342
102
}
330
4F
100
AcDbEntity
  8
1
  6
Continuous
 62
     2
100
AcDbLine
 10
145.8516542509982
 20
-115.0199999999999
 30
0.0
 11
147.1516542509982
 21
-115.0199999999999
 31
0.0
  0
LINE
  5
241
102
{ACAD_REACTORS
330
342
330
342
102
}
330
4F
100
AcDbEntity
  8
1
  6
Continuous
 62
     2
100
AcDbLine
 10
147.1516542509982
 20
-113.9199999999999
 30
0.0
 11
147.1516542509982
 21
-115.0199999999999
 31
0.0
  0
LINE
  5
242
102
{ACAD_REACTORS
330
342
330
342
102
}
330
4F
100
AcDbEntity
  8
1
  6
Continuous
 62
     2
100
AcDbLine
 10
145.8516542509982
 20
-113.9199999999999
 30
0.0
 11
147.1516542509982
 21
-113.9199999999999
 31
0.0
  0
LINE
  5
243
102
{ACAD_REACTORS
330
342
330
342
102
}
330
4F
100
AcDbEntity
  8
1
  6
Continuous
 62
     2
100
AcDbLine
 10
145.8516542509982
 20
-118.30758746051
 30
0.0
 11
147.1516542509982
 21
-118.30758746051
 31
0.0
  0
LINE
  5
244
102
{ACAD_REACTORS
330
342
330
342
102
}
330
4F
100
AcDbEntity
  8
1
  6
Continuous
 62
     2
100
AcDbLine
 10
145.8516542509982
 20
-111.3199999999999
 30
0.0
 11
145.8516542509982
 21
-113.9199999999999
 31
0.0
  0
LINE
  5
245
102
{ACAD_REACTORS
330
34C
330
34C
102
}
330
4F
100
AcDbEntity
  8
1
  6
Continuous
 62
     2
100
AcDbLine
 10
141.9927287849846
 20
-115.9199999999999
 30
0.0
 11
142.5516542509982
 21
-115.9199999999999
 31
0.0
  0
LINE
  5
246
330
4F
100
AcDbEntity
  8
1
  6
Continuous
 62
     2
100
AcDbLine
 10
141.9927287849846
 20
-115.9199999999999
 30
0.0
 11
142.2516542509982
 21
-115.9199999999999
 31
0.0
  0
LINE
  5
247
102
{ACAD_REACTORS
330
34C
330
34C
102
}
330
4F
100
AcDbEntity
  8
1
  6
Continuous
 62
     2
100
AcDbLine
 10
141.9927287849846
 20
-114.7199999999999
 30
0.0
 11
143.7516542509982
 21
-114.7199999999999
 31
0.0
  0
LINE
  5
248
102
{ACAD_REACTORS
330
34C
330
34C
102
}
330
4F
100
AcDbEntity
  8
1
  6
Continuous
 62
     2
100
AcDbLine
 10
141.9927287849846
 20
-114.7199999999999
 30
0.0
 11
141.9927287849846
 21
-115.9199999999999
 31
0.0
  0
LINE
  5
249
102
{ACAD_REACTORS
330
34C
330
34C
102
}
330
4F
100
AcDbEntity
  8
1
  6
Continuous
 62
     2
100
AcDbLine
 10
143.7516542509982
 20
-119.4199999999999
 30
0.0
 11
143.2516542509982
 21
-119.4199999999999
 31
0.0
  0
LINE
  5
24A
102
{ACAD_REACTORS
330
34C
330
34C
102
}
330
4F
100
AcDbEntity
  8
1
  6
Continuous
 62
     2
100
AcDbLine
 10
143.7516542509982
 20
-111.2199999999999
 30
0.0
 11
143.7516542509982
 21
-113.3199999999999
 31
0.0
  0
LINE
  5
24B
102
{ACAD_REACTORS
330
342
330
342
102
}
330
4F
100
AcDbEntity
  8
1
  6
Continuous
 62
     2
100
AcDbLine
 10
147.1516542509982
 20
-110.2199999999999
 30
0.0
 11
144.5516542509982
 21
-110.2199999999999
 31
0.0
  0
LINE
  5
24C
102
{ACAD_REACTORS
330
342
330
342
102
}
330
4F
100
AcDbEntity
  8
1
  6
Continuous
 62
     2
100
AcDbLine
 10
144.5516542509982
 20
-110.2199999999999
 30
0.0
 11
144.5516542509982
 21
-119.4199999999999
 31
0.0
  0
LINE
  5
24D
102
{ACAD_REACTORS
330
342
330
342
102
}
330
4F
100
AcDbEntity
  8
1
  6
Continuous
 62
     2
100
AcDbLine
 10
144.5516542509982
 20
-119.4199999999999
 30
0.0
 11
147.1516542509982
 21
-119.4199999999999
 31
0.0
  0
LINE
  5
24E
102
{ACAD_REACTORS
330
342
330
342
102
}
330
4F
100
AcDbEntity
  8
1
  6
Continuous
 62
     2
100
AcDbLine
 10
147.1516542509982
 20
-119.4199999999999
 30
0.0
 11
147.1516542509982
 21
-118.30758746051
 31
0.0
  0
LINE
  5
24F
102
{ACAD_REACTORS
330
34C
330
34C
102
}
330
4F
100
AcDbEntity
  8
1
  6
Continuous
 62
     2
100
AcDbLine
 10
143.7516542509982
 20
-114.7199999999999
 30
0.0
 11
143.7516542509982
 21
-119.4199999999999
 31
0.0
  0
LINE
  5
250
102
{ACAD_REACTORS
330
34C
330
34C
102
}
330
4F
100
AcDbEntity
  8
1
  6
Continuous
 62
     2
100
AcDbLine
 10
143.2516542509982
 20
-119.4199999999999
 30
0.0
 11
142.9048783308657
 21
-118.8199999999999
 31
0.0
  0
LINE
  5
251
102
{ACAD_REACTORS
330
34C
330
34C
102
}
330
4F
100
AcDbEntity
  8
1
  6
Continuous
 62
     2
100
AcDbLine
 10
141.0516542509982
 20
-119.4199999999999
 30
0.0
 11
141.9016542509982
 21
-119.4199999999999
 31
0.0
  0
LINE
  5
252
102
{ACAD_REACTORS
330
345
330
345
102
}
330
4F
100
AcDbEntity
  8
1
  6
Continuous
 62
     2
100
AcDbLine
 10
148.9516542509982
 20
-110.2199999999999
 30
0.0
 11
150.6516542509982
 21
-110.2199999999999
 31
0.0
  0
LINE
  5
253
102
{ACAD_REACTORS
330
345
330
345
102
}
330
4F
100
AcDbEntity
  8
1
  6
Continuous
 62
     2
100
AcDbLine
 10
150.6516542509982
 20
-119.4199999999999
 30
0.0
 11
148.9516542509982
 21
-119.4199999999999
 31
0.0
  0
LINE
  5
254
102
{ACAD_REACTORS
330
345
330
345
102
}
330
4F
100
AcDbEntity
  8
1
  6
Continuous
 62
     2
100
AcDbLine
 10
147.9516542509982
 20
-111.2199999999999
 30
0.0
 11
147.9516542509982
 21
-118.4199999999999
 31
0.0
  0
LINE
  5
255
102
{ACAD_REACTORS
330
345
330
345
102
}
330
4F
100
AcDbEntity
  8
1
  6
Continuous
 62
     2
100
AcDbLine
 10
151.6516542509982
 20
-111.2199999999999
 30
0.0
 11
151.6516542509982
 21
-118.4199999999999
 31
0.0
  0
LINE
  5
256
102
{ACAD_REACTORS
330
34A
330
34A
102
}
330
4F
100
AcDbEntity
  8
1
  6
Continuous
 62
     2
100
AcDbLine
 10
152.4516542509982
 20
-110.2199999999999
 30
0.0
 11
152.4516542509982
 21
-119.4199999999999
 31
0.0
  0
LINE
  5
257
102
{ACAD_REACTORS
330
34A
330
34A
102
}
330
4F
100
AcDbEntity
  8
1
  6
Continuous
 62
     2
100
AcDbLine
 10
152.4516542509982
 20
-110.2199999999999
 30
0.0
 11
155.1516542509982
 21
-110.2199999999999
 31
0.0
  0
LINE
  5
258
102
{ACAD_REACTORS
330
34A
330
34A
102
}
330
4F
100
AcDbEntity
  8
1
  6
Continuous
 62
     2
100
AcDbLine
 10
156.1516542509982
 20
-114.0043621302671
 30
0.0
 11
156.1516542509982
 21
-111.2199999999999
 31
0.0
  0
LINE
  5
259
102
{ACAD_REACTORS
330
34A
330
34A
102
}
330
4F
100
AcDbEntity
  8
1
  6
Continuous
 62
     2
100
AcDbLine
 10
156.1516542509982
 20
-115.6603414185126
 30
0.0
 11
156.1516542509982
 21
-119.4199999999999
 31
0.0
  0
LINE
  5
25A
102
{ACAD_REACTORS
330
34B
330
34B
102
}
330
4F
100
AcDbEntity
  8
1
  6
Continuous
 62
     2
100
AcDbLine
 10
157.9516542509982
 20
-110.2199999999999
 30
0.0
 11
159.6516542509982
 21
-110.2199999999999
 31
0.0
  0
LINE
  5
25B
102
{ACAD_REACTORS
330
34B
330
34B
102
}
330
4F
100
AcDbEntity
  8
1
  6
Continuous
 62
     2
100
AcDbLine
 10
160.6516542509982
 20
-119.4199999999999
 30
0.0
 11
160.6516542509982
 21
-114.7199999999999
 31
0.0
  0
LINE
  5
25C
102
{ACAD_REACTORS
330
34B
330
34B
102
}
330
4F
100
AcDbEntity
  8
1
  6
Continuous
 62
     2
100
AcDbLine
 10
160.6516542509982
 20
-113.3199999999999
 30
0.0
 11
159.4516542509982
 21
-113.3199999999999
 31
0.0
  0
LINE
  5
25D
102
{ACAD_REACTORS
330
34B
330
34B
102
}
330
4F
100
AcDbEntity
  8
1
  6
Continuous
 62
     2
100
AcDbLine
 10
160.6516542509982
 20
-113.3199999999999
 30
0.0
 11
160.6516542509983
 21
-111.2199999999999
 31
0.0
  0
LINE
  5
25E
102
{ACAD_REACTORS
330
344
330
344
102
}
330
4F
100
AcDbEntity
  8
1
  6
Continuous
 62
     2
100
AcDbLine
 10
168.6516542509982
 20
-110.2199999999999
 30
0.0
 11
169.8516542509982
 21
-110.2199999999999
 31
0.0
  0
LINE
  5
25F
102
{ACAD_REACTORS
330
344
330
344
102
}
330
4F
100
AcDbEntity
  8
1
  6
Continuous
 62
     2
100
AcDbLine
 10
168.6516542509982
 20
-119.4199999999999
 30
0.0
 11
169.8516542509982
 21
-119.4199999999999
 31
0.0
  0
LINE
  5
260
102
{ACAD_REACTORS
330
344
330
344
102
}
330
4F
100
AcDbEntity
  8
1
  6
Continuous
 62
     2
100
AcDbLine
 10
168.6516542509982
 20
-119.4199999999999
 30
0.0
 11
168.6516542509982
 21
-110.2199999999999
 31
0.0
  0
LINE
  5
261
330
4F
100
AcDbEntity
  8
1
  6
Continuous
 62
     2
100
AcDbLine
 10
168.6516542509982
 20
-119.4199999999999
 30
0.0
 11
169.8516542509982
 21
-119.4199999999999
 31
0.0
  0
LINE
  5
262
102
{ACAD_REACTORS
330
348
330
348
102
}
330
4F
100
AcDbEntity
  8
1
  6
Continuous
 62
     2
100
AcDbLine
 10
174.1516542509982
 20
-110.2199999999999
 30
0.0
 11
175.8516542509982
 21
-110.2199999999999
 31
0.0
  0
LINE
  5
263
102
{ACAD_REACTORS
330
348
330
348
102
}
330
4F
100
AcDbEntity
  8
1
  6
Continuous
 62
     2
100
AcDbLine
 10
174.1516542509982
 20
-119.4199999999999
 30
0.0
 11
175.8516542509982
 21
-119.4199999999999
 31
0.0
  0
LINE
  5
264
102
{ACAD_REACTORS
330
347
330
347
102
}
330
4F
100
AcDbEntity
  8
1
  6
Continuous
 62
     2
100
AcDbLine
 10
177.6516542509982
 20
-110.2199999999999
 30
0.0
 11
177.6516542509982
 21
-119.4199999999999
 31
0.0
  0
LINE
  5
265
102
{ACAD_REACTORS
330
347
330
347
102
}
330
4F
100
AcDbEntity
  8
1
  6
Continuous
 62
     2
100
AcDbLine
 10
180.3516542509982
 20
-110.2199999999999
 30
0.0
 11
177.6516542509982
 21
-110.2199999999999
 31
0.0
  0
LINE
  5
266
102
{ACAD_REACTORS
330
347
330
347
102
}
330
4F
100
AcDbEntity
  8
1
  6
Continuous
 62
     2
100
AcDbLine
 10
177.6516542509982
 20
-119.4199999999999
 30
0.0
 11
180.3516542509982
 21
-119.4199999999999
 31
0.0
  0
LINE
  5
267
102
{ACAD_REACTORS
330
346
330
346
102
}
330
4F
100
AcDbEntity
  8
1
  6
Continuous
 62
     2
100
AcDbLine
 10
182.1516542509982
 20
-111.2199999999999
 30
0.0
 11
182.1516542509982
 21
-118.4199999999999
 31
0.0
  0
LINE
  5
268
102
{ACAD_REACTORS
330
346
330
346
102
}
330
4F
100
AcDbEntity
  8
1
  6
Continuous
 62
     2
100
AcDbLine
 10
183.1516542509982
 20
-119.4199999999999
 30
0.0
 11
184.8516542509982
 21
-119.4199999999999
 31
0.0
  0
LINE
  5
269
102
{ACAD_REACTORS
330
346
330
346
102
}
330
4F
100
AcDbEntity
  8
1
  6
Continuous
 62
     2
100
AcDbLine
 10
185.8516542509982
 20
-111.2199999999999
 30
0.0
 11
185.8516542509982
 21
-118.4199999999999
 31
0.0
  0
LINE
  5
26A
102
{ACAD_REACTORS
330
346
330
346
102
}
330
4F
100
AcDbEntity
  8
1
  6
Continuous
 62
     2
100
AcDbLine
 10
183.1516542509982
 20
-110.2199999999999
 30
0.0
 11
184.8516542509982
 21
-110.2199999999999
 31
0.0
  0
LINE
  5
26B
102
{ACAD_REACTORS
330
343
330
343
102
}
330
4F
100
AcDbEntity
  8
1
  6
Continuous
 62
     2
100
AcDbLine
 10
186.6516542509982
 20
-110.2199999999999
 30
0.0
 11
186.6516542509982
 21
-119.4199999999999
 31
0.0
  0
LINE
  5
26C
102
{ACAD_REACTORS
330
343
330
343
102
}
330
4F
100
AcDbEntity
  8
1
  6
Continuous
 62
     2
100
AcDbLine
 10
186.6516542509982
 20
-119.4199999999999
 30
0.0
 11
189.2516542509982
 21
-119.4199999999999
 31
0.0
  0
LINE
  5
26D
102
{ACAD_REACTORS
330
343
330
343
102
}
330
4F
100
AcDbEntity
  8
1
  6
Continuous
 62
     2
100
AcDbLine
 10
189.2516542509982
 20
-119.4199999999999
 30
0.0
 11
189.2516542509982
 21
-118.30758746051
 31
0.0
  0
LINE
  5
26E
102
{ACAD_REACTORS
330
343
330
343
102
}
330
4F
100
AcDbEntity
  8
1
  6
Continuous
 62
     2
100
AcDbLine
 10
186.6516542509982
 20
-110.2199999999999
 30
0.0
 11
187.8516542509982
 21
-110.2199999999999
 31
0.0
  0
LINE
  5
26F
102
{ACAD_REACTORS
330
349
330
349
102
}
330
4F
100
AcDbEntity
  8
1
  6
Continuous
 62
     2
100
AcDbLine
 10
190.0516542509982
 20
-119.4199999999999
 30
0.0
 11
190.0516542509982
 21
-110.2199999999999
 31
0.0
  0
LINE
  5
270
102
{ACAD_REACTORS
330
349
330
349
102
}
330
4F
100
AcDbEntity
  8
1
  6
Continuous
 62
     2
100
AcDbLine
 10
190.0516542509982
 20
-110.2199999999999
 30
0.0
 11
192.7516542509982
 21
-110.2199999999999
 31
0.0
  0
LINE
  5
271
102
{ACAD_REACTORS
330
348
330
348
102
}
330
4F
100
AcDbEntity
  8
1
  6
Continuous
 62
     2
100
AcDbLine
 10
176.8516542509982
 20
-111.2199999999999
 30
0.0
 11
176.8516542509982
 21
-118.4199999999999
 31
0.0
  0
LINE
  5
272
102
{ACAD_REACTORS
330
349
330
349
102
}
330
4F
100
AcDbEntity
  8
1
  6
Continuous
 62
     2
100
AcDbLine
 10
192.7516542509982
 20
-119.4199999999999
 30
0.0
 11
190.0516542509982
 21
-119.4199999999999
 31
0.0
  0
LINE
  5
273
102
{ACAD_REACTORS
330
349
330
349
102
}
330
4F
100
AcDbEntity
  8
1
  6
Continuous
 62
     2
100
AcDbLine
 10
193.7516542509982
 20
-111.2199999999999
 30
0.0
 11
193.7516542509982
 21
-118.4199999999999
 31
0.0
  0
LINE
  5
274
102
{ACAD_REACTORS
330
34B
330
34B
102
}
330
4F
100
AcDbEntity
  8
1
  6
Continuous
 62
     2
100
AcDbLine
 10
157.9516542509982
 20
-119.4199999999999
 30
0.0
 11
158.8173222162131
 21
-119.4199999999999
 31
0.0
  0
LINE
  5
275
102
{ACAD_REACTORS
330
34B
330
34B
102
}
330
4F
100
AcDbEntity
  8
1
  6
Continuous
 62
     2
100
AcDbLine
 10
156.9516542509982
 20
-118.4199999999999
 30
0.0
 11
156.9516542509982
 21
-111.2199999999999
 31
0.0
  0
LINE
  5
276
102
{ACAD_REACTORS
330
34C
330
34C
102
}
330
4F
100
AcDbEntity
  8
1
  6
Continuous
 62
     2
100
AcDbLine
 10
140.0516542509982
 20
-111.2199999999999
 30
0.0
 11
140.0516542509982
 21
-118.4199999999999
 31
0.0
  0
LINE
  5
277
102
{ACAD_REACTORS
330
34C
330
34C
102
}
330
4F
100
AcDbEntity
  8
1
  6
Continuous
 62
     2
100
AcDbLine
 10
141.0516542509982
 20
-110.2199999999999
 30
0.0
 11
142.7516542509982
 21
-110.2199999999999
 31
0.0
  0
LINE
  5
278
102
{ACAD_REACTORS
330
34B
330
34B
102
}
330
4F
100
AcDbEntity
  8
1
  6
Continuous
 62
     2
100
AcDbLine
 10
160.6516542509982
 20
-119.4199999999999
 30
0.0
 11
160.1516542509982
 21
-119.4199999999999
 31
0.0
  0
LINE
  5
279
102
{ACAD_REACTORS
330
34B
330
34B
102
}
330
4F
100
AcDbEntity
  8
1
  6
Continuous
 62
     2
100
AcDbLine
 10
160.1516542509982
 20
-119.4199999999999
 30
0.0
 11
159.8046153744343
 21
-118.8199999999999
 31
0.0
  0
LINE
  5
27A
102
{ACAD_REACTORS
330
34B
330
34B
102
}
330
4F
100
AcDbEntity
  8
1
  6
Continuous
 62
     2
100
AcDbLine
 10
159.4516542509982
 20
-113.3199999999999
 30
0.0
 11
159.4516542509982
 21
-111.9699999999999
 31
0.0
  0
LINE
  5
27B
102
{ACAD_REACTORS
330
34B
330
34B
102
}
330
4F
100
AcDbEntity
  8
1
  6
Continuous
 62
     2
100
AcDbLine
 10
158.1516542509982
 20
-111.9699999999999
 30
0.0
 11
158.1516542509982
 21
-117.65758746051
 31
0.0
  0
LINE
  5
27C
102
{ACAD_REACTORS
330
34B
330
34B
102
}
330
4F
100
AcDbEntity
  8
1
  6
Continuous
 62
     2
100
AcDbLine
 10
159.4516542509982
 20
-117.65758746051
 30
0.0
 11
159.4516542509982
 21
-115.9199999999999
 31
0.0
  0
LINE
  5
27D
102
{ACAD_REACTORS
330
34A
330
34A
102
}
330
4F
100
AcDbEntity
  8
1
  6
Continuous
 62
     2
100
AcDbLine
 10
154.9516542509982
 20
-113.5699999999999
 30
0.0
 11
154.9516542509982
 21
-111.9699999999999
 31
0.0
  0
LINE
  5
27E
102
{ACAD_REACTORS
330
34A
330
34A
102
}
330
4F
100
AcDbEntity
  8
1
  6
Continuous
 62
     2
100
AcDbLine
 10
154.9516542509982
 20
-116.0699999999999
 30
0.0
 11
154.9516542509982
 21
-119.4199999999999
 31
0.0
  0
LINE
  5
27F
102
{ACAD_REACTORS
330
34A
330
34A
102
}
330
4F
100
AcDbEntity
  8
1
  6
Continuous
 62
     2
100
AcDbLine
 10
154.9516542509982
 20
-119.4199999999999
 30
0.0
 11
156.1516542509982
 21
-119.4199999999999
 31
0.0
  0
LINE
  5
280
102
{ACAD_REACTORS
330
34A
330
34A
102
}
330
4F
100
AcDbEntity
  8
1
  6
Continuous
 62
     2
100
AcDbLine
 10
153.6516542509982
 20
-119.4199999999999
 30
0.0
 11
152.4516542509982
 21
-119.4199999999999
 31
0.0
  0
LINE
  5
281
102
{ACAD_REACTORS
330
340
330
340
102
}
330
4F
100
AcDbEntity
  8
1
  6
Continuous
 62
     2
100
AcDbLine
 10
161.4516542509982
 20
-110.2199999999999
 30
0.0
 11
162.6516542509982
 21
-110.2199999999999
 31
0.0
  0
LINE
  5
282
102
{ACAD_REACTORS
330
341
330
341
102
}
330
4F
100
AcDbEntity
  8
1
  6
Continuous
 62
     2
100
AcDbLine
 10
163.4516542509982
 20
-110.2199999999999
 30
0.0
 11
164.6516542509982
 21
-110.2199999999999
 31
0.0
  0
LINE
  5
283
102
{ACAD_REACTORS
330
340
330
340
102
}
330
4F
100
AcDbEntity
  8
1
  6
Continuous
 62
     2
100
AcDbLine
 10
161.4516542509982
 20
-119.4199999999999
 30
0.0
 11
162.6516542509982
 21
-119.4199999999999
 31
0.0
  0
LINE
  5
284
102
{ACAD_REACTORS
330
341
330
341
102
}
330
4F
100
AcDbEntity
  8
1
  6
Continuous
 62
     2
100
AcDbLine
 10
164.6516542509982
 20
-119.4199999999999
 30
0.0
 11
164.6516542509982
 21
-110.2199999999999
 31
0.0
  0
LINE
  5
285
102
{ACAD_REACTORS
330
341
330
341
102
}
330
4F
100
AcDbEntity
  8
1
  6
Continuous
 62
     2
100
AcDbLine
 10
163.4516542509982
 20
-110.2199999999999
 30
0.0
 11
163.4516542509982
 21
-119.4199999999999
 31
0.0
  0
LINE
  5
286
102
{ACAD_REACTORS
330
340
330
340
102
}
330
4F
100
AcDbEntity
  8
1
  6
Continuous
 62
     2
100
AcDbLine
 10
162.6516542509982
 20
-119.4199999999999
 30
0.0
 11
162.6516542509982
 21
-110.2199999999999
 31
0.0
  0
LINE
  5
287
102
{ACAD_REACTORS
330
340
330
340
102
}
330
4F
100
AcDbEntity
  8
1
  6
Continuous
 62
     2
100
AcDbLine
 10
161.4516542509982
 20
-110.2199999999999
 30
0.0
 11
161.4516542509982
 21
-119.4199999999999
 31
0.0
  0
LINE
  5
288
102
{ACAD_REACTORS
330
34B
330
34B
102
}
330
4F
100
AcDbEntity
  8
1
  6
Continuous
 62
     2
100
AcDbLine
 10
158.9016542509982
 20
-114.7199999999999
 30
0.0
 11
159.7415058473918
 21
-114.7199999999999
 31
0.0
  0
LINE
  5
289
102
{ACAD_REACTORS
330
34B
330
34B
102
}
330
4F
100
AcDbEntity
  8
1
  6
Continuous
 62
     2
100
AcDbLine
 10
158.9016542509982
 20
-114.7199999999999
 30
0.0
 11
158.9016542509982
 21
-115.9199999999999
 31
0.0
  0
LINE
  5
28A
102
{ACAD_REACTORS
330
34B
330
34B
102
}
330
4F
100
AcDbEntity
  8
1
  6
Continuous
 62
     2
100
AcDbLine
 10
158.9016542509982
 20
-115.9199999999999
 30
0.0
 11
159.4516542509982
 21
-115.9199999999999
 31
0.0
  0
LINE
  5
28B
102
{ACAD_REACTORS
330
341
330
341
102
}
330
4F
100
AcDbEntity
  8
1
  6
Continuous
 62
     2
100
AcDbLine
 10
163.4516542509982
 20
-119.4199999999999
 30
0.0
 11
164.6516542509982
 21
-119.4199999999999
 31
0.0
  0
LINE
  5
28C
102
{ACAD_REACTORS
330
342
330
342
102
}
330
4F
100
AcDbEntity
  8
1
  6
Continuous
 62
     2
100
AcDbLine
 10
145.8516542509982
 20
-111.3199999999999
 30
0.0
 11
147.1516542509982
 21
-111.3199999999999
 31
0.0
  0
LINE
  5
28D
102
{ACAD_REACTORS
330
342
330
342
102
}
330
4F
100
AcDbEntity
  8
1
  6
Continuous
 62
     2
100
AcDbLine
 10
147.1516542509982
 20
-111.3199999999999
 30
0.0
 11
147.1516542509982
 21
-110.2199999999999
 31
0.0
  0
LINE
  5
28E
102
{ACAD_REACTORS
330
345
330
345
102
}
330
4F
100
AcDbEntity
  8
1
  6
Continuous
 62
     2
100
AcDbLine
 10
150.4516542509982
 20
-111.9699999999999
 30
0.0
 11
150.4516542509982
 21
-117.65758746051
 31
0.0
  0
LINE
  5
28F
102
{ACAD_REACTORS
330
345
330
345
102
}
330
4F
100
AcDbEntity
  8
1
  6
Continuous
 62
     2
100
AcDbLine
 10
149.1516542509982
 20
-111.9699999999999
 30
0.0
 11
149.1516542509982
 21
-117.65758746051
 31
0.0
  0
LINE
  5
290
102
{ACAD_REACTORS
330
34C
330
34C
102
}
330
4F
100
AcDbEntity
  8
1
  6
Continuous
 62
     2
100
AcDbLine
 10
142.5516542509982
 20
-117.65758746051
 30
0.0
 11
142.5516542509982
 21
-115.9199999999999
 31
0.0
  0
LINE
  5
291
102
{ACAD_REACTORS
330
34C
330
34C
102
}
330
4F
100
AcDbEntity
  8
1
  6
Continuous
 62
     2
100
AcDbLine
 10
141.2516542509982
 20
-117.65758746051
 30
0.0
 11
141.2516542509982
 21
-111.9699999999999
 31
0.0
  0
LINE
  5
292
102
{ACAD_REACTORS
330
34C
330
34C
102
}
330
4F
100
AcDbEntity
  8
1
  6
Continuous
 62
     2
100
AcDbLine
 10
142.5516542509982
 20
-111.9699999999999
 30
0.0
 11
142.5516542509982
 21
-113.3199999999999
 31
0.0
  0
LINE
  5
293
102
{ACAD_REACTORS
330
34C
330
34C
102
}
330
4F
100
AcDbEntity
  8
1
  6
Continuous
 62
     2
100
AcDbLine
 10
142.5516542509982
 20
-113.3199999999999
 30
0.0
 11
143.7516542509982
 21
-113.3199999999999
 31
0.0
  0
LINE
  5
294
102
{ACAD_REACTORS
330
34A
330
34A
102
}
330
4F
100
AcDbEntity
  8
1
  6
Continuous
 62
     2
100
AcDbLine
 10
153.6516542509982
 20
-111.3199999999999
 30
0.0
 11
154.3016542509982
 21
-111.3199999999999
 31
0.0
  0
LINE
  5
295
102
{ACAD_REACTORS
330
34A
330
34A
102
}
330
4F
100
AcDbEntity
  8
1
  6
Continuous
 62
     2
100
AcDbLine
 10
153.6516542509982
 20
-111.3199999999999
 30
0.0
 11
153.6516542509982
 21
-114.2199999999999
 31
0.0
  0
LINE
  5
296
102
{ACAD_REACTORS
330
34A
330
34A
102
}
330
4F
100
AcDbEntity
  8
1
  6
Continuous
 62
     2
100
AcDbLine
 10
153.6516542509982
 20
-114.2199999999999
 30
0.0
 11
154.3016542509982
 21
-114.2199999999999
 31
0.0
  0
LINE
  5
297
102
{ACAD_REACTORS
330
34A
330
34A
102
}
330
4F
100
AcDbEntity
  8
1
  6
Continuous
 62
     2
100
AcDbLine
 10
154.3016542509982
 20
-115.4199999999999
 30
0.0
 11
153.6516542509982
 21
-115.4199999999999
 31
0.0
  0
LINE
  5
298
102
{ACAD_REACTORS
330
34A
330
34A
102
}
330
4F
100
AcDbEntity
  8
1
  6
Continuous
 62
     2
100
AcDbLine
 10
153.6516542509982
 20
-115.4199999999999
 30
0.0
 11
153.6516542509982
 21
-119.4199999999999
 31
0.0
  0
LINE
  5
299
330
4F
100
AcDbEntity
  8
1
  6
Continuous
 62
     2
100
AcDbLine
 10
158.9016542509982
 20
-114.7199999999999
 30
0.0
 11
159.7415058473918
 21
-114.7199999999999
 31
0.0
  0
LINE
  5
29A
102
{ACAD_REACTORS
330
34B
330
34B
102
}
330
4F
100
AcDbEntity
  8
1
  6
Continuous
 62
     2
100
AcDbLine
 10
159.7415058473918
 20
-114.7199999999999
 30
0.0
 11
160.6516542509982
 21
-114.7199999999999
 31
0.0
  0
LINE
  5
29B
102
{ACAD_REACTORS
330
348
330
348
102
}
330
4F
100
AcDbEntity
  8
1
  6
Continuous
 62
     2
100
AcDbLine
 10
175.6516542509982
 20
-111.9699999999999
 30
0.0
 11
175.6516542509982
 21
-117.65758746051
 31
0.0
  0
LINE
  5
29C
102
{ACAD_REACTORS
330
348
330
348
102
}
330
4F
100
AcDbEntity
  8
1
  6
Continuous
 62
     2
100
AcDbLine
 10
174.3516542509982
 20
-117.65758746051
 30
0.0
 11
174.3516542509982
 21
-111.9699999999999
 31
0.0
  0
LINE
  5
29D
102
{ACAD_REACTORS
330
347
330
347
102
}
330
4F
100
AcDbEntity
  8
1
  6
Continuous
 62
     2
100
AcDbLine
 10
178.8516542509982
 20
-111.3199999999999
 30
0.0
 11
179.5016542509982
 21
-111.3199999999999
 31
0.0
  0
LINE
  5
29E
102
{ACAD_REACTORS
330
347
330
347
102
}
330
4F
100
AcDbEntity
  8
1
  6
Continuous
 62
     2
100
AcDbLine
 10
180.1516542509982
 20
-111.9699999999999
 30
0.0
 11
180.1516542509982
 21
-113.2699999999999
 31
0.0
  0
LINE
  5
29F
102
{ACAD_REACTORS
330
347
330
347
102
}
330
4F
100
AcDbEntity
  8
1
  6
Continuous
 62
     2
100
AcDbLine
 10
179.5016542509982
 20
-113.9199999999999
 30
0.0
 11
178.8516542509982
 21
-113.9199999999999
 31
0.0
  0
LINE
  5
2A0
102
{ACAD_REACTORS
330
347
330
347
102
}
330
4F
100
AcDbEntity
  8
1
  6
Continuous
 62
     2
100
AcDbLine
 10
178.8516542509982
 20
-115.0199999999999
 30
0.0
 11
178.8516542509982
 21
-118.30758746051
 31
0.0
  0
LINE
  5
2A1
102
{ACAD_REACTORS
330
347
330
347
102
}
330
4F
100
AcDbEntity
  8
1
  6
Continuous
 62
     2
100
AcDbLine
 10
178.8516542509982
 20
-118.30758746051
 30
0.0
 11
179.5016542509982
 21
-118.30758746051
 31
0.0
  0
LINE
  5
2A2
102
{ACAD_REACTORS
330
347
330
347
102
}
330
4F
100
AcDbEntity
  8
1
  6
Continuous
 62
     2
100
AcDbLine
 10
180.1516542509982
 20
-117.65758746051
 30
0.0
 11
180.1516542509982
 21
-115.6699999999999
 31
0.0
  0
LINE
  5
2A3
102
{ACAD_REACTORS
330
347
330
347
102
}
330
4F
100
AcDbEntity
  8
1
  6
Continuous
 62
     2
100
AcDbLine
 10
178.8516542509982
 20
-111.3199999999999
 30
0.0
 11
178.8516542509982
 21
-113.9199999999999
 31
0.0
  0
LINE
  5
2A4
102
{ACAD_REACTORS
330
347
330
347
102
}
330
4F
100
AcDbEntity
  8
1
  6
Continuous
 62
     2
100
AcDbLine
 10
178.8516542509982
 20
-115.0199999999999
 30
0.0
 11
179.5016542509982
 21
-115.0199999999999
 31
0.0
  0
LINE
  5
2A5
102
{ACAD_REACTORS
330
346
330
346
102
}
330
4F
100
AcDbEntity
  8
1
  6
Continuous
 62
     2
100
AcDbLine
 10
184.6516542509982
 20
-111.9699999999999
 30
0.0
 11
184.6516542509982
 21
-117.65758746051
 31
0.0
  0
LINE
  5
2A6
102
{ACAD_REACTORS
330
346
330
346
102
}
330
4F
100
AcDbEntity
  8
1
  6
Continuous
 62
     2
100
AcDbLine
 10
183.3516542509982
 20
-117.65758746051
 30
0.0
 11
183.3516542509982
 21
-111.9699999999999
 31
0.0
  0
LINE
  5
2A7
102
{ACAD_REACTORS
330
349
330
349
102
}
330
4F
100
AcDbEntity
  8
1
  6
Continuous
 62
     2
100
AcDbLine
 10
192.5516542509982
 20
-111.9699999999999
 30
0.0
 11
192.5516542509982
 21
-117.65758746051
 31
0.0
  0
LINE
  5
2A8
102
{ACAD_REACTORS
330
349
330
349
102
}
330
4F
100
AcDbEntity
  8
1
  6
Continuous
 62
     2
100
AcDbLine
 10
191.9016542509982
 20
-118.30758746051
 30
0.0
 11
191.2516542509982
 21
-118.30758746051
 31
0.0
  0
LINE
  5
2A9
102
{ACAD_REACTORS
330
349
330
349
102
}
330
4F
100
AcDbEntity
  8
1
  6
Continuous
 62
     2
100
AcDbLine
 10
191.2516542509982
 20
-118.30758746051
 30
0.0
 11
191.2516542509982
 21
-111.9699999999999
 31
0.0
  0
LINE
  5
2AA
102
{ACAD_REACTORS
330
343
330
343
102
}
330
4F
100
AcDbEntity
  8
1
  6
Continuous
 62
     2
100
AcDbLine
 10
187.8516542509982
 20
-110.2199999999999
 30
0.0
 11
187.8516542509982
 21
-118.30758746051
 31
0.0
  0
LINE
  5
2AB
102
{ACAD_REACTORS
330
343
330
343
102
}
330
4F
100
AcDbEntity
  8
1
  6
Continuous
 62
     2
100
AcDbLine
 10
187.8516542509982
 20
-118.30758746051
 30
0.0
 11
189.2516542509982
 21
-118.30758746051
 31
0.0
  0
LINE
  5
2AC
102
{ACAD_REACTORS
330
349
330
349
102
}
330
4F
100
AcDbEntity
  8
1
  6
Continuous
 62
     2
100
AcDbLine
 10
191.2516542509982
 20
-111.3199999999999
 30
0.0
 11
191.9016542509982
 21
-111.3199999999999
 31
0.0
  0
LINE
  5
2AD
102
{ACAD_REACTORS
330
349
330
349
102
}
330
4F
100
AcDbEntity
  8
1
  6
Continuous
 62
     2
100
AcDbLine
 10
191.2516542509982
 20
-111.3199999999999
 30
0.0
 11
191.2516542509982
 21
-111.9699999999999
 31
0.0
  0
LINE
  5
2AE
102
{ACAD_REACTORS
330
347
330
347
102
}
330
4F
100
AcDbEntity
  8
1
  6
Continuous
 62
     2
100
AcDbLine
 10
181.3516542509982
 20
-113.8199999999999
 30
0.0
 11
181.3516542509982
 21
-111.2199999999999
 31
0.0
  0
LINE
  5
2AF
102
{ACAD_REACTORS
330
347
330
347
102
}
330
4F
100
AcDbEntity
  8
1
  6
Continuous
 62
     2
100
AcDbLine
 10
181.3516542509982
 20
-115.1199999999999
 30
0.0
 11
181.3516542509982
 21
-118.4199999999999
 31
0.0
  0
LINE
  5
2B0
102
{ACAD_REACTORS
330
344
330
344
102
}
330
4F
100
AcDbEntity
  8
1
  6
Continuous
 62
     2
100
AcDbLine
 10
172.3516542509982
 20
-110.2199999999999
 30
0.0
 11
170.9200628688759
 21
-114.4699999999999
 31
0.0
  0
LINE
  5
2B1
102
{ACAD_REACTORS
330
344
330
344
102
}
330
4F
100
AcDbEntity
  8
1
  6
Continuous
 62
     2
100
AcDbLine
 10
170.9200628688759
 20
-114.4699999999999
 30
0.0
 11
172.3516542509982
 21
-119.4199999999999
 31
0.0
  0
LINE
  5
2B2
102
{ACAD_REACTORS
330
344
330
344
102
}
330
4F
100
AcDbEntity
  8
1
  6
Continuous
 62
     2
100
AcDbLine
 10
171.0854042804337
 20
-110.2199999999999
 30
0.0
 11
172.3516542509982
 21
-110.2199999999999
 31
0.0
  0
LINE
  5
2B3
102
{ACAD_REACTORS
330
344
330
344
102
}
330
4F
100
AcDbEntity
  8
1
  6
Continuous
 62
     2
100
AcDbLine
 10
171.1024763583806
 20
-119.4199999999999
 30
0.0
 11
172.3516542509982
 21
-119.4199999999999
 31
0.0
  0
LINE
  5
2B4
102
{ACAD_REACTORS
330
344
330
344
102
}
330
4F
100
AcDbEntity
  8
1
  6
Continuous
 62
     2
100
AcDbLine
 10
171.0854042804337
 20
-110.2199999999999
 30
0.0
 11
169.8516542509982
 21
-113.8826635858394
 31
0.0
  0
LINE
  5
2B5
102
{ACAD_REACTORS
330
344
330
344
102
}
330
4F
100
AcDbEntity
  8
1
  6
Continuous
 62
     2
100
AcDbLine
 10
169.8516542509982
 20
-115.0950442138285
 30
0.0
 11
171.1024763583806
 21
-119.4199999999999
 31
0.0
  0
LINE
  5
2B6
102
{ACAD_REACTORS
330
344
330
344
102
}
330
4F
100
AcDbEntity
  8
1
  6
Continuous
 62
     2
100
AcDbLine
 10
169.8516542509982
 20
-110.2199999999999
 30
0.0
 11
169.8516542509982
 21
-113.8826635858394
 31
0.0
  0
LINE
  5
2B7
102
{ACAD_REACTORS
330
344
330
344
102
}
330
4F
100
AcDbEntity
  8
1
  6
Continuous
 62
     2
100
AcDbLine
 10
169.8516542509982
 20
-115.0950442138285
 30
0.0
 11
169.8516542509982
 21
-119.4199999999999
 31
0.0
  0
LINE
  5
2B8
102
{ACAD_REACTORS
330
348
330
348
102
}
330
4F
100
AcDbEntity
  8
1
  6
Continuous
 62
     2
100
AcDbLine
 10
173.1516542509982
 20
-118.4199999999999
 30
0.0
 11
173.1516542509982
 21
-111.2199999999999
 31
0.0
  0
LINE
  5
2B9
330
4F
100
AcDbEntity
  8
1
  6
Continuous
 62
     2
100
AcDbLine
 10
55.13999999999851
 20
-108.6599999999999
 30
0.0
 11
55.13999999999851
 21
-125.5799999999999
 31
0.0
  0
LINE
  5
2BA
330
4F
100
AcDbEntity
  8
1
  6
Continuous
 62
     7
100
AcDbLine
 10
102.1300000000001
 20
-87.51000000000022
 30
0.0
 11
102.1300000000001
 21
-108.6599999999999
 31
0.0
  0
LINE
  5
2BB
330
4F
100
AcDbEntity
  8
1
  6
Continuous
 62
     2
100
AcDbLine
 10
67.83999999999912
 20
-87.51000000000022
 30
0.0
 11
67.83999999999912
 21
-108.6599999999999
 31
0.0
  0
LINE
  5
2BC
330
4F
100
AcDbEntity
  8
1
  6
Continuous
 62
     2
100
AcDbLine
 10
60.21999999999832
 20
-87.51000000000022
 30
0.0
 11
60.21999999999832
 21
-108.6599999999999
 31
0.0
  0
LINE
  5
2BD
330
4F
100
AcDbEntity
  8
1
  6
Continuous
 62
     7
100
AcDbLine
 10
22.11999999999898
 20
-108.6599999999999
 30
0.0
 11
205.0
 21
-108.6599999999999
 31
0.0
  0
LINE
  5
2BE
330
4F
100
AcDbEntity
  8
1
  6
Continuous
 62
     2
100
AcDbLine
 10
42.43999999999869
 20
-87.51000000000022
 30
0.0
 11
42.43999999999869
 21
-108.6599999999999
 31
0.0
  0
LINE
  5
2BF
330
4F
100
AcDbEntity
  8
1
  6
Continuous
 62
     2
100
AcDbLine
 10
27.19999999999891
 20
-87.51000000000022
 30
0.0
 11
27.19999999999891
 21
-108.6599999999999
 31
0.0
  0
LINE
  5
2C0
330
4F
100
AcDbEntity
  8
1
  6
Continuous
 62
     2
100
AcDbLine
 10
75.45999999999992
 20
-117.1200000000008
 30
0.0
 11
22.11999999999898
 21
-117.1200000000008
 31
0.0
  0
LINE
  5
2C1
330
4F
100
AcDbEntity
  8
1
  6
Continuous
 62
     7
100
AcDbLine
 10
75.45999999999992
 20
-108.6599999999999
 30
0.0
 11
75.45999999999992
 21
-125.5799999999999
 31
0.0
  0
LINE
  5
2C2
330
4F
100
AcDbEntity
  8
1
  6
Continuous
 62
     7
100
AcDbLine
 10
75.45999999999992
 20
-87.51000000000022
 30
0.0
 11
75.45999999999992
 21
-108.6599999999999
 31
0.0
  0
LINE
  5
2C3
330
4F
100
AcDbEntity
  8
1
  6
Continuous
 62
     7
100
AcDbLine
 10
22.11999999999898
 20
-87.51000000000022
 30
0.0
 11
205.0
 21
-87.51000000000022
 31
0.0
  0
LINE
  5
2C4
330
4F
100
AcDbEntity
  8
1
  6
Continuous
 62
     2
100
AcDbLine
 10
22.11999999999898
 20
-121.3500000000004
 30
0.0
 11
75.45999999999992
 21
-121.3500000000004
 31
0.0
  0
LINE
  5
2C5
330
4F
100
AcDbEntity
  8
1
  6
Continuous
 62
     2
100
AcDbLine
 10
22.11999999999898
 20
-112.8899999999994
 30
0.0
 11
75.45999999999992
 21
-112.8899999999994
 31
0.0
  0
LINE
  5
2C6
330
4F
100
AcDbEntity
  8
1
  6
Continuous
 62
     2
100
AcDbLine
 10
37.35999999999888
 20
-108.6599999999999
 30
0.0
 11
37.35999999999888
 21
-125.5799999999999
 31
0.0
  0
LINE
  5
2C7
330
4F
100
AcDbEntity
  8
1
  6
Continuous
 62
     2
100
AcDbLine
 10
22.11999999999898
 20
-104.4300000000003
 30
0.0
 11
75.45999999999992
 21
-104.4300000000003
 31
0.0
  0
LINE
  5
2C8
330
4F
100
AcDbEntity
  8
1
  6
Continuous
 62
     2
100
AcDbLine
 10
22.11999999999898
 20
-95.97000000000116
 30
0.0
 11
75.45999999999992
 21
-95.97000000000116
 31
0.0
  0
LINE
  5
2C9
330
4F
100
AcDbEntity
  8
1
  6
Continuous
 62
     2
100
AcDbLine
 10
22.11999999999898
 20
-91.73999999999978
 30
0.0
 11
75.45999999999992
 21
-91.73999999999978
 31
0.0
  0
LINE
  5
2CA
330
4F
100
AcDbEntity
  8
1
  6
Continuous
 62
     7
100
AcDbLine
 10
192.3000000000002
 20
-125.5799999999999
 30
0.0
 11
192.3000000000002
 21
-138.2700000000004
 31
0.0
  0
LINE
  5
2CB
330
4F
100
AcDbEntity
  8
1
  6
Continuous
 62
     7
100
AcDbLine
 10
192.3000000000002
 20
-134.0400000000009
 30
0.0
 11
205.0
 21
-134.0400000000009
 31
0.0
  0
LINE
  5
2CC
330
4F
100
AcDbEntity
  8
1
  6
Continuous
 62
     7
100
AcDbLine
 10
128.8000000000002
 20
-138.2700000000004
 30
0.0
 11
205.0
 21
-138.2700000000004
 31
0.0
  0
LINE
  5
2CD
330
4F
100
AcDbEntity
  8
1
  6
Continuous
 62
     7
100
AcDbLine
 10
166.8999999999996
 20
-87.51000000000022
 30
0.0
 11
166.8999999999996
 21
-91.73999999999978
 31
0.0
  0
LINE
  5
2CE
330
4F
100
AcDbEntity
  8
1
  6
Continuous
 62
     7
100
AcDbLine
 10
128.8000000000002
 20
-91.73999999999978
 30
0.0
 11
205.0
 21
-91.73999999999978
 31
0.0
  0
LINE
  5
2CF
330
4F
100
AcDbEntity
  8
1
  6
Continuous
 62
     7
100
AcDbLine
 10
128.8000000000002
 20
-87.51000000000022
 30
0.0
 11
128.8000000000002
 21
-142.5
 31
0.0
  0
LINE
  5
2D0
330
4F
100
AcDbEntity
  8
1
  6
Continuous
 62
     7
100
AcDbLine
 10
37.35999999999888
 20
-125.5799999999999
 30
0.0
 11
37.35999999999888
 21
-142.5
 31
0.0
  0
LINE
  5
2D1
330
4F
100
AcDbEntity
  8
1
  6
Continuous
 62
     7
100
AcDbLine
 10
205.0
 20
-125.5799999999999
 30
0.0
 11
22.11999999999898
 21
-125.5799999999999
 31
0.0
  0
LINE
  5
2D2
330
4F
100
AcDbEntity
  8
1
  6
Continuous
 62
     2
100
AcDbLine
 10
75.45999999999992
 20
-100.2000000000007
 30
0.0
 11
22.11999999999898
 21
-100.2000000000007
 31
0.0
  0
LINE
  5
2D3
330
4F
100
AcDbEntity
  8
1
  6
Continuous
 62
     7
100
AcDbLine
 10
22.11999999999898
 20
-142.5
 30
0.0
 11
22.11999999999898
 21
-87.51000000000022
 31
0.0
  0
LINE
  5
2D4
330
4F
100
AcDbEntity
  8
1
  6
Continuous
 62
     7
100
AcDbLine
 10
-187.880000000001
 20
-142.5
 30
0.0
 11
205.0
 21
-142.5
 31
0.0
  0
LINE
  5
2D5
330
4F
100
AcDbEntity
  8
1
  6
Continuous
 62
     7
100
AcDbLine
 10
205.0
 20
-142.5
 30
0.0
 11
205.0
 21
142.0
 31
0.0
  0
LINE
  5
2D6
330
4F
100
AcDbEntity
  8
1
  6
Continuous
 62
     7
100
AcDbLine
 10
205.0
 20
142.0
 30
0.0
 11
-187.880000000001
 21
142.0
 31
0.0
  0
LINE
  5
2D7
330
4F
100
AcDbEntity
  8
1
  6
Continuous
 62
     7
100
AcDbLine
 10
-187.880000000001
 20
142.0
 30
0.0
 11
-187.880000000001
 21
-142.5
 31
0.0
  0
LINE
  5
2D8
330
4F
100
AcDbEntity
  8
0
  6
Continuous
 62
     2
100
AcDbLine
 10
-198.880000000001
 20
0.00000000000001
 30
0.0
 11
-187.880000000001
 21
0.00000000000001
 31
0.0
  0
ARC
  5
2D9
102
{ACAD_REACTORS
330
34C
330
34C
102
}
330
4F
100
AcDbEntity
  8
1
  6
Continuous
 62
     2
100
AcDbCircle
 10
141.9264261003899
 20
-118.3227040643326
 30
0.0
 40
1.097575516743276
100
AcDbArc
 50
-91.2932531058712
 51
-26.94184191294435
  0
ARC
  5
2DA
102
{ACAD_REACTORS
330
34A
330
34A
102
}
330
4F
100
AcDbEntity
  8
1
  6
Continuous
 62
     2
100
AcDbCircle
 10
155.3000342667233
 20
-113.9710002560295
 30
0.0
 40
0.8522732028340286
100
AcDbArc
 50
-84.9766809757147
 51
-2.24339224114474
  0
ARC
  5
2DB
102
{ACAD_REACTORS
330
34A
330
34A
102
}
330
4F
100
AcDbEntity
  8
1
  6
Continuous
 62
     2
100
AcDbCircle
 10
155.3161055621215
 20
-115.6535223168009
 30
0.0
 40
0.8355765145285912
100
AcDbArc
 50
-0.46759342609272
 51
85.98158622994607
  0
ARC
  5
2DC
102
{ACAD_REACTORS
330
34B
330
34B
102
}
330
4F
100
AcDbEntity
  8
1
  6
Continuous
 62
     2
100
AcDbCircle
 10
158.8327793484388
 20
-118.3331447179281
 30
0.0
 40
1.086965191302833
100
AcDbArc
 50
-90.8147991292736
 51
-26.60924039545096
  0
ARC
  5
2DD
102
{ACAD_REACTORS
330
347
330
347
102
}
330
4F
100
AcDbEntity
  8
1
  6
Continuous
 62
     2
100
AcDbCircle
 10
180.7016542509982
 20
-113.8199999999999
 30
0.0
 40
0.6500000000000057
100
AcDbArc
 50
-90.0
 51
0.0
  0
ARC
  5
2DE
102
{ACAD_REACTORS
330
347
330
347
102
}
330
4F
100
AcDbEntity
  8
1
  6
Continuous
 62
     2
100
AcDbCircle
 10
180.7016542509982
 20
-115.1199999999999
 30
0.0
 40
0.6500000000000057
100
AcDbArc
 50
0.0
 51
90.0
  0
ARC
  5
2DF
102
{ACAD_REACTORS
330
34C
330
34C
102
}
330
4F
100
AcDbEntity
  8
1
  6
Continuous
 62
     2
100
AcDbCircle
 10
142.7516542509982
 20
-111.2199999999999
 30
0.0
 40
1.0
100
AcDbArc
 50
0.0
 51
90.0
  0
ARC
  5
2E0
102
{ACAD_REACTORS
330
34C
330
34C
102
}
330
4F
100
AcDbEntity
  8
1
  6
Continuous
 62
     2
100
AcDbCircle
 10
141.0516542509982
 20
-118.4199999999999
 30
0.0
 40
1.0
100
AcDbArc
 50
180.0
 51
-90.0
  0
ARC
  5
2E1
102
{ACAD_REACTORS
330
345
330
345
102
}
330
4F
100
AcDbEntity
  8
1
  6
Continuous
 62
     2
100
AcDbCircle
 10
148.9516542509982
 20
-111.2199999999999
 30
0.0
 40
1.0
100
AcDbArc
 50
90.0
 51
180.0
  0
ARC
  5
2E2
102
{ACAD_REACTORS
330
345
330
345
102
}
330
4F
100
AcDbEntity
  8
1
  6
Continuous
 62
     2
100
AcDbCircle
 10
150.6516542509982
 20
-111.2199999999999
 30
0.0
 40
1.0
100
AcDbArc
 50
0.0
 51
90.0
  0
ARC
  5
2E3
102
{ACAD_REACTORS
330
345
330
345
102
}
330
4F
100
AcDbEntity
  8
1
  6
Continuous
 62
     2
100
AcDbCircle
 10
148.9516542509982
 20
-118.4199999999999
 30
0.0
 40
1.0
100
AcDbArc
 50
180.0
 51
-90.0
  0
ARC
  5
2E4
102
{ACAD_REACTORS
330
345
330
345
102
}
330
4F
100
AcDbEntity
  8
1
  6
Continuous
 62
     2
100
AcDbCircle
 10
150.6516542509982
 20
-118.4199999999999
 30
0.0
 40
1.0
100
AcDbArc
 50
-90.0
 51
0.0
  0
ARC
  5
2E5
102
{ACAD_REACTORS
330
34A
330
34A
102
}
330
4F
100
AcDbEntity
  8
1
  6
Continuous
 62
     2
100
AcDbCircle
 10
155.1516542509982
 20
-111.2199999999999
 30
0.0
 40
1.0
100
AcDbArc
 50
0.0
 51
90.0
  0
ARC
  5
2E6
102
{ACAD_REACTORS
330
34B
330
34B
102
}
330
4F
100
AcDbEntity
  8
1
  6
Continuous
 62
     2
100
AcDbCircle
 10
157.9516542509982
 20
-111.2199999999999
 30
0.0
 40
1.0
100
AcDbArc
 50
90.0
 51
180.0
  0
ARC
  5
2E7
102
{ACAD_REACTORS
330
34B
330
34B
102
}
330
4F
100
AcDbEntity
  8
1
  6
Continuous
 62
     2
100
AcDbCircle
 10
159.6516542509982
 20
-111.2199999999999
 30
0.0
 40
1.000000000000085
100
AcDbArc
 50
0.0
 51
90.0
  0
ARC
  5
2E8
102
{ACAD_REACTORS
330
348
330
348
102
}
330
4F
100
AcDbEntity
  8
1
  6
Continuous
 62
     2
100
AcDbCircle
 10
174.1516542509982
 20
-111.2199999999999
 30
0.0
 40
1.0
100
AcDbArc
 50
90.0
 51
180.0
  0
ARC
  5
2E9
102
{ACAD_REACTORS
330
348
330
348
102
}
330
4F
100
AcDbEntity
  8
1
  6
Continuous
 62
     2
100
AcDbCircle
 10
175.8516542509982
 20
-111.2199999999999
 30
0.0
 40
1.0
100
AcDbArc
 50
0.0
 51
90.0
  0
ARC
  5
2EA
102
{ACAD_REACTORS
330
347
330
347
102
}
330
4F
100
AcDbEntity
  8
1
  6
Continuous
 62
     2
100
AcDbCircle
 10
180.3516542509982
 20
-111.2199999999999
 30
0.0
 40
1.0
100
AcDbArc
 50
0.0
 51
90.0
  0
ARC
  5
2EB
102
{ACAD_REACTORS
330
346
330
346
102
}
330
4F
100
AcDbEntity
  8
1
  6
Continuous
 62
     2
100
AcDbCircle
 10
184.8516542509982
 20
-111.2199999999999
 30
0.0
 40
1.0
100
AcDbArc
 50
0.0
 51
90.0
  0
ARC
  5
2EC
102
{ACAD_REACTORS
330
346
330
346
102
}
330
4F
100
AcDbEntity
  8
1
  6
Continuous
 62
     2
100
AcDbCircle
 10
183.1516542509982
 20
-111.2199999999999
 30
0.0
 40
1.0
100
AcDbArc
 50
90.0
 51
180.0
  0
ARC
  5
2ED
102
{ACAD_REACTORS
330
349
330
349
102
}
330
4F
100
AcDbEntity
  8
1
  6
Continuous
 62
     2
100
AcDbCircle
 10
192.7516542509982
 20
-111.2199999999999
 30
0.0
 40
1.0
100
AcDbArc
 50
0.0
 51
90.0
  0
ARC
  5
2EE
102
{ACAD_REACTORS
330
346
330
346
102
}
330
4F
100
AcDbEntity
  8
1
  6
Continuous
 62
     2
100
AcDbCircle
 10
184.8516542509982
 20
-118.4199999999999
 30
0.0
 40
1.0
100
AcDbArc
 50
-90.0
 51
0.0
  0
ARC
  5
2EF
102
{ACAD_REACTORS
330
346
330
346
102
}
330
4F
100
AcDbEntity
  8
1
  6
Continuous
 62
     2
100
AcDbCircle
 10
183.1516542509982
 20
-118.4199999999999
 30
0.0
 40
1.0
100
AcDbArc
 50
180.0
 51
-90.0
  0
ARC
  5
2F0
102
{ACAD_REACTORS
330
347
330
347
102
}
330
4F
100
AcDbEntity
  8
1
  6
Continuous
 62
     2
100
AcDbCircle
 10
180.3516542509982
 20
-118.4199999999999
 30
0.0
 40
1.0
100
AcDbArc
 50
-90.0
 51
0.0
  0
ARC
  5
2F1
102
{ACAD_REACTORS
330
348
330
348
102
}
330
4F
100
AcDbEntity
  8
1
  6
Continuous
 62
     2
100
AcDbCircle
 10
175.8516542509982
 20
-118.4199999999999
 30
0.0
 40
1.0
100
AcDbArc
 50
-90.0
 51
0.0
  0
ARC
  5
2F2
102
{ACAD_REACTORS
330
348
330
348
102
}
330
4F
100
AcDbEntity
  8
1
  6
Continuous
 62
     2
100
AcDbCircle
 10
174.1516542509982
 20
-118.4199999999999
 30
0.0
 40
1.0
100
AcDbArc
 50
180.0
 51
-90.0
  0
ARC
  5
2F3
102
{ACAD_REACTORS
330
349
330
349
102
}
330
4F
100
AcDbEntity
  8
1
  6
Continuous
 62
     2
100
AcDbCircle
 10
192.7516542509982
 20
-118.4199999999999
 30
0.0
 40
1.0
100
AcDbArc
 50
-90.0
 51
0.0
  0
ARC
  5
2F4
102
{ACAD_REACTORS
330
34B
330
34B
102
}
330
4F
100
AcDbEntity
  8
1
  6
Continuous
 62
     2
100
AcDbCircle
 10
157.9516542509982
 20
-118.4199999999999
 30
0.0
 40
1.0
100
AcDbArc
 50
180.0
 51
-90.0
  0
ARC
  5
2F5
102
{ACAD_REACTORS
330
34C
330
34C
102
}
330
4F
100
AcDbEntity
  8
1
  6
Continuous
 62
     2
100
AcDbCircle
 10
141.0516542509982
 20
-111.2199999999999
 30
0.0
 40
1.0
100
AcDbArc
 50
90.0
 51
180.0
  0
ARC
  5
2F6
102
{ACAD_REACTORS
330
345
330
345
102
}
330
4F
100
AcDbEntity
  8
1
  6
Continuous
 62
     2
100
AcDbCircle
 10
149.8016542509982
 20
-111.9699999999999
 30
0.0
 40
0.6500000000000057
100
AcDbArc
 50
90.0
 51
180.0
  0
ARC
  5
2F7
102
{ACAD_REACTORS
330
345
330
345
102
}
330
4F
100
AcDbEntity
  8
1
  6
Continuous
 62
     2
100
AcDbCircle
 10
149.8016542509982
 20
-111.9699999999999
 30
0.0
 40
0.6499999999999773
100
AcDbArc
 50
0.0
 51
90.0
  0
ARC
  5
2F8
102
{ACAD_REACTORS
330
345
330
345
102
}
330
4F
100
AcDbEntity
  8
1
  6
Continuous
 62
     2
100
AcDbCircle
 10
149.8016542509982
 20
-117.65758746051
 30
0.0
 40
0.6500000000000057
100
AcDbArc
 50
180.0
 51
-90.0
  0
ARC
  5
2F9
102
{ACAD_REACTORS
330
345
330
345
102
}
330
4F
100
AcDbEntity
  8
1
  6
Continuous
 62
     2
100
AcDbCircle
 10
149.8016542509982
 20
-117.65758746051
 30
0.0
 40
0.6500000000000057
100
AcDbArc
 50
-90.0
 51
0.0
  0
ARC
  5
2FA
102
{ACAD_REACTORS
330
34A
330
34A
102
}
330
4F
100
AcDbEntity
  8
1
  6
Continuous
 62
     2
100
AcDbCircle
 10
154.3016542509982
 20
-111.9699999999999
 30
0.0
 40
0.6499999999999773
100
AcDbArc
 50
0.0
 51
90.0
  0
ARC
  5
2FB
102
{ACAD_REACTORS
330
34A
330
34A
102
}
330
4F
100
AcDbEntity
  8
1
  6
Continuous
 62
     2
100
AcDbCircle
 10
154.3016542509982
 20
-116.0699999999999
 30
0.0
 40
0.6499999999999773
100
AcDbArc
 50
0.0
 51
90.0
  0
ARC
  5
2FC
102
{ACAD_REACTORS
330
34A
330
34A
102
}
330
4F
100
AcDbEntity
  8
1
  6
Continuous
 62
     2
100
AcDbCircle
 10
154.3016542509982
 20
-113.5699999999999
 30
0.0
 40
0.6500000000000057
100
AcDbArc
 50
-90.0
 51
0.0
  0
ARC
  5
2FD
102
{ACAD_REACTORS
330
34B
330
34B
102
}
330
4F
100
AcDbEntity
  8
1
  6
Continuous
 62
     2
100
AcDbCircle
 10
158.8016542509982
 20
-111.9699999999999
 30
0.0
 40
0.6500000000000057
100
AcDbArc
 50
90.0
 51
180.0
  0
ARC
  5
2FE
102
{ACAD_REACTORS
330
34B
330
34B
102
}
330
4F
100
AcDbEntity
  8
1
  6
Continuous
 62
     2
100
AcDbCircle
 10
158.8016542509982
 20
-111.9699999999999
 30
0.0
 40
0.6499999999999773
100
AcDbArc
 50
0.0
 51
90.0
  0
ARC
  5
2FF
102
{ACAD_REACTORS
330
34B
330
34B
102
}
330
4F
100
AcDbEntity
  8
1
  6
Continuous
 62
     2
100
AcDbCircle
 10
158.8016542509982
 20
-117.65758746051
 30
0.0
 40
0.6500000000000057
100
AcDbArc
 50
180.0
 51
-90.0
  0
ARC
  5
300
102
{ACAD_REACTORS
330
34B
330
34B
102
}
330
4F
100
AcDbEntity
  8
1
  6
Continuous
 62
     2
100
AcDbCircle
 10
158.8016542509982
 20
-117.65758746051
 30
0.0
 40
0.6500000000000057
100
AcDbArc
 50
-90.0
 51
0.0
  0
ARC
  5
301
102
{ACAD_REACTORS
330
34C
330
34C
102
}
330
4F
100
AcDbEntity
  8
1
  6
Continuous
 62
     2
100
AcDbCircle
 10
141.9016542509982
 20
-111.9699999999999
 30
0.0
 40
0.6500000000000057
100
AcDbArc
 50
90.0
 51
180.0
  0
ARC
  5
302
102
{ACAD_REACTORS
330
34C
330
34C
102
}
330
4F
100
AcDbEntity
  8
1
  6
Continuous
 62
     2
100
AcDbCircle
 10
141.9016542509982
 20
-111.9699999999999
 30
0.0
 40
0.6500000000000057
100
AcDbArc
 50
0.0
 51
90.0
  0
ARC
  5
303
102
{ACAD_REACTORS
330
34C
330
34C
102
}
330
4F
100
AcDbEntity
  8
1
  6
Continuous
 62
     2
100
AcDbCircle
 10
141.9016542509982
 20
-117.65758746051
 30
0.0
 40
0.6500000000000057
100
AcDbArc
 50
180.0
 51
-90.0
  0
ARC
  5
304
102
{ACAD_REACTORS
330
34C
330
34C
102
}
330
4F
100
AcDbEntity
  8
1
  6
Continuous
 62
     2
100
AcDbCircle
 10
141.9016542509982
 20
-117.65758746051
 30
0.0
 40
0.6500000000000057
100
AcDbArc
 50
-90.0
 51
0.0
  0
ARC
  5
305
102
{ACAD_REACTORS
330
349
330
349
102
}
330
4F
100
AcDbEntity
  8
1
  6
Continuous
 62
     2
100
AcDbCircle
 10
191.9016542509982
 20
-111.9699999999999
 30
0.0
 40
0.6500000000000057
100
AcDbArc
 50
0.0
 51
90.0
  0
ARC
  5
306
102
{ACAD_REACTORS
330
349
330
349
102
}
330
4F
100
AcDbEntity
  8
1
  6
Continuous
 62
     2
100
AcDbCircle
 10
191.9016542509982
 20
-117.65758746051
 30
0.0
 40
0.6500000000000057
100
AcDbArc
 50
-90.0
 51
0.0
  0
ARC
  5
307
102
{ACAD_REACTORS
330
346
330
346
102
}
330
4F
100
AcDbEntity
  8
1
  6
Continuous
 62
     2
100
AcDbCircle
 10
184.0016542509982
 20
-111.9699999999999
 30
0.0
 40
0.6500000000000057
100
AcDbArc
 50
0.0
 51
90.0
  0
ARC
  5
308
102
{ACAD_REACTORS
330
346
330
346
102
}
330
4F
100
AcDbEntity
  8
1
  6
Continuous
 62
     2
100
AcDbCircle
 10
184.0016542509982
 20
-111.9699999999999
 30
0.0
 40
0.6500000000000057
100
AcDbArc
 50
90.0
 51
180.0
  0
ARC
  5
309
102
{ACAD_REACTORS
330
346
330
346
102
}
330
4F
100
AcDbEntity
  8
1
  6
Continuous
 62
     2
100
AcDbCircle
 10
184.0016542509982
 20
-117.65758746051
 30
0.0
 40
0.6500000000000057
100
AcDbArc
 50
180.0
 51
-90.0
  0
ARC
  5
30A
102
{ACAD_REACTORS
330
346
330
346
102
}
330
4F
100
AcDbEntity
  8
1
  6
Continuous
 62
     2
100
AcDbCircle
 10
184.0016542509982
 20
-117.65758746051
 30
0.0
 40
0.6500000000000057
100
AcDbArc
 50
-90.0
 51
0.0
  0
ARC
  5
30B
102
{ACAD_REACTORS
330
348
330
348
102
}
330
4F
100
AcDbEntity
  8
1
  6
Continuous
 62
     2
100
AcDbCircle
 10
175.0016542509982
 20
-111.9699999999999
 30
0.0
 40
0.6500000000000057
100
AcDbArc
 50
90.0
 51
180.0
  0
ARC
  5
30C
102
{ACAD_REACTORS
330
348
330
348
102
}
330
4F
100
AcDbEntity
  8
1
  6
Continuous
 62
     2
100
AcDbCircle
 10
175.0016542509982
 20
-111.9699999999999
 30
0.0
 40
0.6500000000000057
100
AcDbArc
 50
0.0
 51
90.0
  0
ARC
  5
30D
102
{ACAD_REACTORS
330
348
330
348
102
}
330
4F
100
AcDbEntity
  8
1
  6
Continuous
 62
     2
100
AcDbCircle
 10
175.0016542509982
 20
-117.65758746051
 30
0.0
 40
0.6500000000000057
100
AcDbArc
 50
180.0
 51
-90.0
  0
ARC
  5
30E
102
{ACAD_REACTORS
330
348
330
348
102
}
330
4F
100
AcDbEntity
  8
1
  6
Continuous
 62
     2
100
AcDbCircle
 10
175.0016542509982
 20
-117.65758746051
 30
0.0
 40
0.6500000000000057
100
AcDbArc
 50
-90.0
 51
0.0
  0
ARC
  5
30F
102
{ACAD_REACTORS
330
347
330
347
102
}
330
4F
100
AcDbEntity
  8
1
  6
Continuous
 62
     2
100
AcDbCircle
 10
179.5016542509982
 20
-111.9699999999999
 30
0.0
 40
0.6500000000000057
100
AcDbArc
 50
0.0
 51
90.0
  0
ARC
  5
310
102
{ACAD_REACTORS
330
347
330
347
102
}
330
4F
100
AcDbEntity
  8
1
  6
Continuous
 62
     2
100
AcDbCircle
 10
179.5016542509982
 20
-113.2699999999999
 30
0.0
 40
0.6500000000000057
100
AcDbArc
 50
-90.0
 51
0.0
  0
ARC
  5
311
102
{ACAD_REACTORS
330
347
330
347
102
}
330
4F
100
AcDbEntity
  8
1
  6
Continuous
 62
     2
100
AcDbCircle
 10
179.5016542509982
 20
-115.6699999999999
 30
0.0
 40
0.6500000000000057
100
AcDbArc
 50
0.0
 51
90.0
  0
ARC
  5
312
102
{ACAD_REACTORS
330
347
330
347
102
}
330
4F
100
AcDbEntity
  8
1
  6
Continuous
 62
     2
100
AcDbCircle
 10
179.5016542509982
 20
-117.65758746051
 30
0.0
 40
0.6500000000000057
100
AcDbArc
 50
-90.0
 51
0.0
  0
MTEXT
  5
314
330
4F
100
AcDbEntity
  8
1
 62
     2
100
AcDbMText
 10
166.6516542509982
 20
-123.0199999999999
 30
0.0
 40
2.8
 41
0.0
 71
     5
 72
     1
  1
GmbH & Co. KG
  7
CONVERTER_11
 73
     1
 44
1.32052821128451
  0
MTEXT
  5
316
330
4F
100
AcDbEntity
  8
1
 62
     2
100
AcDbMText
 10
171.146150406868
 20
-140.3850000000002
 30
0.0
 40
1.8
 41
0.0
 71
     4
 72
     1
  1
 
  7
CONVERTER_12
 73
     1
 44
1.32052821128451
  0
MTEXT
  5
317
330
4F
100
AcDbEntity
  8
1
 62
     2
100
AcDbMText
 10
138.090984385273
 20
-140.3850000000002
 30
0.0
 40
1.8
 41
0.0
 71
     4
 72
     1
  1
 
  7
CONVERTER_12
 73
     1
 44
1.32052821128451
  0
MTEXT
  5
318
330
4F
100
AcDbEntity
  8
1
 62
     2
100
AcDbMText
 10
65.29999999999995
 20
-119.2350000000014
 30
0.0
 40
1.8
 41
0.0
 71
     5
 72
     1
  1
 
  7
CONVERTER_12
 73
     1
 44
1.32052821128451
  0
MTEXT
  5
319
330
4F
100
AcDbEntity
  8
1
 62
     2
100
AcDbMText
 10
46.25
 20
-119.2350000000014
 30
0.0
 40
1.8
 41
0.0
 71
     5
 72
     1
  1
02.03.09
  7
CONVERTER_12
 73
     1
 44
1.32052821128451
  0
MTEXT
  5
31A
330
4F
100
AcDbEntity
  8
1
 62
     3
100
AcDbMText
 10
168.9000000000001
 20
-105.1999999999998
 30
0.0
 40
2.5
 41
0.0
 71
     5
 72
     1
  1
 
  7
CONVERTER_12
 73
     1
 44
1.32052821128451
  0
MTEXT
  5
31B
330
4F
100
AcDbEntity
  8
1
 62
     3
100
AcDbMText
 10
168.9000000000001
 20
-100.6999999999998
 30
0.0
 40
2.5
 41
0.0
 71
     5
 72
     1
  1
 
  7
CONVERTER_12
 73
     1
 44
1.32052821128451
  0
MTEXT
  5
31C
330
4F
100
AcDbEntity
  8
1
 62
     3
100
AcDbMText
 10
168.9000000000001
 20
-96.19999999999983
 30
0.0
 40
2.5
 41
0.0
 71
     5
 72
     1
  1
 
  7
CONVERTER_12
 73
     1
 44
1.32052821128451
  0
MTEXT
  5
31E
330
4F
100
AcDbEntity
  8
1
 62
     3
100
AcDbMText
 10
102.13
 20
-122.625
 30
0.0
 40
2.5
 41
0.0
 71
     5
 72
     1
  1
 
  7
CONVERTER_13
 73
     1
 44
1.32052821128451
  0
MTEXT
  5
31F
330
4F
100
AcDbEntity
  8
1
 62
     3
100
AcDbMText
 10
102.13
 20
-118.125
 30
0.0
 40
2.5
 41
0.0
 71
     5
 72
     1
  1
 
  7
CONVERTER_13
 73
     1
 44
1.32052821128451
  0
MTEXT
  5
320
330
4F
100
AcDbEntity
  8
1
 62
     3
100
AcDbMText
 10
102.13
 20
-117.625
 30
0.0
 40
2.5
 41
0.0
 71
     5
 72
     1
  1
KSG 310... Q(-MF)-R4(/S23)/PLG90
  7
CONVERTER_13
 73
     1
 44
1.32052821128451
  0
MTEXT
  5
322
330
4F
100
AcDbEntity
  8
1
 62
     7
100
AcDbMText
 10
29.74000000000001
 20
-136.535
 30
0.0
 40
5.0
 41
0.0
 71
     5
 72
     1
  1
1:2
  7
CONVERTER_14
 73
     1
 44
1.32052821128451
  0
MTEXT
  5
323
330
4F
100
AcDbEntity
  8
1
 62
     2
100
AcDbMText
 10
46.25
 20
-115.005
 30
0.0
 40
1.8
 41
0.0
 71
     5
 72
     1
  1
02.03.09
  7
CONVERTER_12
 73
     1
 44
1.32052821128451
  0
MTEXT
  5
324
330
4F
100
AcDbEntity
  8
1
 62
     2
100
AcDbMText
 10
65.29999999999995
 20
-115.005
 30
0.0
 40
1.8
 41
0.0
 71
     5
 72
     1
  1
HI
  7
CONVERTER_12
 73
     1
 44
1.32052821128451
  0
MTEXT
  5
326
330
4F
100
AcDbEntity
  8
1
 62
     7
100
AcDbMText
 10
83.60500000000002
 20
-136.33
 30
0.0
 40
5.0
 41
0.0
 71
     5
 72
     1
  1
Maßblatt
  7
CONVERTER_15
 73
     1
 44
1.32052821128451
  0
MTEXT
  5
327
330
4F
100
AcDbEntity
  8
1
 62
     2
100
AcDbMText
 10
196.85
 20
-136.25
 30
0.0
 40
1.8
 41
0.0
 71
     5
 72
     1
  1
1
  7
CONVERTER_12
 73
     1
 44
1.32052821128451
  0
MTEXT
  5
328
330
4F
100
AcDbEntity
  8
1
 62
     3
100
AcDbMText
 10
200.375
 20
-129.81
 30
0.0
 40
3.0
 41
0.0
 71
     5
 72
     1
  1
1
  7
CONVERTER_15
 73
     1
 44
1.32052821128451
  0
MTEXT
  5
329
330
4F
100
AcDbEntity
  8
1
 62
     7
100
AcDbMText
 10
160.55
 20
-133.28
 30
0.0
 40
5.0
 41
0.0
 71
     5
 72
     1
  1
K3046
  7
CONVERTER_14
 73
     1
 44
1.32052821128451
  0
TEXT
  5
32A
330
4F
100
AcDbEntity
  8
1
 62
     2
100
AcDbText
 10
193.3000000000002
 20
-129.5799999999999
 30
0.0
 40
1.8
  1
Bl.
 41
0.9
  7
CONVERTER_12
100
AcDbText
  0
MTEXT
  5
32B
330
4F
100
AcDbEntity
  8
1
 62
     2
100
AcDbMText
 10
129.868213777145
 20
-140.3850000000002
 30
0.0
 40
1.8
 41
0.0
 71
     4
 72
     1
  1
Ers.
  7
CONVERTER_12
 73
     1
 44
1.32052821128451
  0
TEXT
  5
32C
330
4F
100
AcDbEntity
  8
1
 62
     2
100
AcDbText
 10
129.8000000000002
 20
-94.97000000000116
 30
0.0
 40
1.8
  1
Werkstoff
 41
0.9
  7
CONVERTER_12
100
AcDbText
  0
MTEXT
  5
32D
330
4F
100
AcDbEntity
  8
1
 62
     2
100
AcDbMText
 10
167.8999999999996
 20
-89.625
 30
0.0
 40
1.8
 41
0.0
 71
     4
 72
     1
  1
Gewicht
  7
CONVERTER_12
 73
     1
 44
1.32052821128451
  0
MTEXT
  5
32E
330
4F
100
AcDbEntity
  8
1
 62
     2
100
AcDbMText
 10
129.8000000000002
 20
-89.625
 30
0.0
 40
1.8
 41
0.0
 71
     4
 72
     1
  1
Urheberschutz  DIN 34
  7
CONVERTER_12
 73
     1
 44
1.32052821128451
  0
TEXT
  5
32F
330
4F
100
AcDbEntity
  8
1
 62
     2
100
AcDbText
 10
130.8962833787473
 20
-129.2145722070854
 30
0.0
 40
1.8
  1
Z.-Nr.
 41
0.9
  7
CONVERTER_12
100
AcDbText
  0
TEXT
  5
330
330
4F
100
AcDbEntity
  8
1
 62
     2
100
AcDbText
 10
38.35999999999888
 20
-129.5799999999999
 30
0.0
 40
1.8
  1
Benennung
 41
0.9
  7
CONVERTER_12
100
AcDbText
  0
TEXT
  5
331
330
4F
100
AcDbEntity
  8
1
 62
     2
100
AcDbText
 10
23.11999999999898
 20
-129.5799999999999
 30
0.0
 40
1.8
  1
Maßstab
 41
0.9
  7
CONVERTER_12
100
AcDbText
  0
TEXT
  5
332
330
4F
100
AcDbEntity
  8
1
 62
     2
100
AcDbText
 10
75.95999999999992
 20
-111.2899999999994
 30
0.0
 40
1.8
  1
Typ
 41
0.9
  7
CONVERTER_12
100
AcDbText
  0
TEXT
  5
333
330
4F
100
AcDbEntity
  8
1
 62
     2
100
AcDbText
 10
23.11999999999898
 20
-124.5799999999999
 30
0.0
 40
1.8
  1
Norm.
 41
0.9
  7
CONVERTER_12
100
AcDbText
  0
TEXT
  5
334
330
4F
100
AcDbEntity
  8
1
 62
     2
100
AcDbText
 10
23.11999999999898
 20
-120.3500000000004
 30
0.0
 40
1.8
  1
Gepr.
 41
0.9
  7
CONVERTER_12
100
AcDbText
  0
TEXT
  5
335
330
4F
100
AcDbEntity
  8
1
 62
     2
100
AcDbText
 10
23.11999999999898
 20
-116.1200000000008
 30
0.0
 40
1.8
  1
Bearb.
 41
0.9
  7
CONVERTER_12
100
AcDbText
  0
TEXT
  5
336
330
4F
100
AcDbEntity
  8
1
 62
     2
100
AcDbText
 10
59.73202796696876
 20
-111.8899999999994
 30
0.0
 40
1.8
  1
Name
 41
0.9
  7
CONVERTER_12
100
AcDbText
  0
TEXT
  5
337
330
4F
100
AcDbEntity
  8
1
 62
     2
100
AcDbText
 10
41.95202796696901
 20
-111.8899999999994
 30
0.0
 40
1.8
  1
Datum
 41
0.9
  7
CONVERTER_12
100
AcDbText
  0
TEXT
  5
338
330
4F
100
AcDbEntity
  8
1
 62
     2
100
AcDbText
 10
68.83999999999912
 20
-107.6599999999999
 30
0.0
 40
1.8
  1
Gepr.
 41
0.72
  7
CONVERTER_15
100
AcDbText
  0
TEXT
  5
339
330
4F
100
AcDbEntity
  8
1
 62
     2
100
AcDbText
 10
61.21999999999832
 20
-107.6599999999999
 30
0.0
 40
1.8
  1
Name
 41
0.72
  7
CONVERTER_15
100
AcDbText
  0
TEXT
  5
33A
330
4F
100
AcDbEntity
  8
1
 62
     2
100
AcDbText
 10
43.43999999999869
 20
-107.6599999999999
 30
0.0
 40
1.8
  1
Datum
 41
0.9
  7
CONVERTER_12
100
AcDbText
  0
TEXT
  5
33B
330
4F
100
AcDbEntity
  8
1
 62
     2
100
AcDbText
 10
28.19999999999891
 20
-107.6599999999999
 30
0.0
 40
1.8
  1
Änderung
 41
0.9
  7
CONVERTER_12
100
AcDbText
  0
TEXT
  5
33C
330
4F
100
AcDbEntity
  8
1
 62
     2
100
AcDbText
 10
23.11999999999898
 20
-107.6599999999999
 30
0.0
 40
1.8
  1
Nr.
 41
0.9
  7
CONVERTER_12
100
AcDbText
  0
TEXT
  5
33D
330
4F
100
AcDbEntity
  8
0
 62
     2
100
AcDbText
 10
201.4516239034123
 20
-137.153912141408
 30
0.0
 40
1.8
  1
Bl.
 41
0.9
  7
CONVERTER_12
100
AcDbText
  0
MTEXT
  5
33E
330
4F
100
AcDbEntity
  8
1
 62
     3
100
AcDbMText
 10
103.5850000000001
 20
-98.08500000000004
 30
0.0
 40
2.2
 41
0.0
 71
     4
 72
     1
  1
Oberflächen\PDIN ISO 1302\PReihe 2
  7
CONVERTER_12
 73
     1
 44
1.32052821128451
  0
MTEXT
  5
33F
330
4F
100
AcDbEntity
  8
1
 62
     3
100
AcDbMText
 10
76.91500000000008
 20
-98.08500000000004
 30
0.0
 40
2.2
 41
0.0
 71
     4
 72
     1
  1
Allgemein-\Ptoleranzen\PDIN ISO 2768-mK
  7
CONVERTER_15
 73
     1
 44
1.32052821128451
  0
HATCH
  5
340
330
4F
100
AcDbEntity
  8
1
  6
Continuous
 62
     2
100
AcDbHatch
 10
0.0
 20
0.0
 30
0.0
210
0.0
220
0.0
230
1.0
  2
_USER
 70
     0
 71
     1
 91
        1
 92
        1
 93
        4
 72
     1
 10
162.6516542509982
 20
-119.4199999999999
 11
161.4516542509982
 21
-119.4199999999999
 72
     1
 10
161.4516542509982
 20
-119.4199999999999
 11
161.4516542509982
 21
-110.2199999999999
 72
     1
 10
161.4516542509982
 20
-110.2199999999999
 11
162.6516542509982
 21
-110.2199999999999
 72
     1
 10
162.6516542509982
 20
-110.2199999999999
 11
162.6516542509982
 21
-119.4199999999999
 97
        4
330
281
330
287
330
283
330
286
 75
     1
 76
     0
 52
90.00000000000003
 41
0.15
 77
     0
 78
     1
 53
90.00000000000003
 43
0.0
 44
0.0
 45
-0.15
 46
-0.0000000000000001
 79
     0
 98
        1
 10
0.0
 20
0.0
  0
HATCH
  5
341
330
4F
100
AcDbEntity
  8
1
  6
Continuous
 62
     2
100
AcDbHatch
 10
0.0
 20
0.0
 30
0.0
210
0.0
220
0.0
230
1.0
  2
_USER
 70
     0
 71
     1
 91
        1
 92
        1
 93
        4
 72
     1
 10
164.6516542509982
 20
-119.4199999999999
 11
163.4516542509982
 21
-119.4199999999999
 72
     1
 10
163.4516542509982
 20
-119.4199999999999
 11
163.4516542509982
 21
-110.2199999999999
 72
     1
 10
163.4516542509982
 20
-110.2199999999999
 11
164.6516542509982
 21
-110.2199999999999
 72
     1
 10
164.6516542509982
 20
-110.2199999999999
 11
164.6516542509982
 21
-119.4199999999999
 97
        4
330
282
330
285
330
28B
330
284
 75
     1
 76
     0
 52
90.00000000000003
 41
0.15
 77
     0
 78
     1
 53
90.00000000000003
 43
0.0
 44
0.0
 45
-0.15
 46
-0.0000000000000001
 79
     0
 98
        1
 10
0.0
 20
0.0
  0
HATCH
  5
342
330
4F
100
AcDbEntity
  8
1
  6
Continuous
 62
     2
100
AcDbHatch
 10
0.0
 20
0.0
 30
0.0
210
0.0
220
0.0
230
1.0
  2
_USER
 70
     0
 71
     1
 91
        1
 92
        1
 93
       12
 72
     1
 10
147.1516542509982
 20
-110.2199999999999
 11
144.5516542509982
 21
-110.2199999999999
 72
     1
 10
144.5516542509982
 20
-110.2199999999999
 11
144.5516542509982
 21
-119.4199999999999
 72
     1
 10
144.5516542509982
 20
-119.4199999999999
 11
147.1516542509982
 21
-119.4199999999999
 72
     1
 10
147.1516542509982
 20
-119.4199999999999
 11
147.1516542509982
 21
-118.30758746051
 72
     1
 10
147.1516542509982
 20
-118.30758746051
 11
145.8516542509982
 21
-118.30758746051
 72
     1
 10
145.8516542509982
 20
-118.30758746051
 11
145.8516542509982
 21
-115.0199999999999
 72
     1
 10
145.8516542509982
 20
-115.0199999999999
 11
147.1516542509982
 21
-115.0199999999999
 72
     1
 10
147.1516542509982
 20
-115.0199999999999
 11
147.1516542509982
 21
-113.9199999999999
 72
     1
 10
147.1516542509982
 20
-113.9199999999999
 11
145.8516542509982
 21
-113.9199999999999
 72
     1
 10
145.8516542509982
 20
-113.9199999999999
 11
145.8516542509982
 21
-111.3199999999999
 72
     1
 10
145.8516542509982
 20
-111.3199999999999
 11
147.1516542509982
 21
-111.3199999999999
 72
     1
 10
147.1516542509982
 20
-111.3199999999999
 11
147.1516542509982
 21
-110.2199999999999
 97
       12
330
24B
330
24C
330
24D
330
24E
330
243
330
23F
330
240
330
241
330
242
330
244
330
28C
330
28D
 75
     1
 76
     0
 52
90.00000000000003
 41
0.15
 77
     0
 78
     1
 53
90.00000000000003
 43
0.0
 44
0.0
 45
-0.15
 46
-0.0000000000000001
 79
     0
 98
        1
 10
0.0
 20
0.0
  0
HATCH
  5
343
330
4F
100
AcDbEntity
  8
1
  6
Continuous
 62
     2
100
AcDbHatch
 10
0.0
 20
0.0
 30
0.0
210
0.0
220
0.0
230
1.0
  2
_USER
 70
     0
 71
     1
 91
        1
 92
        1
 93
        6
 72
     1
 10
189.2516542509982
 20
-119.4199999999999
 11
186.6516542509982
 21
-119.4199999999999
 72
     1
 10
186.6516542509982
 20
-119.4199999999999
 11
186.6516542509982
 21
-110.2199999999999
 72
     1
 10
186.6516542509982
 20
-110.2199999999999
 11
187.8516542509982
 21
-110.2199999999999
 72
     1
 10
187.8516542509982
 20
-110.2199999999999
 11
187.8516542509982
 21
-118.30758746051
 72
     1
 10
187.8516542509982
 20
-118.30758746051
 11
189.2516542509982
 21
-118.30758746051
 72
     1
 10
189.2516542509982
 20
-118.30758746051
 11
189.2516542509982
 21
-119.4199999999999
 97
        6
330
2AB
330
2AA
330
26E
330
26B
330
26C
330
26D
 75
     1
 76
     0
 52
90.00000000000003
 41
0.15
 77
     0
 78
     1
 53
90.00000000000003
 43
0.0
 44
0.0
 45
-0.15
 46
-0.0000000000000001
 79
     0
 98
        1
 10
0.0
 20
0.0
  0
HATCH
  5
344
330
4F
100
AcDbEntity
  8
1
  6
Continuous
 62
     2
100
AcDbHatch
 10
0.0
 20
0.0
 30
0.0
210
0.0
220
0.0
230
1.0
  2
_USER
 70
     0
 71
     1
 91
        1
 92
        1
 93
       11
 72
     1
 10
169.8516542509982
 20
-113.8826635858394
 11
171.0854042804337
 21
-110.2199999999999
 72
     1
 10
171.0854042804337
 20
-110.2199999999999
 11
172.3516542509982
 21
-110.2199999999999
 72
     1
 10
172.3516542509982
 20
-110.2199999999999
 11
170.9200628688759
 21
-114.4699999999999
 72
     1
 10
170.9200628688759
 20
-114.4699999999999
 11
172.3516542509982
 21
-119.4199999999999
 72
     1
 10
172.3516542509982
 20
-119.4199999999999
 11
171.1024763583806
 21
-119.4199999999999
 72
     1
 10
171.1024763583806
 20
-119.4199999999999
 11
169.8516542509982
 21
-115.0950442138285
 72
     1
 10
169.8516542509982
 20
-115.0950442138285
 11
169.8516542509982
 21
-119.4199999999999
 72
     1
 10
169.8516542509982
 20
-119.4199999999999
 11
168.6516542509982
 21
-119.4199999999999
 72
     1
 10
168.6516542509982
 20
-119.4199999999999
 11
168.6516542509982
 21
-110.2199999999999
 72
     1
 10
168.6516542509982
 20
-110.2199999999999
 11
169.8516542509982
 21
-110.2199999999999
 72
     1
 10
169.8516542509982
 20
-110.2199999999999
 11
169.8516542509982
 21
-113.8826635858394
 97
       11
330
25E
330
260
330
25F
330
2B7
330
2B5
330
2B3
330
2B1
330
2B0
330
2B2
330
2B4
330
2B6
 75
     1
 76
     0
 52
90.00000000000003
 41
0.15
 77
     0
 78
     1
 53
90.00000000000003
 43
0.0
 44
0.0
 45
-0.15
 46
-0.0000000000000001
 79
     0
 98
        1
 10
0.0
 20
0.0
  0
HATCH
  5
345
330
4F
100
AcDbEntity
  8
1
  6
Continuous
 62
     2
100
AcDbHatch
 10
0.0
 20
0.0
 30
0.0
210
0.0
220
0.0
230
1.0
  2
_USER
 70
     0
 71
     1
 91
        2
 92
        1
 93
        8
 72
     1
 10
151.6516542509982
 20
-111.2199999999999
 11
151.6516542509982
 21
-118.4199999999999
 72
     2
 10
150.6516542509982
 20
-118.4199999999999
 40
1.0
 50
0.0
 51
90.0
 73
     0
 72
     1
 10
150.6516542509982
 20
-119.4199999999999
 11
148.9516542509982
 21
-119.4199999999999
 72
     2
 10
148.9516542509982
 20
-118.4199999999999
 40
1.0
 50
90.0
 51
180.0
 73
     0
 72
     1
 10
147.9516542509982
 20
-118.4199999999999
 11
147.9516542509982
 21
-111.2199999999999
 72
     2
 10
148.9516542509982
 20
-111.2199999999999
 40
1.0
 50
180.0
 51
270.0
 73
     0
 72
     1
 10
148.9516542509982
 20
-110.2199999999999
 11
150.6516542509982
 21
-110.2199999999999
 72
     2
 10
150.6516542509982
 20
-111.2199999999999
 40
1.0
 50
270.0
 51
360.0
 73
     0
 97
        8
330
252
330
2E1
330
254
330
2E3
330
253
330
2E4
330
255
330
2E2
 92
       16
 93
        6
 72
     2
 10
149.8016542509982
 20
-111.9699999999999
 40
0.6500000000000057
 50
90.0
 51
180.0
 73
     1
 72
     1
 10
149.1516542509982
 20
-111.9699999999999
 11
149.1516542509982
 21
-117.65758746051
 72
     2
 10
149.8016542509982
 20
-117.65758746051
 40
0.6500000000000057
 50
180.0
 51
270.0
 73
     1
 72
     2
 10
149.8016542509982
 20
-117.65758746051
 40
0.6500000000000057
 50
270.0
 51
360.0
 73
     1
 72
     1
 10
150.4516542509982
 20
-117.65758746051
 11
150.4516542509982
 21
-111.9699999999999
 72
     2
 10
149.8016542509982
 20
-111.9699999999999
 40
0.6499999999999773
 50
0.0
 51
90.0
 73
     1
 97
        6
330
2F6
330
28F
330
2F8
330
2F9
330
28E
330
2F7
 75
     1
 76
     0
 52
90.00000000000003
 41
0.15
 77
     0
 78
     1
 53
90.00000000000003
 43
0.0
 44
0.0
 45
-0.15
 46
-0.0000000000000001
 79
     0
 98
        1
 10
0.0
 20
0.0
  0
HATCH
  5
346
330
4F
100
AcDbEntity
  8
1
  6
Continuous
 62
     2
100
AcDbHatch
 10
0.0
 20
0.0
 30
0.0
210
0.0
220
0.0
230
1.0
  2
_USER
 70
     0
 71
     1
 91
        2
 92
        1
 93
        8
 72
     2
 10
183.1516542509982
 20
-111.2199999999999
 40
1.0
 50
90.0
 51
180.0
 73
     1
 72
     1
 10
182.1516542509982
 20
-111.2199999999999
 11
182.1516542509982
 21
-118.4199999999999
 72
     2
 10
183.1516542509982
 20
-118.4199999999999
 40
1.0
 50
180.0
 51
270.0
 73
     1
 72
     1
 10
183.1516542509982
 20
-119.4199999999999
 11
184.8516542509982
 21
-119.4199999999999
 72
     2
 10
184.8516542509982
 20
-118.4199999999999
 40
1.0
 50
270.0
 51
360.0
 73
     1
 72
     1
 10
185.8516542509982
 20
-118.4199999999999
 11
185.8516542509982
 21
-111.2199999999999
 72
     2
 10
184.8516542509982
 20
-111.2199999999999
 40
1.0
 50
0.0
 51
90.0
 73
     1
 72
     1
 10
184.8516542509982
 20
-110.2199999999999
 11
183.1516542509982
 21
-110.2199999999999
 97
        8
330
2EC
330
267
330
2EF
330
268
330
2EE
330
269
330
2EB
330
26A
 92
       16
 93
        6
 72
     2
 10
184.0016542509982
 20
-111.9699999999999
 40
0.6500000000000057
 50
0.0
 51
90.0
 73
     1
 72
     2
 10
184.0016542509982
 20
-111.9699999999999
 40
0.6500000000000057
 50
90.0
 51
180.0
 73
     1
 72
     1
 10
183.3516542509982
 20
-111.9699999999999
 11
183.3516542509982
 21
-117.65758746051
 72
     2
 10
184.0016542509982
 20
-117.65758746051
 40
0.6500000000000057
 50
180.0
 51
270.0
 73
     1
 72
     2
 10
184.0016542509982
 20
-117.65758746051
 40
0.6500000000000057
 50
270.0
 51
360.0
 73
     1
 72
     1
 10
184.6516542509982
 20
-117.65758746051
 11
184.6516542509982
 21
-111.9699999999999
 97
        6
330
307
330
308
330
2A6
330
309
330
30A
330
2A5
 75
     1
 76
     0
 52
90.00000000000003
 41
0.15
 77
     0
 78
     1
 53
90.00000000000003
 43
0.0
 44
0.0
 45
-0.15
 46
-0.0000000000000001
 79
     0
 98
        1
 10
0.0
 20
0.0
  0
HATCH
  5
347
330
4F
100
AcDbEntity
  8
1
  6
Continuous
 62
     2
100
AcDbHatch
 10
0.0
 20
0.0
 30
0.0
210
0.0
220
0.0
230
1.0
  2
_USER
 70
     0
 71
     1
 91
        3
 92
        1
 93
        9
 72
     1
 10
180.3516542509982
 20
-110.2199999999999
 11
177.6516542509982
 21
-110.2199999999999
 72
     1
 10
177.6516542509982
 20
-110.2199999999999
 11
177.6516542509982
 21
-119.4199999999999
 72
     1
 10
177.6516542509982
 20
-119.4199999999999
 11
180.3516542509982
 21
-119.4199999999999
 72
     2
 10
180.3516542509982
 20
-118.4199999999999
 40
1.0
 50
270.0
 51
360.0
 73
     1
 72
     1
 10
181.3516542509982
 20
-118.4199999999999
 11
181.3516542509982
 21
-115.1199999999999
 72
     2
 10
180.7016542509982
 20
-115.1199999999999
 40
0.6500000000000057
 50
0.0
 51
90.0
 73
     1
 72
     2
 10
180.7016542509982
 20
-113.8199999999999
 40
0.6500000000000057
 50
270.0
 51
360.0
 73
     1
 72
     1
 10
181.3516542509982
 20
-113.8199999999999
 11
181.3516542509982
 21
-111.2199999999999
 72
     2
 10
180.3516542509982
 20
-111.2199999999999
 40
1.0
 50
0.0
 51
90.0
 73
     1
 97
        9
330
265
330
264
330
266
330
2F0
330
2AF
330
2DE
330
2DD
330
2AE
330
2EA
 92
       16
 93
        6
 72
     2
 10
179.5016542509982
 20
-111.9699999999999
 40
0.6500000000000057
 50
0.0
 51
90.0
 73
     1
 72
     1
 10
179.5016542509982
 20
-111.3199999999999
 11
178.8516542509982
 21
-111.3199999999999
 72
     1
 10
178.8516542509982
 20
-111.3199999999999
 11
178.8516542509982
 21
-113.9199999999999
 72
     1
 10
178.8516542509982
 20
-113.9199999999999
 11
179.5016542509982
 21
-113.9199999999999
 72
     2
 10
179.5016542509982
 20
-113.2699999999999
 40
0.6500000000000057
 50
270.0
 51
360.0
 73
     1
 72
     1
 10
180.1516542509982
 20
-113.2699999999999
 11
180.1516542509982
 21
-111.9699999999999
 97
        6
330
30F
330
29D
330
2A3
330
29F
330
310
330
29E
 92
       16
 93
        6
 72
     2
 10
179.5016542509982
 20
-115.6699999999999
 40
0.6500000000000057
 50
0.0
 51
90.0
 73
     1
 72
     1
 10
179.5016542509982
 20
-115.0199999999999
 11
178.8516542509982
 21
-115.0199999999999
 72
     1
 10
178.8516542509982
 20
-115.0199999999999
 11
178.8516542509982
 21
-118.30758746051
 72
     1
 10
178.8516542509982
 20
-118.30758746051
 11
179.5016542509982
 21
-118.30758746051
 72
     2
 10
179.5016542509982
 20
-117.65758746051
 40
0.6500000000000057
 50
270.0
 51
360.0
 73
     1
 72
     1
 10
180.1516542509982
 20
-117.65758746051
 11
180.1516542509982
 21
-115.6699999999999
 97
        6
330
311
330
2A4
330
2A0
330
2A1
330
312
330
2A2
 75
     1
 76
     0
 52
90.00000000000003
 41
0.15
 77
     0
 78
     1
 53
90.00000000000003
 43
0.0
 44
0.0
 45
-0.15
 46
-0.0000000000000001
 79
     0
 98
        1
 10
0.0
 20
0.0
  0
HATCH
  5
348
330
4F
100
AcDbEntity
  8
1
  6
Continuous
 62
     2
100
AcDbHatch
 10
0.0
 20
0.0
 30
0.0
210
0.0
220
0.0
230
1.0
  2
_USER
 70
     0
 71
     1
 91
        2
 92
        1
 93
        8
 72
     2
 10
174.1516542509982
 20
-111.2199999999999
 40
1.0
 50
90.0
 51
180.0
 73
     1
 72
     1
 10
173.1516542509982
 20
-111.2199999999999
 11
173.1516542509982
 21
-118.4199999999999
 72
     2
 10
174.1516542509982
 20
-118.4199999999999
 40
1.0
 50
180.0
 51
270.0
 73
     1
 72
     1
 10
174.1516542509982
 20
-119.4199999999999
 11
175.8516542509982
 21
-119.4199999999999
 72
     2
 10
175.8516542509982
 20
-118.4199999999999
 40
1.0
 50
270.0
 51
360.0
 73
     1
 72
     1
 10
176.8516542509982
 20
-118.4199999999999
 11
176.8516542509982
 21
-111.2199999999999
 72
     2
 10
175.8516542509982
 20
-111.2199999999999
 40
1.0
 50
0.0
 51
90.0
 73
     1
 72
     1
 10
175.8516542509982
 20
-110.2199999999999
 11
174.1516542509982
 21
-110.2199999999999
 97
        8
330
2E8
330
2B8
330
2F2
330
263
330
2F1
330
271
330
2E9
330
262
 92
       16
 93
        6
 72
     2
 10
175.0016542509982
 20
-111.9699999999999
 40
0.6500000000000057
 50
90.0
 51
180.0
 73
     1
 72
     1
 10
174.3516542509982
 20
-111.9699999999999
 11
174.3516542509982
 21
-117.65758746051
 72
     2
 10
175.0016542509982
 20
-117.65758746051
 40
0.6500000000000057
 50
180.0
 51
270.0
 73
     1
 72
     2
 10
175.0016542509982
 20
-117.65758746051
 40
0.6500000000000057
 50
270.0
 51
360.0
 73
     1
 72
     1
 10
175.6516542509982
 20
-117.65758746051
 11
175.6516542509982
 21
-111.9699999999999
 72
     2
 10
175.0016542509982
 20
-111.9699999999999
 40
0.6500000000000057
 50
0.0
 51
90.0
 73
     1
 97
        6
330
30B
330
29C
330
30D
330
30E
330
29B
330
30C
 75
     1
 76
     0
 52
90.00000000000003
 41
0.15
 77
     0
 78
     1
 53
90.00000000000003
 43
0.0
 44
0.0
 45
-0.15
 46
-0.0000000000000001
 79
     0
 98
        1
 10
0.0
 20
0.0
  0
HATCH
  5
349
330
4F
100
AcDbEntity
  8
1
  6
Continuous
 62
     2
100
AcDbHatch
 10
0.0
 20
0.0
 30
0.0
210
0.0
220
0.0
230
1.0
  2
_USER
 70
     0
 71
     1
 91
        2
 92
        1
 93
        6
 72
     1
 10
193.7516542509982
 20
-111.2199999999999
 11
193.7516542509982
 21
-118.4199999999999
 72
     2
 10
192.7516542509982
 20
-118.4199999999999
 40
1.0
 50
0.0
 51
90.0
 73
     0
 72
     1
 10
192.7516542509982
 20
-119.4199999999999
 11
190.0516542509982
 21
-119.4199999999999
 72
     1
 10
190.0516542509982
 20
-119.4199999999999
 11
190.0516542509982
 21
-110.2199999999999
 72
     1
 10
190.0516542509982
 20
-110.2199999999999
 11
192.7516542509982
 21
-110.2199999999999
 72
     2
 10
192.7516542509982
 20
-111.2199999999999
 40
1.0
 50
270.0
 51
360.0
 73
     0
 97
        6
330
270
330
26F
330
272
330
2F3
330
273
330
2ED
 92
       16
 93
        7
 72
     2
 10
191.9016542509982
 20
-111.9699999999999
 40
0.6500000000000057
 50
0.0
 51
90.0
 73
     1
 72
     1
 10
191.9016542509982
 20
-111.3199999999999
 11
191.2516542509982
 21
-111.3199999999999
 72
     1
 10
191.2516542509982
 20
-111.3199999999999
 11
191.2516542509982
 21
-111.9699999999999
 72
     1
 10
191.2516542509982
 20
-111.9699999999999
 11
191.2516542509982
 21
-118.30758746051
 72
     1
 10
191.2516542509982
 20
-118.30758746051
 11
191.9016542509982
 21
-118.30758746051
 72
     2
 10
191.9016542509982
 20
-117.65758746051
 40
0.6500000000000057
 50
270.0
 51
360.0
 73
     1
 72
     1
 10
192.5516542509982
 20
-117.65758746051
 11
192.5516542509982
 21
-111.9699999999999
 97
        7
330
305
330
2AC
330
2AD
330
2A9
330
2A8
330
306
330
2A7
 75
     1
 76
     0
 52
90.00000000000003
 41
0.15
 77
     0
 78
     1
 53
90.00000000000003
 43
0.0
 44
0.0
 45
-0.15
 46
-0.0000000000000001
 79
     0
 98
        1
 10
0.0
 20
0.0
  0
HATCH
  5
34A
330
4F
100
AcDbEntity
  8
1
  6
Continuous
 62
     2
100
AcDbHatch
 10
0.0
 20
0.0
 30
0.0
210
0.0
220
0.0
230
1.0
  2
_USER
 70
     0
 71
     1
 91
        2
 92
        1
 93
       13
 72
     2
 10
155.3161055621215
 20
-115.6535223168009
 40
0.8355765145285912
 50
359.5324065739073
 51
445.9815862299461
 73
     1
 72
     2
 10
155.3000342667233
 20
-113.9710002560295
 40
0.8522732028340286
 50
275.0233190242853
 51
357.7566077588553
 73
     1
 72
     1
 10
156.1516542509982
 20
-114.0043621302671
 11
156.1516542509982
 21
-111.2199999999999
 72
     2
 10
155.1516542509982
 20
-111.2199999999999
 40
1.0
 50
0.0
 51
90.0
 73
     1
 72
     1
 10
155.1516542509982
 20
-110.2199999999999
 11
152.4516542509982
 21
-110.2199999999999
 72
     1
 10
152.4516542509982
 20
-110.2199999999999
 11
152.4516542509982
 21
-119.4199999999999
 72
     1
 10
152.4516542509982
 20
-119.4199999999999
 11
153.6516542509982
 21
-119.4199999999999
 72
     1
 10
153.6516542509982
 20
-119.4199999999999
 11
153.6516542509982
 21
-115.4199999999999
 72
     1
 10
153.6516542509982
 20
-115.4199999999999
 11
154.3016542509982
 21
-115.4199999999999
 72
     2
 10
154.3016542509982
 20
-116.0699999999999
 40
0.6499999999999773
 50
270.0
 51
360.0
 73
     0
 72
     1
 10
154.9516542509982
 20
-116.0699999999999
 11
154.9516542509982
 21
-119.4199999999999
 72
     1
 10
154.9516542509982
 20
-119.4199999999999
 11
156.1516542509982
 21
-119.4199999999999
 72
     1
 10
156.1516542509982
 20
-119.4199999999999
 11
156.1516542509982
 21
-115.6603414185126
 97
       13
330
2DB
330
2DA
330
258
330
2E5
330
257
330
256
330
280
330
298
330
297
330
2FB
330
27E
330
27F
330
259
 92
       16
 93
        6
 72
     2
 10
154.3016542509982
 20
-111.9699999999999
 40
0.6499999999999773
 50
0.0
 51
90.0
 73
     1
 72
     1
 10
154.3016542509982
 20
-111.3199999999999
 11
153.6516542509982
 21
-111.3199999999999
 72
     1
 10
153.6516542509982
 20
-111.3199999999999
 11
153.6516542509982
 21
-114.2199999999999
 72
     1
 10
153.6516542509982
 20
-114.2199999999999
 11
154.3016542509982
 21
-114.2199999999999
 72
     2
 10
154.3016542509982
 20
-113.5699999999999
 40
0.6500000000000057
 50
270.0
 51
360.0
 73
     1
 72
     1
 10
154.9516542509982
 20
-113.5699999999999
 11
154.9516542509982
 21
-111.9699999999999
 97
        6
330
2FA
330
294
330
295
330
296
330
2FC
330
27D
 75
     1
 76
     0
 52
90.00000000000003
 41
0.15
 77
     0
 78
     1
 53
90.00000000000003
 43
0.0
 44
0.0
 45
-0.15
 46
-0.0000000000000001
 79
     0
 98
        1
 10
0.0
 20
0.0
  0
HATCH
  5
34B
330
4F
100
AcDbEntity
  8
1
  6
Continuous
 62
     2
100
AcDbHatch
 10
0.0
 20
0.0
 30
0.0
210
0.0
220
0.0
230
1.0
  2
_USER
 70
     0
 71
     1
 91
        1
 92
        1
 93
       23
 72
     1
 10
159.4516542509982
 20
-117.65758746051
 11
159.4516542509982
 21
-115.9199999999999
 72
     1
 10
159.4516542509982
 20
-115.9199999999999
 11
158.9016542509982
 21
-115.9199999999999
 72
     1
 10
158.9016542509982
 20
-115.9199999999999
 11
158.9016542509982
 21
-114.7199999999999
 72
     1
 10
158.9016542509982
 20
-114.7199999999999
 11
159.7415058473918
 21
-114.7199999999999
 72
     1
 10
159.7415058473918
 20
-114.7199999999999
 11
160.6516542509982
 21
-114.7199999999999
 72
     1
 10
160.6516542509982
 20
-114.7199999999999
 11
160.6516542509982
 21
-119.4199999999999
 72
     1
 10
160.6516542509982
 20
-119.4199999999999
 11
160.1516542509982
 21
-119.4199999999999
 72
     1
 10
160.1516542509982
 20
-119.4199999999999
 11
159.8046153744343
 21
-118.8199999999999
 72
     2
 10
158.8327793484388
 20
-118.3331447179281
 40
1.086965191302833
 50
26.60924039545096
 51
90.8147991292736
 73
     0
 72
     1
 10
158.8173222162131
 20
-119.4199999999999
 11
157.9516542509982
 21
-119.4199999999999
 72
     2
 10
157.9516542509982
 20
-118.4199999999999
 40
1.0
 50
90.0
 51
180.0
 73
     0
 72
     1
 10
156.9516542509982
 20
-118.4199999999999
 11
156.9516542509982
 21
-111.2199999999999
 72
     2
 10
157.9516542509982
 20
-111.2199999999999
 40
1.0
 50
180.0
 51
270.0
 73
     0
 72
     1
 10
157.9516542509982
 20
-110.2199999999999
 11
159.6516542509982
 21
-110.2199999999999
 72
     2
 10
159.6516542509982
 20
-111.2199999999999
 40
1.000000000000085
 50
270.0
 51
360.0
 73
     0
 72
     1
 10
160.6516542509983
 20
-111.2199999999999
 11
160.6516542509982
 21
-113.3199999999999
 72
     1
 10
160.6516542509982
 20
-113.3199999999999
 11
159.4516542509982
 21
-113.3199999999999
 72
     1
 10
159.4516542509982
 20
-113.3199999999999
 11
159.4516542509982
 21
-111.9699999999999
 72
     2
 10
158.8016542509982
 20
-111.9699999999999
 40
0.6499999999999773
 50
0.0
 51
90.0
 73
     1
 72
     2
 10
158.8016542509982
 20
-111.9699999999999
 40
0.6500000000000057
 50
90.0
 51
180.0
 73
     1
 72
     1
 10
158.1516542509982
 20
-111.9699999999999
 11
158.1516542509982
 21
-117.65758746051
 72
     2
 10
158.8016542509982
 20
-117.65758746051
 40
0.6500000000000057
 50
180.0
 51
270.0
 73
     1
 72
     2
 10
158.8016542509982
 20
-117.65758746051
 40
0.6500000000000057
 50
270.0
 51
360.0
 73
     1
 97
       23
330
2FF
330
27B
330
2FD
330
2FE
330
27A
330
25C
330
25D
330
2E7
330
25A
330
2E6
330
275
330
2F4
330
274
330
2DC
330
279
330
278
330
25B
330
29A
330
288
330
289
330
28A
330
27C
330
300
 75
     1
 76
     0
 52
90.00000000000003
 41
0.15
 77
     0
 78
     1
 53
90.00000000000003
 43
0.0
 44
0.0
 45
-0.15
 46
-0.0000000000000001
 79
     0
 98
        1
 10
0.0
 20
0.0
  0
HATCH
  5
34C
330
4F
100
AcDbEntity
  8
1
  6
Continuous
 62
     2
100
AcDbHatch
 10
0.0
 20
0.0
 30
0.0
210
0.0
220
0.0
230
1.0
  2
_USER
 70
     0
 71
     1
 91
        1
 92
        1
 93
       22
 72
     1
 10
143.7516542509982
 20
-119.4199999999999
 11
143.2516542509982
 21
-119.4199999999999
 72
     1
 10
143.2516542509982
 20
-119.4199999999999
 11
142.9048783308657
 21
-118.8199999999999
 72
     2
 10
141.9264261003899
 20
-118.3227040643326
 40
1.097575516743276
 50
26.94184191294435
 51
91.2932531058712
 73
     0
 72
     1
 10
141.9016542509982
 20
-119.4199999999999
 11
141.0516542509982
 21
-119.4199999999999
 72
     2
 10
141.0516542509982
 20
-118.4199999999999
 40
1.0
 50
90.0
 51
180.0
 73
     0
 72
     1
 10
140.0516542509982
 20
-118.4199999999999
 11
140.0516542509982
 21
-111.2199999999999
 72
     2
 10
141.0516542509982
 20
-111.2199999999999
 40
1.0
 50
180.0
 51
270.0
 73
     0
 72
     1
 10
141.0516542509982
 20
-110.2199999999999
 11
142.7516542509982
 21
-110.2199999999999
 72
     2
 10
142.7516542509982
 20
-111.2199999999999
 40
1.0
 50
270.0
 51
360.0
 73
     0
 72
     1
 10
143.7516542509982
 20
-111.2199999999999
 11
143.7516542509982
 21
-113.3199999999999
 72
     1
 10
143.7516542509982
 20
-113.3199999999999
 11
142.5516542509982
 21
-113.3199999999999
 72
     1
 10
142.5516542509982
 20
-113.3199999999999
 11
142.5516542509982
 21
-111.9699999999999
 72
     2
 10
141.9016542509982
 20
-111.9699999999999
 40
0.6500000000000057
 50
0.0
 51
90.0
 73
     1
 72
     2
 10
141.9016542509982
 20
-111.9699999999999
 40
0.6500000000000057
 50
90.0
 51
180.0
 73
     1
 72
     1
 10
141.2516542509982
 20
-111.9699999999999
 11
141.2516542509982
 21
-117.65758746051
 72
     2
 10
141.9016542509982
 20
-117.65758746051
 40
0.6500000000000057
 50
180.0
 51
270.0
 73
     1
 72
     2
 10
141.9016542509982
 20
-117.65758746051
 40
0.6500000000000057
 50
270.0
 51
360.0
 73
     1
 72
     1
 10
142.5516542509982
 20
-117.65758746051
 11
142.5516542509982
 21
-115.9199999999999
 72
     1
 10
142.5516542509982
 20
-115.9199999999999
 11
141.9927287849846
 21
-115.9199999999999
 72
     1
 10
141.9927287849846
 20
-115.9199999999999
 11
141.9927287849846
 21
-114.7199999999999
 72
     1
 10
141.9927287849846
 20
-114.7199999999999
 11
143.7516542509982
 21
-114.7199999999999
 72
     1
 10
143.7516542509982
 20
-114.7199999999999
 11
143.7516542509982
 21
-119.4199999999999
 97
       22
330
247
330
248
330
245
330
290
330
304
330
303
330
291
330
301
330
302
330
292
330
293
330
24A
330
2DF
330
277
330
2F5
330
276
330
2E0
330
251
330
2D9
330
250
330
249
330
24F
 75
     1
 76
     0
 52
90.00000000000003
 41
0.15
 77
     0
 78
     1
 53
90.00000000000003
 43
0.0
 44
0.0
 45
-0.15
 46
-0.0000000000000001
 79
     0
 98
        1
 10
0.0
 20
0.0
  0
ENDBLK
  5
51
330
4F
100
AcDbEntity
  8
0
100
AcDbBlockEnd
  0
BLOCK
  5
402
330
3FB
100
AcDbEntity
  8
0
100
AcDbBlockBegin
  2
*D11
 70
     1
 71
     0
 10
0.0
 20
0.0
 30
0.0
  3
*D11
  1

  0
LINE
  5
3FC
330
3FB
100
AcDbEntity
  8
1
  6
Continuous
 62
     2
100
AcDbLine
 10
-212.5
 20
235.630838709678
 30
0.0
 11
16.5
 21
235.630838709678
 31
0.0
  0
LINE
  5
3FD
330
3FB
100
AcDbEntity
  8
1
  6
Continuous
 62
     2
100
AcDbLine
 10
-212.5
 20
150.0
 30
0.0
 11
-212.5
 21
237.630838709678
 31
0.0
  0
LINE
  5
3FE
330
3FB
100
AcDbEntity
  8
1
  6
Continuous
 62
     2
100
AcDbLine
 10
16.5
 20
148.5
 30
0.0
 11
16.5
 21
237.630838709678
 31
0.0
  0
SOLID
  5
3FF
330
3FB
100
AcDbEntity
  8
1
 62
     2
100
AcDbTrace
 10
-205.5
 20
236.5524061927898
 30
0.0
 11
-205.5
 21
234.7092712265662
 31
0.0
 12
-212.5
 22
235.630838709678
 32
0.0
 13
-212.5
 23
235.630838709678
 33
0.0
  0
SOLID
  5
400
330
3FB
100
AcDbEntity
  8
1
 62
     2
100
AcDbTrace
 10
9.5
 20
234.7092712265662
 30
0.0
 11
9.5
 21
236.5524061927898
 31
0.0
 12
16.5
 22
235.630838709678
 32
0.0
 13
16.5
 23
235.630838709678
 33
0.0
  0
MTEXT
  5
401
330
3FB
100
AcDbEntity
  8
1
 62
     3
100
AcDbMText
 10
-101.2527903225819
 20
239.630838709678
 30
0.0
 40
7.0
 41
0.0
 71
     7
 72
     1
  1
k
  7
CONVERTER_15
 11
0.9999999999970621
 21
2.424068405545307E-6
 31
0.0
 73
     1
 44
0.60024009603842
  0
ENDBLK
  5
403
330
3FB
100
AcDbEntity
  8
0
100
AcDbBlockEnd
  0
BLOCK
  5
40D
330
406
100
AcDbEntity
  8
0
100
AcDbBlockBegin
  2
*D12
 70
     1
 71
     0
 10
0.0
 20
0.0
 30
0.0
  3
*D12
  1

  0
LINE
  5
407
330
406
100
AcDbEntity
  8
1
  6
Continuous
 62
     2
100
AcDbLine
 10
-255.5
 20
159.24330580648
 30
0.0
 11
-225.5
 21
159.24330580648
 31
0.0
  0
LINE
  5
408
330
406
100
AcDbEntity
  8
1
  6
Continuous
 62
     2
100
AcDbLine
 10
-255.5
 20
118.5
 30
0.0
 11
-255.5
 21
161.24330580648
 31
0.0
  0
LINE
  5
409
330
406
100
AcDbEntity
  8
1
  6
Continuous
 62
     2
100
AcDbLine
 10
-225.5
 20
118.5
 30
0.0
 11
-225.5
 21
161.24330580648
 31
0.0
  0
SOLID
  5
40A
330
406
100
AcDbEntity
  8
1
 62
     2
100
AcDbTrace
 10
-248.5
 20
160.1648732895918
 30
0.0
 11
-248.5
 21
158.3217383233682
 31
0.0
 12
-255.5
 22
159.24330580648
 32
0.0
 13
-255.5
 23
159.24330580648
 33
0.0
  0
SOLID
  5
40B
330
406
100
AcDbEntity
  8
1
 62
     2
100
AcDbTrace
 10
-232.5
 20
158.3217383233682
 30
0.0
 11
-232.5
 21
160.1648732895918
 31
0.0
 12
-225.5
 22
159.24330580648
 32
0.0
 13
-225.5
 23
159.24330580648
 33
0.0
  0
MTEXT
  5
40C
330
406
100
AcDbEntity
  8
1
 62
     3
100
AcDbMText
 10
-246.135233306431
 20
163.24330580648
 30
0.0
 40
7.0
 41
0.0
 71
     7
 72
     1
  1
30
  7
CONVERTER_15
 11
0.9999999999970621
 21
2.424068405545307E-6
 31
0.0
 73
     1
 44
0.60024009603842
  0
ENDBLK
  5
40E
330
406
100
AcDbEntity
  8
0
100
AcDbBlockEnd
  0
BLOCK
  5
41A
330
411
100
AcDbEntity
  8
0
100
AcDbBlockBegin
  2
*D13
 70
     1
 71
     0
 10
0.0
 20
0.0
 30
0.0
  3
*D13
  1

  0
LINE
  5
412
330
411
100
AcDbEntity
  8
1
  6
Continuous
 62
     2
100
AcDbLine
 10
-255.5
 20
158.965205887125
 30
0.0
 11
-241.5
 21
158.965205887125
 31
0.0
  0
LINE
  5
413
330
411
100
AcDbEntity
  8
1
  6
Continuous
 62
     2
100
AcDbLine
 10
-258.5
 20
158.965205887125
 30
0.0
 11
-255.5
 21
158.965205887125
 31
0.0
  0
LINE
  5
414
330
411
100
AcDbEntity
  8
1
  6
Continuous
 62
     2
100
AcDbLine
 10
-279.212022983896
 20
158.965205887125
 30
0.0
 11
-258.5
 21
158.965205887125
 31
0.0
  0
LINE
  5
415
330
411
100
AcDbEntity
  8
1
  6
Continuous
 62
     2
100
AcDbLine
 10
-258.5
 20
116.0
 30
0.0
 11
-258.5
 21
160.965205887125
 31
0.0
  0
LINE
  5
416
330
411
100
AcDbEntity
  8
1
  6
Continuous
 62
     2
100
AcDbLine
 10
-255.5
 20
118.5
 30
0.0
 11
-255.5
 21
160.965205887125
 31
0.0
  0
SOLID
  5
417
330
411
100
AcDbEntity
  8
1
 62
     2
100
AcDbTrace
 10
-265.5
 20
158.0436384040132
 30
0.0
 11
-265.5
 21
159.8867733702368
 31
0.0
 12
-258.5
 22
158.965205887125
 32
0.0
 13
-258.5
 23
158.965205887125
 33
0.0
  0
SOLID
  5
418
330
411
100
AcDbEntity
  8
1
 62
     2
100
AcDbTrace
 10
-248.5
 20
159.8867733702368
 30
0.0
 11
-248.5
 21
158.0436384040132
 31
0.0
 12
-255.5
 22
158.965205887125
 32
0.0
 13
-255.5
 23
158.965205887125
 33
0.0
  0
MTEXT
  5
419
330
411
100
AcDbEntity
  8
1
 62
     3
100
AcDbMText
 10
-279.212022983896
 20
162.965205887125
 30
0.0
 40
7.0
 41
0.0
 71
     7
 72
     1
  1
3
  7
CONVERTER_15
 11
0.9999999999970621
 21
2.424068405545307E-6
 31
0.0
 73
     1
 44
0.60024009603842
  0
ENDBLK
  5
41B
330
411
100
AcDbEntity
  8
0
100
AcDbBlockEnd
  0
BLOCK
  5
425
330
41E
100
AcDbEntity
  8
0
100
AcDbBlockBegin
  2
*D14
 70
     1
 71
     0
 10
0.0
 20
0.0
 30
0.0
  3
*D14
  1

  0
LINE
  5
41F
330
41E
100
AcDbEntity
  8
1
  6
Continuous
 62
     2
100
AcDbLine
 10
-280.043620080683
 20
94.0
 30
0.0
 11
-280.043620080683
 21
116.0
 31
0.0
  0
LINE
  5
420
330
41E
100
AcDbEntity
  8
1
  6
Continuous
 62
     2
100
AcDbLine
 10
-258.5
 20
116.0
 30
0.0
 11
-282.043620080683
 21
116.0
 31
0.0
  0
LINE
  5
421
330
41E
100
AcDbEntity
  8
1
  6
Continuous
 62
     2
100
AcDbLine
 10
-258.5
 20
94.0
 30
0.0
 11
-282.043620080683
 21
94.0
 31
0.0
  0
SOLID
  5
422
330
41E
100
AcDbEntity
  8
1
 62
     2
100
AcDbTrace
 10
-280.9651875637948
 20
101.0
 30
0.0
 11
-279.1220525975713
 21
101.0
 31
0.0
 12
-280.043620080683
 22
94.0
 32
0.0
 13
-280.043620080683
 23
94.0
 33
0.0
  0
SOLID
  5
423
330
41E
100
AcDbEntity
  8
1
 62
     2
100
AcDbTrace
 10
-279.1220525975713
 20
109.0
 30
0.0
 11
-280.9651875637948
 21
109.0
 31
0.0
 12
-280.043620080683
 22
116.0
 32
0.0
 13
-280.043620080683
 23
116.0
 33
0.0
  0
MTEXT
  5
424
330
41E
100
AcDbEntity
  8
1
 62
     3
100
AcDbMText
 10
-285.793620080683
 20
89.32132354833699
 30
0.0
 40
7.0
 41
0.0
 71
     7
 72
     1
  1
\C3;{\Fgdt;n}\C3;\C3;22\C2;\H4.2;\S^ k6;
  7
CONVERTER_15
 11
0.0
 21
1.0
 31
0.0
 73
     1
 44
0.60024009603842
  0
ENDBLK
  5
426
330
41E
100
AcDbEntity
  8
0
100
AcDbBlockEnd
  0
BLOCK
  5
430
330
429
100
AcDbEntity
  8
0
100
AcDbBlockBegin
  2
*D15
 70
     1
 71
     0
 10
0.0
 20
0.0
 30
0.0
  3
*D15
  1

  0
LINE
  5
42A
330
429
100
AcDbEntity
  8
1
  6
Continuous
 62
     2
100
AcDbLine
 10
-307.575512096847
 20
71.0
 30
0.0
 11
-307.575512096847
 21
139.0
 31
0.0
  0
LINE
  5
42B
330
429
100
AcDbEntity
  8
1
  6
Continuous
 62
     2
100
AcDbLine
 10
-212.5
 20
139.0
 30
0.0
 11
-309.575512096847
 21
139.0
 31
0.0
  0
LINE
  5
42C
330
429
100
AcDbEntity
  8
1
  6
Continuous
 62
     2
100
AcDbLine
 10
-212.5
 20
71.0
 30
0.0
 11
-309.575512096847
 21
71.0
 31
0.0
  0
SOLID
  5
42D
330
429
100
AcDbEntity
  8
1
 62
     2
100
AcDbTrace
 10
-308.4970795799588
 20
78.0
 30
0.0
 11
-306.6539446137353
 21
78.0
 31
0.0
 12
-307.575512096847
 22
71.0
 32
0.0
 13
-307.575512096847
 23
71.0
 33
0.0
  0
SOLID
  5
42E
330
429
100
AcDbEntity
  8
1
 62
     2
100
AcDbTrace
 10
-306.6539446137353
 20
132.0
 30
0.0
 11
-308.4970795799588
 21
132.0
 31
0.0
 12
-307.575512096847
 22
139.0
 32
0.0
 13
-307.575512096847
 23
139.0
 33
0.0
  0
MTEXT
  5
42F
330
429
100
AcDbEntity
  8
1
 62
     3
100
AcDbMText
 10
-314.900512096847
 20
92.380422661244
 30
0.0
 40
7.0
 41
0.0
 71
     7
 72
     1
  1
\C3;{\Fgdt;n}\C3;\C3;68\C2;\H4.2;\S^ g6;
  7
CONVERTER_15
 11
0.0
 21
1.0
 31
0.0
 73
     1
 44
0.60024009603842
  0
ENDBLK
  5
431
330
429
100
AcDbEntity
  8
0
100
AcDbBlockEnd
  0
BLOCK
  5
43B
330
434
100
AcDbEntity
  8
0
100
AcDbBlockBegin
  2
*D16
 70
     1
 71
     0
 10
0.0
 20
0.0
 30
0.0
  3
*D16
  1

  0
LINE
  5
435
330
434
100
AcDbEntity
  8
1
  6
Continuous
 62
     2
100
AcDbLine
 10
-185.211547580561
 20
59.99999999999999
 30
0.0
 11
-185.211547580561
 21
150.0
 31
0.0
  0
LINE
  5
436
330
434
100
AcDbEntity
  8
1
  6
Continuous
 62
     2
100
AcDbLine
 10
-212.5
 20
150.0
 30
0.0
 11
-183.211547580561
 21
150.0
 31
0.0
  0
LINE
  5
437
330
434
100
AcDbEntity
  8
1
  6
Continuous
 62
     2
100
AcDbLine
 10
-212.5
 20
59.99999999999999
 30
0.0
 11
-183.211547580561
 21
59.99999999999999
 31
0.0
  0
SOLID
  5
438
330
434
100
AcDbEntity
  8
1
 62
     2
100
AcDbTrace
 10
-186.1331150636728
 20
67.0
 30
0.0
 11
-184.2899800974492
 21
67.0
 31
0.0
 12
-185.211547580561
 22
59.99999999999999
 32
0.0
 13
-185.211547580561
 23
59.99999999999999
 33
0.0
  0
SOLID
  5
439
330
434
100
AcDbEntity
  8
1
 62
     2
100
AcDbTrace
 10
-184.2899800974492
 20
143.0
 30
0.0
 11
-186.1331150636728
 21
143.0
 31
0.0
 12
-185.211547580561
 22
150.0
 32
0.0
 13
-185.211547580561
 23
150.0
 33
0.0
  0
MTEXT
  5
43A
330
434
100
AcDbEntity
  8
1
 62
     3
100
AcDbMText
 10
-189.211547580561
 20
104.715320322545
 30
0.0
 40
7.0
 41
0.0
 71
     7
 72
     1
  1
\C3;{\Fgdt;n}\C3;90
  7
CONVERTER_15
 11
0.0
 21
1.0
 31
0.0
 73
     1
 44
0.60024009603842
  0
ENDBLK
  5
43C
330
434
100
AcDbEntity
  8
0
100
AcDbBlockEnd
  0
BLOCK
  5
446
330
43F
100
AcDbEntity
  8
0
100
AcDbBlockBegin
  2
*D17
 70
     1
 71
     0
 10
0.0
 20
0.0
 30
0.0
  3
*D17
  1

  0
LINE
  5
440
330
43F
100
AcDbEntity
  8
1
  6
Continuous
 62
     2
100
AcDbLine
 10
-223.5
 20
178.154100322633
 30
0.0
 11
-258.5
 21
178.154100322633
 31
0.0
  0
LINE
  5
441
330
43F
100
AcDbEntity
  8
1
  6
Continuous
 62
     2
100
AcDbLine
 10
-223.5
 20
90.0
 30
0.0
 11
-223.5
 21
180.154100322633
 31
0.0
  0
LINE
  5
442
330
43F
100
AcDbEntity
  8
1
  6
Continuous
 62
     2
100
AcDbLine
 10
-258.5
 20
94.0
 30
0.0
 11
-258.5
 21
180.154100322633
 31
0.0
  0
SOLID
  5
443
330
43F
100
AcDbEntity
  8
1
 62
     2
100
AcDbTrace
 10
-230.5
 20
177.2325328395212
 30
0.0
 11
-230.5
 21
179.0756678057448
 31
0.0
 12
-223.5
 22
178.154100322633
 32
0.0
 13
-223.5
 23
178.154100322633
 33
0.0
  0
SOLID
  5
444
330
43F
100
AcDbEntity
  8
1
 62
     2
100
AcDbTrace
 10
-251.5
 20
179.0756678057448
 30
0.0
 11
-251.5
 21
177.2325328395212
 31
0.0
 12
-258.5
 22
178.154100322633
 32
0.0
 13
-258.5
 23
178.154100322633
 33
0.0
  0
MTEXT
  5
445
330
43F
100
AcDbEntity
  8
1
 62
     3
100
AcDbMText
 10
-248.360032661272
 20
182.154100322633
 30
0.0
 40
7.0
 41
0.0
 71
     7
 72
     1
  1
35
  7
CONVERTER_15
 11
0.9999999999970621
 21
2.424068405545307E-6
 31
0.0
 73
     1
 44
0.60024009603842
  0
ENDBLK
  5
447
330
43F
100
AcDbEntity
  8
0
100
AcDbBlockEnd
  0
BLOCK
  5
453
330
44A
100
AcDbEntity
  8
0
100
AcDbBlockBegin
  2
*D18
 70
     1
 71
     0
 10
0.0
 20
0.0
 30
0.0
  3
*D18
  1

  0
LINE
  5
44B
330
44A
100
AcDbEntity
  8
1
  6
Continuous
 62
     2
100
AcDbLine
 10
-221.5
 20
178.154100322633
 30
0.0
 11
-207.5
 21
178.154100322633
 31
0.0
  0
LINE
  5
44C
330
44A
100
AcDbEntity
  8
1
  6
Continuous
 62
     2
100
AcDbLine
 10
-223.5
 20
178.154100322633
 30
0.0
 11
-221.5
 21
178.154100322633
 31
0.0
  0
LINE
  5
44D
330
44A
100
AcDbEntity
  8
1
  6
Continuous
 62
     2
100
AcDbLine
 10
-237.5
 20
178.154100322633
 30
0.0
 11
-223.5
 21
178.154100322633
 31
0.0
  0
LINE
  5
44E
330
44A
100
AcDbEntity
  8
1
  6
Continuous
 62
     2
100
AcDbLine
 10
-223.5
 20
120.0
 30
0.0
 11
-223.5
 21
180.154100322633
 31
0.0
  0
LINE
  5
44F
330
44A
100
AcDbEntity
  8
1
  6
Continuous
 62
     2
100
AcDbLine
 10
-221.5
 20
138.944880249732
 30
0.0
 11
-221.5
 21
180.154100322633
 31
0.0
  0
SOLID
  5
450
330
44A
100
AcDbEntity
  8
1
 62
     2
100
AcDbTrace
 10
-230.5
 20
177.2325328395212
 30
0.0
 11
-230.5
 21
179.0756678057448
 31
0.0
 12
-223.5
 22
178.154100322633
 32
0.0
 13
-223.5
 23
178.154100322633
 33
0.0
  0
SOLID
  5
451
330
44A
100
AcDbEntity
  8
1
 62
     2
100
AcDbTrace
 10
-214.5
 20
179.0756678057448
 30
0.0
 11
-214.5
 21
177.2325328395212
 31
0.0
 12
-221.5
 22
178.154100322633
 32
0.0
 13
-221.5
 23
178.154100322633
 33
0.0
  0
MTEXT
  5
452
330
44A
100
AcDbEntity
  8
1
 62
     3
100
AcDbMText
 10
-218.864340483818
 20
182.154100322633
 30
0.0
 40
7.0
 41
0.0
 71
     7
 72
     1
  1
2
  7
CONVERTER_15
 11
0.9999999999970621
 21
2.424068405545307E-6
 31
0.0
 73
     1
 44
0.60024009603842
  0
ENDBLK
  5
454
330
44A
100
AcDbEntity
  8
0
100
AcDbBlockEnd
  0
BLOCK
  5
460
330
457
100
AcDbEntity
  8
0
100
AcDbBlockBegin
  2
*D19
 70
     1
 71
     0
 10
0.0
 20
0.0
 30
0.0
  3
*D19
  1

  0
LINE
  5
458
330
457
100
AcDbEntity
  8
1
  6
Continuous
 62
     2
100
AcDbLine
 10
-212.5
 20
195.396295322655
 30
0.0
 11
-198.5
 21
195.396295322655
 31
0.0
  0
LINE
  5
459
330
457
100
AcDbEntity
  8
1
  6
Continuous
 62
     2
100
AcDbLine
 10
-221.5
 20
195.396295322655
 30
0.0
 11
-212.5
 21
195.396295322655
 31
0.0
  0
LINE
  5
45A
330
457
100
AcDbEntity
  8
1
  6
Continuous
 62
     2
100
AcDbLine
 10
-235.5
 20
195.396295322655
 30
0.0
 11
-221.5
 21
195.396295322655
 31
0.0
  0
LINE
  5
45B
330
457
100
AcDbEntity
  8
1
  6
Continuous
 62
     2
100
AcDbLine
 10
-221.5
 20
138.944880249732
 30
0.0
 11
-221.5
 21
197.396295322655
 31
0.0
  0
LINE
  5
45C
330
457
100
AcDbEntity
  8
1
  6
Continuous
 62
     2
100
AcDbLine
 10
-212.5
 20
150.0
 30
0.0
 11
-212.5
 21
197.396295322655
 31
0.0
  0
SOLID
  5
45D
330
457
100
AcDbEntity
  8
1
 62
     2
100
AcDbTrace
 10
-228.5
 20
194.4747278395432
 30
0.0
 11
-228.5
 21
196.3178628057668
 31
0.0
 12
-221.5
 22
195.396295322655
 32
0.0
 13
-221.5
 23
195.396295322655
 33
0.0
  0
SOLID
  5
45E
330
457
100
AcDbEntity
  8
1
 62
     2
100
AcDbTrace
 10
-205.5
 20
196.3178628057668
 30
0.0
 11
-205.5
 21
194.4747278395432
 31
0.0
 12
-212.5
 22
195.396295322655
 32
0.0
 13
-212.5
 23
195.396295322655
 33
0.0
  0
MTEXT
  5
45F
330
457
100
AcDbEntity
  8
1
 62
     3
100
AcDbMText
 10
-204.125044757993
 20
199.396295322655
 30
0.0
 40
7.0
 41
0.0
 71
     7
 72
     1
  1
9
  7
CONVERTER_15
 11
0.9999999999970621
 21
2.424068405545307E-6
 31
0.0
 73
     1
 44
0.60024009603842
  0
ENDBLK
  5
461
330
457
100
AcDbEntity
  8
0
100
AcDbBlockEnd
  0
BLOCK
  5
46B
330
464
100
AcDbEntity
  8
0
100
AcDbBlockBegin
  2
*D20
 70
     1
 71
     0
 10
0.0
 20
0.0
 30
0.0
  3
*D20
  1

  0
LINE
  5
465
330
464
100
AcDbEntity
  8
1
  6
Continuous
 62
     2
100
AcDbLine
 10
-212.5000000000001
 20
211.844182167014
 30
0.0
 11
-10.50000000000006
 21
211.844182167014
 31
0.0
  0
LINE
  5
466
330
464
100
AcDbEntity
  8
1
  6
Continuous
 62
     2
100
AcDbLine
 10
-10.50000000000006
 20
153.0
 30
0.0
 11
-10.50000000000006
 21
213.844182167014
 31
0.0
  0
LINE
  5
467
330
464
100
AcDbEntity
  8
1
  6
Continuous
 62
     2
100
AcDbLine
 10
-212.5000000000001
 20
150.0
 30
0.0
 11
-212.5000000000001
 21
213.844182167014
 31
0.0
  0
SOLID
  5
468
330
464
100
AcDbEntity
  8
1
 62
     2
100
AcDbTrace
 10
-205.5000000000001
 20
212.7657496501258
 30
0.0
 11
-205.5000000000001
 21
210.9226146839022
 31
0.0
 12
-212.5000000000001
 22
211.844182167014
 32
0.0
 13
-212.5000000000001
 23
211.844182167014
 33
0.0
  0
SOLID
  5
469
330
464
100
AcDbEntity
  8
1
 62
     2
100
AcDbTrace
 10
-17.50000000000006
 20
210.9226146839022
 30
0.0
 11
-17.50000000000006
 21
212.7657496501258
 31
0.0
 12
-10.50000000000006
 22
211.844182167014
 32
0.0
 13
-10.50000000000006
 23
211.844182167014
 33
0.0
  0
MTEXT
  5
46A
330
464
100
AcDbEntity
  8
1
 62
     3
100
AcDbMText
 10
-104.4438148771214
 20
217.944182167014
 30
0.0
 40
7.0
 41
0.0
 71
     7
 72
     1
  1
q
  7
CONVERTER_15
 11
0.9999999999970621
 21
2.424068405545307E-6
 31
0.0
 73
     1
 44
0.60024009603842
  0
ENDBLK
  5
46C
330
464
100
AcDbEntity
  8
0
100
AcDbBlockEnd
  0
BLOCK
  5
476
330
46F
100
AcDbEntity
  8
0
100
AcDbBlockBegin
  2
*D21
 70
     1
 71
     0
 10
0.0
 20
0.0
 30
0.0
  3
*D21
  1

  0
LINE
  5
470
330
46F
100
AcDbEntity
  8
1
  6
Continuous
 62
     2
100
AcDbLine
 10
150.3093975133095
 20
203.801759165933
 30
0.0
 11
178.3093975133085
 21
203.801759165933
 31
0.0
  0
LINE
  5
471
330
46F
100
AcDbEntity
  8
1
  6
Continuous
 62
     2
100
AcDbLine
 10
150.3093975133095
 20
190.2500000000001
 30
0.0
 11
150.3093975133095
 21
205.801759165933
 31
0.0
  0
LINE
  5
472
330
46F
100
AcDbEntity
  8
1
  6
Continuous
 62
     2
100
AcDbLine
 10
178.3093975133085
 20
190.2500000000001
 30
0.0
 11
178.3093975133085
 21
205.801759165933
 31
0.0
  0
SOLID
  5
473
330
46F
100
AcDbEntity
  8
1
 62
     2
100
AcDbTrace
 10
157.3093975133095
 20
204.7233266490448
 30
0.0
 11
157.3093975133095
 21
202.8801916828212
 31
0.0
 12
150.3093975133095
 22
203.801759165933
 32
0.0
 13
150.3093975133095
 23
203.801759165933
 33
0.0
  0
SOLID
  5
474
330
46F
100
AcDbEntity
  8
1
 62
     2
100
AcDbTrace
 10
171.3093975133085
 20
202.8801916828212
 30
0.0
 11
171.3093975133085
 21
204.7233266490448
 31
0.0
 12
178.3093975133085
 22
203.801759165933
 32
0.0
 13
178.3093975133085
 23
203.801759165933
 33
0.0
  0
MTEXT
  5
475
330
46F
100
AcDbEntity
  8
1
 62
     3
100
AcDbMText
 10
160.127459332751
 20
207.801759165933
 30
0.0
 40
7.0
 41
0.0
 71
     7
 72
     1
  1
28
  7
CONVERTER_15
 11
0.9999999999970621
 21
2.424068405545307E-6
 31
0.0
 73
     1
 44
0.60024009603842
  0
ENDBLK
  5
477
330
46F
100
AcDbEntity
  8
0
100
AcDbBlockEnd
  0
BLOCK
  5
481
330
47A
100
AcDbEntity
  8
0
100
AcDbBlockBegin
  2
*D22
 70
     1
 71
     0
 10
0.0
 20
0.0
 30
0.0
  3
*D22
  1

  0
LINE
  5
47B
330
47A
100
AcDbEntity
  8
1
  6
Continuous
 62
     2
100
AcDbLine
 10
125.809397513309
 20
15.3466169729934
 30
0.0
 11
213.809397513309
 21
15.3466169729934
 31
0.0
  0
LINE
  5
47C
330
47A
100
AcDbEntity
  8
1
  6
Continuous
 62
     2
100
AcDbLine
 10
125.809397513309
 20
69.55638280310532
 30
0.0
 11
125.809397513309
 21
13.3466169729934
 31
0.0
  0
LINE
  5
47D
330
47A
100
AcDbEntity
  8
1
  6
Continuous
 62
     2
100
AcDbLine
 10
213.809397513309
 20
69.55638280310532
 30
0.0
 11
213.809397513309
 21
13.3466169729934
 31
0.0
  0
SOLID
  5
47E
330
47A
100
AcDbEntity
  8
1
 62
     2
100
AcDbTrace
 10
132.809397513309
 20
16.26818445610517
 30
0.0
 11
132.809397513309
 21
14.42504948988163
 31
0.0
 12
125.809397513309
 22
15.3466169729934
 32
0.0
 13
125.809397513309
 23
15.3466169729934
 33
0.0
  0
SOLID
  5
47F
330
47A
100
AcDbEntity
  8
1
 62
     2
100
AcDbTrace
 10
206.809397513309
 20
14.42504948988163
 30
0.0
 11
206.809397513309
 21
16.26818445610517
 31
0.0
 12
213.809397513309
 22
15.3466169729934
 32
0.0
 13
213.809397513309
 23
15.3466169729934
 33
0.0
  0
MTEXT
  5
480
330
47A
100
AcDbEntity
  8
1
 62
     3
100
AcDbMText
 10
166.841341086006
 20
19.3466169729934
 30
0.0
 40
7.0
 41
0.0
 71
     7
 72
     1
  1
88
  7
CONVERTER_15
 11
0.9999999999970621
 21
2.424068405545307E-6
 31
0.0
 73
     1
 44
0.60024009603842
  0
ENDBLK
  5
482
330
47A
100
AcDbEntity
  8
0
100
AcDbBlockEnd
  0
BLOCK
  5
489
330
485
100
AcDbEntity
  8
0
100
AcDbBlockBegin
  2
*D23
 70
     1
 71
     0
 10
0.0
 20
0.0
 30
0.0
  3
*D23
  1

  0
LINE
  5
486
330
485
100
AcDbEntity
  8
1
  6
Continuous
 62
     2
100
AcDbLine
 10
169.809397513309
 20
104.9999999999999
 30
0.0
 11
103.7237134168806
 21
42.03133813712412
 31
0.0
  0
SOLID
  5
487
330
485
100
AcDbEntity
  8
1
 62
     2
100
AcDbTrace
 10
124.4727551388703
 20
60.52879420525914
 30
0.0
 11
123.2013108695142
 21
61.86317644945958
 31
0.0
 12
128.9048527138587
 22
66.02477434639056
 32
0.0
 13
128.9048527138587
 23
66.02477434639056
 33
0.0
  0
MTEXT
  5
488
330
485
100
AcDbEntity
  8
1
 62
     3
100
AcDbMText
 10
98.0250699743991
 20
42.12653748303822
 30
0.0
 40
7.0
 41
0.0
 71
     7
 72
     1
  1
\C3;{\Fgdt;n}\C3;113
  7
CONVERTER_15
 11
0.7239742442380577
 21
0.6898270027187492
 31
0.0
 73
     1
 44
0.60024009603842
  0
ENDBLK
  5
48A
330
485
100
AcDbEntity
  8
0
100
AcDbBlockEnd
  0
BLOCK
  5
490
330
48C
100
AcDbEntity
  8
0
100
AcDbBlockBegin
  2
*D24
 70
     1
 71
     0
 10
0.0
 20
0.0
 30
0.0
  3
*D24
  1

  0
LINE
  5
48D
330
48C
100
AcDbEntity
  8
1
  6
Continuous
 62
     2
100
AcDbLine
 10
169.809397513309
 20
104.9999999999999
 30
0.0
 11
100.5720183146429
 21
72.79751004661006
 31
0.0
  0
SOLID
  5
48E
330
48C
100
AcDbEntity
  8
1
 62
     2
100
AcDbTrace
 10
127.5819274850842
 20
84.34352252581988
 30
0.0
 11
126.8046394921155
 21
86.01474060844777
 31
0.0
 12
133.5403643007905
 22
88.13117580181606
 32
0.0
 13
133.5403643007905
 23
88.13117580181606
 33
0.0
  0
MTEXT
  5
48F
330
48C
100
AcDbEntity
  8
1
 62
     3
100
AcDbMText
 10
95.20382902375394
 20
74.71222771174622
 30
0.0
 40
7.0
 41
0.0
 71
     7
 72
     1
  1
\C3;{\Fgdt;n}\C3;80
  7
CONVERTER_15
 11
0.9067258303129616
 21
0.421720604954596
 31
0.0
 73
     1
 44
0.60024009603842
  0
ENDBLK
  5
491
330
48C
100
AcDbEntity
  8
0
100
AcDbBlockEnd
  0
BLOCK
  5
49C
330
493
100
AcDbEntity
  8
0
100
AcDbBlockBegin
  2
*D25
 70
     1
 71
     0
 10
0.0
 20
0.0
 30
0.0
  3
*D25
  1

  0
LINE
  5
494
330
493
100
AcDbEntity
  8
1
  6
Continuous
 62
     2
100
AcDbLine
 10
120.382699988492
 20
116.2842712474619
 30
0.0
 11
120.382699988492
 21
130.2842712474619
 31
0.0
  0
LINE
  5
495
330
493
100
AcDbEntity
  8
1
  6
Continuous
 62
     2
100
AcDbLine
 10
120.382699988492
 20
130.2842712474619
 30
0.0
 11
120.382699988492
 21
136.2842712474619
 31
0.0
  0
LINE
  5
496
330
493
100
AcDbEntity
  8
1
  6
Continuous
 62
     2
100
AcDbLine
 10
120.382699988492
 20
136.2842712474619
 30
0.0
 11
120.382699988492
 21
152.037871751603
 31
0.0
  0
LINE
  5
497
330
493
100
AcDbEntity
  8
1
  6
Continuous
 62
     2
100
AcDbLine
 10
141.5251262658472
 20
136.2842712474619
 30
0.0
 11
118.382699988492
 21
136.2842712474619
 31
0.0
  0
LINE
  5
498
330
493
100
AcDbEntity
  8
1
  6
Continuous
 62
     2
100
AcDbLine
 10
141.5251262658472
 20
130.2842712474619
 30
0.0
 11
118.382699988492
 21
130.2842712474619
 31
0.0
  0
SOLID
  5
499
330
493
100
AcDbEntity
  8
1
 62
     2
100
AcDbTrace
 10
121.3042674716038
 20
123.2842712474619
 30
0.0
 11
119.4611325053802
 21
123.2842712474619
 31
0.0
 12
120.382699988492
 22
130.2842712474619
 32
0.0
 13
120.382699988492
 23
130.2842712474619
 33
0.0
  0
SOLID
  5
49A
330
493
100
AcDbEntity
  8
1
 62
     2
100
AcDbTrace
 10
119.4611325053802
 20
143.2842712474619
 30
0.0
 11
121.3042674716038
 21
143.2842712474619
 31
0.0
 12
120.382699988492
 22
136.2842712474619
 32
0.0
 13
120.382699988492
 23
136.2842712474619
 33
0.0
  0
MTEXT
  5
49B
330
493
100
AcDbEntity
  8
1
 62
     3
100
AcDbMText
 10
116.382699988492
 20
142.937871751603
 30
0.0
 40
7.0
 41
0.0
 71
     7
 72
     1
  1
\C3;M\C3;6
  7
CONVERTER_15
 11
0.0
 21
1.0
 31
0.0
 73
     1
 44
0.60024009603842
  0
ENDBLK
  5
49D
330
493
100
AcDbEntity
  8
0
100
AcDbBlockEnd
  0
BLOCK
  5
4A8
330
49F
100
AcDbEntity
  8
0
100
AcDbBlockBegin
  2
*D26
 70
     1
 71
     0
 10
0.0
 20
0.0
 30
0.0
  3
*D26
  1

  0
LINE
  5
4A0
330
49F
100
AcDbEntity
  8
1
  6
Continuous
 62
     2
100
AcDbLine
 10
201.1515488720941
 20
136.3421513587849
 30
0.0
 11
226.7686752954429
 21
161.9592777821338
 31
0.0
  0
LINE
  5
4A1
330
49F
100
AcDbEntity
  8
1
  6
Continuous
 62
     2
100
AcDbLine
 10
214.809397513309
 20
105.0
 30
0.0
 11
250.3619806557792
 21
105.0
 31
0.0
  0
LINE
  5
4A2
330
49F
100
AcDbEntity
  8
1
  6
Continuous
 62
     2
100
AcDbLine
 10
226.7686752954429
 20
161.9592777821338
 30
0.0
 11
228.182888857816
 21
163.3734913445069
 31
0.0
  0
LINE
  5
4A3
330
49F
100
AcDbEntity
  8
1
  6
Continuous
 62
     2
100
AcDbLine
 10
250.3619806557792
 20
105.0
 30
0.0
 11
252.3619806557792
 21
105.0
 31
0.0
  0
ARC
  5
4A4
330
49F
100
AcDbEntity
  8
1
  6
Continuous
 62
     2
100
AcDbCircle
 10
169.8093975133091
 20
105.0
 30
0.0
 40
80.55258314247013
100
AcDbArc
 50
0.0
 51
45.0
  0
SOLID
  5
4A5
330
49F
100
AcDbEntity
  8
1
 62
     2
100
AcDbTrace
 10
249.1372294830374
 20
111.9533640197243
 30
0.0
 11
250.9786249030854
 21
112.0334228152581
 31
0.0
 12
250.3619806557792
 22
105.0
 32
0.0
 13
250.3619806557792
 23
105.0
 33
0.0
  0
SOLID
  5
4A6
330
49F
100
AcDbEntity
  8
1
 62
     2
100
AcDbTrace
 10
232.178089591914
 20
157.4219301433626
 30
0.0
 11
230.8194162863367
 21
156.1764770722164
 31
0.0
 12
226.7686752954429
 22
161.9592777821338
 32
0.0
 13
226.7686752954429
 23
161.9592777821338
 33
0.0
  0
MTEXT
  5
4A7
330
49F
100
AcDbEntity
  8
1
 62
     3
100
AcDbMText
 10
247.649511350173
 20
138.5857349767487
 30
0.0
 40
7.0
 41
0.0
 71
     7
 72
     1
  1
45{\Fgdt;~}
  7
CONVERTER_15
 11
0.32840373744741
 21
-0.9445374451182825
 31
0.0
 73
     1
 44
0.60024009603842
  0
ENDBLK
  5
4A9
330
49F
100
AcDbEntity
  8
0
100
AcDbBlockEnd
  0
BLOCK
  5
4B5
330
4AC
100
AcDbEntity
  8
0
100
AcDbBlockBegin
  2
*D27
 70
     1
 71
     0
 10
0.0
 20
0.0
 30
0.0
  3
*D27
  1

  0
LINE
  5
4AD
330
4AC
100
AcDbEntity
  8
1
  6
Continuous
 62
     2
100
AcDbLine
 10
214.809397513309
 20
105.0
 30
0.0
 11
250.3292175049292
 21
105.0
 31
0.0
  0
LINE
  5
4AE
330
4AC
100
AcDbEntity
  8
1
  6
Continuous
 62
     2
100
AcDbLine
 10
201.2608673272538
 20
73.54853018605505
 30
0.0
 11
226.7455082493037
 21
48.06388926400508
 31
0.0
  0
LINE
  5
4AF
330
4AC
100
AcDbEntity
  8
1
  6
Continuous
 62
     2
100
AcDbLine
 10
250.3292175049292
 20
105.0
 30
0.0
 11
252.3292175049292
 21
105.0
 31
0.0
  0
LINE
  5
4B0
330
4AC
100
AcDbEntity
  8
1
  6
Continuous
 62
     2
100
AcDbLine
 10
226.7455082493037
 20
48.06388926400508
 30
0.0
 11
228.1597218116768
 21
46.64967570163198
 31
0.0
  0
ARC
  5
4B1
330
4AC
100
AcDbEntity
  8
1
  6
Continuous
 62
     2
100
AcDbCircle
 10
169.809397513309
 20
105.0
 30
0.0
 40
80.51981999162021
100
AcDbArc
 50
-45.00000000000014
 51
0.0
  0
SOLID
  5
4B2
330
4AC
100
AcDbEntity
  8
1
 62
     2
100
AcDbTrace
 10
230.7961470021954
 20
53.84676158833498
 30
0.0
 11
232.154842326622
 21
52.60133253812892
 31
0.0
 12
226.7455082493037
 22
48.06388926400508
 32
0.0
 13
226.7455082493037
 23
48.06388926400508
 33
0.0
  0
SOLID
  5
4B3
330
4AC
100
AcDbEntity
  8
1
 62
     2
100
AcDbTrace
 10
250.9457374043223
 20
97.96656628384248
 30
0.0
 11
249.1043433999664
 21
98.04665763442354
 31
0.0
 12
250.3292175049292
 22
105.0
 32
0.0
 13
250.3292175049292
 23
105.0
 33
0.0
  0
MTEXT
  5
4B4
330
4AC
100
AcDbEntity
  8
1
 62
     3
100
AcDbMText
 10
240.3721476841995
 20
74.76547106584172
 30
0.0
 40
7.0
 41
0.0
 71
     7
 72
     1
  1
45{\Fgdt;~}
  7
CONVERTER_15
 11
0.3188191643964493
 21
0.9478155624453263
 31
0.0
 73
     1
 44
0.60024009603842
  0
ENDBLK
  5
4B6
330
4AC
100
AcDbEntity
  8
0
100
AcDbBlockEnd
  0
ENDSEC
  0
SECTION
  2
ENTITIES
  0
INSERT
  5
52
330
1F
100
AcDbEntity
  8
1
100
AcDbBlockReference
  2
Flanschlagerschild
 10
82.99605084426703
 20
273.539584626464
 30
0.0
  0
INSERT
  5
53
330
1F
100
AcDbEntity
  8
1
100
AcDbBlockReference
  2
Deckel
 10
119.740257612901
 20
250.537107208105
 30
0.0
  0
INSERT
  5
54
330
1F
100
AcDbEntity
  8
1
100
AcDbBlockReference
  2
Zwischenst_ck__1
 10
231.46868736308
 20
-172.93644081309
 30
0.0
  0
INSERT
  5
55
330
1F
100
AcDbEntity
  8
0
100
AcDbBlockReference
  2
Winkelflanschdose_8-polig_drehbar__2
 10
349.0238149551591
 20
-12.66173146347131
 30
0.0
  0
INSERT
  5
56
330
1F
100
AcDbEntity
  8
1
100
AcDbBlockReference
  2
Linsenschraube_DIN_7985_-_M2_5_x_6_-__-___3
 10
-75.0236559999999
 20
-68.55955924482868
 30
0.0
  0
INSERT
  5
57
330
1F
100
AcDbEntity
  8
1
100
AcDbBlockReference
  2
Linsenschraube_DIN_7985_-_M2_5_x_6_-__-___4
 10
-55.089896
 20
152.4999756716065
 30
0.0
  0
INSERT
  5
58
330
1F
100
AcDbEntity
  8
0
100
AcDbBlockReference
  2
Winkelflanschdose_8-polig_drehbar__5
 10
344.3254836891306
 20
569.51293335638
 30
0.0
  0
INSERT
  5
59
330
1F
100
AcDbEntity
  8
1
100
AcDbBlockReference
  2
Zwischenst_ck__6
 10
11.13608328375693
 20
298.100979177073
 30
0.0
  0
INSERT
  5
5A
330
1F
100
AcDbEntity
  8
1
100
AcDbBlockReference
  2
tb_frame_A3
 10
0.0
 20
0.0
 30
0.0
 41
2.0
 42
2.0
 43
2.0
  0
POINT
  5
34D
330
1F
100
AcDbEntity
  8
1
 62
     3
 60
     1
100
AcDbPoint
 10
-225.5
 20
116.0
 30
0.0
  0
POINT
  5
34E
330
1F
100
AcDbEntity
  8
1
 62
     3
 60
     1
100
AcDbPoint
 10
-225.5
 20
118.5
 30
0.0
  0
POINT
  5
34F
330
1F
100
AcDbEntity
  8
1
 62
     3
 60
     1
100
AcDbPoint
 10
-255.5
 20
118.5
 30
0.0
  0
POINT
  5
350
330
1F
100
AcDbEntity
  8
1
 62
     3
 60
     1
100
AcDbPoint
 10
-255.5
 20
116.0
 30
0.0
  0
POINT
  5
351
330
1F
100
AcDbEntity
  8
1
 62
     3
 60
     1
100
AcDbPoint
 10
-154.0
 20
62.5
 30
0.0
  0
POINT
  5
352
330
1F
100
AcDbEntity
  8
1
 62
     3
 60
     1
100
AcDbPoint
 10
-152.5
 20
149.0
 30
0.0
  0
POINT
  5
353
330
1F
100
AcDbEntity
  8
1
 62
     3
 60
     1
100
AcDbPoint
 10
-154.0
 20
147.5
 30
0.0
  0
POINT
  5
354
330
1F
100
AcDbEntity
  8
1
 62
     3
 60
     1
100
AcDbPoint
 10
-152.5
 20
61.0
 30
0.0
  0
POINT
  5
355
330
1F
100
AcDbEntity
  8
1
 62
     3
 60
     1
100
AcDbPoint
 10
-140.0
 20
61.0
 30
0.0
  0
POINT
  5
356
330
1F
100
AcDbEntity
  8
1
 62
     3
 60
     1
100
AcDbPoint
 10
-140.0
 20
69.5
 30
0.0
  0
POINT
  5
357
330
1F
100
AcDbEntity
  8
1
 62
     3
 60
     1
100
AcDbPoint
 10
-140.0
 20
140.5
 30
0.0
  0
POINT
  5
358
330
1F
100
AcDbEntity
  8
1
 62
     3
 60
     1
100
AcDbPoint
 10
-109.0000000000001
 20
148.5
 30
0.0
  0
POINT
  5
359
330
1F
100
AcDbEntity
  8
1
 62
     3
 60
     1
100
AcDbPoint
 10
-109.0
 20
61.49999999999999
 30
0.0
  0
POINT
  5
35A
330
1F
100
AcDbEntity
  8
1
 62
     3
 60
     1
100
AcDbPoint
 10
-109.5
 20
61.0
 30
0.0
  0
POINT
  5
35B
330
1F
100
AcDbEntity
  8
1
 62
     3
 60
     1
100
AcDbPoint
 10
-109.5
 20
149.0
 30
0.0
  0
POINT
  5
35C
330
1F
100
AcDbEntity
  8
1
 62
     3
 60
     1
100
AcDbPoint
 10
-221.5
 20
71.0546173235882
 30
0.0
  0
POINT
  5
35D
330
1F
100
AcDbEntity
  8
1
 62
     3
 60
     1
100
AcDbPoint
 10
-221.5
 20
138.944880249732
 30
0.0
  0
POINT
  5
35E
330
1F
100
AcDbEntity
  8
1
 62
     3
 60
     1
100
AcDbPoint
 10
108.4102922059231
 20
-38.00000000000019
 30
0.0
  0
POINT
  5
35F
330
1F
100
AcDbEntity
  8
1
 62
     3
 60
     1
100
AcDbPoint
 10
108.4102922059231
 20
-162.0000000000001
 30
0.0
  0
POINT
  5
360
330
1F
100
AcDbEntity
  8
1
 62
     3
 60
     1
100
AcDbPoint
 10
-223.5
 20
116.0
 30
0.0
  0
POINT
  5
361
330
1F
100
AcDbEntity
  8
1
 62
     3
 60
     1
100
AcDbPoint
 10
-258.5
 20
116.0
 30
0.0
  0
POINT
  5
362
330
1F
100
AcDbEntity
  8
1
 62
     3
 60
     1
100
AcDbPoint
 10
-258.5
 20
94.0
 30
0.0
  0
POINT
  5
363
330
1F
100
AcDbEntity
  8
1
 62
     3
 60
     1
100
AcDbPoint
 10
-223.5
 20
94.0
 30
0.0
  0
POINT
  5
364
330
1F
100
AcDbEntity
  8
1
 62
     3
 60
     1
100
AcDbPoint
 10
-221.5
 20
120.0
 30
0.0
  0
POINT
  5
365
330
1F
100
AcDbEntity
  8
1
 62
     3
 60
     1
100
AcDbPoint
 10
-223.5
 20
120.0
 30
0.0
  0
POINT
  5
366
330
1F
100
AcDbEntity
  8
1
 62
     3
 60
     1
100
AcDbPoint
 10
-223.5
 20
90.0
 30
0.0
  0
POINT
  5
367
330
1F
100
AcDbEntity
  8
1
 62
     3
 60
     1
100
AcDbPoint
 10
-221.5
 20
90.0
 30
0.0
  0
POINT
  5
368
330
1F
100
AcDbEntity
  8
1
 62
     3
 60
     1
100
AcDbPoint
 10
-212.5
 20
139.0
 30
0.0
  0
POINT
  5
369
330
1F
100
AcDbEntity
  8
1
 62
     3
 60
     1
100
AcDbPoint
 10
-221.5
 20
71.0
 30
0.0
  0
POINT
  5
36A
330
1F
100
AcDbEntity
  8
1
 62
     3
 60
     1
100
AcDbPoint
 10
-212.5
 20
71.0
 30
0.0
  0
POINT
  5
36B
330
1F
100
AcDbEntity
  8
1
 62
     3
 60
     1
100
AcDbPoint
 10
-212.5
 20
150.0
 30
0.0
  0
POINT
  5
36C
330
1F
100
AcDbEntity
  8
1
 62
     3
 60
     1
100
AcDbPoint
 10
-212.5
 20
60.0
 30
0.0
  0
POINT
  5
36D
330
1F
100
AcDbEntity
  8
1
 62
     3
 60
     1
100
AcDbPoint
 10
-165.5
 20
60.0
 30
0.0
  0
POINT
  5
36E
330
1F
100
AcDbEntity
  8
1
 62
     3
 60
     1
100
AcDbPoint
 10
-165.5
 20
150.0
 30
0.0
  0
POINT
  5
36F
330
1F
100
AcDbEntity
  8
1
 62
     3
 60
     1
100
AcDbPoint
 10
-165.5
 20
145.5
 30
0.0
  0
POINT
  5
370
330
1F
100
AcDbEntity
  8
1
 62
     3
 60
     1
100
AcDbPoint
 10
-154.0
 20
145.5
 30
0.0
  0
POINT
  5
371
330
1F
100
AcDbEntity
  8
1
 62
     3
 60
     1
100
AcDbPoint
 10
-165.5
 20
64.5
 30
0.0
  0
POINT
  5
372
330
1F
100
AcDbEntity
  8
1
 62
     3
 60
     1
100
AcDbPoint
 10
-154.0
 20
64.5
 30
0.0
  0
POINT
  5
373
330
1F
100
AcDbEntity
  8
1
 62
     3
 60
     1
100
AcDbPoint
 10
-221.0
 20
139.0
 30
0.0
  0
POINT
  5
374
330
1F
100
AcDbEntity
  8
1
 62
     3
 60
     1
100
AcDbPoint
 10
-221.0
 20
71.0
 30
0.0
  0
POINT
  5
375
330
1F
100
AcDbEntity
  8
1
 62
     3
 60
     1
100
AcDbPoint
 10
158.908221645699
 20
24.7494238290457
 30
0.0
  0
POINT
  5
376
330
1F
100
AcDbEntity
  8
1
 62
     3
 60
     1
100
AcDbPoint
 10
-309.0
 20
-116.0
 30
0.0
  0
POINT
  5
377
330
1F
100
AcDbEntity
  8
1
 62
     3
 60
     1
100
AcDbPoint
 10
-285.589707794077
 20
-38.00000000000011
 30
0.0
  0
POINT
  5
378
330
1F
100
AcDbEntity
  8
1
 62
     3
 60
     1
100
AcDbPoint
 10
-285.589707794077
 20
-143.0000000000001
 30
0.0
  0
POINT
  5
379
330
1F
100
AcDbEntity
  8
1
 62
     3
 60
     1
100
AcDbPoint
 10
-285.589707794077
 20
-124.0
 30
0.0
  0
POINT
  5
37A
330
1F
100
AcDbEntity
  8
1
 62
     3
 60
     1
100
AcDbPoint
 10
-285.589707794077
 20
-105.0
 30
0.0
  0
POINT
  5
37B
330
1F
100
AcDbEntity
  8
1
 62
     3
 60
     1
100
AcDbPoint
 10
-285.589707794077
 20
-86.0000000000001
 30
0.0
  0
POINT
  5
37C
330
1F
100
AcDbEntity
  8
1
 62
     3
 60
     1
100
AcDbPoint
 10
-309.0
 20
-38.00000000000011
 30
0.0
  0
POINT
  5
37D
330
1F
100
AcDbEntity
  8
1
 62
     3
 60
     1
100
AcDbPoint
 10
-309.0
 20
-162.0
 30
0.0
  0
POINT
  5
37E
330
1F
100
AcDbEntity
  8
1
 62
     3
 60
     1
100
AcDbPoint
 10
-309.0
 20
-105.0
 30
0.0
  0
POINT
  5
37F
330
1F
100
AcDbEntity
  8
1
 62
     3
 60
     1
100
AcDbPoint
 10
-309.0
 20
-86.0000000000001
 30
0.0
  0
POINT
  5
380
330
1F
100
AcDbEntity
  8
1
 62
     3
 60
     1
100
AcDbPoint
 10
-309.0
 20
-124.0
 30
0.0
  0
POINT
  5
381
330
1F
100
AcDbEntity
  8
1
 62
     3
 60
     1
100
AcDbPoint
 10
-309.0
 20
-143.0000000000001
 30
0.0
  0
LINE
  5
382
330
1F
100
AcDbEntity
  8
1
  6
DOT_CENTER
 62
     2
100
AcDbLine
 10
-260.5
 20
105.0
 30
0.0
 11
-221.5
 21
105.0
 31
0.0
  0
LINE
  5
383
330
1F
100
AcDbEntity
  8
1
  6
DOT_CENTER
 62
     2
100
AcDbLine
 10
-223.0
 20
105.0
 30
0.0
 11
-210.5
 21
105.0
 31
0.0
  0
LINE
  5
384
330
1F
100
AcDbEntity
  8
1
  6
DOT_CENTER
 62
     2
100
AcDbLine
 10
-163.5
 20
105.0
 30
0.0
 11
-214.5
 21
105.0
 31
0.0
  0
LINE
  5
385
330
1F
100
AcDbEntity
  8
1
  6
DOT_CENTER
 62
     2
100
AcDbLine
 10
-167.5
 20
105.0
 30
0.0
 11
-152.0
 21
105.0
 31
0.0
  0
LINE
  5
386
330
1F
100
AcDbEntity
  8
1
  6
DOT_CENTER
 62
     2
100
AcDbLine
 10
-138.0
 20
105.0
 30
0.0
 11
-154.5
 21
105.0
 31
0.0
  0
LINE
  5
387
330
1F
100
AcDbEntity
  8
1
  6
DOT_CENTER
 62
     2
100
AcDbLine
 10
-138.0
 20
105.0
 30
0.0
 11
-154.5
 21
105.0
 31
0.0
  0
LINE
  5
388
330
1F
100
AcDbEntity
  8
1
  6
DOT_CENTER
 62
     2
100
AcDbLine
 10
-107.5
 20
105.0
 30
0.0
 11
-142.0
 21
105.0
 31
0.0
  0
LINE
  5
389
330
1F
100
AcDbEntity
  8
1
  6
Continuous
 62
     7
100
AcDbLine
 10
-252.5
 20
115.5830052442583
 30
0.0
 11
-228.5
 21
115.5830052442583
 31
0.0
  0
LINE
  5
38A
330
1F
100
AcDbEntity
  8
1
  6
Continuous
 62
     7
100
AcDbLine
 10
-225.5
 20
118.5
 30
0.0
 11
-225.5
 21
116.0
 31
0.0
  0
LINE
  5
38B
330
1F
100
AcDbEntity
  8
1
  6
Continuous
 62
     7
100
AcDbLine
 10
-255.5
 20
118.5
 30
0.0
 11
-225.5
 21
118.5
 31
0.0
  0
LINE
  5
38C
330
1F
100
AcDbEntity
  8
1
  6
Continuous
 62
     7
100
AcDbLine
 10
-255.5
 20
116.0
 30
0.0
 11
-258.5
 21
116.0
 31
0.0
  0
LINE
  5
38D
330
1F
100
AcDbEntity
  8
1
  6
Continuous
 62
     7
100
AcDbLine
 10
-255.5
 20
116.0
 30
0.0
 11
-255.5
 21
118.5
 31
0.0
  0
LINE
  5
38E
330
1F
100
AcDbEntity
  8
1
  6
Continuous
 62
     7
100
AcDbLine
 10
-152.5
 20
61.0
 30
0.0
 11
-154.0
 21
62.5
 31
0.0
  0
LINE
  5
38F
330
1F
100
AcDbEntity
  8
1
  6
Continuous
 62
     7
100
AcDbLine
 10
-154.0
 20
147.5
 30
0.0
 11
-154.0
 21
62.5
 31
0.0
  0
LINE
  5
390
330
1F
100
AcDbEntity
  8
1
  6
Continuous
 62
     7
100
AcDbLine
 10
-154.0
 20
147.5
 30
0.0
 11
-152.5
 21
149.0
 31
0.0
  0
LINE
  5
391
330
1F
100
AcDbEntity
  8
1
  6
Continuous
 62
     7
100
AcDbLine
 10
-140.0
 20
61.0
 30
0.0
 11
-152.5
 21
61.0
 31
0.0
  0
LINE
  5
392
330
1F
100
AcDbEntity
  8
1
  6
Continuous
 62
     7
100
AcDbLine
 10
-140.0
 20
61.0
 30
0.0
 11
-140.0
 21
69.5
 31
0.0
  0
LINE
  5
393
330
1F
100
AcDbEntity
  8
1
  6
Continuous
 62
     7
100
AcDbLine
 10
-140.0
 20
149.0
 30
0.0
 11
-152.5
 21
149.0
 31
0.0
  0
LINE
  5
394
330
1F
100
AcDbEntity
  8
1
  6
Continuous
 62
     7
100
AcDbLine
 10
-140.0
 20
140.5
 30
0.0
 11
-140.0
 21
149.0
 31
0.0
  0
LINE
  5
395
330
1F
100
AcDbEntity
  8
1
  6
Continuous
 62
     7
100
AcDbLine
 10
-109.5
 20
69.5
 30
0.0
 11
-109.5
 21
61.0
 31
0.0
  0
LINE
  5
396
330
1F
100
AcDbEntity
  8
1
  6
Continuous
 62
     7
100
AcDbLine
 10
-140.0
 20
69.5
 30
0.0
 11
-109.5
 21
69.5
 31
0.0
  0
LINE
  5
397
330
1F
100
AcDbEntity
  8
1
  6
Continuous
 62
     7
100
AcDbLine
 10
-109.5
 20
140.5
 30
0.0
 11
-109.5
 21
69.5
 31
0.0
  0
LINE
  5
398
330
1F
100
AcDbEntity
  8
1
  6
Continuous
 62
     7
100
AcDbLine
 10
-140.0
 20
140.5
 30
0.0
 11
-109.5
 21
140.5
 31
0.0
  0
LINE
  5
399
330
1F
100
AcDbEntity
  8
1
  6
Continuous
 62
     7
100
AcDbLine
 10
-109.0000000000001
 20
148.5
 30
0.0
 11
-109.0
 21
61.49999999999999
 31
0.0
  0
LINE
  5
39A
330
1F
100
AcDbEntity
  8
1
  6
Continuous
 62
     7
100
AcDbLine
 10
-109.5
 20
149.0
 30
0.0
 11
-109.0000000000001
 21
148.5
 31
0.0
  0
LINE
  5
39B
330
1F
100
AcDbEntity
  8
1
  6
Continuous
 62
     7
100
AcDbLine
 10
-109.5
 20
61.0
 30
0.0
 11
-109.0
 21
61.49999999999999
 31
0.0
  0
LINE
  5
39C
330
1F
100
AcDbEntity
  8
1
  6
Continuous
 62
     7
100
AcDbLine
 10
-109.5
 20
149.0
 30
0.0
 11
-109.5
 21
140.5
 31
0.0
  0
LINE
  5
39D
330
1F
100
AcDbEntity
  8
1
  6
Continuous
 62
     7
100
AcDbLine
 10
-109.5
 20
61.0
 30
0.0
 11
-140.0
 21
61.0
 31
0.0
  0
LINE
  5
39E
330
1F
100
AcDbEntity
  8
1
  6
Continuous
 62
     7
100
AcDbLine
 10
-109.5
 20
149.0
 30
0.0
 11
-140.0
 21
149.0
 31
0.0
  0
LINE
  5
39F
330
1F
100
AcDbEntity
  8
1
  6
Continuous
 62
     7
100
AcDbLine
 10
-221.5
 20
71.0546173235882
 30
0.0
 11
-221.5
 21
138.944880249732
 31
0.0
  0
LINE
  5
3A0
330
1F
100
AcDbEntity
  8
1
  6
Continuous
 62
     7
100
AcDbLine
 10
-221.0
 20
71.0
 30
0.0
 11
-221.5
 21
71.0546173235882
 31
0.0
  0
LINE
  5
3A1
330
1F
100
AcDbEntity
  8
1
  6
Continuous
 62
     7
100
AcDbLine
 10
-221.0
 20
139.0
 30
0.0
 11
-221.5
 21
138.944880249732
 31
0.0
  0
LINE
  5
3A2
330
1F
100
AcDbEntity
  8
1
  6
Continuous
 62
     7
100
AcDbLine
 10
258.4102922059232
 20
-38.00000000000017
 30
0.0
 11
258.410292205923
 21
-105.0
 31
0.0
  0
LINE
  5
3A3
330
1F
100
AcDbEntity
  8
1
  6
Continuous
 62
     7
100
AcDbLine
 10
-157.5897077940771
 20
-38.00000000000011
 30
0.0
 11
-157.5897077940771
 21
-162.0000000000001
 31
0.0
  0
LINE
  5
3A4
330
1F
100
AcDbEntity
  8
1
  6
Continuous
 62
     7
100
AcDbLine
 10
-83.58970779407696
 20
-38.00000000000011
 30
0.0
 11
-83.58970779407696
 21
-162.0000000000001
 31
0.0
  0
LINE
  5
3A5
330
1F
100
AcDbEntity
  8
1
  6
Continuous
 62
     7
100
AcDbLine
 10
226.4102922059231
 20
-38.00000000000017
 30
0.0
 11
226.4102922059231
 21
-162.0000000000001
 31
0.0
  0
LINE
  5
3A6
330
1F
100
AcDbEntity
  8
1
  6
Continuous
 62
     7
100
AcDbLine
 10
258.410292205923
 20
-162.0000000000001
 30
0.0
 11
108.4102922059231
 21
-162.0000000000001
 31
0.0
  0
LINE
  5
3A7
330
1F
100
AcDbEntity
  8
1
  6
Continuous
 62
     2
100
AcDbLine
 10
258.410292205923
 20
-143.0000000000001
 30
0.0
 11
-285.589707794077
 21
-143.0000000000001
 31
0.0
  0
LINE
  5
3A8
330
1F
100
AcDbEntity
  8
1
  6
Continuous
 62
     2
100
AcDbLine
 10
258.4102922059232
 20
-124.0
 30
0.0
 11
-285.589707794077
 21
-124.0
 31
0.0
  0
LINE
  5
3A9
330
1F
100
AcDbEntity
  8
1
  6
Continuous
 62
     7
100
AcDbLine
 10
258.410292205923
 20
-105.0
 30
0.0
 11
-285.589707794077
 21
-105.0
 31
0.0
  0
LINE
  5
3AA
330
1F
100
AcDbEntity
  8
1
  6
Continuous
 62
     7
100
AcDbLine
 10
34.41029220592311
 20
-38.00000000000011
 30
0.0
 11
34.41029220592299
 21
-162.0000000000001
 31
0.0
  0
LINE
  5
3AB
330
1F
100
AcDbEntity
  8
1
  6
Continuous
 62
     2
100
AcDbLine
 10
258.4102922059232
 20
-86.0000000000001
 30
0.0
 11
-285.589707794077
 21
-86.0000000000001
 31
0.0
  0
LINE
  5
3AC
330
1F
100
AcDbEntity
  8
1
  6
Continuous
 62
     7
100
AcDbLine
 10
-47.03531031854148
 20
-73.3159958677561
 30
0.0
 11
-46.03531031854148
 21
-72.3159958677561
 31
0.0
  0
LINE
  5
3AD
330
1F
100
AcDbEntity
  8
1
  6
Continuous
 62
     7
100
AcDbLine
 10
-121.0353103185415
 20
-72.3159958677561
 30
0.0
 11
-120.0353103185415
 21
-71.3159958677561
 31
0.0
  0
LINE
  5
3AE
330
1F
100
AcDbEntity
  8
1
  6
Continuous
 62
     7
100
AcDbLine
 10
258.410292205923
 20
-105.0
 30
0.0
 11
258.4102922059232
 21
-124.0
 31
0.0
  0
LINE
  5
3AF
330
1F
100
AcDbEntity
  8
1
  6
Continuous
 62
     7
100
AcDbLine
 10
258.4102922059232
 20
-124.0
 30
0.0
 11
258.410292205923
 21
-143.0000000000001
 31
0.0
  0
LINE
  5
3B0
330
1F
100
AcDbEntity
  8
1
  6
Continuous
 62
     7
100
AcDbLine
 10
258.410292205923
 20
-143.0000000000001
 30
0.0
 11
258.410292205923
 21
-162.0000000000001
 31
0.0
  0
LINE
  5
3B1
330
1F
100
AcDbEntity
  8
1
  6
Continuous
 62
     7
100
AcDbLine
 10
258.4102922059232
 20
-38.00000000000017
 30
0.0
 11
226.4102922059231
 21
-38.00000000000017
 31
0.0
  0
LINE
  5
3B2
330
1F
100
AcDbEntity
  8
1
  6
Continuous
 62
     7
100
AcDbLine
 10
-157.5897077940771
 20
-38.00000000000011
 30
0.0
 11
-285.589707794077
 21
-38.00000000000011
 31
0.0
  0
LINE
  5
3B3
330
1F
100
AcDbEntity
  8
1
  6
Continuous
 62
     7
100
AcDbLine
 10
-83.58970779407696
 20
-38.00000000000011
 30
0.0
 11
-157.5897077940771
 21
-38.00000000000011
 31
0.0
  0
LINE
  5
3B4
330
1F
100
AcDbEntity
  8
1
  6
Continuous
 62
     7
100
AcDbLine
 10
34.41029220592311
 20
-38.00000000000011
 30
0.0
 11
-83.58970779407696
 21
-38.00000000000011
 31
0.0
  0
LINE
  5
3B5
330
1F
100
AcDbEntity
  8
1
  6
Continuous
 62
     7
100
AcDbLine
 10
226.4102922059231
 20
-38.00000000000017
 30
0.0
 11
108.4102922059231
 21
-38.00000000000019
 31
0.0
  0
LINE
  5
3B6
330
1F
100
AcDbEntity
  8
1
  6
Continuous
 62
     7
100
AcDbLine
 10
108.4102922059231
 20
-38.00000000000019
 30
0.0
 11
108.4102922059231
 21
-162.0000000000001
 31
0.0
  0
LINE
  5
3B7
330
1F
100
AcDbEntity
  8
1
  6
Continuous
 62
     7
100
AcDbLine
 10
108.4102922059231
 20
-162.0000000000001
 30
0.0
 11
-285.589707794077
 21
-162.0000000000001
 31
0.0
  0
LINE
  5
3B8
330
1F
100
AcDbEntity
  8
1
  6
Continuous
 62
     7
100
AcDbLine
 10
108.4102922059231
 20
-38.00000000000019
 30
0.0
 11
34.41029220592311
 21
-38.00000000000011
 31
0.0
  0
LINE
  5
3B9
330
1F
100
AcDbEntity
  8
1
  6
Continuous
 62
     7
100
AcDbLine
 10
-223.5
 20
116.0
 30
0.0
 11
-225.5
 21
116.0
 31
0.0
  0
LINE
  5
3BA
330
1F
100
AcDbEntity
  8
1
  6
Continuous
 62
     7
100
AcDbLine
 10
-258.5
 20
116.0
 30
0.0
 11
-258.5
 21
94.0
 31
0.0
  0
LINE
  5
3BB
330
1F
100
AcDbEntity
  8
1
  6
Continuous
 62
     7
100
AcDbLine
 10
-258.5
 20
94.0
 30
0.0
 11
-223.5
 21
94.0
 31
0.0
  0
LINE
  5
3BC
330
1F
100
AcDbEntity
  8
1
  6
Continuous
 62
     7
100
AcDbLine
 10
-221.5
 20
120.0
 30
0.0
 11
-223.5
 21
120.0
 31
0.0
  0
LINE
  5
3BD
330
1F
100
AcDbEntity
  8
1
  6
Continuous
 62
     7
100
AcDbLine
 10
-223.5
 20
120.0
 30
0.0
 11
-223.5
 21
90.0
 31
0.0
  0
LINE
  5
3BE
330
1F
100
AcDbEntity
  8
1
  6
Continuous
 62
     7
100
AcDbLine
 10
-223.5
 20
90.0
 30
0.0
 11
-221.5
 21
90.0
 31
0.0
  0
LINE
  5
3BF
330
1F
100
AcDbEntity
  8
1
  6
Continuous
 62
     7
100
AcDbLine
 10
-212.5
 20
139.0
 30
0.0
 11
-221.0
 21
139.0
 31
0.0
  0
LINE
  5
3C0
330
1F
100
AcDbEntity
  8
1
  6
Continuous
 62
     7
100
AcDbLine
 10
-212.5
 20
150.0
 30
0.0
 11
-212.5
 21
60.0
 31
0.0
  0
LINE
  5
3C1
330
1F
100
AcDbEntity
  8
1
  6
Continuous
 62
     7
100
AcDbLine
 10
-212.5
 20
60.0
 30
0.0
 11
-165.5
 21
60.0
 31
0.0
  0
LINE
  5
3C2
330
1F
100
AcDbEntity
  8
1
  6
Continuous
 62
     7
100
AcDbLine
 10
-165.5
 20
60.0
 30
0.0
 11
-165.5
 21
64.5
 31
0.0
  0
LINE
  5
3C3
330
1F
100
AcDbEntity
  8
1
  6
Continuous
 62
     7
100
AcDbLine
 10
-165.5
 20
150.0
 30
0.0
 11
-212.5
 21
150.0
 31
0.0
  0
LINE
  5
3C4
330
1F
100
AcDbEntity
  8
1
  6
Continuous
 62
     7
100
AcDbLine
 10
-165.5
 20
145.5
 30
0.0
 11
-154.0
 21
145.5
 31
0.0
  0
LINE
  5
3C5
330
1F
100
AcDbEntity
  8
1
  6
Continuous
 62
     7
100
AcDbLine
 10
-165.5
 20
145.5
 30
0.0
 11
-165.5
 21
150.0
 31
0.0
  0
LINE
  5
3C6
330
1F
100
AcDbEntity
  8
1
  6
Continuous
 62
     7
100
AcDbLine
 10
-165.5
 20
64.5
 30
0.0
 11
-154.0
 21
64.5
 31
0.0
  0
LINE
  5
3C7
330
1F
100
AcDbEntity
  8
1
  6
Continuous
 62
     7
100
AcDbLine
 10
-165.5
 20
64.5
 30
0.0
 11
-165.5
 21
145.5
 31
0.0
  0
LINE
  5
3C8
330
1F
100
AcDbEntity
  8
1
  6
Continuous
 62
     7
100
AcDbLine
 10
-221.0
 20
139.0
 30
0.0
 11
-221.0
 21
71.0
 31
0.0
  0
LINE
  5
3C9
330
1F
100
AcDbEntity
  8
1
  6
Continuous
 62
     7
100
AcDbLine
 10
-221.0
 20
71.0
 30
0.0
 11
-212.5
 21
71.0
 31
0.0
  0
LINE
  5
3CA
330
1F
100
AcDbEntity
  8
1
  6
Continuous
 62
     2
100
AcDbLine
 10
158.908221645699
 20
24.7494238290457
 30
0.0
 11
163.908221645699
 21
24.7494238290457
 31
0.0
  0
LINE
  5
3CB
330
1F
100
AcDbEntity
  8
1
  6
Continuous
 62
     2
100
AcDbLine
 10
163.908221645699
 20
24.7494238290457
 30
0.0
 11
163.908221645699
 21
19.7494238290457
 31
0.0
  0
LINE
  5
3CC
330
1F
100
AcDbEntity
  8
1
  6
Continuous
 62
     2
100
AcDbLine
 10
163.908221645699
 20
19.7494238290457
 30
0.0
 11
158.908221645699
 21
19.7494238290457
 31
0.0
  0
LINE
  5
3CD
330
1F
100
AcDbEntity
  8
1
  6
Continuous
 62
     2
100
AcDbLine
 10
158.908221645699
 20
19.7494238290457
 30
0.0
 11
158.908221645699
 21
24.7494238290457
 31
0.0
  0
LINE
  5
3CE
330
1F
100
AcDbEntity
  8
1
  6
Continuous
 62
     7
100
AcDbLine
 10
-285.589707794077
 20
-38.00000000000011
 30
0.0
 11
-309.0
 21
-38.00000000000011
 31
0.0
  0
LINE
  5
3CF
330
1F
100
AcDbEntity
  8
1
  6
Continuous
 62
     7
100
AcDbLine
 10
-309.0
 20
-38.00000000000011
 30
0.0
 11
-309.0
 21
-86.0000000000001
 31
0.0
  0
LINE
  5
3D0
330
1F
100
AcDbEntity
  8
1
  6
Continuous
 62
     7
100
AcDbLine
 10
-309.0
 20
-162.0
 30
0.0
 11
-285.589707794077
 21
-162.0000000000001
 31
0.0
  0
LINE
  5
3D1
330
1F
100
AcDbEntity
  8
1
  6
Continuous
 62
     7
100
AcDbLine
 10
-285.589707794077
 20
-105.0
 30
0.0
 11
-309.0
 21
-105.0
 31
0.0
  0
LINE
  5
3D2
330
1F
100
AcDbEntity
  8
1
  6
Continuous
 62
     7
100
AcDbLine
 10
-309.0
 20
-105.0
 30
0.0
 11
-309.0
 21
-124.0
 31
0.0
  0
LINE
  5
3D3
330
1F
100
AcDbEntity
  8
1
  6
Continuous
 62
     2
100
AcDbLine
 10
-309.0
 20
-86.0000000000001
 30
0.0
 11
-285.589707794077
 21
-86.0000000000001
 31
0.0
  0
LINE
  5
3D4
330
1F
100
AcDbEntity
  8
1
  6
Continuous
 62
     7
100
AcDbLine
 10
-309.0
 20
-86.0000000000001
 30
0.0
 11
-309.0
 21
-105.0
 31
0.0
  0
LINE
  5
3D5
330
1F
100
AcDbEntity
  8
1
  6
Continuous
 62
     2
100
AcDbLine
 10
-309.0
 20
-124.0
 30
0.0
 11
-285.589707794077
 21
-124.0
 31
0.0
  0
LINE
  5
3D6
330
1F
100
AcDbEntity
  8
1
  6
Continuous
 62
     7
100
AcDbLine
 10
-309.0
 20
-124.0
 30
0.0
 11
-309.0
 21
-143.0000000000001
 31
0.0
  0
LINE
  5
3D7
330
1F
100
AcDbEntity
  8
1
  6
Continuous
 62
     2
100
AcDbLine
 10
-309.0
 20
-143.0000000000001
 30
0.0
 11
-285.589707794077
 21
-143.0000000000001
 31
0.0
  0
LINE
  5
3D8
330
1F
100
AcDbEntity
  8
1
  6
Continuous
 62
     7
100
AcDbLine
 10
-309.0
 20
-143.0000000000001
 30
0.0
 11
-309.0
 21
-162.0
 31
0.0
  0
ARC
  5
3D9
330
1F
100
AcDbEntity
  8
1
  6
Continuous
 62
     7
100
AcDbCircle
 10
-252.5
 20
126.5830052442558
 30
0.0
 40
10.99999999999754
100
AcDbArc
 50
-105.826620131876
 51
-90.0
  0
ARC
  5
3DA
330
1F
100
AcDbEntity
  8
1
  6
Continuous
 62
     7
100
AcDbCircle
 10
-228.5
 20
126.5830052442558
 30
0.0
 40
10.9999999999975
100
AcDbArc
 50
-90.0
 51
-74.17337986812403
  0
ARC
  5
3DB
330
1F
100
AcDbEntity
  8
1
  6
Continuous
 62
     7
100
AcDbCircle
 10
-95.84000000000003
 20
105.0
 30
0.0
 40
56.65999999999998
100
AcDbArc
 50
141.2043751028835
 51
-141.2043751028835
  0
XLINE
  5
3DC
330
1F
100
AcDbEntity
  8
1
  6
DOT_CENTER
 62
     3
 60
     1
100
AcDbXline
 10
-221.0
 20
71.0
 30
0.0
 11
-1.0
 21
0.0
 31
0.0
  0
MTEXT
  5
3DD
330
1F
100
AcDbEntity
  8
1
 62
     3
100
AcDbMText
 10
-175.707427419356
 20
-227.407072580646
 30
0.0
 40
7.0
 41
0.0
 71
     5
 72
     1
  1
Welle ohne Passfedernut Sonderausführung/S22
  7
CONVERTER_15
 73
     1
 44
1.32052821128451
  0
MTEXT
  5
3DE
330
1F
100
AcDbEntity
  8
1
 62
     3
100
AcDbMText
 10
-175.707427419356
 20
-207.407072580646
 30
0.0
 40
7.0
 41
0.0
 71
     5
 72
     1
  1
Welle mit Passfedernut nach DIN 6885-1(Standard)
  7
CONVERTER_15
 73
     1
 44
1.32052821128451
  0
MTEXT
  5
3DF
330
1F
100
AcDbEntity
  8
1
 62
     3
100
AcDbMText
 10
-120.589707794077
 20
-114.5
 30
0.0
 40
7.0
 41
0.0
 71
     5
 72
     1
  1
189
  7
CONVERTER_15
 73
     1
 44
1.32052821128451
  0
MTEXT
  5
3E0
330
1F
100
AcDbEntity
  8
1
 62
     3
100
AcDbMText
 10
-120.589707794077
 20
-152.5
 30
0.0
 40
7.0
 41
0.0
 71
     5
 72
     1
  1
269
  7
CONVERTER_15
 73
     1
 44
1.32052821128451
  0
MTEXT
  5
3E1
330
1F
100
AcDbEntity
  8
1
 62
     7
100
AcDbMText
 10
-24.58970779407686
 20
-95.5000000000001
 30
0.0
 40
7.0
 41
0.0
 71
     5
 72
     1
  1
k
  7
CONVERTER_15
 73
     1
 44
1.32052821128451
  0
MTEXT
  5
3E2
330
1F
100
AcDbEntity
  8
1
 62
     3
100
AcDbMText
 10
242.4102922059232
 20
-114.5
 30
0.0
 40
7.0
 41
0.0
 71
     5
 72
     1
  1
162
  7
CONVERTER_15
 73
     1
 44
1.32052821128451
  0
MTEXT
  5
3E3
330
1F
100
AcDbEntity
  8
1
 62
     3
100
AcDbMText
 10
242.4102922059232
 20
-133.5
 30
0.0
 40
7.0
 41
0.0
 71
     5
 72
     1
  1
202
  7
CONVERTER_15
 73
     1
 44
1.32052821128451
  0
MTEXT
  5
3E4
330
1F
100
AcDbEntity
  8
1
 62
     3
100
AcDbMText
 10
242.4102922059232
 20
-152.5
 30
0.0
 40
7.0
 41
0.0
 71
     5
 72
     1
  1
242
  7
CONVERTER_15
 73
     1
 44
1.32052821128451
  0
MTEXT
  5
3E5
330
1F
100
AcDbEntity
  8
1
 62
     7
100
AcDbMText
 10
242.4102922059232
 20
-94.5000000000001
 30
0.0
 40
7.0
 41
0.0
 71
     5
 72
     1
  1
q
  7
CONVERTER_15
 73
     1
 44
1.32052821128451
  0
MTEXT
  5
3E6
330
1F
100
AcDbEntity
  8
1
 62
     3
100
AcDbMText
 10
-304.7665888903611
 20
-132.642017223392
 30
0.0
 40
7.0
 41
0.0
 71
     4
 72
     1
  1
KSG 3108... Q(-MF)-R..(/S23)/PLG90
  7
CONVERTER_15
 73
     1
 44
1.32052821128451
  0
MTEXT
  5
3E7
330
1F
100
AcDbEntity
  8
1
 62
     3
100
AcDbMText
 10
-24.58970779407686
 20
-114.5
 30
0.0
 40
7.0
 41
0.0
 71
     5
 72
     1
  1
237
  7
CONVERTER_15
 73
     1
 44
1.32052821128451
  0
MTEXT
  5
3E8
330
1F
100
AcDbEntity
  8
1
 62
     3
100
AcDbMText
 10
-24.58970779407686
 20
-133.5
 30
0.0
 40
7.0
 41
0.0
 71
     5
 72
     1
  1
277
  7
CONVERTER_15
 73
     1
 44
1.32052821128451
  0
MTEXT
  5
3E9
330
1F
100
AcDbEntity
  8
1
 62
     3
100
AcDbMText
 10
-24.58970779407686
 20
-152.5
 30
0.0
 40
7.0
 41
0.0
 71
     5
 72
     1
  1
317
  7
CONVERTER_15
 73
     1
 44
1.32052821128451
  0
MTEXT
  5
3EA
330
1F
100
AcDbEntity
  8
1
 62
     7
100
AcDbMText
 10
-120.589707794077
 20
-95.5000000000001
 30
0.0
 40
7.0
 41
0.0
 71
     5
 72
     1
  1
k
  7
CONVERTER_15
 73
     1
 44
1.32052821128451
  0
MTEXT
  5
3EB
330
1F
100
AcDbEntity
  8
1
 62
     7
100
AcDbMText
 10
-278.7665888903611
 20
-63.50000000000023
 30
0.0
 40
7.0
 41
0.0
 71
     4
 72
     1
  1
Motor - Typ
  7
CONVERTER_15
 73
     1
 44
1.32052821128451
  0
MTEXT
  5
3EC
330
1F
100
AcDbEntity
  8
1
 62
     7
100
AcDbMText
 10
-84.77830923228441
 20
-63.29070136301937
 30
0.0
 40
7.0
 41
0.0
 71
     4
 72
     1
  1
mit Resolver und Bremse\Pwith resolver and Brake\Pavec resolveur et frein
  7
CONVERTER_15
 73
     1
 44
1.08043217286915
  0
MTEXT
  5
3ED
330
1F
100
AcDbEntity
  8
1
 62
     7
100
AcDbMText
 10
33.42169076771537
 20
-63.29070136301937
 30
0.0
 40
7.0
 41
0.0
 71
     4
 72
     1
  1
mit Drehgeber\Pwith encoder\Pavec codeur
  7
CONVERTER_15
 73
     1
 44
1.08043217286915
  0
MTEXT
  5
3EE
330
1F
100
AcDbEntity
  8
1
 62
     7
100
AcDbMText
 10
106.7016907677152
 20
-63.29070136301937
 30
0.0
 40
7.0
 41
0.0
 71
     4
 72
     1
  1
mit Drehgeber und Bremse\Pwith encoder and brake\Pavec codeur et frein
  7
CONVERTER_15
 73
     1
 44
1.08043217286915
  0
MTEXT
  5
3EF
330
1F
100
AcDbEntity
  8
1
 62
     7
100
AcDbMText
 10
-155.0983092322843
 20
-63.29070136301937
 30
0.0
 40
7.0
 41
0.0
 71
     4
 72
     1
  1
mit Resolver\Pwith resolver\Pavec resolveur
  7
CONVERTER_15
 73
     1
 44
1.08043217286915
  0
MTEXT
  5
3F0
330
1F
100
AcDbEntity
  8
1
 62
     7
100
AcDbMText
 10
71.41029220592318
 20
-94.5000000000001
 30
0.0
 40
7.0
 41
0.0
 71
     5
 72
     1
  1
k
  7
CONVERTER_15
 73
     1
 44
1.32052821128451
  0
MTEXT
  5
3F1
330
1F
100
AcDbEntity
  8
1
 62
     7
100
AcDbMText
 10
167.4102922059232
 20
-94.5000000000001
 30
0.0
 40
7.0
 41
0.0
 71
     5
 72
     1
  1
k
  7
CONVERTER_15
 73
     1
 44
1.32052821128451
  0
MTEXT
  5
3F2
330
1F
100
AcDbEntity
  8
1
 62
     3
100
AcDbMText
 10
71.41029220592308
 20
-114.5
 30
0.0
 40
7.0
 41
0.0
 71
     5
 72
     1
  1
234
  7
CONVERTER_15
 73
     1
 44
1.32052821128451
  0
MTEXT
  5
3F3
330
1F
100
AcDbEntity
  8
1
 62
     3
100
AcDbMText
 10
71.41029220592308
 20
-133.5
 30
0.0
 40
7.0
 41
0.0
 71
     5
 72
     1
  1
274
  7
CONVERTER_15
 73
     1
 44
1.32052821128451
  0
MTEXT
  5
3F4
330
1F
100
AcDbEntity
  8
1
 62
     3
100
AcDbMText
 10
71.41029220592308
 20
-152.5
 30
0.0
 40
7.0
 41
0.0
 71
     5
 72
     1
  1
314
  7
CONVERTER_15
 73
     1
 44
1.32052821128451
  0
MTEXT
  5
3F5
330
1F
100
AcDbEntity
  8
1
 62
     3
100
AcDbMText
 10
167.4102922059232
 20
-114.5
 30
0.0
 40
7.0
 41
0.0
 71
     5
 72
     1
  1
281
  7
CONVERTER_15
 73
     1
 44
1.32052821128451
  0
MTEXT
  5
3F6
330
1F
100
AcDbEntity
  8
1
 62
     3
100
AcDbMText
 10
167.4102922059232
 20
-133.5
 30
0.0
 40
7.0
 41
0.0
 71
     5
 72
     1
  1
321
  7
CONVERTER_15
 73
     1
 44
1.32052821128451
  0
MTEXT
  5
3F7
330
1F
100
AcDbEntity
  8
1
 62
     3
100
AcDbMText
 10
167.4102922059232
 20
-152.5
 30
0.0
 40
7.0
 41
0.0
 71
     5
 72
     1
  1
361
  7
CONVERTER_15
 73
     1
 44
1.32052821128451
  0
MTEXT
  5
3F8
330
1F
100
AcDbEntity
  8
1
 62
     3
100
AcDbMText
 10
-303.7665888903611
 20
-114.5
 30
0.0
 40
7.0
 41
0.0
 71
     4
 72
     1
  1
KSG 3104... Q(-MF)-R..(/S23)/PLG90
  7
CONVERTER_15
 73
     1
 44
1.32052821128451
  0
MTEXT
  5
3F9
330
1F
100
AcDbEntity
  8
1
 62
     3
100
AcDbMText
 10
-306.7665888903611
 20
-152.642017223392
 30
0.0
 40
7.0
 41
0.0
 71
     4
 72
     1
  1
KSG 31012... Q(-MF)-R..(/S23)/PLG90
  7
CONVERTER_15
 73
     1
 44
1.32052821128451
  0
MTEXT
  5
3FA
330
1F
100
AcDbEntity
  8
1
 62
     3
100
AcDbMText
 10
-120.5897077940771
 20
-133.5
 30
0.0
 40
7.0
 41
0.0
 71
     5
 72
     1
  1
229
  7
CONVERTER_15
 73
     1
 44
1.32052821128451
  0
DIMENSION
  5
405
330
1F
100
AcDbEntity
  8
1
100
AcDbDimension
  2
*D11
 10
-212.5
 20
235.630838709678
 30
0.0
 11
-99.5727903225819
 21
243.130838709678
 31
0.0
 70
    32
  1
k
 71
     5
 42
-1.0
 53
0.00013888888889
  3
ME10_DIM_10
100
AcDbAlignedDimension
 13
16.5
 23
148.5
 33
0.0
 14
-212.5
 24
150.0
 34
0.0
100
AcDbRotatedDimension
  0
DIMENSION
  5
410
330
1F
100
AcDbEntity
  8
1
100
AcDbDimension
  2
*D12
 10
-255.5
 20
159.24330580648
 30
0.0
 11
-241.935233306431
 21
166.74330580648
 31
0.0
 70
    32
  1
<>
 71
     5
 42
-1.0
 53
0.00013888888889
  3
ME10_DIM_11
100
AcDbAlignedDimension
 13
-225.5
 23
118.5
 33
0.0
 14
-255.5
 24
118.5
 34
0.0
100
AcDbRotatedDimension
  0
DIMENSION
  5
41D
330
1F
100
AcDbEntity
  8
1
100
AcDbDimension
  2
*D13
 10
-258.5
 20
158.965205887125
 30
0.0
 11
-277.532022983896
 21
166.465205887125
 31
0.0
 70
    32
  1
<>
 71
     5
 42
-1.0
 53
0.00013888888889
  3
ME10_DIM_12
100
AcDbAlignedDimension
 13
-255.5
 23
118.5
 33
0.0
 14
-258.5
 24
116.0
 34
0.0
100
AcDbRotatedDimension
  0
DIMENSION
  5
428
330
1F
100
AcDbEntity
  8
1
100
AcDbDimension
  2
*D14
 10
-280.043620080683
 20
94.0
 30
0.0
 11
-289.293620080683
 21
105.561323548337
 31
0.0
 70
    32
  1
<>
 71
     5
 42
-1.0
 53
90.0
  3
ME10_DIM_13
100
AcDbAlignedDimension
 13
-258.5
 23
116.0
 33
0.0
 14
-258.5
 24
94.0
 34
0.0
 50
90.0
100
AcDbRotatedDimension
  0
DIMENSION
  5
433
330
1F
100
AcDbEntity
  8
1
100
AcDbDimension
  2
*D15
 10
-307.575512096847
 20
71.0
 30
0.0
 11
-318.400512096847
 21
108.620422661244
 31
0.0
 70
    32
  1
<>
 71
     5
 42
-1.0
 53
90.0
  3
ME10_DIM_14
100
AcDbAlignedDimension
 13
-212.5
 23
139.0
 33
0.0
 14
-212.5
 24
71.0
 34
0.0
 50
90.0
100
AcDbRotatedDimension
  0
DIMENSION
  5
43E
330
1F
100
AcDbEntity
  8
1
100
AcDbDimension
  2
*D16
 10
-185.211547580561
 20
59.99999999999999
 30
0.0
 11
-192.711547580561
 21
116.685320322545
 31
0.0
 70
    32
  1
<>
 71
     5
 42
-1.0
 53
90.0
  3
ME10_DIM_15
100
AcDbAlignedDimension
 13
-212.5
 23
150.0
 33
0.0
 14
-212.5
 24
60.0
 34
0.0
 50
90.0
100
AcDbRotatedDimension
  0
DIMENSION
  5
449
330
1F
100
AcDbEntity
  8
1
100
AcDbDimension
  2
*D17
 10
-223.5
 20
178.154100322633
 30
0.0
 11
-244.160032661272
 21
185.654100322633
 31
0.0
 70
    32
  1
<>
 71
     5
 42
-1.0
 53
0.00013888888889
  3
ME10_DIM_16
100
AcDbAlignedDimension
 13
-258.5
 23
94.0
 33
0.0
 14
-223.5
 24
90.0
 34
0.0
100
AcDbRotatedDimension
  0
DIMENSION
  5
456
330
1F
100
AcDbEntity
  8
1
100
AcDbDimension
  2
*D18
 10
-223.5
 20
178.154100322633
 30
0.0
 11
-217.184340483818
 21
185.654100322633
 31
0.0
 70
    32
  1
<>
 71
     5
 42
-1.0
 53
0.00013888888889
  3
ME10_DIM_17
100
AcDbAlignedDimension
 13
-221.5
 23
138.944880249732
 33
0.0
 14
-223.5
 24
120.0
 34
0.0
100
AcDbRotatedDimension
  0
DIMENSION
  5
463
330
1F
100
AcDbEntity
  8
1
100
AcDbDimension
  2
*D19
 10
-221.5
 20
195.396295322655
 30
0.0
 11
-202.445044757993
 21
202.896295322655
 31
0.0
 70
    32
  1
<>
 71
     5
 42
-1.0
 53
0.00013888888889
  3
ME10_DIM_18
100
AcDbAlignedDimension
 13
-212.5
 23
150.0
 33
0.0
 14
-221.5
 24
138.944880249732
 34
0.0
100
AcDbRotatedDimension
  0
DIMENSION
  5
46E
330
1F
100
AcDbEntity
  8
1
100
AcDbDimension
  2
*D20
 10
-212.5000000000001
 20
211.844182167014
 30
0.0
 11
-102.7638148771214
 21
219.344182167014
 31
0.0
 70
    32
  1
q
 71
     5
 42
-1.0
 53
0.00013888888889
  3
ME10_DIM_19
100
AcDbAlignedDimension
 13
-10.5
 23
153.0
 33
0.0
 14
-212.5
 24
150.0
 34
0.0
100
AcDbRotatedDimension
  0
DIMENSION
  5
479
330
1F
100
AcDbEntity
  8
1
100
AcDbDimension
  2
*D21
 10
150.3093975133095
 20
203.801759165933
 30
0.0
 11
164.327459332751
 21
211.301759165933
 31
0.0
 70
    32
  1
<>
 71
     5
 42
-1.0
 53
0.00013888888889
  3
ME10_DIM_20
100
AcDbAlignedDimension
 13
178.3093975133085
 23
190.2500000000001
 33
0.0
 14
150.3093975133095
 24
190.2500000000001
 34
0.0
100
AcDbRotatedDimension
  0
DIMENSION
  5
484
330
1F
100
AcDbEntity
  8
1
100
AcDbDimension
  2
*D22
 10
125.809397513309
 20
15.3466169729934
 30
0.0
 11
171.041341086006
 21
22.8466169729934
 31
0.0
 70
    32
  1
<>
 71
     5
 42
-1.0
 53
0.00013888888889
  3
ME10_DIM_21
100
AcDbAlignedDimension
 13
213.809397513309
 23
69.55638280310532
 33
0.0
 14
125.809397513309
 24
69.55638280310532
 34
0.0
100
AcDbRotatedDimension
  0
INSERT
  5
48B
330
1F
100
AcDbEntity
  8
1
100
AcDbBlockReference
  2
*D23
 10
0.0
 20
0.0
 30
0.0
  0
INSERT
  5
492
330
1F
100
AcDbEntity
  8
1
100
AcDbBlockReference
  2
*D24
 10
0.0
 20
0.0
 30
0.0
  0
INSERT
  5
49E
330
1F
100
AcDbEntity
  8
1
100
AcDbBlockReference
  2
*D25
 10
0.0
 20
0.0
 30
0.0
  0
DIMENSION
  5
4AB
330
1F
100
AcDbEntity
  8
1
100
AcDbDimension
  2
*D26
 10
244.230280369551
 20
135.8261390028347
 30
0.0
 11
252.978359430763
 21
133.916797395886
 31
0.0
 70
    37
  1
<>
 71
     5
 42
-1.0
  3
ME10_DIM_22
100
AcDb3PointAngularDimension
 13
214.809397513309
 23
105.0
 33
0.0
 14
198.0936687607709
 24
133.2842712474618
 34
0.0
 15
169.8093975133091
 25
105.0
 35
0.0
  0
DIMENSION
  5
4B8
330
1F
100
AcDbEntity
  8
1
100
AcDbDimension
  2
*D27
 10
244.20001116506
 20
74.18639891218751
 30
0.0
 11
239.018719268323
 21
81.7198820058925
 31
0.0
 70
    37
  1
<>
 71
     5
 42
-1.0
  3
ME10_DIM_23
100
AcDb3PointAngularDimension
 13
198.0936687607709
 23
76.715728752538
 33
0.0
 14
214.809397513309
 24
105.0
 34
0.0
 15
169.809397513309
 25
105.0
 35
0.0
  0
ENDSEC
  0
SECTION
  2
OBJECTS
  0
DICTIONARY
  5
C
330
0
100
AcDbDictionary
281
     1
  3
ACAD_GROUP
350
D
  3
ACAD_LAYOUT
350
1A
  3
ACAD_MLINESTYLE
350
17
  3
ACAD_PLOTSETTINGS
350
19
  3
ACAD_PLOTSTYLENAME
350
E
  0
DICTIONARY
  5
D
102
{ACAD_REACTORS
330
C
102
}
330
C
100
AcDbDictionary
281
     1
  0
DICTIONARY
  5
1A
102
{ACAD_REACTORS
330
C
102
}
330
C
100
AcDbDictionary
281
     1
  3
Layout1
350
1E
  3
Layout2
350
26
  3
Model
350
22
  0
DICTIONARY
  5
17
102
{ACAD_REACTORS
330
C
102
}
330
C
100
AcDbDictionary
281
     1
  3
Standard
350
18
  0
DICTIONARY
  5
19
102
{ACAD_REACTORS
330
C
102
}
330
C
100
AcDbDictionary
281
     1
  0
ACDBDICTIONARYWDFLT
  5
E
102
{ACAD_REACTORS
330
C
102
}
330
C
100
AcDbDictionary
281
     1
  3
Normal
350
F
100
AcDbDictionaryWithDefault
340
F
  0
LAYOUT
  5
1E
102
{ACAD_REACTORS
330
1A
102
}
330
1A
100
AcDbPlotSettings
  1

  2

  4

  6

 40
0.0
 41
0.0
 42
0.0
 43
0.0
 44
0.0
 45
0.0
 46
0.0
 47
0.0
 48
0.0
 49
0.0
140
0.0
141
0.0
142
1.0
143
1.0
 70
   688
 72
     0
 73
     0
 74
     5
  7

 75
    16
 76
     0
 77
     2
 78
   300
147
1.0
148
0.0
149
0.0
100
AcDbLayout
  1
Layout1
 70
     1
 71
     1
 10
0.0
 20
0.0
 11
0.0
 21
0.0
 12
0.0
 22
0.0
 32
0.0
 14
0.0
 24
0.0
 34
0.0
 15
0.0
 25
0.0
 35
0.0
146
0.0
 13
0.0
 23
0.0
 33
0.0
 16
1.0
 26
0.0
 36
0.0
 17
0.0
 27
1.0
 37
0.0
 76
     0
330
1B
  0
LAYOUT
  5
26
102
{ACAD_REACTORS
330
1A
102
}
330
1A
100
AcDbPlotSettings
  1

  2

  4

  6

 40
0.0
 41
0.0
 42
0.0
 43
0.0
 44
0.0
 45
0.0
 46
0.0
 47
0.0
 48
0.0
 49
0.0
140
0.0
141
0.0
142
1.0
143
1.0
 70
   688
 72
     0
 73
     0
 74
     5
  7

 75
    16
 76
     0
 77
     2
 78
   300
147
1.0
148
0.0
149
0.0
100
AcDbLayout
  1
Layout2
 70
     1
 71
     2
 10
0.0
 20
0.0
 11
0.0
 21
0.0
 12
0.0
 22
0.0
 32
0.0
 14
0.0
 24
0.0
 34
0.0
 15
0.0
 25
0.0
 35
0.0
146
0.0
 13
0.0
 23
0.0
 33
0.0
 16
1.0
 26
0.0
 36
0.0
 17
0.0
 27
1.0
 37
0.0
 76
     0
330
23
  0
LAYOUT
  5
22
102
{ACAD_REACTORS
330
1A
102
}
330
1A
100
AcDbPlotSettings
  1

  2

  4

  6

 40
0.0
 41
0.0
 42
0.0
 43
0.0
 44
0.0
 45
0.0
 46
0.0
 47
0.0
 48
0.0
 49
0.0
140
0.0
141
0.0
142
1.0
143
1.0
 70
  1712
 72
     0
 73
     0
 74
     0
  7

 75
     0
 76
     0
 77
     2
 78
   300
147
1.0
148
0.0
149
0.0
100
AcDbLayout
  1
Model
 70
     1
 71
     0
 10
0.0
 20
0.0
 11
0.0
 21
0.0
 12
0.0
 22
0.0
 32
0.0
 14
-397.760000000002
 24
-285.0
 34
0.0
 15
410.0
 25
284.0
 35
0.0
146
0.0
 13
0.0
 23
0.0
 33
0.0
 16
1.0
 26
0.0
 36
0.0
 17
0.0
 27
1.0
 37
0.0
 76
     0
330
1F
  0
MLINESTYLE
  5
18
102
{ACAD_REACTORS
330
17
102
}
330
17
100
AcDbMlineStyle
  2
Standard
 70
     0
  3

 62
   256
 51
90.0
 52
90.0
 71
     2
 49
0.5
 62
   256
  6
BYLAYER
 49
-0.5
 62
   256
  6
BYLAYER
  0
ACDBPLACEHOLDER
  5
F
102
{ACAD_REACTORS
330
E
102
}
330
E
  0
ENDSEC
  0
EOF
