  0
SECTION
  2
HEADER
  9
$ACADVER
  1
AC1018
  9
$ACADMAINTVER
 70
     0
  9
$DWGCODEPAGE
  3
ANSI_1252
  9
$INSBASE
 10
0.0
 20
0.0
 30
0.0
  9
$EXTMIN
 10
-562.65356915095
 20
88.47454546921097
 30
0.0
  9
$EXTMAX
 10
245.106430849052
 20
657.474545469211
 30
0.0
  9
$LIMMIN
 10
0.0
 20
0.0
  9
$LIMMAX
 10
12.0
 20
9.0
  9
$ORTHOMODE
 70
     0
  9
$REGENMODE
 70
     1
  9
$FILLMODE
 70
     1
  9
$QTEXTMODE
 70
     0
  9
$MIRRTEXT
 70
     1
  9
$LTSCALE
 40
1.0
  9
$ATTMODE
 70
     1
  9
$TEXTSIZE
 40
0.2
  9
$TRACEWID
 40
0.05
  9
$TEXTSTYLE
  7
Standard
  9
$CLAYER
  8
0
  9
$CELTYPE
  6
ByLayer
  9
$CECOLOR
 62
   256
  9
$CELTSCALE
 40
1.0
  9
$DISPSILH
 70
     0
  9
$DIMSCALE
 40
1.0
  9
$DIMASZ
 40
0.18
  9
$DIMEXO
 40
0.0625
  9
$DIMDLI
 40
0.38
  9
$DIMRND
 40
0.0
  9
$DIMDLE
 40
0.0
  9
$DIMEXE
 40
0.18
  9
$DIMTP
 40
0.0
  9
$DIMTM
 40
0.0
  9
$DIMTXT
 40
0.18
  9
$DIMCEN
 40
0.09
  9
$DIMTSZ
 40
0.0
  9
$DIMTOL
 70
     0
  9
$DIMLIM
 70
     0
  9
$DIMTIH
 70
     1
  9
$DIMTOH
 70
     1
  9
$DIMSE1
 70
     0
  9
$DIMSE2
 70
     0
  9
$DIMTAD
 70
     0
  9
$DIMZIN
 70
     0
  9
$DIMBLK
  1

  9
$DIMASO
 70
     1
  9
$DIMSHO
 70
     1
  9
$DIMPOST
  1

  9
$DIMAPOST
  1

  9
$DIMALT
 70
     0
  9
$DIMALTD
 70
     2
  9
$DIMALTF
 40
25.4
  9
$DIMLFAC
 40
1.0
  9
$DIMTOFL
 70
     0
  9
$DIMTVP
 40
0.0
  9
$DIMTIX
 70
     0
  9
$DIMSOXD
 70
     0
  9
$DIMSAH
 70
     0
  9
$DIMBLK1
  1

  9
$DIMBLK2
  1

  9
$DIMSTYLE
  2
Standard
  9
$DIMCLRD
 70
     0
  9
$DIMCLRE
 70
     0
  9
$DIMCLRT
 70
     0
  9
$DIMTFAC
 40
1.0
  9
$DIMGAP
 40
0.09
  9
$DIMJUST
 70
     0
  9
$DIMSD1
 70
     0
  9
$DIMSD2
 70
     0
  9
$DIMTOLJ
 70
     1
  9
$DIMTZIN
 70
     0
  9
$DIMALTZ
 70
     0
  9
$DIMALTTZ
 70
     0
  9
$DIMUPT
 70
     0
  9
$DIMDEC
 70
     4
  9
$DIMTDEC
 70
     4
  9
$DIMALTU
 70
     2
  9
$DIMALTTD
 70
     2
  9
$DIMTXSTY
  7
Standard
  9
$DIMAUNIT
 70
     0
  9
$DIMADEC
 70
     0
  9
$DIMALTRND
 40
0.0
  9
$DIMAZIN
 70
     0
  9
$DIMDSEP
 70
    46
  9
$DIMATFIT
 70
     3
  9
$DIMFRAC
 70
     0
  9
$DIMLDRBLK
  1

  9
$DIMLUNIT
 70
     2
  9
$DIMLWD
 70
    -2
  9
$DIMLWE
 70
    -2
  9
$DIMTMOVE
 70
     0
  9
$LUNITS
 70
     2
  9
$LUPREC
 70
     4
  9
$SKETCHINC
 40
0.1
  9
$FILLETRAD
 40
0.5
  9
$AUNITS
 70
     0
  9
$AUPREC
 70
     0
  9
$MENU
  1
.
  9
$ELEVATION
 40
0.0
  9
$PELEVATION
 40
0.0
  9
$THICKNESS
 40
0.0
  9
$LIMCHECK
 70
     0
  9
$CHAMFERA
 40
0.5
  9
$CHAMFERB
 40
0.5
  9
$CHAMFERC
 40
1.0
  9
$CHAMFERD
 40
0.0
  9
$SKPOLY
 70
     0
  9
$TDCREATE
 40
2454966.455990891
  9
$TDUCREATE
 40
2454966.372657558
  9
$TDUPDATE
 40
2454966.455990903
  9
$TDUUPDATE
 40
2454966.37265757
  9
$TDINDWG
 40
0.0000000116
  9
$TDUSRTIMER
 40
0.0000000116
  9
$USRTIMER
 70
     1
  9
$ANGBASE
 50
0.0
  9
$ANGDIR
 70
     0
  9
$PDMODE
 70
     0
  9
$PDSIZE
 40
0.0
  9
$PLINEWID
 40
0.0
  9
$SPLFRAME
 70
     0
  9
$SPLINETYPE
 70
     6
  9
$SPLINESEGS
 70
     8
  9
$HANDSEED
  5
4E6
  9
$SURFTAB1
 70
     6
  9
$SURFTAB2
 70
     6
  9
$SURFTYPE
 70
     6
  9
$SURFU
 70
     6
  9
$SURFV
 70
     6
  9
$UCSBASE
  2

  9
$UCSNAME
  2

  9
$UCSORG
 10
0.0
 20
0.0
 30
0.0
  9
$UCSXDIR
 10
1.0
 20
0.0
 30
0.0
  9
$UCSYDIR
 10
0.0
 20
1.0
 30
0.0
  9
$UCSORTHOREF
  2

  9
$UCSORTHOVIEW
 70
     0
  9
$UCSORGTOP
 10
0.0
 20
0.0
 30
0.0
  9
$UCSORGBOTTOM
 10
0.0
 20
0.0
 30
0.0
  9
$UCSORGLEFT
 10
0.0
 20
0.0
 30
0.0
  9
$UCSORGRIGHT
 10
0.0
 20
0.0
 30
0.0
  9
$UCSORGFRONT
 10
0.0
 20
0.0
 30
0.0
  9
$UCSORGBACK
 10
0.0
 20
0.0
 30
0.0
  9
$PUCSBASE
  2

  9
$PUCSNAME
  2

  9
$PUCSORG
 10
0.0
 20
0.0
 30
0.0
  9
$PUCSXDIR
 10
1.0
 20
0.0
 30
0.0
  9
$PUCSYDIR
 10
0.0
 20
1.0
 30
0.0
  9
$PUCSORTHOREF
  2

  9
$PUCSORTHOVIEW
 70
     0
  9
$PUCSORGTOP
 10
0.0
 20
0.0
 30
0.0
  9
$PUCSORGBOTTOM
 10
0.0
 20
0.0
 30
0.0
  9
$PUCSORGLEFT
 10
0.0
 20
0.0
 30
0.0
  9
$PUCSORGRIGHT
 10
0.0
 20
0.0
 30
0.0
  9
$PUCSORGFRONT
 10
0.0
 20
0.0
 30
0.0
  9
$PUCSORGBACK
 10
0.0
 20
0.0
 30
0.0
  9
$USERI1
 70
     0
  9
$USERI2
 70
     0
  9
$USERI3
 70
     0
  9
$USERI4
 70
     0
  9
$USERI5
 70
     0
  9
$USERR1
 40
14.5
  9
$USERR2
 40
0.0
  9
$USERR3
 40
0.0
  9
$USERR4
 40
0.0
  9
$USERR5
 40
0.0
  9
$WORLDVIEW
 70
     1
  9
$SHADEDGE
 70
     3
  9
$SHADEDIF
 70
    70
  9
$TILEMODE
 70
     1
  9
$MAXACTVP
 70
    64
  9
$PINSBASE
 10
0.0
 20
0.0
 30
0.0
  9
$PLIMCHECK
 70
     0
  9
$PEXTMIN
 10
1.00000000000000E+20
 20
1.00000000000000E+20
 30
1.00000000000000E+20
  9
$PEXTMAX
 10
-1.00000000000000E+20
 20
-1.00000000000000E+20
 30
-1.00000000000000E+20
  9
$PLIMMIN
 10
0.0
 20
0.0
  9
$PLIMMAX
 10
12.0
 20
9.0
  9
$UNITMODE
 70
     0
  9
$VISRETAIN
 70
     1
  9
$PLINEGEN
 70
     0
  9
$PSLTSCALE
 70
     1
  9
$TREEDEPTH
 70
  3020
  9
$CMLSTYLE
  2
Standard
  9
$CMLJUST
 70
     0
  9
$CMLSCALE
 40
1.0
  9
$PROXYGRAPHICS
 70
     1
  9
$MEASUREMENT
 70
     1
  9
$CELWEIGHT
370
    -1
  9
$ENDCAPS
280
     0
  9
$JOINSTYLE
280
     0
  9
$LWDISPLAY
290
     0
  9
$INSUNITS
 70
     1
  9
$HYPERLINKBASE
  1

  9
$STYLESHEET
  1

  9
$XEDIT
290
     1
  9
$CEPSNTYPE
380
     0
  9
$PSTYLEMODE
290
     1
  9
$FINGERPRINTGUID
  2
{8A502920-8FAD-4811-99A3-0127E6F1E1BA}
  9
$VERSIONGUID
  2
{FAEB1C32-E019-11D5-929B-00C0DF256EC4}
  9
$EXTNAMES
290
     1
  9
$PSVPSCALE
 40
0.0
  9
$OLESTARTUP
290
     0
  9
$SORTENTS
280
   127
  9
$INDEXCTL
280
     0
  9
$HIDETEXT
280
     1
  9
$XCLIPFRAME
290
     0
  9
$HALOGAP
280
     0
  9
$OBSCOLOR
 70
   257
  9
$OBSLTYPE
280
     0
  9
$INTERSECTIONDISPLAY
280
     0
  9
$INTERSECTIONCOLOR
 70
   257
  9
$DIMASSOC
280
     2
  9
$PROJECTNAME
  1

  0
ENDSEC
  0
SECTION
  2
CLASSES
  0
CLASS
  1
ACDBDICTIONARYWDFLT
  2
AcDbDictionaryWithDefault
  3
ObjectDBX Classes
 90
        0
 91
        3
280
     0
281
     0
  0
CLASS
  1

  2
exOdDbCircle
  3

 90
        0
 91
        3
280
     0
281
     1
  0
ENDSEC
  0
SECTION
  2
TABLES
  0
TABLE
  2
VPORT
  5
8
330
0
100
AcDbSymbolTable
 70
     1
  0
VPORT
  5
29
330
8
100
AcDbSymbolTableRecord
100
AcDbViewportTableRecord
  2
*Active
 70
     0
 10
0.0
 20
0.0
 11
1.0
 21
1.0
 12
-158.773569150949
 22
372.974545469211
 13
0.0
 23
0.0
 14
0.5
 24
0.5
 15
0.5
 25
0.5
 16
0.0
 26
0.0
 36
1.0
 17
0.0
 27
0.0
 37
0.0
 40
625.9000000000001
 41
1.60267857142857
 42
50.0
 43
0.0
 44
0.0
 50
0.0
 51
0.0
 71
     0
 72
   100
 73
     1
 74
     3
 75
     0
 76
     0
 77
     0
 78
     0
281
     0
 65
     1
110
0.0
120
0.0
130
0.0
111
1.0
121
0.0
131
0.0
112
0.0
122
1.0
132
0.0
 79
     0
146
0.0
  0
ENDTAB
  0
TABLE
  2
LTYPE
  5
5
330
0
100
AcDbSymbolTable
 70
     8
  0
LTYPE
  5
14
330
5
100
AcDbSymbolTableRecord
100
AcDbLinetypeTableRecord
  2
ByBlock
 70
     0
  3

 72
    65
 73
     0
 40
0.0
  0
LTYPE
  5
15
330
5
100
AcDbSymbolTableRecord
100
AcDbLinetypeTableRecord
  2
ByLayer
 70
     0
  3

 72
    65
 73
     0
 40
0.0
  0
LTYPE
  5
16
330
5
100
AcDbSymbolTableRecord
100
AcDbLinetypeTableRecord
  2
Continuous
 70
     0
  3
Solid line
 72
    65
 73
     0
 40
0.0
  0
LTYPE
  5
2A
330
5
100
AcDbSymbolTableRecord
100
AcDbLinetypeTableRecord
  2
DASHED
 70
     0
  3
Dashed
 72
    65
 73
     2
 40
15.0
 49
7.0
 74
     0
 49
-8.0
 74
     0
  0
LTYPE
  5
2B
330
5
100
AcDbSymbolTableRecord
100
AcDbLinetypeTableRecord
  2
DOTTED
 70
     0
  3
Dotted
 72
    65
 73
     2
 40
1.0
 49
0.0
 74
     0
 49
-1.0
 74
     0
  0
LTYPE
  5
2C
330
5
100
AcDbSymbolTableRecord
100
AcDbLinetypeTableRecord
  2
DOT_CENTER
 70
     0
  3
Dot_Center
 72
    65
 73
     4
 40
14.0
 49
12.0
 74
     0
 49
-1.0
 74
     0
 49
0.0
 74
     0
 49
-1.0
 74
     0
  0
LTYPE
  5
2D
330
5
100
AcDbSymbolTableRecord
100
AcDbLinetypeTableRecord
  2
LONG_DASHED
 70
     0
  3
Long_Dashed
 72
    65
 73
     2
 40
15.0
 49
10.0
 74
     0
 49
-5.0
 74
     0
  0
LTYPE
  5
2E
330
5
100
AcDbSymbolTableRecord
100
AcDbLinetypeTableRecord
  2
DASH_CENTER
 70
     0
  3
Dash_Center
 72
    65
 73
     4
 40
14.0
 49
11.0
 74
     0
 49
-1.0
 74
     0
 49
1.0
 74
     0
 49
-1.0
 74
     0
  0
LTYPE
  5
2F
330
5
100
AcDbSymbolTableRecord
100
AcDbLinetypeTableRecord
  2
PHANTOM
 70
     0
  3
Phantom
 72
    65
 73
     6
 40
13.0
 49
10.0
 74
     0
 49
-1.0
 74
     0
 49
0.0
 74
     0
 49
-1.0
 74
     0
 49
0.0
 74
     0
 49
-1.0
 74
     0
  0
LTYPE
  5
30
330
5
100
AcDbSymbolTableRecord
100
AcDbLinetypeTableRecord
  2
CENTER_DASH_DASH
 70
     0
  3
Center_Dash_Dash
 72
    65
 73
     6
 40
14.0
 49
9.0
 74
     0
 49
-1.0
 74
     0
 49
1.0
 74
     0
 49
-1.0
 74
     0
 49
1.0
 74
     0
 49
-1.0
 74
     0
  0
ENDTAB
  0
TABLE
  2
LAYER
  5
2
330
0
100
AcDbSymbolTable
 70
     3
  0
LAYER
  5
10
330
2
100
AcDbSymbolTableRecord
100
AcDbLayerTableRecord
  2
0
 70
     0
 62
     7
  6
Continuous
370
    -3
390
F
  0
LAYER
  5
31
330
2
100
AcDbSymbolTableRecord
100
AcDbLayerTableRecord
  2
1
 70
     0
 62
     7
  6
Continuous
370
    -3
390
F
  0
LAYER
  5
32
330
2
100
AcDbSymbolTableRecord
100
AcDbLayerTableRecord
  2
AM_VIS
 70
     0
 62
     7
  6
Continuous
370
    -3
390
F
  0
ENDTAB
  0
TABLE
  2
STYLE
  5
3
330
0
100
AcDbSymbolTable
 70
     6
  0
STYLE
  5
11
330
3
100
AcDbSymbolTableRecord
100
AcDbTextStyleTableRecord
  2
Standard
 70
     0
 40
0.0
 41
1.0
 50
0.0
 71
     0
 42
0.2
  3
txt
  4

  0
STYLE
  5
2FE
330
3
100
AcDbSymbolTableRecord
100
AcDbTextStyleTableRecord
  2
CONVERTER_11
 70
     0
 40
0.0
 41
0.81
 50
0.0
 71
     0
 42
0.2
  3
txt.shx
  4

  0
STYLE
  5
303
330
3
100
AcDbSymbolTableRecord
100
AcDbTextStyleTableRecord
  2
CONVERTER_12
 70
     0
 40
0.0
 41
0.72
 50
0.0
 71
     0
 42
0.2
  3
txt.shx
  4

  0
STYLE
  5
305
330
3
100
AcDbSymbolTableRecord
100
AcDbTextStyleTableRecord
  2
CONVERTER_13
 70
     0
 40
0.0
 41
0.9
 50
0.0
 71
     0
 42
0.2
  3
txt.shx
  4

  0
STYLE
  5
322
330
3
100
AcDbSymbolTableRecord
100
AcDbTextStyleTableRecord
  2
CONVERTER_14
 70
     0
 40
0.0
 41
0.765
 50
0.0
 71
     0
 42
0.2
  3
txt.shx
  4

  0
STYLE
  5
326
330
3
100
AcDbSymbolTableRecord
100
AcDbTextStyleTableRecord
  2
CONVERTER_15
 70
     0
 40
0.0
 41
0.855
 50
0.0
 71
     0
 42
0.2
  3
complex.shx
  4

  0
ENDTAB
  0
TABLE
  2
VIEW
  5
6
330
0
100
AcDbSymbolTable
 70
     0
  0
ENDTAB
  0
TABLE
  2
UCS
  5
7
330
0
100
AcDbSymbolTable
 70
     0
  0
ENDTAB
  0
TABLE
  2
APPID
  5
9
330
0
100
AcDbSymbolTable
 70
     1
  0
APPID
  5
12
330
9
100
AcDbSymbolTableRecord
100
AcDbRegAppTableRecord
  2
ACAD
 70
     0
  0
ENDTAB
  0
TABLE
  2
DIMSTYLE
  5
A
330
0
100
AcDbSymbolTable
 70
    15
100
AcDbDimStyleTable
  0
DIMSTYLE
105
27
330
A
100
AcDbSymbolTableRecord
100
AcDbDimStyleTableRecord
  2
Standard
 70
     0
340
11
  0
DIMSTYLE
105
424
102
{ACAD_REACTORS
330
425
102
}
330
A
100
AcDbSymbolTableRecord
100
AcDbDimStyleTableRecord
  2
ME10_DIM_10
 70
     0
 41
7.0
 42
0.0
 44
2.0
 73
     0
 74
     0
 77
     1
 78
     8
140
7.0
147
4.0
172
     1
173
     1
176
     2
177
     2
178
     3
271
     3
340
303
  0
DIMSTYLE
105
42F
102
{ACAD_REACTORS
330
430
102
}
330
A
100
AcDbSymbolTableRecord
100
AcDbDimStyleTableRecord
  2
ME10_DIM_11
 70
     0
 41
7.0
 42
0.0
 44
2.0
 73
     0
 74
     0
 77
     1
 78
     8
140
7.0
147
4.0
172
     1
173
     1
176
     2
177
     2
178
     3
271
     3
340
303
  0
DIMSTYLE
105
43C
102
{ACAD_REACTORS
330
43D
102
}
330
A
100
AcDbSymbolTableRecord
100
AcDbDimStyleTableRecord
  2
ME10_DIM_12
 70
     0
  3
{\Fgdt;n}<>
 41
7.0
 42
0.0
 44
2.0
 73
     0
 74
     0
 77
     1
 78
     8
140
7.0
147
4.0
172
     1
173
     1
176
     2
177
     2
178
     3
271
     3
340
303
  0
DIMSTYLE
105
449
102
{ACAD_REACTORS
330
44A
102
}
330
A
100
AcDbSymbolTableRecord
100
AcDbDimStyleTableRecord
  2
ME10_DIM_13
 70
     0
 41
7.0
 42
0.0
 44
2.0
 73
     0
 74
     0
 77
     1
 78
     8
140
7.0
147
4.0
172
     1
173
     1
176
     2
177
     2
178
     3
271
     3
340
303
  0
DIMSTYLE
105
456
102
{ACAD_REACTORS
330
457
102
}
330
A
100
AcDbSymbolTableRecord
100
AcDbDimStyleTableRecord
  2
ME10_DIM_14
 70
     0
 41
7.0
 42
0.0
 44
2.0
 73
     0
 74
     0
 77
     1
 78
     8
140
7.0
147
4.0
172
     1
173
     1
176
     2
177
     2
178
     3
271
     3
340
303
  0
DIMSTYLE
105
461
102
{ACAD_REACTORS
330
462
102
}
330
A
100
AcDbSymbolTableRecord
100
AcDbDimStyleTableRecord
  2
ME10_DIM_15
 70
     0
 41
7.0
 42
0.0
 44
2.0
 73
     0
 74
     0
 77
     1
 78
     8
140
7.0
147
4.0
172
     1
173
     1
176
     2
177
     2
178
     3
271
     3
340
303
  0
DIMSTYLE
105
46C
102
{ACAD_REACTORS
330
46D
102
}
330
A
100
AcDbSymbolTableRecord
100
AcDbDimStyleTableRecord
  2
ME10_DIM_16
 70
     0
 41
7.0
 42
0.0
 44
2.0
 73
     0
 74
     0
 77
     1
 78
     8
140
7.0
147
4.0
172
     1
173
     1
176
     2
177
     2
178
     3
271
     3
340
303
  0
DIMSTYLE
105
479
102
{ACAD_REACTORS
330
47A
102
}
330
A
100
AcDbSymbolTableRecord
100
AcDbDimStyleTableRecord
  2
ME10_DIM_17
 70
     0
 41
7.0
 42
0.0
 44
2.0
 73
     0
 74
     0
 77
     1
 78
     8
140
7.0
147
4.0
172
     1
173
     1
176
     2
177
     2
178
     3
271
     3
340
303
  0
DIMSTYLE
105
484
102
{ACAD_REACTORS
330
485
102
}
330
A
100
AcDbSymbolTableRecord
100
AcDbDimStyleTableRecord
  2
ME10_DIM_18
 70
     0
 41
7.0
 42
0.0
 44
2.0
 73
     0
 74
     0
 77
     1
 78
     8
140
7.0
147
4.0
172
     1
173
     1
176
     2
177
     2
178
     3
271
     3
340
303
  0
DIMSTYLE
105
48F
102
{ACAD_REACTORS
330
490
102
}
330
A
100
AcDbSymbolTableRecord
100
AcDbDimStyleTableRecord
  2
ME10_DIM_19
 70
     0
  3
{\Fgdt;n}<>
 41
7.0
 42
0.0
 44
2.0
 48
-6.0
 71
     1
 73
     0
 74
     0
 77
     1
 78
     8
140
7.0
146
0.6
147
4.0
172
     1
173
     1
176
     2
177
     2
178
     3
271
     3
272
     0
340
303
  0
DIMSTYLE
105
49A
102
{ACAD_REACTORS
330
49B
102
}
330
A
100
AcDbSymbolTableRecord
100
AcDbDimStyleTableRecord
  2
ME10_DIM_20
 70
     0
  3
{\Fgdt;n}<>
 41
7.0
 42
0.0
 44
2.0
 48
-6.0
 71
     1
 73
     0
 74
     0
 77
     1
 78
     8
140
7.0
146
0.6
147
4.0
172
     1
173
     1
176
     2
177
     2
178
     3
271
     3
272
     0
340
303
  0
DIMSTYLE
105
4A5
102
{ACAD_REACTORS
330
4A6
102
}
330
A
100
AcDbSymbolTableRecord
100
AcDbDimStyleTableRecord
  2
ME10_DIM_21
 70
     0
 41
7.0
 42
0.0
 44
2.0
 73
     0
 74
     0
 77
     1
 78
     8
140
7.0
147
4.0
172
     1
173
     1
176
     2
177
     2
178
     3
271
     3
340
303
  0
DIMSTYLE
105
4B0
102
{ACAD_REACTORS
330
4B1
102
}
330
A
100
AcDbSymbolTableRecord
100
AcDbDimStyleTableRecord
  2
ME10_DIM_22
 70
     0
 41
7.0
 42
0.0
 44
2.0
 73
     0
 74
     0
 77
     1
 78
     8
140
7.0
147
4.0
172
     1
173
     1
176
     2
177
     2
178
     3
271
     3
340
303
  0
DIMSTYLE
105
4BB
102
{ACAD_REACTORS
330
4BC
102
}
330
A
100
AcDbSymbolTableRecord
100
AcDbDimStyleTableRecord
  2
ME10_DIM_23
 70
     0
  3
{\Fgdt;n}<>
 41
7.0
 42
0.0
 44
2.0
 73
     0
 74
     0
 77
     1
 78
     8
140
7.0
147
4.0
172
     1
173
     1
176
     2
177
     2
178
     3
271
     3
340
303
  0
ENDTAB
  0
TABLE
  2
BLOCK_RECORD
  5
1
330
0
100
AcDbSymbolTable
 70
    29
  0
BLOCK_RECORD
  5
1F
330
1
100
AcDbSymbolTableRecord
100
AcDbBlockTableRecord
  2
*Model_Space
340
22
  0
BLOCK_RECORD
  5
1B
330
1
100
AcDbSymbolTableRecord
100
AcDbBlockTableRecord
  2
*Paper_Space
340
1E
  0
BLOCK_RECORD
  5
23
330
1
100
AcDbSymbolTableRecord
100
AcDbBlockTableRecord
  2
*Paper_Space0
340
26
  0
BLOCK_RECORD
  5
33
330
1
100
AcDbSymbolTableRecord
100
AcDbBlockTableRecord
  2
Winkelflanschdose_12-polig_drehbar
340
0
102
{BLKREFS
331
51
102
}
  0
BLOCK_RECORD
  5
36
330
1
100
AcDbSymbolTableRecord
100
AcDbBlockTableRecord
  2
Stator
340
0
102
{BLKREFS
331
52
102
}
  0
BLOCK_RECORD
  5
39
330
1
100
AcDbSymbolTableRecord
100
AcDbBlockTableRecord
  2
M2_5x6_DIN_7985
340
0
102
{BLKREFS
331
53
102
}
  0
BLOCK_RECORD
  5
3C
330
1
100
AcDbSymbolTableRecord
100
AcDbBlockTableRecord
  2
O-Ring
340
0
102
{BLKREFS
331
40
102
}
  0
BLOCK_RECORD
  5
3F
330
1
100
AcDbSymbolTableRecord
100
AcDbBlockTableRecord
  2
Winkelflanschdose_8-polig_drehbar
340
0
102
{BLKREFS
331
54
102
}
  0
BLOCK_RECORD
  5
43
330
1
100
AcDbSymbolTableRecord
100
AcDbBlockTableRecord
  2
Lagerschild_B-S
340
0
102
{BLKREFS
331
55
102
}
  0
BLOCK_RECORD
  5
46
330
1
100
AcDbSymbolTableRecord
100
AcDbBlockTableRecord
  2
tb_frame_A3
340
0
102
{BLKREFS
331
4D
102
}
  0
BLOCK_RECORD
  5
49
330
1
100
AcDbSymbolTableRecord
100
AcDbBlockTableRecord
  2
Ma_blatt
340
0
102
{BLKREFS
331
4E
102
}
  0
BLOCK_RECORD
  5
4C
330
1
100
AcDbSymbolTableRecord
100
AcDbBlockTableRecord
  2
TOP
340
0
102
{BLKREFS
331
56
102
}
  0
BLOCK_RECORD
  5
41B
330
1
100
AcDbSymbolTableRecord
100
AcDbBlockTableRecord
  2
*D10
340
0
  0
BLOCK_RECORD
  5
426
330
1
100
AcDbSymbolTableRecord
100
AcDbBlockTableRecord
  2
*D11
340
0
  0
BLOCK_RECORD
  5
431
330
1
100
AcDbSymbolTableRecord
100
AcDbBlockTableRecord
  2
*D12
340
0
  0
BLOCK_RECORD
  5
43E
330
1
100
AcDbSymbolTableRecord
100
AcDbBlockTableRecord
  2
*D13
340
0
  0
BLOCK_RECORD
  5
44B
330
1
100
AcDbSymbolTableRecord
100
AcDbBlockTableRecord
  2
*D14
340
0
  0
BLOCK_RECORD
  5
458
330
1
100
AcDbSymbolTableRecord
100
AcDbBlockTableRecord
  2
*D15
340
0
  0
BLOCK_RECORD
  5
463
330
1
100
AcDbSymbolTableRecord
100
AcDbBlockTableRecord
  2
*D16
340
0
  0
BLOCK_RECORD
  5
46E
330
1
100
AcDbSymbolTableRecord
100
AcDbBlockTableRecord
  2
*D17
340
0
  0
BLOCK_RECORD
  5
47B
330
1
100
AcDbSymbolTableRecord
100
AcDbBlockTableRecord
  2
*D18
340
0
  0
BLOCK_RECORD
  5
486
330
1
100
AcDbSymbolTableRecord
100
AcDbBlockTableRecord
  2
*D19
340
0
  0
BLOCK_RECORD
  5
491
330
1
100
AcDbSymbolTableRecord
100
AcDbBlockTableRecord
  2
*D20
340
0
  0
BLOCK_RECORD
  5
49C
330
1
100
AcDbSymbolTableRecord
100
AcDbBlockTableRecord
  2
*D21
340
0
  0
BLOCK_RECORD
  5
4A7
330
1
100
AcDbSymbolTableRecord
100
AcDbBlockTableRecord
  2
*D22
340
0
  0
BLOCK_RECORD
  5
4B2
330
1
100
AcDbSymbolTableRecord
100
AcDbBlockTableRecord
  2
*D23
340
0
  0
BLOCK_RECORD
  5
4BD
330
1
100
AcDbSymbolTableRecord
100
AcDbBlockTableRecord
  2
*D24
340
0
102
{BLKREFS
331
4C3
102
}
  0
BLOCK_RECORD
  5
4C4
330
1
100
AcDbSymbolTableRecord
100
AcDbBlockTableRecord
  2
*D25
340
0
102
{BLKREFS
331
4CB
102
}
  0
BLOCK_RECORD
  5
4CC
330
1
100
AcDbSymbolTableRecord
100
AcDbBlockTableRecord
  2
*D26
340
0
102
{BLKREFS
331
4D2
102
}
  0
BLOCK_RECORD
  5
4D3
330
1
100
AcDbSymbolTableRecord
100
AcDbBlockTableRecord
  2
*D27
340
0
102
{BLKREFS
331
4D9
102
}
  0
BLOCK_RECORD
  5
4DA
330
1
100
AcDbSymbolTableRecord
100
AcDbBlockTableRecord
  2
*D28
340
0
102
{BLKREFS
331
4E5
102
}
  0
ENDTAB
  0
ENDSEC
  0
SECTION
  2
BLOCKS
  0
BLOCK
  5
20
330
1F
100
AcDbEntity
  8
0
100
AcDbBlockBegin
  2
*Model_Space
 70
     0
 71
     0
 10
0.0
 20
0.0
 30
0.0
  3
*Model_Space
  1

  0
ENDBLK
  5
21
330
1F
100
AcDbEntity
  8
0
100
AcDbBlockEnd
  0
BLOCK
  5
1C
330
1B
100
AcDbEntity
 67
     1
  8
0
100
AcDbBlockBegin
  2
*Paper_Space
 70
     0
 71
     0
 10
0.0
 20
0.0
 30
0.0
  3
*Paper_Space
  1

  0
ENDBLK
  5
1D
330
1B
100
AcDbEntity
 67
     1
  8
0
100
AcDbBlockEnd
  0
BLOCK
  5
24
330
23
100
AcDbEntity
  8
0
100
AcDbBlockBegin
  2
*Paper_Space0
 70
     0
 71
     0
 10
0.0
 20
0.0
 30
0.0
  3
*Paper_Space0
  1

  0
ENDBLK
  5
25
330
23
100
AcDbEntity
  8
0
100
AcDbBlockEnd
  0
BLOCK
  5
34
330
33
100
AcDbEntity
  8
0
100
AcDbBlockBegin
  2
Winkelflanschdose_12-polig_drehbar
 70
     0
 71
     0
 10
242.2648307690583
 20
545.175283749368
 30
0.0
  3
Winkelflanschdose_12-polig_drehbar
  1

  0
POINT
  5
57
330
33
100
AcDbEntity
  8
1
 62
     3
 60
     1
100
AcDbPoint
 10
70.9354473454382
 20
452.035261431732
 30
0.0
  0
POINT
  5
58
330
33
100
AcDbEntity
  8
1
 62
     3
 60
     1
100
AcDbPoint
 10
70.9354473454382
 20
442.035261431732
 30
0.0
  0
POINT
  5
59
330
33
100
AcDbEntity
  8
1
 62
     3
 60
     1
100
AcDbPoint
 10
71.78544734543831
 20
461.5352737126224
 30
0.0
  0
POINT
  5
5A
330
33
100
AcDbEntity
  8
1
 62
     3
 60
     1
100
AcDbPoint
 10
73.97589934543831
 20
454.123476431732
 30
0.0
  0
POINT
  5
5B
330
33
100
AcDbEntity
  8
1
 62
     3
 60
     1
100
AcDbPoint
 10
95.7854473454382
 20
461.5352737126223
 30
0.0
  0
POINT
  5
5C
330
33
100
AcDbEntity
  8
1
 62
     3
 60
     1
100
AcDbPoint
 10
93.5949943454384
 20
454.123476431732
 30
0.0
  0
POINT
  5
5D
330
33
100
AcDbEntity
  8
1
 62
     3
 60
     1
100
AcDbPoint
 10
90.6972323454382
 20
451.2257144317321
 30
0.0
  0
POINT
  5
5E
330
33
100
AcDbEntity
  8
1
 62
     3
 60
     1
100
AcDbPoint
 10
76.8736573454383
 20
451.2257174317322
 30
0.0
  0
LINE
  5
5F
330
33
100
AcDbEntity
  8
AM_VIS
  6
Continuous
 62
     7
100
AcDbLine
 10
73.9759050296429
 20
443.5352907126223
 30
0.0
 11
73.97589934543831
 21
454.123476431732
 31
0.0
  0
LINE
  5
60
330
33
100
AcDbEntity
  8
AM_VIS
  6
Continuous
 62
     7
100
AcDbLine
 10
71.78544734543831
 20
452.035261431732
 30
0.0
 11
71.78544734543831
 21
442.035261431732
 31
0.0
  0
LINE
  5
61
330
33
100
AcDbEntity
  8
1
  6
Continuous
 62
     7
100
AcDbLine
 10
70.9354473454382
 20
452.035261431732
 30
0.0
 11
71.78544734543831
 21
452.035261431732
 31
0.0
  0
LINE
  5
62
330
33
100
AcDbEntity
  8
1
  6
Continuous
 62
     7
100
AcDbLine
 10
70.9354473454382
 20
442.035261431732
 30
0.0
 11
70.9354473454382
 21
452.035261431732
 31
0.0
  0
LINE
  5
63
330
33
100
AcDbEntity
  8
AM_VIS
  6
Continuous
 62
     7
100
AcDbLine
 10
90.6972373454383
 20
442.035261431732
 30
0.0
 11
76.8736573454383
 21
442.035261431732
 31
0.0
  0
LINE
  5
64
330
33
100
AcDbEntity
  8
AM_VIS
  6
Continuous
 62
     7
100
AcDbLine
 10
93.5949913454383
 20
442.035261431732
 30
0.0
 11
90.6972494251883
 21
442.035261431732
 31
0.0
  0
LINE
  5
65
330
33
100
AcDbEntity
  8
AM_VIS
  6
Continuous
 62
     7
100
AcDbLine
 10
76.8736573454383
 20
442.035261431732
 30
0.0
 11
73.9759023454382
 21
442.035261431732
 31
0.0
  0
LINE
  5
66
330
33
100
AcDbEntity
  8
AM_VIS
  6
Continuous
 62
     7
100
AcDbLine
 10
71.78544734543831
 20
442.035261431732
 30
0.0
 11
70.9354473454382
 21
442.035261431732
 31
0.0
  0
LINE
  5
67
330
33
100
AcDbEntity
  8
AM_VIS
  6
Continuous
 62
     7
100
AcDbLine
 10
71.78544734543831
 20
461.5352737126224
 30
0.0
 11
71.78544734543831
 21
452.035261431732
 31
0.0
  0
LINE
  5
68
330
33
100
AcDbEntity
  8
1
  6
DOT_CENTER
 62
     2
100
AcDbLine
 10
97.2333024924106
 20
465.0352737126223
 30
0.0
 11
70.03441399305731
 21
465.0352737126223
 31
0.0
  0
LINE
  5
69
330
33
100
AcDbEntity
  8
AM_VIS
  6
Continuous
 62
     7
100
AcDbLine
 10
73.97589934543831
 20
454.123476431732
 30
0.0
 11
75.9966633454382
 21
453.2464774317321
 31
0.0
  0
LINE
  5
6A
330
33
100
AcDbEntity
  8
AM_VIS
  6
Continuous
 62
     7
100
AcDbLine
 10
75.9966633454382
 20
453.2464774317321
 30
0.0
 11
76.8736573454383
 21
451.2257174317322
 31
0.0
  0
LINE
  5
6B
330
33
100
AcDbEntity
  8
AM_VIS
  6
Continuous
 62
     7
100
AcDbLine
 10
73.9771163454382
 20
454.6152614317322
 30
0.0
 11
76.8736033454382
 21
454.6153004317321
 31
0.0
  0
LINE
  5
6C
330
33
100
AcDbEntity
  8
AM_VIS
  6
Continuous
 62
     7
100
AcDbLine
 10
95.7854473454382
 20
442.035261431732
 30
0.0
 11
93.5949913454383
 21
442.035261431732
 31
0.0
  0
LINE
  5
6D
330
33
100
AcDbEntity
  8
AM_VIS
  6
Continuous
 62
     7
100
AcDbLine
 10
95.7854473454382
 20
442.035261431732
 30
0.0
 11
95.7854473454382
 21
461.5352737126223
 31
0.0
  0
LINE
  5
6E
330
33
100
AcDbEntity
  8
AM_VIS
  6
Continuous
 62
     7
100
AcDbLine
 10
90.6972494251883
 20
442.035261431732
 30
0.0
 11
90.6972323454382
 21
451.2257144317321
 31
0.0
  0
LINE
  5
6F
330
33
100
AcDbEntity
  8
AM_VIS
  6
Continuous
 62
     7
100
AcDbLine
 10
93.5949943454384
 20
454.123476431732
 30
0.0
 11
93.5949886612336
 21
443.5352907126223
 31
0.0
  0
LINE
  5
70
330
33
100
AcDbEntity
  8
AM_VIS
  6
Continuous
 62
     7
100
AcDbLine
 10
90.6972323454382
 20
451.2257144317321
 30
0.0
 11
91.5742313454383
 21
453.2464774317321
 31
0.0
  0
LINE
  5
71
330
33
100
AcDbEntity
  8
AM_VIS
  6
Continuous
 62
     7
100
AcDbLine
 10
91.5742313454383
 20
453.2464774317321
 30
0.0
 11
93.5949943454384
 21
454.123476431732
 31
0.0
  0
LINE
  5
72
330
33
100
AcDbEntity
  8
AM_VIS
  6
Continuous
 62
     7
100
AcDbLine
 10
90.6972323454382
 20
451.2257144317321
 30
0.0
 11
90.6972323454382
 21
454.6152614317322
 31
0.0
  0
LINE
  5
73
330
33
100
AcDbEntity
  8
AM_VIS
  6
Continuous
 62
     7
100
AcDbLine
 10
93.5949943454384
 20
454.6152614317322
 30
0.0
 11
93.5949943454384
 21
454.123476431732
 31
0.0
  0
LINE
  5
74
330
33
100
AcDbEntity
  8
AM_VIS
  6
Continuous
 62
     7
100
AcDbLine
 10
93.5937773454383
 20
454.6152614317322
 30
0.0
 11
93.5949943454384
 21
454.6152614317322
 31
0.0
  0
LINE
  5
75
330
33
100
AcDbEntity
  8
AM_VIS
  6
Continuous
 62
     7
100
AcDbLine
 10
93.5937773454383
 20
457.315858431732
 30
0.0
 11
93.5937773454383
 21
454.6152614317322
 31
0.0
  0
LINE
  5
76
330
33
100
AcDbEntity
  8
AM_VIS
  6
Continuous
 62
     7
100
AcDbLine
 10
90.6972323454382
 20
454.6152614317322
 30
0.0
 11
93.5937773454383
 21
454.6152614317322
 31
0.0
  0
LINE
  5
77
330
33
100
AcDbEntity
  8
AM_VIS
  6
Continuous
 62
     7
100
AcDbLine
 10
96.6221853454383
 20
442.035261431732
 30
0.0
 11
95.7854473454382
 21
442.035261431732
 31
0.0
  0
LINE
  5
78
330
33
100
AcDbEntity
  8
AM_VIS
  6
Continuous
 62
     7
100
AcDbLine
 10
96.6354473454382
 20
442.035261431732
 30
0.0
 11
96.6221853454383
 21
442.035261431732
 31
0.0
  0
LINE
  5
79
330
33
100
AcDbEntity
  8
AM_VIS
  6
Continuous
 62
     7
100
AcDbLine
 10
76.8736573454383
 20
451.2257174317322
 30
0.0
 11
76.8736573454383
 21
442.035261431732
 31
0.0
  0
LINE
  5
7A
330
33
100
AcDbEntity
  8
AM_VIS
  6
Continuous
 62
     7
100
AcDbLine
 10
76.8736033454382
 20
454.6153004317321
 30
0.0
 11
76.8736573454383
 21
451.2257174317322
 31
0.0
  0
LINE
  5
7B
330
33
100
AcDbEntity
  8
AM_VIS
  6
Continuous
 62
     7
100
AcDbLine
 10
73.97589934543831
 20
454.6152614317322
 30
0.0
 11
73.9771163454382
 21
454.6152614317322
 31
0.0
  0
LINE
  5
7C
330
33
100
AcDbEntity
  8
AM_VIS
  6
Continuous
 62
     7
100
AcDbLine
 10
73.97589934543831
 20
454.123476431732
 30
0.0
 11
73.97589934543831
 21
454.6152614317322
 31
0.0
  0
LINE
  5
7D
330
33
100
AcDbEntity
  8
AM_VIS
  6
Continuous
 62
     7
100
AcDbLine
 10
73.9771163454382
 20
454.6152614317322
 30
0.0
 11
73.9771163454382
 21
457.315858431732
 31
0.0
  0
LINE
  5
7E
330
33
100
AcDbEntity
  8
AM_VIS
  6
Continuous
 62
     7
100
AcDbLine
 10
73.9759023454382
 20
442.035261431732
 30
0.0
 11
71.78544734543831
 21
442.035261431732
 31
0.0
  0
LINE
  5
7F
330
33
100
AcDbEntity
  8
1
  6
Continuous
 62
     7
100
AcDbLine
 10
95.7854473454382
 20
448.535261431732
 30
0.0
 11
71.78544734543831
 21
448.535261431732
 31
0.0
  0
LINE
  5
80
330
33
100
AcDbEntity
  8
AM_VIS
  6
Continuous
 62
     7
100
AcDbLine
 10
90.6972494251883
 20
442.035261431732
 30
0.0
 11
90.6972373454383
 21
442.035261431732
 31
0.0
  0
LINE
  5
81
330
33
100
AcDbEntity
  8
AM_VIS
  6
Continuous
 62
     7
100
AcDbLine
 10
96.63529315681468
 20
440.535387096775
 30
0.0
 11
96.6354473454382
 21
442.035261431732
 31
0.0
  0
LINE
  5
82
330
33
100
AcDbEntity
  8
1
  6
DOT_CENTER
 62
     2
100
AcDbLine
 10
97.5354473454382
 20
465.0352737126223
 30
0.0
 11
70.0354473454382
 21
465.0352737126223
 31
0.0
  0
LINE
  5
83
330
33
100
AcDbEntity
  8
1
  6
DOT_CENTER
 62
     2
100
AcDbLine
 10
83.7854473454382
 20
478.7852737126223
 30
0.0
 11
83.7854473454382
 21
451.2852737126223
 31
0.0
  0
ARC
  5
84
330
33
100
AcDbEntity
  8
1
  6
Continuous
 62
     7
100
AcDbCircle
 10
83.7854473454382
 20
465.0352737126223
 30
0.0
 40
12.5
100
AcDbArc
 50
-16.26020470831196
 51
0.0
  0
ARC
  5
85
330
33
100
AcDbEntity
  8
1
  6
Continuous
 62
     7
100
AcDbCircle
 10
83.7854468454383
 20
408.0353025169745
 30
0.0
 40
69.99997119564767
100
AcDbArc
 50
86.36555075479058
 51
89.99999959074435
  0
ARC
  5
86
330
33
100
AcDbEntity
  8
1
  6
Continuous
 62
     7
100
AcDbCircle
 10
88.7568249734157
 20
462.5213474464715
 30
0.0
 40
16.99999999999996
100
AcDbArc
 50
-176.6747298525213
 51
-150.3966691892984
  0
ARC
  5
87
330
33
100
AcDbEntity
  8
1
  6
Continuous
 62
     7
100
AcDbCircle
 10
79.8005290737362
 20
462.2298151779111
 30
0.0
 40
16.00000000000009
100
AcDbArc
 50
-30.44068999899276
 51
-2.48792517799266
  0
ARC
  5
88
330
33
100
AcDbEntity
  8
1
  6
Continuous
 62
     7
100
AcDbCircle
 10
83.7854473067764
 20
462.5672132170548
 30
0.0
 40
13.28165528532285
100
AcDbArc
 50
-121.3591701441292
 51
-58.6408547245959
  0
ARC
  5
89
330
33
100
AcDbEntity
  8
1
  6
Continuous
 62
     7
100
AcDbCircle
 10
83.7854473454382
 20
465.0352737126223
 30
0.0
 40
12.49999999999986
100
AcDbArc
 50
131.7916668414016
 51
-163.7397952916884
  0
ARC
  5
8A
330
33
100
AcDbEntity
  8
1
  6
Continuous
 62
     7
100
AcDbCircle
 10
83.7854473454382
 20
465.0352737126223
 30
0.0
 40
12.49999999999986
100
AcDbArc
 50
-163.7397952916884
 51
-16.26020470831196
  0
ARC
  5
8B
330
33
100
AcDbEntity
  8
1
  6
Continuous
 62
     7
100
AcDbCircle
 10
95.6000427194143
 20
480.4261534787784
 30
0.0
 40
6.999999999999829
100
AcDbArc
 50
-153.0067442793668
 51
-119.8516759502467
  0
ARC
  5
8C
330
33
100
AcDbEntity
  8
1
  6
Continuous
 62
     7
100
AcDbCircle
 10
83.7854468454383
 20
408.0353025169745
 30
0.0
 40
69.99997119564779
100
AcDbArc
 50
89.99999959074435
 51
93.63444836870298
  0
ARC
  5
8D
330
33
100
AcDbEntity
  8
1
  6
Continuous
 62
     7
100
AcDbCircle
 10
83.7854473454382
 20
465.0352737126223
 30
0.0
 40
12.5
100
AcDbArc
 50
0.0
 51
48.20833315859808
  0
ARC
  5
8E
330
33
100
AcDbEntity
  8
1
  6
Continuous
 62
     7
100
AcDbCircle
 10
71.9708519714622
 20
480.4261534787784
 30
0.0
 40
6.999999999999898
100
AcDbArc
 50
-60.14832404975326
 51
-29.66860429910894
  0
ARC
  5
8F
330
33
100
AcDbEntity
  8
1
  6
Continuous
 62
     7
100
AcDbCircle
 10
88.1276993701873
 20
476.3975062323016
 30
0.0
 40
1.499999999999967
100
AcDbArc
 50
34.58525929493671
 51
86.36555075479315
  0
ARC
  5
90
330
33
100
AcDbEntity
  8
1
  6
Continuous
 62
     7
100
AcDbCircle
 10
79.4431953664892
 20
476.397506298729
 30
0.0
 40
1.500000000000169
100
AcDbArc
 50
93.6344483687052
 51
157.9233961932033
  0
ENDBLK
  5
35
330
33
100
AcDbEntity
  8
0
100
AcDbBlockEnd
  0
BLOCK
  5
37
330
36
100
AcDbEntity
  8
0
100
AcDbBlockBegin
  2
Stator
 70
     0
 71
     0
 10
-222.2180293501048
 20
325.535387096775
 30
0.0
  3
Stator
  1

  0
POINT
  5
91
330
36
100
AcDbEntity
  8
1
 62
     3
 60
     1
100
AcDbPoint
 10
-219.2180293501048
 20
326.435387096775
 30
0.0
  0
POINT
  5
92
330
36
100
AcDbEntity
  8
1
 62
     3
 60
     1
100
AcDbPoint
 10
-219.2180293501048
 20
439.6353870967751
 30
0.0
  0
POINT
  5
93
330
36
100
AcDbEntity
  8
1
 62
     3
 60
     1
100
AcDbPoint
 10
-219.2180293501048
 20
345.835387096775
 30
0.0
  0
POINT
  5
94
330
36
100
AcDbEntity
  8
1
 62
     3
 60
     1
100
AcDbPoint
 10
-219.2180293501048
 20
344.535387096775
 30
0.0
  0
POINT
  5
95
330
36
100
AcDbEntity
  8
1
 62
     3
 60
     1
100
AcDbPoint
 10
-219.2180293501048
 20
420.235387096775
 30
0.0
  0
POINT
  5
96
330
36
100
AcDbEntity
  8
1
 62
     3
 60
     1
100
AcDbPoint
 10
-219.2180293501048
 20
421.535387096775
 30
0.0
  0
POINT
  5
97
330
36
100
AcDbEntity
  8
1
 62
     3
 60
     1
100
AcDbPoint
 10
-142.2180293501048
 20
440.535387096775
 30
0.0
  0
POINT
  5
98
330
36
100
AcDbEntity
  8
1
 62
     3
 60
     1
100
AcDbPoint
 10
-222.2180293501048
 20
440.535387096775
 30
0.0
  0
POINT
  5
99
330
36
100
AcDbEntity
  8
1
 62
     3
 60
     1
100
AcDbPoint
 10
-222.2180293501048
 20
325.535387096775
 30
0.0
  0
POINT
  5
9A
330
36
100
AcDbEntity
  8
1
 62
     3
 60
     1
100
AcDbPoint
 10
-142.2180293501048
 20
325.535387096775
 30
0.0
  0
LINE
  5
9B
330
36
100
AcDbEntity
  8
1
  6
DOT_CENTER
 62
     2
100
AcDbLine
 10
-182.7180293501048
 20
383.035387096775
 30
0.0
 11
-138.7180293501048
 21
383.035387096775
 31
0.0
  0
LINE
  5
9C
330
36
100
AcDbEntity
  8
1
  6
DOT_CENTER
 62
     2
100
AcDbLine
 10
-221.2180293501048
 20
383.035387096775
 30
0.0
 11
-178.7180293501048
 21
383.035387096775
 31
0.0
  0
LINE
  5
9D
330
36
100
AcDbEntity
  8
1
  6
Continuous
 62
     7
100
AcDbLine
 10
-142.2180293501048
 20
325.535387096775
 30
0.0
 11
-140.7180293501048
 21
325.535387096775
 31
0.0
  0
LINE
  5
9E
330
36
100
AcDbEntity
  8
1
  6
Continuous
 62
     7
100
AcDbLine
 10
-142.2180293501048
 20
440.535387096775
 30
0.0
 11
-140.7180293501048
 21
440.535387096775
 31
0.0
  0
LINE
  5
9F
330
36
100
AcDbEntity
  8
1
  6
Continuous
 62
     7
100
AcDbLine
 10
-180.7180293501048
 20
326.435387096775
 30
0.0
 11
-140.7180293501048
 21
326.435387096775
 31
0.0
  0
LINE
  5
A0
330
36
100
AcDbEntity
  8
1
  6
Continuous
 62
     7
100
AcDbLine
 10
-180.7180293501048
 20
344.535387096775
 30
0.0
 11
-140.7180293501048
 21
344.535387096775
 31
0.0
  0
LINE
  5
A1
330
36
100
AcDbEntity
  8
1
  6
Continuous
 62
     7
100
AcDbLine
 10
-180.7180293501048
 20
345.835387096775
 30
0.0
 11
-140.7180293501048
 21
345.835387096775
 31
0.0
  0
LINE
  5
A2
330
36
100
AcDbEntity
  8
1
  6
Continuous
 62
     7
100
AcDbLine
 10
-180.7180293501048
 20
420.235387096775
 30
0.0
 11
-140.7180293501048
 21
420.235387096775
 31
0.0
  0
LINE
  5
A3
330
36
100
AcDbEntity
  8
1
  6
Continuous
 62
     7
100
AcDbLine
 10
-180.7180293501048
 20
421.535387096775
 30
0.0
 11
-140.7180293501048
 21
421.535387096775
 31
0.0
  0
LINE
  5
A4
330
36
100
AcDbEntity
  8
1
  6
Continuous
 62
     7
100
AcDbLine
 10
-180.7180293501048
 20
439.6353870967751
 30
0.0
 11
-140.7180293501048
 21
439.6353870967751
 31
0.0
  0
LINE
  5
A5
330
36
100
AcDbEntity
  8
1
  6
Continuous
 62
     7
100
AcDbLine
 10
-219.2180293501048
 20
326.435387096775
 30
0.0
 11
-180.7180293501048
 21
326.435387096775
 31
0.0
  0
LINE
  5
A6
330
36
100
AcDbEntity
  8
1
  6
Continuous
 62
     7
100
AcDbLine
 10
-219.2180293501048
 20
325.535387096775
 30
0.0
 11
-142.2180293501048
 21
325.535387096775
 31
0.0
  0
LINE
  5
A7
330
36
100
AcDbEntity
  8
1
  6
Continuous
 62
     7
100
AcDbLine
 10
-219.2180293501048
 20
326.435387096775
 30
0.0
 11
-219.2180293501048
 21
325.535387096775
 31
0.0
  0
LINE
  5
A8
330
36
100
AcDbEntity
  8
1
  6
Continuous
 62
     7
100
AcDbLine
 10
-219.2180293501048
 20
439.6353870967751
 30
0.0
 11
-219.2180293501048
 21
421.535387096775
 31
0.0
  0
LINE
  5
A9
330
36
100
AcDbEntity
  8
1
  6
Continuous
 62
     7
100
AcDbLine
 10
-219.2180293501048
 20
439.6353870967751
 30
0.0
 11
-180.7180293501048
 21
439.6353870967751
 31
0.0
  0
LINE
  5
AA
330
36
100
AcDbEntity
  8
1
  6
Continuous
 62
     7
100
AcDbLine
 10
-219.2180293501048
 20
345.835387096775
 30
0.0
 11
-219.2180293501048
 21
344.535387096775
 31
0.0
  0
LINE
  5
AB
330
36
100
AcDbEntity
  8
1
  6
Continuous
 62
     7
100
AcDbLine
 10
-219.2180293501048
 20
345.835387096775
 30
0.0
 11
-180.7180293501048
 21
345.835387096775
 31
0.0
  0
LINE
  5
AC
330
36
100
AcDbEntity
  8
1
  6
Continuous
 62
     7
100
AcDbLine
 10
-219.2180293501048
 20
344.535387096775
 30
0.0
 11
-219.2180293501048
 21
326.435387096775
 31
0.0
  0
LINE
  5
AD
330
36
100
AcDbEntity
  8
1
  6
Continuous
 62
     7
100
AcDbLine
 10
-219.2180293501048
 20
344.535387096775
 30
0.0
 11
-180.7180293501048
 21
344.535387096775
 31
0.0
  0
LINE
  5
AE
330
36
100
AcDbEntity
  8
1
  6
Continuous
 62
     7
100
AcDbLine
 10
-219.2180293501048
 20
420.235387096775
 30
0.0
 11
-219.2180293501048
 21
345.835387096775
 31
0.0
  0
LINE
  5
AF
330
36
100
AcDbEntity
  8
1
  6
Continuous
 62
     7
100
AcDbLine
 10
-219.2180293501048
 20
420.235387096775
 30
0.0
 11
-180.7180293501048
 21
420.235387096775
 31
0.0
  0
LINE
  5
B0
330
36
100
AcDbEntity
  8
1
  6
Continuous
 62
     7
100
AcDbLine
 10
-219.2180293501048
 20
421.535387096775
 30
0.0
 11
-219.2180293501048
 21
420.235387096775
 31
0.0
  0
LINE
  5
B1
330
36
100
AcDbEntity
  8
1
  6
Continuous
 62
     7
100
AcDbLine
 10
-219.2180293501048
 20
421.535387096775
 30
0.0
 11
-180.7180293501048
 21
421.535387096775
 31
0.0
  0
LINE
  5
B2
330
36
100
AcDbEntity
  8
1
  6
Continuous
 62
     7
100
AcDbLine
 10
-142.2180293501048
 20
440.535387096775
 30
0.0
 11
-219.2180293501048
 21
440.535387096775
 31
0.0
  0
LINE
  5
B3
330
36
100
AcDbEntity
  8
1
  6
Continuous
 62
     7
100
AcDbLine
 10
-219.2180293501048
 20
440.535387096775
 30
0.0
 11
-219.2180293501048
 21
439.6353870967751
 31
0.0
  0
ENDBLK
  5
38
330
36
100
AcDbEntity
  8
0
100
AcDbBlockEnd
  0
BLOCK
  5
3A
330
39
100
AcDbEntity
  8
0
100
AcDbBlockBegin
  2
M2_5x6_DIN_7985
 70
     0
 71
     0
 10
-111.365575860404
 20
440.0352731508417
 30
0.0
  3
M2_5x6_DIN_7985
  1

  0
LINE
  5
B4
330
39
100
AcDbEntity
  8
1
  6
Continuous
 62
     7
100
AcDbLine
 10
-123.7275883501046
 20
443.5352904317322
 30
0.0
 11
-123.7275883501046
 21
442.5852754317322
 31
0.0
  0
LINE
  5
B5
330
39
100
AcDbEntity
  8
1
  6
Continuous
 62
     7
100
AcDbLine
 10
-124.8775663501046
 20
443.5352904317322
 30
0.0
 11
-123.7275883501046
 21
443.5352904317322
 31
0.0
  0
LINE
  5
B6
330
39
100
AcDbEntity
  8
1
  6
Continuous
 62
     7
100
AcDbLine
 10
-123.7275883501046
 20
442.5852754317322
 30
0.0
 11
-123.3275643501046
 21
442.5852754317322
 31
0.0
  0
LINE
  5
B7
330
39
100
AcDbEntity
  8
1
  6
Continuous
 62
     7
100
AcDbLine
 10
-121.7775863501046
 20
443.1352904317321
 30
0.0
 11
-123.3275643501046
 21
443.1352904317321
 31
0.0
  0
LINE
  5
B8
330
39
100
AcDbEntity
  8
1
  6
Continuous
 62
     7
100
AcDbLine
 10
-123.7275883501046
 20
443.1352904317321
 30
0.0
 11
-125.2775663501046
 21
443.1352904317321
 31
0.0
  0
LINE
  5
B9
330
39
100
AcDbEntity
  8
1
  6
Continuous
 62
     7
100
AcDbLine
 10
-123.3275643501046
 20
443.5352904317322
 30
0.0
 11
-122.1775863501046
 21
443.5352904317322
 31
0.0
  0
LINE
  5
BA
330
39
100
AcDbEntity
  8
1
  6
Continuous
 62
     7
100
AcDbLine
 10
-124.8775663501046
 20
443.5352904317322
 30
0.0
 11
-125.2775663501046
 21
443.1352904317321
 31
0.0
  0
LINE
  5
BB
330
39
100
AcDbEntity
  8
1
  6
Continuous
 62
     7
100
AcDbLine
 10
-125.2775663501046
 20
443.1352904317321
 30
0.0
 11
-125.2775663501046
 21
442.0352854317321
 31
0.0
  0
LINE
  5
BC
330
39
100
AcDbEntity
  8
1
  6
Continuous
 62
     7
100
AcDbLine
 10
-121.7775863501046
 20
442.0352854317321
 30
0.0
 11
-121.7775863501046
 21
443.1352904317321
 31
0.0
  0
LINE
  5
BD
330
39
100
AcDbEntity
  8
1
  6
Continuous
 62
     7
100
AcDbLine
 10
-125.2434603501046
 20
442.0352854317321
 30
0.0
 11
-121.7775863501046
 21
442.0352854317321
 31
0.0
  0
LINE
  5
BE
330
39
100
AcDbEntity
  8
1
  6
Continuous
 62
     7
100
AcDbLine
 10
-123.3275643501046
 20
442.5852754317322
 30
0.0
 11
-123.3275643501046
 21
443.5352904317322
 31
0.0
  0
LINE
  5
BF
330
39
100
AcDbEntity
  8
1
  6
Continuous
 62
     7
100
AcDbLine
 10
-121.7775863501046
 20
443.1352904317321
 30
0.0
 11
-122.1775863501046
 21
443.5352904317322
 31
0.0
  0
LINE
  5
C0
330
39
100
AcDbEntity
  8
1
  6
Continuous
 62
     7
100
AcDbLine
 10
-103.5285913501045
 20
442.5852754317322
 30
0.0
 11
-103.5285913501045
 21
443.5352904317322
 31
0.0
  0
LINE
  5
C1
330
39
100
AcDbEntity
  8
1
  6
Continuous
 62
     7
100
AcDbLine
 10
-103.5285913501045
 20
443.5352904317322
 30
0.0
 11
-102.3786133501045
 21
443.5352904317322
 31
0.0
  0
LINE
  5
C2
330
39
100
AcDbEntity
  8
1
  6
Continuous
 62
     7
100
AcDbLine
 10
-103.9286153501045
 20
442.5852754317322
 30
0.0
 11
-103.5285913501045
 21
442.5852754317322
 31
0.0
  0
LINE
  5
C3
330
39
100
AcDbEntity
  8
1
  6
Continuous
 62
     7
100
AcDbLine
 10
-103.9286153501045
 20
443.1352904317321
 30
0.0
 11
-105.4785933501045
 21
443.1352904317321
 31
0.0
  0
LINE
  5
C4
330
39
100
AcDbEntity
  8
1
  6
Continuous
 62
     7
100
AcDbLine
 10
-101.9786133501045
 20
443.1352904317321
 30
0.0
 11
-103.5285913501045
 21
443.1352904317321
 31
0.0
  0
LINE
  5
C5
330
39
100
AcDbEntity
  8
1
  6
Continuous
 62
     7
100
AcDbLine
 10
-105.0785933501045
 20
443.5352904317322
 30
0.0
 11
-103.9286153501045
 21
443.5352904317322
 31
0.0
  0
LINE
  5
C6
330
39
100
AcDbEntity
  8
1
  6
Continuous
 62
     7
100
AcDbLine
 10
-101.9786133501045
 20
443.1352904317321
 30
0.0
 11
-102.3786133501045
 21
443.5352904317322
 31
0.0
  0
LINE
  5
C7
330
39
100
AcDbEntity
  8
1
  6
Continuous
 62
     7
100
AcDbLine
 10
-101.9786133501045
 20
442.0352854317321
 30
0.0
 11
-101.9786133501045
 21
443.1352904317321
 31
0.0
  0
LINE
  5
C8
330
39
100
AcDbEntity
  8
1
  6
Continuous
 62
     7
100
AcDbLine
 10
-105.4785933501045
 20
443.1352904317321
 30
0.0
 11
-105.4785933501045
 21
442.0352854317321
 31
0.0
  0
LINE
  5
C9
330
39
100
AcDbEntity
  8
1
  6
Continuous
 62
     7
100
AcDbLine
 10
-105.4785933501045
 20
442.0352854317321
 30
0.0
 11
-102.0127193501045
 21
442.0352854317321
 31
0.0
  0
LINE
  5
CA
330
39
100
AcDbEntity
  8
1
  6
Continuous
 62
     7
100
AcDbLine
 10
-103.9286153501045
 20
443.5352904317322
 30
0.0
 11
-103.9286153501045
 21
442.5852754317322
 31
0.0
  0
LINE
  5
CB
330
39
100
AcDbEntity
  8
1
  6
Continuous
 62
     7
100
AcDbLine
 10
-105.0785933501045
 20
443.5352904317322
 30
0.0
 11
-105.4785933501045
 21
443.1352904317321
 31
0.0
  0
LINE
  5
CC
330
39
100
AcDbEntity
  8
1
  6
Continuous
 62
     7
100
AcDbLine
 10
47.63787633513902
 20
442.0352731508417
 30
0.0
 11
47.63787633513902
 21
442.5852631508417
 31
0.0
  0
LINE
  5
CD
330
39
100
AcDbEntity
  8
1
  6
Continuous
 62
     7
100
AcDbLine
 10
47.03524833513901
 20
443.5352781508417
 30
0.0
 11
47.222979335139
 21
443.5352781508417
 31
0.0
  0
LINE
  5
CE
330
39
100
AcDbEntity
  8
1
  6
Continuous
 62
     7
100
AcDbLine
 10
45.615495335139
 20
443.5352781508417
 30
0.0
 11
46.16027733513911
 21
443.5352781508417
 31
0.0
  0
LINE
  5
CF
330
39
100
AcDbEntity
  8
1
  6
Continuous
 62
     7
100
AcDbLine
 10
44.55279333513911
 20
443.5352781508417
 30
0.0
 11
44.7405243351391
 21
443.5352781508417
 31
0.0
  0
LINE
  5
D0
330
39
100
AcDbEntity
  8
1
  6
Continuous
 62
     7
100
AcDbLine
 10
44.14075433513902
 20
442.5852631508417
 30
0.0
 11
44.14935433513902
 21
442.5852631508417
 31
0.0
  0
LINE
  5
D1
330
39
100
AcDbEntity
  8
1
  6
Continuous
 62
     7
100
AcDbLine
 10
44.33451733513903
 20
443.1352781508417
 30
0.0
 11
44.14935433513902
 21
443.1352781508417
 31
0.0
  0
LINE
  5
D2
330
39
100
AcDbEntity
  8
1
  6
Continuous
 62
     7
100
AcDbLine
 10
45.887886335139
 20
443.1352781508417
 30
0.0
 11
45.264765335139
 21
443.1352781508417
 31
0.0
  0
LINE
  5
D3
330
39
100
AcDbEntity
  8
1
  6
Continuous
 62
     7
100
AcDbLine
 10
47.44125533513901
 20
443.1352781508417
 30
0.0
 11
47.05247133513903
 21
443.1352781508417
 31
0.0
  0
LINE
  5
D4
330
39
100
AcDbEntity
  8
1
  6
Continuous
 62
     7
100
AcDbLine
 10
44.14935433513902
 20
443.1352781508417
 30
0.0
 11
44.55279333513911
 21
443.5352781508417
 31
0.0
  0
LINE
  5
D5
330
39
100
AcDbEntity
  8
1
  6
Continuous
 62
     7
100
AcDbLine
 10
46.16027733513911
 20
443.5352781508417
 30
0.0
 11
46.66068333513911
 21
443.5352781508417
 31
0.0
  0
LINE
  5
D6
330
39
100
AcDbEntity
  8
1
  6
Continuous
 62
     7
100
AcDbLine
 10
44.7405243351391
 20
443.5352781508417
 30
0.0
 11
45.115089335139
 21
443.5352781508417
 31
0.0
  0
LINE
  5
D7
330
39
100
AcDbEntity
  8
1
  6
Continuous
 62
     7
100
AcDbLine
 10
47.6264183351391
 20
442.5852631508417
 30
0.0
 11
47.63501833513912
 21
442.5852631508417
 31
0.0
  0
LINE
  5
D8
330
39
100
AcDbEntity
  8
1
  6
Continuous
 62
     7
100
AcDbLine
 10
44.14935433513902
 20
442.5852631508417
 30
0.0
 11
44.14935433513902
 21
443.1352781508417
 31
0.0
  0
LINE
  5
D9
330
39
100
AcDbEntity
  8
1
  6
Continuous
 62
     7
100
AcDbLine
 10
45.264765335139
 20
443.1352781508417
 30
0.0
 11
44.72330133513912
 21
443.1352781508417
 31
0.0
  0
LINE
  5
DA
330
39
100
AcDbEntity
  8
1
  6
Continuous
 62
     7
100
AcDbLine
 10
47.05247133513903
 20
443.1352781508417
 30
0.0
 11
46.51100733513911
 21
443.1352781508417
 31
0.0
  0
LINE
  5
DB
330
39
100
AcDbEntity
  8
1
  6
Continuous
 62
     7
100
AcDbLine
 10
47.6264183351391
 20
443.1352781508417
 30
0.0
 11
47.6264183351391
 21
442.5852631508417
 31
0.0
  0
LINE
  5
DC
330
39
100
AcDbEntity
  8
1
  6
Continuous
 62
     7
100
AcDbLine
 10
44.137896335139
 20
442.5852631508417
 30
0.0
 11
44.137896335139
 21
442.0352731508417
 31
0.0
  0
LINE
  5
DD
330
39
100
AcDbEntity
  8
1
  6
Continuous
 62
     7
100
AcDbLine
 10
47.222979335139
 20
443.5352781508417
 30
0.0
 11
47.6264183351391
 21
443.1352781508417
 31
0.0
  0
LINE
  5
DE
330
39
100
AcDbEntity
  8
1
  6
Continuous
 62
     7
100
AcDbLine
 10
44.17200233513901
 20
442.0352731508417
 30
0.0
 11
47.63787633513902
 21
442.0352731508417
 31
0.0
  0
LINE
  5
DF
330
39
100
AcDbEntity
  8
1
  6
Continuous
 62
     7
100
AcDbLine
 10
46.66068333513911
 20
443.5352781508417
 30
0.0
 11
47.03524833513901
 21
443.5352781508417
 31
0.0
  0
LINE
  5
E0
330
39
100
AcDbEntity
  8
1
  6
Continuous
 62
     7
100
AcDbLine
 10
45.115089335139
 20
443.5352781508417
 30
0.0
 11
45.615495335139
 21
443.5352781508417
 31
0.0
  0
LINE
  5
E1
330
39
100
AcDbEntity
  8
1
  6
Continuous
 62
     7
100
AcDbLine
 10
47.63501833513912
 20
442.5852631508417
 30
0.0
 11
47.63787633513902
 21
442.5852631508417
 31
0.0
  0
LINE
  5
E2
330
39
100
AcDbEntity
  8
1
  6
Continuous
 62
     7
100
AcDbLine
 10
44.137896335139
 20
442.5852631508417
 30
0.0
 11
44.14075433513902
 21
442.5852631508417
 31
0.0
  0
LINE
  5
E3
330
39
100
AcDbEntity
  8
1
  6
Continuous
 62
     7
100
AcDbLine
 10
44.72330133513912
 20
443.1352781508417
 30
0.0
 11
44.33451733513903
 21
443.1352781508417
 31
0.0
  0
LINE
  5
E4
330
39
100
AcDbEntity
  8
1
  6
Continuous
 62
     7
100
AcDbLine
 10
46.51100733513911
 20
443.1352781508417
 30
0.0
 11
45.887886335139
 21
443.1352781508417
 31
0.0
  0
LINE
  5
E5
330
39
100
AcDbEntity
  8
1
  6
Continuous
 62
     7
100
AcDbLine
 10
47.6264183351391
 20
443.1352781508417
 30
0.0
 11
47.44125533513901
 21
443.1352781508417
 31
0.0
  0
LINE
  5
E6
330
39
100
AcDbEntity
  8
1
  6
Continuous
 62
     7
100
AcDbLine
 10
67.02198833513901
 20
443.5352781508417
 30
0.0
 11
67.42540333513901
 21
443.1352781508417
 31
0.0
  0
LINE
  5
E7
330
39
100
AcDbEntity
  8
1
  6
Continuous
 62
     7
100
AcDbLine
 10
66.45966833513901
 20
443.5352781508417
 30
0.0
 11
66.834233335139
 21
443.5352781508417
 31
0.0
  0
LINE
  5
E8
330
39
100
AcDbEntity
  8
1
  6
Continuous
 62
     7
100
AcDbLine
 10
64.91409833513902
 20
443.5352781508417
 30
0.0
 11
65.41450433513901
 21
443.5352781508417
 31
0.0
  0
LINE
  5
E9
330
39
100
AcDbEntity
  8
1
  6
Continuous
 62
     7
100
AcDbLine
 10
67.43400333513901
 20
442.5852631508417
 30
0.0
 11
67.43688533513901
 21
442.5852631508417
 31
0.0
  0
LINE
  5
EA
330
39
100
AcDbEntity
  8
1
  6
Continuous
 62
     7
100
AcDbLine
 10
63.93688133513902
 20
442.5852631508417
 30
0.0
 11
63.93973933513902
 21
442.5852631508417
 31
0.0
  0
LINE
  5
EB
330
39
100
AcDbEntity
  8
1
  6
Continuous
 62
     7
100
AcDbLine
 10
64.522286335139
 20
443.1352781508417
 30
0.0
 11
64.13350233513901
 21
443.1352781508417
 31
0.0
  0
LINE
  5
EC
330
39
100
AcDbEntity
  8
1
  6
Continuous
 62
     7
100
AcDbLine
 10
66.31001633513901
 20
443.1352781508417
 30
0.0
 11
65.6868713351391
 21
443.1352781508417
 31
0.0
  0
LINE
  5
ED
330
39
100
AcDbEntity
  8
1
  6
Continuous
 62
     7
100
AcDbLine
 10
67.42540333513901
 20
443.1352781508417
 30
0.0
 11
67.24024033513902
 21
443.1352781508417
 31
0.0
  0
LINE
  5
EE
330
39
100
AcDbEntity
  8
1
  6
Continuous
 62
     7
100
AcDbLine
 10
63.93688133513902
 20
442.0352731508417
 30
0.0
 11
67.402755335139
 21
442.0352731508417
 31
0.0
  0
LINE
  5
EF
330
39
100
AcDbEntity
  8
1
  6
Continuous
 62
     7
100
AcDbLine
 10
66.834233335139
 20
443.5352781508417
 30
0.0
 11
67.02198833513901
 21
443.5352781508417
 31
0.0
  0
LINE
  5
F0
330
39
100
AcDbEntity
  8
1
  6
Continuous
 62
     7
100
AcDbLine
 10
65.41450433513901
 20
443.5352781508417
 30
0.0
 11
65.95926233513902
 21
443.5352781508417
 31
0.0
  0
LINE
  5
F1
330
39
100
AcDbEntity
  8
1
  6
Continuous
 62
     7
100
AcDbLine
 10
64.35177833513902
 20
443.5352781508417
 30
0.0
 11
64.53950933513912
 21
443.5352781508417
 31
0.0
  0
LINE
  5
F2
330
39
100
AcDbEntity
  8
1
  6
Continuous
 62
     7
100
AcDbLine
 10
63.93973933513902
 20
442.5852631508417
 30
0.0
 11
63.94833933513903
 21
442.5852631508417
 31
0.0
  0
LINE
  5
F3
330
39
100
AcDbEntity
  8
1
  6
Continuous
 62
     7
100
AcDbLine
 10
64.13350233513901
 20
443.1352781508417
 30
0.0
 11
63.94833933513903
 21
443.1352781508417
 31
0.0
  0
LINE
  5
F4
330
39
100
AcDbEntity
  8
1
  6
Continuous
 62
     7
100
AcDbLine
 10
65.6868713351391
 20
443.1352781508417
 30
0.0
 11
65.06375033513902
 21
443.1352781508417
 31
0.0
  0
LINE
  5
F5
330
39
100
AcDbEntity
  8
1
  6
Continuous
 62
     7
100
AcDbLine
 10
67.24024033513902
 20
443.1352781508417
 30
0.0
 11
66.851456335139
 21
443.1352781508417
 31
0.0
  0
LINE
  5
F6
330
39
100
AcDbEntity
  8
1
  6
Continuous
 62
     7
100
AcDbLine
 10
63.93688133513902
 20
442.5852631508417
 30
0.0
 11
63.93688133513902
 21
442.0352731508417
 31
0.0
  0
LINE
  5
F7
330
39
100
AcDbEntity
  8
1
  6
Continuous
 62
     7
100
AcDbLine
 10
67.43688533513901
 20
442.0352731508417
 30
0.0
 11
67.43688533513901
 21
442.5852631508417
 31
0.0
  0
LINE
  5
F8
330
39
100
AcDbEntity
  8
1
  6
Continuous
 62
     7
100
AcDbLine
 10
63.94833933513903
 20
443.1352781508417
 30
0.0
 11
64.35177833513902
 21
443.5352781508417
 31
0.0
  0
LINE
  5
F9
330
39
100
AcDbEntity
  8
1
  6
Continuous
 62
     7
100
AcDbLine
 10
65.95926233513902
 20
443.5352781508417
 30
0.0
 11
66.45966833513901
 21
443.5352781508417
 31
0.0
  0
LINE
  5
FA
330
39
100
AcDbEntity
  8
1
  6
Continuous
 62
     7
100
AcDbLine
 10
64.53950933513912
 20
443.5352781508417
 30
0.0
 11
64.91409833513902
 21
443.5352781508417
 31
0.0
  0
LINE
  5
FB
330
39
100
AcDbEntity
  8
1
  6
Continuous
 62
     7
100
AcDbLine
 10
67.42540333513901
 20
442.5852631508417
 30
0.0
 11
67.43400333513901
 21
442.5852631508417
 31
0.0
  0
LINE
  5
FC
330
39
100
AcDbEntity
  8
1
  6
Continuous
 62
     7
100
AcDbLine
 10
63.94833933513903
 20
442.5852631508417
 30
0.0
 11
63.94833933513903
 21
443.1352781508417
 31
0.0
  0
LINE
  5
FD
330
39
100
AcDbEntity
  8
1
  6
Continuous
 62
     7
100
AcDbLine
 10
65.06375033513902
 20
443.1352781508417
 30
0.0
 11
64.522286335139
 21
443.1352781508417
 31
0.0
  0
LINE
  5
FE
330
39
100
AcDbEntity
  8
1
  6
Continuous
 62
     7
100
AcDbLine
 10
66.851456335139
 20
443.1352781508417
 30
0.0
 11
66.31001633513901
 21
443.1352781508417
 31
0.0
  0
LINE
  5
FF
330
39
100
AcDbEntity
  8
1
  6
Continuous
 62
     7
100
AcDbLine
 10
67.42540333513901
 20
443.1352781508417
 30
0.0
 11
67.42540333513901
 21
442.5852631508417
 31
0.0
  0
LINE
  5
100
330
39
100
AcDbEntity
  8
1
  6
Continuous
 62
     7
100
AcDbLine
 10
75.03523433513911
 20
443.535302431732
 30
0.0
 11
75.22298933513902
 21
443.535302431732
 31
0.0
  0
LINE
  5
101
330
39
100
AcDbEntity
  8
1
  6
Continuous
 62
     7
100
AcDbLine
 10
73.61550533513902
 20
443.535302431732
 30
0.0
 11
74.16026433513902
 21
443.535302431732
 31
0.0
  0
LINE
  5
102
330
39
100
AcDbEntity
  8
1
  6
Continuous
 62
     7
100
AcDbLine
 10
72.5527793351391
 20
443.535302431732
 30
0.0
 11
72.74053433513902
 21
443.535302431732
 31
0.0
  0
LINE
  5
103
330
39
100
AcDbEntity
  8
1
  6
Continuous
 62
     7
100
AcDbLine
 10
72.14076533513912
 20
442.585287431732
 30
0.0
 11
72.1493403351391
 21
442.585287431732
 31
0.0
  0
LINE
  5
104
330
39
100
AcDbEntity
  8
1
  6
Continuous
 62
     7
100
AcDbLine
 10
72.33452733513901
 20
443.135302431732
 30
0.0
 11
72.1493403351391
 21
443.135302431732
 31
0.0
  0
LINE
  5
105
330
39
100
AcDbEntity
  8
1
  6
Continuous
 62
     7
100
AcDbLine
 10
73.88789633513902
 20
443.135302431732
 30
0.0
 11
73.26475133513911
 21
443.135302431732
 31
0.0
  0
LINE
  5
106
330
39
100
AcDbEntity
  8
1
  6
Continuous
 62
     7
100
AcDbLine
 10
75.44126633513902
 20
443.135302431732
 30
0.0
 11
75.05245733513901
 21
443.135302431732
 31
0.0
  0
LINE
  5
107
330
39
100
AcDbEntity
  8
1
  6
Continuous
 62
     7
100
AcDbLine
 10
72.13788233513912
 20
442.585287431732
 30
0.0
 11
72.13788233513912
 21
442.035297431732
 31
0.0
  0
LINE
  5
108
330
39
100
AcDbEntity
  8
1
  6
Continuous
 62
     7
100
AcDbLine
 10
72.1493403351391
 20
443.135302431732
 30
0.0
 11
72.5527793351391
 21
443.535302431732
 31
0.0
  0
LINE
  5
109
330
39
100
AcDbEntity
  8
1
  6
Continuous
 62
     7
100
AcDbLine
 10
74.16026433513902
 20
443.535302431732
 30
0.0
 11
74.66066933513902
 21
443.535302431732
 31
0.0
  0
LINE
  5
10A
330
39
100
AcDbEntity
  8
1
  6
Continuous
 62
     7
100
AcDbLine
 10
72.74053433513902
 20
443.535302431732
 30
0.0
 11
73.11510033513902
 21
443.535302431732
 31
0.0
  0
LINE
  5
10B
330
39
100
AcDbEntity
  8
1
  6
Continuous
 62
     7
100
AcDbLine
 10
75.62642933513901
 20
442.585287431732
 30
0.0
 11
75.63502833513901
 21
442.585287431732
 31
0.0
  0
LINE
  5
10C
330
39
100
AcDbEntity
  8
1
  6
Continuous
 62
     7
100
AcDbLine
 10
72.1493403351391
 20
442.585287431732
 30
0.0
 11
72.1493403351391
 21
443.135302431732
 31
0.0
  0
LINE
  5
10D
330
39
100
AcDbEntity
  8
1
  6
Continuous
 62
     7
100
AcDbLine
 10
73.26475133513911
 20
443.135302431732
 30
0.0
 11
72.72331233513901
 21
443.135302431732
 31
0.0
  0
LINE
  5
10E
330
39
100
AcDbEntity
  8
1
  6
Continuous
 62
     7
100
AcDbLine
 10
75.05245733513901
 20
443.135302431732
 30
0.0
 11
74.51101733513902
 21
443.135302431732
 31
0.0
  0
LINE
  5
10F
330
39
100
AcDbEntity
  8
1
  6
Continuous
 62
     7
100
AcDbLine
 10
75.62642933513901
 20
443.135302431732
 30
0.0
 11
75.62642933513901
 21
442.585287431732
 31
0.0
  0
LINE
  5
110
330
39
100
AcDbEntity
  8
1
  6
Continuous
 62
     7
100
AcDbLine
 10
72.17201333513913
 20
442.035297431732
 30
0.0
 11
75.63788633513902
 21
442.035297431732
 31
0.0
  0
LINE
  5
111
330
39
100
AcDbEntity
  8
1
  6
Continuous
 62
     7
100
AcDbLine
 10
75.63788633513902
 20
442.035297431732
 30
0.0
 11
75.63788633513902
 21
442.585287431732
 31
0.0
  0
LINE
  5
112
330
39
100
AcDbEntity
  8
1
  6
Continuous
 62
     7
100
AcDbLine
 10
75.22298933513902
 20
443.535302431732
 30
0.0
 11
75.62642933513901
 21
443.135302431732
 31
0.0
  0
LINE
  5
113
330
39
100
AcDbEntity
  8
1
  6
Continuous
 62
     7
100
AcDbLine
 10
74.66066933513902
 20
443.535302431732
 30
0.0
 11
75.03523433513911
 21
443.535302431732
 31
0.0
  0
LINE
  5
114
330
39
100
AcDbEntity
  8
1
  6
Continuous
 62
     7
100
AcDbLine
 10
73.11510033513902
 20
443.535302431732
 30
0.0
 11
73.61550533513902
 21
443.535302431732
 31
0.0
  0
LINE
  5
115
330
39
100
AcDbEntity
  8
1
  6
Continuous
 62
     7
100
AcDbLine
 10
75.63502833513901
 20
442.585287431732
 30
0.0
 11
75.63788633513902
 21
442.585287431732
 31
0.0
  0
LINE
  5
116
330
39
100
AcDbEntity
  8
1
  6
Continuous
 62
     7
100
AcDbLine
 10
72.13788233513912
 20
442.585287431732
 30
0.0
 11
72.14076533513912
 21
442.585287431732
 31
0.0
  0
LINE
  5
117
330
39
100
AcDbEntity
  8
1
  6
Continuous
 62
     7
100
AcDbLine
 10
72.72331233513901
 20
443.135302431732
 30
0.0
 11
72.33452733513901
 21
443.135302431732
 31
0.0
  0
LINE
  5
118
330
39
100
AcDbEntity
  8
1
  6
Continuous
 62
     7
100
AcDbLine
 10
74.51101733513902
 20
443.135302431732
 30
0.0
 11
73.88789633513902
 21
443.135302431732
 31
0.0
  0
LINE
  5
119
330
39
100
AcDbEntity
  8
1
  6
Continuous
 62
     7
100
AcDbLine
 10
75.62642933513901
 20
443.135302431732
 30
0.0
 11
75.44126633513902
 21
443.135302431732
 31
0.0
  0
LINE
  5
11A
330
39
100
AcDbEntity
  8
1
  6
Continuous
 62
     7
100
AcDbLine
 10
91.94834933513901
 20
443.135302431732
 30
0.0
 11
92.35176433513901
 21
443.535302431732
 31
0.0
  0
LINE
  5
11B
330
39
100
AcDbEntity
  8
1
  6
Continuous
 62
     7
100
AcDbLine
 10
93.959249335139
 20
443.535302431732
 30
0.0
 11
94.459654335139
 21
443.535302431732
 31
0.0
  0
LINE
  5
11C
330
39
100
AcDbEntity
  8
1
  6
Continuous
 62
     7
100
AcDbLine
 10
92.53951933513902
 20
443.535302431732
 30
0.0
 11
92.914085335139
 21
443.535302431732
 31
0.0
  0
LINE
  5
11D
330
39
100
AcDbEntity
  8
1
  6
Continuous
 62
     7
100
AcDbLine
 10
95.42541433513911
 20
442.585287431732
 30
0.0
 11
95.43401333513911
 21
442.585287431732
 31
0.0
  0
LINE
  5
11E
330
39
100
AcDbEntity
  8
1
  6
Continuous
 62
     7
100
AcDbLine
 10
91.94834933513901
 20
442.585287431732
 30
0.0
 11
91.94834933513901
 21
443.135302431732
 31
0.0
  0
LINE
  5
11F
330
39
100
AcDbEntity
  8
1
  6
Continuous
 62
     7
100
AcDbLine
 10
93.06373633513911
 20
443.135302431732
 30
0.0
 11
92.52229733513902
 21
443.135302431732
 31
0.0
  0
LINE
  5
120
330
39
100
AcDbEntity
  8
1
  6
Continuous
 62
     7
100
AcDbLine
 10
94.85146633513911
 20
443.135302431732
 30
0.0
 11
94.31000233513912
 21
443.135302431732
 31
0.0
  0
LINE
  5
121
330
39
100
AcDbEntity
  8
1
  6
Continuous
 62
     7
100
AcDbLine
 10
95.42541433513911
 20
443.135302431732
 30
0.0
 11
95.42541433513911
 21
442.585287431732
 31
0.0
  0
LINE
  5
122
330
39
100
AcDbEntity
  8
1
  6
Continuous
 62
     7
100
AcDbLine
 10
95.43687133513902
 20
442.035297431732
 30
0.0
 11
95.43687133513902
 21
442.585287431732
 31
0.0
  0
LINE
  5
123
330
39
100
AcDbEntity
  8
1
  6
Continuous
 62
     7
100
AcDbLine
 10
95.021974335139
 20
443.535302431732
 30
0.0
 11
95.42541433513911
 21
443.135302431732
 31
0.0
  0
LINE
  5
124
330
39
100
AcDbEntity
  8
1
  6
Continuous
 62
     7
100
AcDbLine
 10
94.459654335139
 20
443.535302431732
 30
0.0
 11
94.83424433513902
 21
443.535302431732
 31
0.0
  0
LINE
  5
125
330
39
100
AcDbEntity
  8
1
  6
Continuous
 62
     7
100
AcDbLine
 10
92.914085335139
 20
443.535302431732
 30
0.0
 11
93.414490335139
 21
443.535302431732
 31
0.0
  0
LINE
  5
126
330
39
100
AcDbEntity
  8
1
  6
Continuous
 62
     7
100
AcDbLine
 10
95.43401333513911
 20
442.585287431732
 30
0.0
 11
95.43687133513902
 21
442.585287431732
 31
0.0
  0
LINE
  5
127
330
39
100
AcDbEntity
  8
1
  6
Continuous
 62
     7
100
AcDbLine
 10
91.93686733513901
 20
442.585287431732
 30
0.0
 11
91.93975033513901
 21
442.585287431732
 31
0.0
  0
LINE
  5
128
330
39
100
AcDbEntity
  8
1
  6
Continuous
 62
     7
100
AcDbLine
 10
92.52229733513902
 20
443.135302431732
 30
0.0
 11
92.13351233513902
 21
443.135302431732
 31
0.0
  0
LINE
  5
129
330
39
100
AcDbEntity
  8
1
  6
Continuous
 62
     7
100
AcDbLine
 10
94.31000233513912
 20
443.135302431732
 30
0.0
 11
93.686881335139
 21
443.135302431732
 31
0.0
  0
LINE
  5
12A
330
39
100
AcDbEntity
  8
1
  6
Continuous
 62
     7
100
AcDbLine
 10
95.42541433513911
 20
443.135302431732
 30
0.0
 11
95.2402513351391
 21
443.135302431732
 31
0.0
  0
LINE
  5
12B
330
39
100
AcDbEntity
  8
1
  6
Continuous
 62
     7
100
AcDbLine
 10
94.83424433513902
 20
443.535302431732
 30
0.0
 11
95.021974335139
 21
443.535302431732
 31
0.0
  0
LINE
  5
12C
330
39
100
AcDbEntity
  8
1
  6
Continuous
 62
     7
100
AcDbLine
 10
93.414490335139
 20
443.535302431732
 30
0.0
 11
93.959249335139
 21
443.535302431732
 31
0.0
  0
LINE
  5
12D
330
39
100
AcDbEntity
  8
1
  6
Continuous
 62
     7
100
AcDbLine
 10
92.35176433513901
 20
443.535302431732
 30
0.0
 11
92.53951933513902
 21
443.535302431732
 31
0.0
  0
LINE
  5
12E
330
39
100
AcDbEntity
  8
1
  6
Continuous
 62
     7
100
AcDbLine
 10
91.93975033513901
 20
442.585287431732
 30
0.0
 11
91.94834933513901
 21
442.585287431732
 31
0.0
  0
LINE
  5
12F
330
39
100
AcDbEntity
  8
1
  6
Continuous
 62
     7
100
AcDbLine
 10
92.13351233513902
 20
443.135302431732
 30
0.0
 11
91.94834933513901
 21
443.135302431732
 31
0.0
  0
LINE
  5
130
330
39
100
AcDbEntity
  8
1
  6
Continuous
 62
     7
100
AcDbLine
 10
93.686881335139
 20
443.135302431732
 30
0.0
 11
93.06373633513911
 21
443.135302431732
 31
0.0
  0
LINE
  5
131
330
39
100
AcDbEntity
  8
1
  6
Continuous
 62
     7
100
AcDbLine
 10
95.2402513351391
 20
443.135302431732
 30
0.0
 11
94.85146633513911
 21
443.135302431732
 31
0.0
  0
LINE
  5
132
330
39
100
AcDbEntity
  8
1
  6
Continuous
 62
     7
100
AcDbLine
 10
91.94834933513901
 20
442.035297431732
 30
0.0
 11
95.40274133513901
 21
442.035297431732
 31
0.0
  0
LINE
  5
133
330
39
100
AcDbEntity
  8
1
  6
Continuous
 62
     7
100
AcDbLine
 10
91.93686733513901
 20
442.585287431732
 30
0.0
 11
91.93686733513901
 21
442.035297431732
 31
0.0
  0
LINE
  5
134
330
39
100
AcDbEntity
  8
1
  6
DOT_CENTER
 62
     2
100
AcDbLine
 10
-123.5275763501046
 20
445.1352904317321
 30
0.0
 11
-123.5275763501046
 21
440.0352854317321
 31
0.0
  0
LINE
  5
135
330
39
100
AcDbEntity
  8
1
  6
DOT_CENTER
 62
     2
100
AcDbLine
 10
-103.7286033501045
 20
440.0352854317321
 30
0.0
 11
-103.7286033501045
 21
445.1352904317321
 31
0.0
  0
LINE
  5
136
330
39
100
AcDbEntity
  8
1
  6
DOT_CENTER
 62
     2
100
AcDbLine
 10
45.88215733513901
 20
445.1352781508417
 30
0.0
 11
45.88215733513901
 21
440.0352731508417
 31
0.0
  0
LINE
  5
137
330
39
100
AcDbEntity
  8
1
  6
DOT_CENTER
 62
     2
100
AcDbLine
 10
65.6868713351391
 20
440.5852631508417
 30
0.0
 11
65.6868713351391
 21
445.1352781508417
 31
0.0
  0
LINE
  5
138
330
39
100
AcDbEntity
  8
1
  6
DOT_CENTER
 62
     2
100
AcDbLine
 10
73.88788483513902
 20
440.585287431732
 30
0.0
 11
73.88788483513902
 21
445.135302431732
 31
0.0
  0
LINE
  5
139
330
39
100
AcDbEntity
  8
1
  6
DOT_CENTER
 62
     2
100
AcDbLine
 10
93.68688183513902
 20
440.585287431732
 30
0.0
 11
93.68688183513902
 21
445.135302431732
 31
0.0
  0
ENDBLK
  5
3B
330
39
100
AcDbEntity
  8
0
100
AcDbBlockEnd
  0
BLOCK
  5
3D
330
3C
100
AcDbEntity
  8
0
100
AcDbBlockBegin
  2
O-Ring
 70
     0
 71
     0
 10
192.4609132487045
 20
390.8935181772014
 30
0.0
  3
O-Ring
  1

  0
LINE
  5
13A
330
3C
100
AcDbEntity
  8
1
  6
Continuous
 62
     7
100
AcDbLine
 10
-88.65472935010457
 20
475.7841707915151
 30
0.0
 11
-88.65472935010457
 21
476.3591707915149
 31
0.0
  0
LINE
  5
13B
330
3C
100
AcDbEntity
  8
1
  6
Continuous
 62
     7
100
AcDbLine
 10
-88.65472935010457
 20
453.6091707915149
 30
0.0
 11
-88.65472935010457
 21
454.1841707915149
 31
0.0
  0
ARC
  5
13C
102
{ACAD_REACTORS
330
140
330
140
102
}
330
3C
100
AcDbEntity
  8
1
  6
Continuous
 62
     7
100
AcDbCircle
 10
-89.45472935010464
 20
476.3591707915149
 30
0.0
 40
0.7999999999999545
100
AcDbArc
 50
180.0
 51
0.0
  0
ARC
  5
13D
102
{ACAD_REACTORS
330
140
330
140
102
}
330
3C
100
AcDbEntity
  8
1
  6
Continuous
 62
     7
100
AcDbCircle
 10
-89.45472935010464
 20
476.3591707915149
 30
0.0
 40
0.8000000000000682
100
AcDbArc
 50
0.0
 51
180.0
  0
CIRCLE
  5
13E
102
{ACAD_REACTORS
330
13F
330
13F
102
}
330
3C
100
AcDbEntity
  8
1
  6
Continuous
 62
     7
100
AcDbCircle
 10
-89.45472935010464
 20
453.6091707915149
 30
0.0
 40
0.8000000000000682
  0
HATCH
  5
13F
330
3C
100
AcDbEntity
  8
1
  6
Continuous
 62
     2
100
AcDbHatch
 10
0.0
 20
0.0
 30
0.0
210
0.0
220
0.0
230
1.0
  2
CUSTOM0
 70
     0
 71
     1
 91
        1
 92
        1
 93
        1
 72
     2
 10
-89.45472935010464
 20
453.6091707915149
 40
0.8000000000000682
 50
0.0
 51
360.0
 73
     1
 97
        1
330
13E
 75
     1
 76
     2
 52
45.0
 41
0.5
 77
     0
 78
     2
 53
45.0
 43
0.0
 44
0.0
 45
-0.7071067811865475
 46
0.0000000000000001
 79
     0
 53
135.0
 43
0.0
 44
0.0
 45
0.0000000000000003
 46
-0.7071067811865475
 79
     0
 98
        1
 10
0.0
 20
0.0
  0
HATCH
  5
140
330
3C
100
AcDbEntity
  8
1
  6
Continuous
 62
     2
100
AcDbHatch
 10
0.0
 20
0.0
 30
0.0
210
0.0
220
0.0
230
1.0
  2
CUSTOM1
 70
     0
 71
     1
 91
        1
 92
        1
 93
        2
 72
     2
 10
-89.45472935010464
 20
476.3591707915149
 40
0.7999999999999545
 50
180.0
 51
360.0
 73
     1
 72
     2
 10
-89.45472935010464
 20
476.3591707915149
 40
0.8000000000000682
 50
0.0
 51
180.0
 73
     1
 97
        2
330
13C
330
13D
 75
     1
 76
     2
 52
45.0
 41
0.5
 77
     0
 78
     2
 53
45.0
 43
0.0
 44
0.0
 45
-0.7071067811865475
 46
0.0000000000000001
 79
     0
 53
135.0
 43
0.0
 44
0.0
 45
0.0000000000000003
 46
-0.7071067811865475
 79
     0
 98
        1
 10
0.0
 20
0.0
  0
ENDBLK
  5
3E
330
3C
100
AcDbEntity
  8
0
100
AcDbBlockEnd
  0
BLOCK
  5
41
330
3F
100
AcDbEntity
  8
0
100
AcDbBlockBegin
  2
Winkelflanschdose_8-polig_drehbar
 70
     0
 71
     0
 10
518.1935687917018
 20
99.310186849246
 30
0.0
  3
Winkelflanschdose_8-polig_drehbar
  1

  0
INSERT
  5
40
330
3F
100
AcDbEntity
  8
1
100
AcDbBlockReference
  2
O-Ring
 10
192.4609132487045
 20
390.8935181772014
 30
0.0
  0
POINT
  5
141
330
3F
100
AcDbEntity
  8
1
 62
     3
 60
     1
100
AcDbPoint
 10
43.7854473454382
 20
448.535261431732
 30
0.0
  0
POINT
  5
142
330
3F
100
AcDbEntity
  8
1
 62
     3
 60
     1
100
AcDbPoint
 10
67.7854473454382
 20
448.535261431732
 30
0.0
  0
POINT
  5
143
330
3F
100
AcDbEntity
  8
1
 62
     3
 60
     1
100
AcDbPoint
 10
-100.8680293501046
 20
452.486710781813
 30
0.0
  0
POINT
  5
144
330
3F
100
AcDbEntity
  8
1
 62
     3
 60
     1
100
AcDbPoint
 10
-100.8680293501046
 20
448.486710781813
 30
0.0
  0
POINT
  5
145
330
3F
100
AcDbEntity
  8
1
 62
     3
 60
     1
100
AcDbPoint
 10
-100.8680293501046
 20
448.4867116231592
 30
0.0
  0
POINT
  5
146
330
3F
100
AcDbEntity
  8
1
 62
     3
 60
     1
100
AcDbPoint
 10
42.93544734543812
 20
442.035261431732
 30
0.0
  0
POINT
  5
147
330
3F
100
AcDbEntity
  8
1
 62
     3
 60
     1
100
AcDbPoint
 10
42.93544734543812
 20
452.035261431732
 30
0.0
  0
POINT
  5
148
330
3F
100
AcDbEntity
  8
1
 62
     3
 60
     1
100
AcDbPoint
 10
43.7854473454382
 20
452.035261431732
 30
0.0
  0
LINE
  5
149
330
3F
100
AcDbEntity
  8
1
  6
Continuous
 62
     7
100
AcDbLine
 10
-126.5680293501046
 20
440.535387096775
 30
0.0
 11
-100.8680293501046
 21
440.535387096775
 31
0.0
  0
LINE
  5
14A
330
3F
100
AcDbEntity
  8
1
  6
Continuous
 62
     7
100
AcDbLine
 10
-100.8680293501046
 20
441.28653181372
 30
0.0
 11
-100.8680293501046
 21
440.535387096775
 31
0.0
  0
LINE
  5
14B
330
3F
100
AcDbEntity
  8
1
  6
Continuous
 62
     7
100
AcDbLine
 10
-126.5680293501046
 20
441.2867227818131
 30
0.0
 11
-126.5680293501046
 21
440.535387096775
 31
0.0
  0
LINE
  5
14C
330
3F
100
AcDbEntity
  8
AM_VIS
  6
Continuous
 62
     7
100
AcDbLine
 10
-125.7180293501046
 20
441.9867107818142
 30
0.0
 11
-126.5680293501046
 21
441.9867107818146
 31
0.0
  0
LINE
  5
14D
330
3F
100
AcDbEntity
  8
1
  6
DOT_CENTER
 62
     2
100
AcDbLine
 10
-113.7180293501043
 20
439.2865318137185
 30
0.0
 11
-113.7180293501049
 21
443.9867107818162
 31
0.0
  0
LINE
  5
14E
330
3F
100
AcDbEntity
  8
AM_VIS
  6
Continuous
 62
     2
100
AcDbLine
 10
-125.7180293501046
 20
452.609475781813
 30
0.0
 11
-126.4411383501046
 21
452.609475781813
 31
0.0
  0
LINE
  5
14F
330
3F
100
AcDbEntity
  8
AM_VIS
  6
Continuous
 62
     7
100
AcDbLine
 10
-125.7180293501046
 20
452.609475781813
 30
0.0
 11
-125.7180293501046
 21
441.9867107818142
 31
0.0
  0
LINE
  5
150
330
3F
100
AcDbEntity
  8
AM_VIS
  6
Continuous
 62
     7
100
AcDbLine
 10
-100.8680293501046
 20
441.28653181372
 30
0.0
 11
-100.8680293501047
 21
441.9867107818129
 31
0.0
  0
LINE
  5
151
330
3F
100
AcDbEntity
  8
AM_VIS
  6
Continuous
 62
     7
100
AcDbLine
 10
-103.9084843501046
 20
454.7104317517679
 30
0.0
 11
-103.9084843501046
 21
443.4867157818131
 31
0.0
  0
LINE
  5
152
330
3F
100
AcDbEntity
  8
AM_VIS
  6
Continuous
 62
     7
100
AcDbLine
 10
-123.5275763501046
 20
443.4867157818131
 30
0.0
 11
-123.5275763501046
 21
454.566710781813
 31
0.0
  0
LINE
  5
153
330
3F
100
AcDbEntity
  8
AM_VIS
  6
Continuous
 62
     2
100
AcDbLine
 10
-126.5544134895125
 20
452.486710781813
 30
0.0
 11
-125.7180293501046
 21
452.486710781813
 31
0.0
  0
LINE
  5
154
330
3F
100
AcDbEntity
  8
AM_VIS
  6
Continuous
 62
     7
100
AcDbLine
 10
-123.5275763501046
 20
441.9867107818129
 30
0.0
 11
-123.7416843501046
 21
441.9867107818129
 31
0.0
  0
LINE
  5
155
330
3F
100
AcDbEntity
  8
AM_VIS
  6
Continuous
 62
     7
100
AcDbLine
 10
-123.7416843501046
 20
441.9867107818129
 30
0.0
 11
-125.7180293501046
 21
441.9867107818142
 31
0.0
  0
LINE
  5
156
330
3F
100
AcDbEntity
  8
AM_VIS
  6
Continuous
 62
     7
100
AcDbLine
 10
-103.6943733501046
 20
441.986710781813
 30
0.0
 11
-103.9084843501046
 21
441.986710781813
 31
0.0
  0
LINE
  5
157
330
3F
100
AcDbEntity
  8
AM_VIS
  6
Continuous
 62
     7
100
AcDbLine
 10
-103.9084843501046
 20
441.986710781813
 30
0.0
 11
-123.5275763501046
 21
441.9867107818129
 31
0.0
  0
LINE
  5
158
330
3F
100
AcDbEntity
  8
AM_VIS
  6
Continuous
 62
     7
100
AcDbLine
 10
45.97590197317362
 20
443.535266431732
 30
0.0
 11
45.97589934543822
 21
454.123476431732
 31
0.0
  0
LINE
  5
159
330
3F
100
AcDbEntity
  8
AM_VIS
  6
Continuous
 62
     2
100
AcDbLine
 10
-91.05472935010455
 20
453.188237781813
 30
0.0
 11
-102.4040408034742
 21
453.188237781813
 31
0.0
  0
LINE
  5
15A
330
3F
100
AcDbEntity
  8
AM_VIS
  6
Continuous
 62
     7
100
AcDbLine
 10
-74.85472935010445
 20
475.7867107818129
 30
0.0
 11
-80.05472935010455
 21
475.7867107818129
 31
0.0
  0
LINE
  5
15B
330
3F
100
AcDbEntity
  8
1
  6
Continuous
 62
     7
100
AcDbLine
 10
67.7854473454382
 20
442.035261431732
 30
0.0
 11
42.93544734543812
 21
442.035261431732
 31
0.0
  0
LINE
  5
15C
330
3F
100
AcDbEntity
  8
AM_VIS
  6
Continuous
 62
     7
100
AcDbLine
 10
67.7854473454382
 20
448.535261431732
 30
0.0
 11
67.7854473454382
 21
461.5352737126223
 31
0.0
  0
LINE
  5
15D
330
3F
100
AcDbEntity
  8
AM_VIS
  6
Continuous
 62
     7
100
AcDbLine
 10
43.7854473454382
 20
448.535261431732
 30
0.0
 11
43.7854473454382
 21
442.035261431732
 31
0.0
  0
LINE
  5
15E
330
3F
100
AcDbEntity
  8
1
  6
Continuous
 62
     7
100
AcDbLine
 10
67.7854473454382
 20
448.535261431732
 30
0.0
 11
43.7854473454382
 21
448.535261431732
 31
0.0
  0
LINE
  5
15F
330
3F
100
AcDbEntity
  8
1
  6
Continuous
 62
     7
100
AcDbLine
 10
-125.7180293501046
 20
448.486735378695
 30
0.0
 11
-120.6298193501046
 21
448.4867303423135
 31
0.0
  0
LINE
  5
160
330
3F
100
AcDbEntity
  8
AM_VIS
  6
Continuous
 62
     7
100
AcDbLine
 10
-120.6298193501046
 20
457.3306329184485
 30
0.0
 11
-120.6298193501046
 21
450.9867107818129
 31
0.0
  0
LINE
  5
161
330
3F
100
AcDbEntity
  8
1
  6
Continuous
 62
     7
100
AcDbLine
 10
-118.6298193501046
 20
450.9867107818129
 30
0.0
 11
-118.6298193501046
 21
441.9867107818129
 31
0.0
  0
LINE
  5
162
330
3F
100
AcDbEntity
  8
AM_VIS
  6
Continuous
 62
     7
100
AcDbLine
 10
-103.6943733501046
 20
441.986710781813
 30
0.0
 11
-103.9084843501046
 21
441.986710781813
 31
0.0
  0
LINE
  5
163
330
3F
100
AcDbEntity
  8
AM_VIS
  6
Continuous
 62
     2
100
AcDbLine
 10
-104.8121143501046
 20
456.6572237818131
 30
0.0
 11
-106.0280431090165
 21
456.6572237818131
 31
0.0
  0
LINE
  5
164
330
3F
100
AcDbEntity
  8
AM_VIS
  6
Continuous
 62
     2
100
AcDbLine
 10
-106.1884863501046
 20
457.470412781813
 30
0.0
 11
-106.9708831712873
 21
457.470412781813
 31
0.0
  0
LINE
  5
165
330
3F
100
AcDbEntity
  8
AM_VIS
  6
Continuous
 62
     7
100
AcDbLine
 10
-106.8062393501045
 20
441.986710781813
 30
0.0
 11
-106.8062393501046
 21
457.268910781813
 31
0.0
  0
LINE
  5
166
330
3F
100
AcDbEntity
  8
AM_VIS
  6
Continuous
 62
     7
100
AcDbLine
 10
-101.7180293501046
 20
448.4867116231592
 30
0.0
 11
-101.7180293501046
 21
452.486710781813
 31
0.0
  0
LINE
  5
167
330
3F
100
AcDbEntity
  8
AM_VIS
  6
Continuous
 62
     7
100
AcDbLine
 10
-107.3427473501045
 20
463.771297781813
 30
0.0
 11
-110.9334423501042
 21
463.771297781813
 31
0.0
  0
LINE
  5
168
330
3F
100
AcDbEntity
  8
AM_VIS
  6
Continuous
 62
     2
100
AcDbLine
 10
-107.1160143501046
 20
459.563350781813
 30
0.0
 11
-109.5752233501047
 21
459.563350781813
 31
0.0
  0
LINE
  5
169
330
3F
100
AcDbEntity
  8
AM_VIS
  6
Continuous
 62
     2
100
AcDbLine
 10
-107.2776013501046
 20
460.8580267818131
 30
0.0
 11
-111.5280453501046
 21
460.8580267818131
 31
0.0
  0
LINE
  5
16A
330
3F
100
AcDbEntity
  8
AM_VIS
  6
Continuous
 62
     2
100
AcDbLine
 10
-115.9080123501046
 20
460.8580267818131
 30
0.0
 11
-119.6156763501046
 21
460.8580267818131
 31
0.0
  0
LINE
  5
16B
330
3F
100
AcDbEntity
  8
AM_VIS
  6
Continuous
 62
     2
100
AcDbLine
 10
-107.3438013501046
 20
463.239126781813
 30
0.0
 11
-118.4449103501046
 21
463.239126781813
 31
0.0
  0
LINE
  5
16C
330
3F
100
AcDbEntity
  8
AM_VIS
  6
Continuous
 62
     2
100
AcDbLine
 10
-106.8658723501046
 20
458.6355907818131
 30
0.0
 11
-108.3873355898365
 21
458.6355907818131
 31
0.0
  0
LINE
  5
16D
330
3F
100
AcDbEntity
  8
AM_VIS
  6
Continuous
 62
     7
100
AcDbLine
 10
-123.5275763501046
 20
454.566710781813
 30
0.0
 11
-120.6298143501045
 21
454.566710781813
 31
0.0
  0
LINE
  5
16E
330
3F
100
AcDbEntity
  8
AM_VIS
  6
Continuous
 62
     2
100
AcDbLine
 10
-121.4080155911928
 20
456.6572237818131
 30
0.0
 11
-122.7629352168811
 21
456.6572237818131
 31
0.0
  0
LINE
  5
16F
330
3F
100
AcDbEntity
  8
AM_VIS
  6
Continuous
 62
     2
100
AcDbLine
 10
-125.6209252450247
 20
452.609475781813
 30
0.0
 11
-125.7180293501046
 21
452.609475781813
 31
0.0
  0
LINE
  5
170
330
3F
100
AcDbEntity
  8
AM_VIS
  6
Continuous
 62
     2
100
AcDbLine
 10
-125.3590018257544
 20
452.8828647818131
 30
0.0
 11
-126.1939958053414
 21
452.8828647818131
 31
0.0
  0
LINE
  5
171
330
3F
100
AcDbEntity
  8
AM_VIS
  6
Continuous
 62
     2
100
AcDbLine
 10
-125.0628475097849
 20
453.188237781813
 30
0.0
 11
-125.916169935936
 21
453.188237781813
 31
0.0
  0
LINE
  5
172
330
3F
100
AcDbEntity
  8
AM_VIS
  6
Continuous
 62
     2
100
AcDbLine
 10
-124.5333882300157
 20
453.724509781813
 30
0.0
 11
-125.4282740360438
 21
453.724509781813
 31
0.0
  0
LINE
  5
173
330
3F
100
AcDbEntity
  8
AM_VIS
  6
Continuous
 62
     2
100
AcDbLine
 10
-124.0328522575592
 20
454.220407781813
 30
0.0
 11
-124.9771100726732
 21
454.220407781813
 31
0.0
  0
LINE
  5
174
330
3F
100
AcDbEntity
  8
AM_VIS
  6
Continuous
 62
     2
100
AcDbLine
 10
-123.2249651559428
 20
454.998954781813
 30
0.0
 11
-124.2687943501046
 21
454.998954781813
 31
0.0
  0
LINE
  5
175
330
3F
100
AcDbEntity
  8
AM_VIS
  6
Continuous
 62
     2
100
AcDbLine
 10
-122.510026090414
 20
455.6663217818132
 30
0.0
 11
-123.6406189367813
 21
455.6663217818132
 31
0.0
  0
LINE
  5
176
330
3F
100
AcDbEntity
  8
AM_VIS
  6
Continuous
 62
     2
100
AcDbLine
 10
-126.5547293501046
 20
452.486710781813
 30
0.0
 11
-126.5544134895125
 21
452.486710781813
 31
0.0
  0
LINE
  5
177
330
3F
100
AcDbEntity
  8
AM_VIS
  6
Continuous
 62
     7
100
AcDbLine
 10
-120.6298193501046
 20
450.9867107818129
 30
0.0
 11
-120.6298193501048
 21
441.986710781813
 31
0.0
  0
LINE
  5
178
330
3F
100
AcDbEntity
  8
AM_VIS
  6
Continuous
 62
     7
100
AcDbLine
 10
-110.9334423501042
 20
463.771297781813
 30
0.0
 11
-125.7180293501046
 21
448.986710781813
 31
0.0
  0
LINE
  5
179
330
3F
100
AcDbEntity
  8
AM_VIS
  6
Continuous
 62
     7
100
AcDbLine
 10
-126.5547293501046
 20
477.986710781813
 30
0.0
 11
-126.5547293501046
 21
452.486710781813
 31
0.0
  0
LINE
  5
17A
330
3F
100
AcDbEntity
  8
AM_VIS
  6
Continuous
 62
     2
100
AcDbLine
 10
-120.4651755289219
 20
457.470412781813
 30
0.0
 11
-122.0880651676028
 21
457.470412781813
 31
0.0
  0
LINE
  5
17B
330
3F
100
AcDbEntity
  8
AM_VIS
  6
Continuous
 62
     2
100
AcDbLine
 10
-119.0487231103727
 20
458.6355907818131
 30
0.0
 11
-121.1865227743194
 21
458.6355907818131
 31
0.0
  0
LINE
  5
17C
330
3F
100
AcDbEntity
  8
AM_VIS
  6
Continuous
 62
     2
100
AcDbLine
 10
-117.8608353501047
 20
459.563350781813
 30
0.0
 11
-120.5197348866914
 21
459.563350781813
 31
0.0
  0
LINE
  5
17D
330
3F
100
AcDbEntity
  8
AM_VIS
  6
Continuous
 62
     2
100
AcDbLine
 10
-107.3427473501045
 20
464.286036781813
 30
0.0
 11
-118.2016643501046
 21
464.286036781813
 31
0.0
  0
LINE
  5
17E
330
3F
100
AcDbEntity
  8
AM_VIS
  6
Continuous
 62
     2
100
AcDbLine
 10
-106.1884863501046
 20
472.503008781813
 30
0.0
 11
-122.1373903501046
 21
472.503008781813
 31
0.0
  0
LINE
  5
17F
330
3F
100
AcDbEntity
  8
AM_VIS
  6
Continuous
 62
     2
100
AcDbLine
 10
-106.8658723501046
 20
471.3378307818131
 30
0.0
 11
-121.1994653501046
 21
471.3378307818131
 31
0.0
  0
LINE
  5
180
330
3F
100
AcDbEntity
  8
AM_VIS
  6
Continuous
 62
     2
100
AcDbLine
 10
-107.1160143501046
 20
470.410070781813
 30
0.0
 11
-120.4987093501046
 21
470.410070781813
 31
0.0
  0
LINE
  5
181
330
3F
100
AcDbEntity
  8
AM_VIS
  6
Continuous
 62
     2
100
AcDbLine
 10
-107.3258513501045
 20
468.108716781813
 30
0.0
 11
-119.0336013501046
 21
468.108716781813
 31
0.0
  0
LINE
  5
182
330
3F
100
AcDbEntity
  8
AM_VIS
  6
Continuous
 62
     2
100
AcDbLine
 10
-107.3438013501046
 20
466.7342947818131
 30
0.0
 11
-118.4449103501046
 21
466.7342947818131
 31
0.0
  0
LINE
  5
183
330
3F
100
AcDbEntity
  8
AM_VIS
  6
Continuous
 62
     2
100
AcDbLine
 10
-107.3427473501045
 20
465.687384781813
 30
0.0
 11
-118.2016643501046
 21
465.687384781813
 31
0.0
  0
LINE
  5
184
330
3F
100
AcDbEntity
  8
1
  6
Continuous
 62
     2
100
AcDbLine
 10
-119.6156763501046
 20
469.1153937818131
 30
0.0
 11
-107.2776013501046
 21
469.1153947818132
 31
0.0
  0
LINE
  5
185
330
3F
100
AcDbEntity
  8
1
  6
Continuous
 62
     2
100
AcDbLine
 10
-122.8239569488579
 20
473.3161977818129
 30
0.0
 11
-91.05472935010455
 21
473.3161977818129
 31
0.0
  0
LINE
  5
186
330
3F
100
AcDbEntity
  8
AM_VIS
  6
Continuous
 62
     7
100
AcDbLine
 10
-101.7180293501046
 20
441.9867107818129
 30
0.0
 11
-103.6943733501046
 21
441.986710781813
 31
0.0
  0
LINE
  5
187
330
3F
100
AcDbEntity
  8
AM_VIS
  6
Continuous
 62
     7
100
AcDbLine
 10
-123.5275763501046
 20
441.9867107818129
 30
0.0
 11
-123.7416843501046
 21
441.9867107818129
 31
0.0
  0
LINE
  5
188
330
3F
100
AcDbEntity
  8
AM_VIS
  6
Continuous
 62
     7
100
AcDbLine
 10
-126.5680293501046
 20
441.9867107818146
 30
0.0
 11
-126.5680293501046
 21
441.2867227818131
 31
0.0
  0
LINE
  5
189
330
3F
100
AcDbEntity
  8
AM_VIS
  6
Continuous
 62
     7
100
AcDbLine
 10
-100.8680293501047
 20
441.9867107818129
 30
0.0
 11
-101.7180293501046
 21
441.9867107818129
 31
0.0
  0
LINE
  5
18A
330
3F
100
AcDbEntity
  8
1
  6
DOT_CENTER
 62
     2
100
AcDbLine
 10
-103.8079253501047
 20
438.616893842716
 30
0.0
 11
-103.8079253501047
 21
442.5600602627549
 31
0.0
  0
LINE
  5
18B
330
3F
100
AcDbEntity
  8
1
  6
Continuous
 62
     7
100
AcDbLine
 10
-118.6298193501046
 20
448.4867283626855
 30
0.0
 11
-101.7180293501046
 21
448.4867116231592
 31
0.0
  0
LINE
  5
18C
330
3F
100
AcDbEntity
  8
AM_VIS
  6
Continuous
 62
     7
100
AcDbLine
 10
-101.7180293501046
 20
441.9867107818129
 30
0.0
 11
-101.7180293501046
 21
448.4867116231592
 31
0.0
  0
LINE
  5
18D
330
3F
100
AcDbEntity
  8
1
  6
Continuous
 62
     3
100
AcDbLine
 10
-100.9634063501046
 20
461.864704781813
 30
0.0
 11
-100.9634063501046
 21
468.108716781813
 31
0.0
  0
LINE
  5
18E
330
3F
100
AcDbEntity
  8
1
  6
Continuous
 62
     3
100
AcDbLine
 10
-107.3258513501045
 20
461.864704781813
 30
0.0
 11
-107.3258513501045
 21
468.108716781813
 31
0.0
  0
LINE
  5
18F
330
3F
100
AcDbEntity
  8
1
  6
Continuous
 62
     3
100
AcDbLine
 10
-122.8239569488579
 20
473.3161977818129
 30
0.0
 11
-119.6156763501046
 21
469.1153937818131
 31
0.0
  0
LINE
  5
190
330
3F
100
AcDbEntity
  8
1
  6
Continuous
 62
     3
100
AcDbLine
 10
-126.5544134895125
 20
452.486710781813
 30
0.0
 11
-124.2687943501046
 21
454.998954781813
 31
0.0
  0
LINE
  5
191
330
3F
100
AcDbEntity
  8
1
  6
Continuous
 62
     3
100
AcDbLine
 10
-126.5547293501046
 20
477.986710781813
 30
0.0
 11
-125.5548953501046
 21
477.7743877818131
 31
0.0
  0
LINE
  5
192
330
3F
100
AcDbEntity
  8
1
  6
Continuous
 62
     3
100
AcDbLine
 10
-111.5280453501046
 20
460.8580267818131
 30
0.0
 11
-109.5752233501047
 21
459.563350781813
 31
0.0
  0
LINE
  5
193
330
3F
100
AcDbEntity
  8
AM_VIS
  6
Continuous
 62
     2
100
AcDbLine
 10
-107.3258513501045
 20
461.864704781813
 30
0.0
 11
-119.0336013501046
 21
461.864704781813
 31
0.0
  0
LINE
  5
194
330
3F
100
AcDbEntity
  8
1
  6
Continuous
 62
     3
100
AcDbLine
 10
-117.8608353501047
 20
459.563350781813
 30
0.0
 11
-115.9080133501046
 21
460.8580267818131
 31
0.0
  0
LINE
  5
195
330
3F
100
AcDbEntity
  8
AM_VIS
  6
Continuous
 62
     2
100
AcDbLine
 10
-126.5547293501046
 20
452.486710781813
 30
0.0
 11
-126.5544134895125
 21
452.486710781813
 31
0.0
  0
LINE
  5
196
330
3F
100
AcDbEntity
  8
1
  6
DOT_CENTER
 62
     2
100
AcDbLine
 10
69.23330249241062
 20
465.0352737126223
 30
0.0
 11
42.03441399305731
 21
465.0352737126223
 31
0.0
  0
LINE
  5
197
330
3F
100
AcDbEntity
  8
AM_VIS
  6
Continuous
 62
     7
100
AcDbLine
 10
45.97589934543822
 20
454.123476431732
 30
0.0
 11
47.99666334543822
 21
453.2464774317321
 31
0.0
  0
LINE
  5
198
330
3F
100
AcDbEntity
  8
AM_VIS
  6
Continuous
 62
     7
100
AcDbLine
 10
47.99666334543822
 20
453.2464774317321
 30
0.0
 11
48.8736573454382
 21
451.2257174317322
 31
0.0
  0
LINE
  5
199
330
3F
100
AcDbEntity
  8
AM_VIS
  6
Continuous
 62
     7
100
AcDbLine
 10
45.97711634543822
 20
454.6152614317322
 30
0.0
 11
48.87360334543822
 21
454.6153004317321
 31
0.0
  0
LINE
  5
19A
330
3F
100
AcDbEntity
  8
AM_VIS
  6
Continuous
 62
     7
100
AcDbLine
 10
62.69723234543821
 20
451.2257144317321
 30
0.0
 11
63.57423134543822
 21
453.2464774317321
 31
0.0
  0
LINE
  5
19B
330
3F
100
AcDbEntity
  8
AM_VIS
  6
Continuous
 62
     7
100
AcDbLine
 10
63.57423134543822
 20
453.2464774317321
 30
0.0
 11
65.59499434543821
 21
454.123476431732
 31
0.0
  0
LINE
  5
19C
330
3F
100
AcDbEntity
  8
AM_VIS
  6
Continuous
 62
     7
100
AcDbLine
 10
62.69723234543821
 20
451.2257144317321
 30
0.0
 11
62.69723234543821
 21
454.6152614317322
 31
0.0
  0
LINE
  5
19D
330
3F
100
AcDbEntity
  8
AM_VIS
  6
Continuous
 62
     7
100
AcDbLine
 10
65.59499434543821
 20
454.6152614317322
 30
0.0
 11
65.59499434543821
 21
454.123476431732
 31
0.0
  0
LINE
  5
19E
330
3F
100
AcDbEntity
  8
AM_VIS
  6
Continuous
 62
     7
100
AcDbLine
 10
65.59377734543821
 20
454.6152614317322
 30
0.0
 11
65.59499434543821
 21
454.6152614317322
 31
0.0
  0
LINE
  5
19F
330
3F
100
AcDbEntity
  8
AM_VIS
  6
Continuous
 62
     7
100
AcDbLine
 10
65.59377734543821
 20
457.3158584317321
 30
0.0
 11
65.59377734543821
 21
454.6152614317322
 31
0.0
  0
LINE
  5
1A0
330
3F
100
AcDbEntity
  8
AM_VIS
  6
Continuous
 62
     7
100
AcDbLine
 10
62.69723234543821
 20
454.6152614317322
 30
0.0
 11
65.59377734543821
 21
454.6152614317322
 31
0.0
  0
LINE
  5
1A1
330
3F
100
AcDbEntity
  8
AM_VIS
  6
Continuous
 62
     7
100
AcDbLine
 10
48.87360334543822
 20
454.6153004317321
 30
0.0
 11
48.8736573454382
 21
451.2257174317322
 31
0.0
  0
LINE
  5
1A2
330
3F
100
AcDbEntity
  8
AM_VIS
  6
Continuous
 62
     7
100
AcDbLine
 10
45.97589934543822
 20
454.6152614317322
 30
0.0
 11
45.97711634543822
 21
454.6152614317322
 31
0.0
  0
LINE
  5
1A3
330
3F
100
AcDbEntity
  8
AM_VIS
  6
Continuous
 62
     7
100
AcDbLine
 10
45.97589934543822
 20
454.123476431732
 30
0.0
 11
45.97589934543822
 21
454.6152614317322
 31
0.0
  0
LINE
  5
1A4
330
3F
100
AcDbEntity
  8
AM_VIS
  6
Continuous
 62
     7
100
AcDbLine
 10
45.97711634543822
 20
454.6152614317322
 30
0.0
 11
45.97711634543822
 21
457.3158584317321
 31
0.0
  0
LINE
  5
1A5
330
3F
100
AcDbEntity
  8
1
  6
Continuous
 62
     7
100
AcDbLine
 10
68.63544734543822
 20
442.035261431732
 30
0.0
 11
67.7854473454382
 21
442.035261431732
 31
0.0
  0
LINE
  5
1A6
330
3F
100
AcDbEntity
  8
AM_VIS
  6
Continuous
 62
     7
100
AcDbLine
 10
48.8736573454382
 20
451.2257174317322
 30
0.0
 11
48.8736573454382
 21
442.035261431732
 31
0.0
  0
LINE
  5
1A7
330
3F
100
AcDbEntity
  8
AM_VIS
  6
Continuous
 62
     7
100
AcDbLine
 10
43.7854473454382
 20
461.5352737126225
 30
0.0
 11
43.7854473454382
 21
452.035261431732
 31
0.0
  0
LINE
  5
1A8
330
3F
100
AcDbEntity
  8
AM_VIS
  6
Continuous
 62
     7
100
AcDbLine
 10
67.7854473454382
 20
442.035261431732
 30
0.0
 11
67.7854473454382
 21
448.535261431732
 31
0.0
  0
LINE
  5
1A9
330
3F
100
AcDbEntity
  8
AM_VIS
  6
Continuous
 62
     7
100
AcDbLine
 10
62.69723734543823
 20
442.035261431732
 30
0.0
 11
62.69723234543821
 21
451.2257144317321
 31
0.0
  0
LINE
  5
1AA
330
3F
100
AcDbEntity
  8
AM_VIS
  6
Continuous
 62
     7
100
AcDbLine
 10
65.59499434543821
 20
454.123476431732
 30
0.0
 11
65.59499171770281
 21
443.535266431732
 31
0.0
  0
LINE
  5
1AB
330
3F
100
AcDbEntity
  8
AM_VIS
  6
Continuous
 62
     7
100
AcDbLine
 10
42.93544734543812
 20
442.035261431732
 30
0.0
 11
42.93544734543812
 21
440.535387096775
 31
0.0
  0
LINE
  5
1AC
330
3F
100
AcDbEntity
  8
AM_VIS
  6
Continuous
 62
     7
100
AcDbLine
 10
-88.05472935010455
 20
453.486710781813
 30
0.0
 11
-88.05472935010455
 21
460.892507781813
 31
0.0
  0
LINE
  5
1AD
330
3F
100
AcDbEntity
  8
AM_VIS
  6
Continuous
 62
     7
100
AcDbLine
 10
-91.05472935010455
 20
452.486710781813
 30
0.0
 11
-91.05472935010455
 21
453.436710781813
 31
0.0
  0
LINE
  5
1AE
330
3F
100
AcDbEntity
  8
AM_VIS
  6
Continuous
 62
     7
100
AcDbLine
 10
-88.05472935010455
 20
476.486710781813
 30
0.0
 11
-88.05472935010455
 21
476.5367107818129
 31
0.0
  0
LINE
  5
1AF
330
3F
100
AcDbEntity
  8
AM_VIS
  6
Continuous
 62
     7
100
AcDbLine
 10
-91.05472935010455
 20
476.5367107818129
 30
0.0
 11
-91.05472935010455
 21
453.436710781813
 31
0.0
  0
LINE
  5
1B0
330
3F
100
AcDbEntity
  8
AM_VIS
  6
Continuous
 62
     7
100
AcDbLine
 10
-88.65472935010457
 20
475.561710781813
 30
0.0
 11
-88.65472935010457
 21
476.5367107818129
 31
0.0
  0
LINE
  5
1B1
330
3F
100
AcDbEntity
  8
AM_VIS
  6
Continuous
 62
     7
100
AcDbLine
 10
-90.2547293501046
 20
475.561710781813
 30
0.0
 11
-90.2547293501046
 21
476.5367107818129
 31
0.0
  0
LINE
  5
1B2
330
3F
100
AcDbEntity
  8
AM_VIS
  6
Continuous
 62
     7
100
AcDbLine
 10
-90.2547293501046
 20
454.4117107818129
 30
0.0
 11
-90.2547293501046
 21
475.561710781813
 31
0.0
  0
LINE
  5
1B3
330
3F
100
AcDbEntity
  8
AM_VIS
  6
Continuous
 62
     7
100
AcDbLine
 10
-88.65472935010457
 20
454.4117107818129
 30
0.0
 11
-88.65472935010457
 21
460.892507781813
 31
0.0
  0
LINE
  5
1B4
330
3F
100
AcDbEntity
  8
AM_VIS
  6
Continuous
 62
     7
100
AcDbLine
 10
-100.8680293501046
 20
452.486710781813
 30
0.0
 11
-91.05472935010455
 21
452.486710781813
 31
0.0
  0
LINE
  5
1B5
330
3F
100
AcDbEntity
  8
AM_VIS
  6
Continuous
 62
     2
100
AcDbLine
 10
-91.05472935010455
 20
452.506363781813
 30
0.0
 11
-101.7385023501045
 21
452.506363781813
 31
0.0
  0
LINE
  5
1B6
330
3F
100
AcDbEntity
  8
AM_VIS
  6
Continuous
 62
     2
100
AcDbLine
 10
-91.05472935010455
 20
452.8828647818129
 30
0.0
 11
-102.1312653501047
 21
452.8828647818129
 31
0.0
  0
LINE
  5
1B7
330
3F
100
AcDbEntity
  8
AM_VIS
  6
Continuous
 62
     2
100
AcDbLine
 10
-91.05472935010455
 20
453.724509781813
 30
0.0
 11
-103.0134893501045
 21
453.724509781813
 31
0.0
  0
LINE
  5
1B8
330
3F
100
AcDbEntity
  8
AM_VIS
  6
Continuous
 62
     2
100
AcDbLine
 10
-91.05472935010455
 20
454.220407781813
 30
0.0
 11
-103.5365123501047
 21
454.220407781813
 31
0.0
  0
LINE
  5
1B9
330
3F
100
AcDbEntity
  8
AM_VIS
  6
Continuous
 62
     2
100
AcDbLine
 10
-91.05472935010455
 20
454.998954781813
 30
0.0
 11
-104.3636043501045
 21
454.998954781813
 31
0.0
  0
LINE
  5
1BA
330
3F
100
AcDbEntity
  8
AM_VIS
  6
Continuous
 62
     2
100
AcDbLine
 10
-91.05472935010455
 20
457.470412781813
 30
0.0
 11
-102.1007723501045
 21
457.470412781813
 31
0.0
  0
LINE
  5
1BB
330
3F
100
AcDbEntity
  8
AM_VIS
  6
Continuous
 62
     2
100
AcDbLine
 10
-91.05472935010455
 20
458.6355907818129
 30
0.0
 11
-101.4233863501045
 21
458.6355907818129
 31
0.0
  0
LINE
  5
1BC
330
3F
100
AcDbEntity
  8
AM_VIS
  6
Continuous
 62
     2
100
AcDbLine
 10
-91.05472935010455
 20
459.563350781813
 30
0.0
 11
-101.1732433501047
 21
459.563350781813
 31
0.0
  0
LINE
  5
1BD
330
3F
100
AcDbEntity
  8
AM_VIS
  6
Continuous
 62
     2
100
AcDbLine
 10
-91.05472935010455
 20
460.8580267818131
 30
0.0
 11
-101.0116573501046
 21
460.8580267818131
 31
0.0
  0
LINE
  5
1BE
330
3F
100
AcDbEntity
  8
AM_VIS
  6
Continuous
 62
     2
100
AcDbLine
 10
-91.05472935010455
 20
461.864704781813
 30
0.0
 11
-100.9634063501046
 21
461.864704781813
 31
0.0
  0
LINE
  5
1BF
330
3F
100
AcDbEntity
  8
AM_VIS
  6
Continuous
 62
     2
100
AcDbLine
 10
-91.05472935010455
 20
463.239126781813
 30
0.0
 11
-100.9454563501046
 21
463.239126781813
 31
0.0
  0
LINE
  5
1C0
330
3F
100
AcDbEntity
  8
AM_VIS
  6
Continuous
 62
     7
100
AcDbLine
 10
-91.05472935010455
 20
463.771297781813
 30
0.0
 11
-100.9465103501046
 21
463.771297781813
 31
0.0
  0
LINE
  5
1C1
330
3F
100
AcDbEntity
  8
AM_VIS
  6
Continuous
 62
     2
100
AcDbLine
 10
-91.05472935010455
 20
456.6572237818131
 30
0.0
 11
-103.4771433501046
 21
456.6572237818131
 31
0.0
  0
LINE
  5
1C2
330
3F
100
AcDbEntity
  8
AM_VIS
  6
Continuous
 62
     2
100
AcDbLine
 10
-91.05472935010455
 20
455.6663217818132
 30
0.0
 11
-105.0797623501047
 21
455.6663217818132
 31
0.0
  0
LINE
  5
1C3
330
3F
100
AcDbEntity
  8
AM_VIS
  6
Continuous
 62
     2
100
AcDbLine
 10
-91.05472935010455
 20
474.306372781813
 30
0.0
 11
-123.6781043501047
 21
474.306372781813
 31
0.0
  0
LINE
  5
1C4
330
3F
100
AcDbEntity
  8
AM_VIS
  6
Continuous
 62
     2
100
AcDbLine
 10
-91.05472935010455
 20
475.198796781813
 30
0.0
 11
-124.3439093501046
 21
475.198796781813
 31
0.0
  0
LINE
  5
1C5
330
3F
100
AcDbEntity
  8
AM_VIS
  6
Continuous
 62
     7
100
AcDbLine
 10
-91.05472935010455
 20
477.986710781813
 30
0.0
 11
-126.5547293501046
 21
477.986710781813
 31
0.0
  0
LINE
  5
1C6
330
3F
100
AcDbEntity
  8
AM_VIS
  6
Continuous
 62
     7
100
AcDbLine
 10
-90.2547293501046
 20
453.436710781813
 30
0.0
 11
-90.2547293501046
 21
454.4117107818129
 31
0.0
  0
LINE
  5
1C7
330
3F
100
AcDbEntity
  8
AM_VIS
  6
Continuous
 62
     7
100
AcDbLine
 10
-80.05472935010455
 20
464.986710781813
 30
0.0
 11
-80.05472935010455
 21
475.7867107818129
 31
0.0
  0
LINE
  5
1C8
330
3F
100
AcDbEntity
  8
AM_VIS
  6
Continuous
 62
     7
100
AcDbLine
 10
-80.7547293501046
 20
468.9376597818131
 30
0.0
 11
-80.7547293501046
 21
476.486710781813
 31
0.0
  0
LINE
  5
1C9
330
3F
100
AcDbEntity
  8
AM_VIS
  6
Continuous
 62
     7
100
AcDbLine
 10
-88.05472935010455
 20
469.080913781813
 30
0.0
 11
-88.05472935010455
 21
476.486710781813
 31
0.0
  0
LINE
  5
1CA
330
3F
100
AcDbEntity
  8
AM_VIS
  6
Continuous
 62
     7
100
AcDbLine
 10
-88.65472935010457
 20
469.080913781813
 30
0.0
 11
-88.65472935010457
 21
475.561710781813
 31
0.0
  0
LINE
  5
1CB
330
3F
100
AcDbEntity
  8
AM_VIS
  6
Continuous
 62
     7
100
AcDbLine
 10
-80.7547293501046
 20
453.486710781813
 30
0.0
 11
-80.05472935010455
 21
454.186710781813
 31
0.0
  0
LINE
  5
1CC
330
3F
100
AcDbEntity
  8
AM_VIS
  6
Continuous
 62
     7
100
AcDbLine
 10
-80.7547293501046
 20
468.9376597818131
 30
0.0
 11
-80.22833335010462
 21
466.9309327818129
 31
0.0
  0
LINE
  5
1CD
330
3F
100
AcDbEntity
  8
AM_VIS
  6
Continuous
 62
     7
100
AcDbLine
 10
-80.22833335010462
 20
466.9309327818129
 30
0.0
 11
-80.05472935010455
 21
464.986710781813
 31
0.0
  0
LINE
  5
1CE
330
3F
100
AcDbEntity
  8
AM_VIS
  6
Continuous
 62
     7
100
AcDbLine
 10
-80.05472935010455
 20
464.986710781813
 30
0.0
 11
-80.22833335010462
 21
463.0424887818131
 31
0.0
  0
LINE
  5
1CF
330
3F
100
AcDbEntity
  8
AM_VIS
  6
Continuous
 62
     7
100
AcDbLine
 10
-80.22833335010462
 20
463.0424887818131
 30
0.0
 11
-80.7547293501046
 21
461.0357617818129
 31
0.0
  0
LINE
  5
1D0
330
3F
100
AcDbEntity
  8
AM_VIS
  6
Continuous
 62
     7
100
AcDbLine
 10
-88.05472935010455
 20
453.486710781813
 30
0.0
 11
-80.7547293501046
 21
453.486710781813
 31
0.0
  0
LINE
  5
1D1
330
3F
100
AcDbEntity
  8
AM_VIS
  6
Continuous
 62
     7
100
AcDbLine
 10
-80.7547293501046
 20
461.0357617818129
 30
0.0
 11
-88.05472935010455
 21
461.0357617818129
 31
0.0
  0
LINE
  5
1D2
330
3F
100
AcDbEntity
  8
AM_VIS
  6
Continuous
 62
     7
100
AcDbLine
 10
-88.05472935010455
 20
468.9376597818131
 30
0.0
 11
-80.7547293501046
 21
468.9376597818131
 31
0.0
  0
LINE
  5
1D3
330
3F
100
AcDbEntity
  8
AM_VIS
  6
Continuous
 62
     7
100
AcDbLine
 10
-91.05472935010455
 20
453.436710781813
 30
0.0
 11
-90.2547293501046
 21
453.436710781813
 31
0.0
  0
LINE
  5
1D4
330
3F
100
AcDbEntity
  8
AM_VIS
  6
Continuous
 62
     7
100
AcDbLine
 10
-90.2547293501046
 20
454.4117107818129
 30
0.0
 11
-88.65472935010457
 21
454.4117107818129
 31
0.0
  0
LINE
  5
1D5
330
3F
100
AcDbEntity
  8
AM_VIS
  6
Continuous
 62
     7
100
AcDbLine
 10
-88.65472935010457
 20
453.436710781813
 30
0.0
 11
-88.05472935010455
 21
453.436710781813
 31
0.0
  0
LINE
  5
1D6
330
3F
100
AcDbEntity
  8
AM_VIS
  6
Continuous
 62
     7
100
AcDbLine
 10
-88.05472935010455
 20
453.436710781813
 30
0.0
 11
-88.05472935010455
 21
453.486710781813
 31
0.0
  0
LINE
  5
1D7
330
3F
100
AcDbEntity
  8
AM_VIS
  6
Continuous
 62
     7
100
AcDbLine
 10
-88.65472935010457
 20
453.436710781813
 30
0.0
 11
-88.65472935010457
 21
454.4117107818129
 31
0.0
  0
LINE
  5
1D8
330
3F
100
AcDbEntity
  8
AM_VIS
  6
Continuous
 62
     7
100
AcDbLine
 10
-88.05472935010455
 20
461.0357617818129
 30
0.0
 11
-88.05472935010455
 21
460.892507781813
 31
0.0
  0
LINE
  5
1D9
330
3F
100
AcDbEntity
  8
AM_VIS
  6
Continuous
 62
     7
100
AcDbLine
 10
-88.05472935010455
 20
460.892507781813
 30
0.0
 11
-88.65472935010457
 21
460.892507781813
 31
0.0
  0
LINE
  5
1DA
330
3F
100
AcDbEntity
  8
AM_VIS
  6
Continuous
 62
     7
100
AcDbLine
 10
-88.65472935010457
 20
460.892507781813
 30
0.0
 11
-88.65472935010457
 21
469.080913781813
 31
0.0
  0
LINE
  5
1DB
330
3F
100
AcDbEntity
  8
AM_VIS
  6
Continuous
 62
     7
100
AcDbLine
 10
-88.65472935010457
 20
469.080913781813
 30
0.0
 11
-88.05472935010455
 21
469.080913781813
 31
0.0
  0
LINE
  5
1DC
330
3F
100
AcDbEntity
  8
AM_VIS
  6
Continuous
 62
     7
100
AcDbLine
 10
-88.05472935010455
 20
469.080913781813
 30
0.0
 11
-88.05472935010455
 21
468.9376597818131
 31
0.0
  0
LINE
  5
1DD
330
3F
100
AcDbEntity
  8
AM_VIS
  6
Continuous
 62
     7
100
AcDbLine
 10
-80.7547293501046
 20
453.486710781813
 30
0.0
 11
-80.7547293501046
 21
461.0357617818129
 31
0.0
  0
LINE
  5
1DE
330
3F
100
AcDbEntity
  8
AM_VIS
  6
Continuous
 62
     7
100
AcDbLine
 10
-80.05472935010455
 20
454.186710781813
 30
0.0
 11
-74.85472935010445
 21
454.186710781813
 31
0.0
  0
LINE
  5
1DF
330
3F
100
AcDbEntity
  8
AM_VIS
  6
Continuous
 62
     7
100
AcDbLine
 10
-80.05472935010455
 20
454.186710781813
 30
0.0
 11
-80.05472935010455
 21
464.986710781813
 31
0.0
  0
LINE
  5
1E0
330
3F
100
AcDbEntity
  8
AM_VIS
  6
Continuous
 62
     7
100
AcDbLine
 10
-80.05472935010455
 20
475.7867107818129
 30
0.0
 11
-80.7547293501046
 21
476.486710781813
 31
0.0
  0
LINE
  5
1E1
330
3F
100
AcDbEntity
  8
AM_VIS
  6
Continuous
 62
     7
100
AcDbLine
 10
-80.7547293501046
 20
476.486710781813
 30
0.0
 11
-88.05472935010455
 21
476.486710781813
 31
0.0
  0
LINE
  5
1E2
330
3F
100
AcDbEntity
  8
AM_VIS
  6
Continuous
 62
     7
100
AcDbLine
 10
-90.2547293501046
 20
476.5367107818129
 30
0.0
 11
-91.05472935010455
 21
476.5367107818129
 31
0.0
  0
LINE
  5
1E3
330
3F
100
AcDbEntity
  8
AM_VIS
  6
Continuous
 62
     7
100
AcDbLine
 10
-88.65472935010457
 20
475.561710781813
 30
0.0
 11
-90.2547293501046
 21
475.561710781813
 31
0.0
  0
LINE
  5
1E4
330
3F
100
AcDbEntity
  8
AM_VIS
  6
Continuous
 62
     7
100
AcDbLine
 10
-88.05472935010455
 20
476.5367107818129
 30
0.0
 11
-88.65472935010457
 21
476.5367107818129
 31
0.0
  0
LINE
  5
1E5
330
3F
100
AcDbEntity
  8
1
  6
DOT_CENTER
 62
     2
100
AcDbLine
 10
-90.05472935010455
 20
464.986710781813
 30
0.0
 11
-78.7547293501046
 21
464.986710781813
 31
0.0
  0
LINE
  5
1E6
330
3F
100
AcDbEntity
  8
AM_VIS
  6
Continuous
 62
     2
100
AcDbLine
 10
-91.05472935010455
 20
465.687384781813
 30
0.0
 11
-100.9488726772114
 21
465.687384781813
 31
0.0
  0
LINE
  5
1E7
330
3F
100
AcDbEntity
  8
AM_VIS
  6
Continuous
 62
     2
100
AcDbLine
 10
-91.05472935010455
 20
464.286036781813
 30
0.0
 11
-100.9511865040718
 21
464.286036781813
 31
0.0
  0
LINE
  5
1E8
330
3F
100
AcDbEntity
  8
AM_VIS
  6
Continuous
 62
     2
100
AcDbLine
 10
-91.05472935010455
 20
466.7342947818129
 30
0.0
 11
-100.9454563501046
 21
466.7342947818131
 31
0.0
  0
LINE
  5
1E9
330
3F
100
AcDbEntity
  8
AM_VIS
  6
Continuous
 62
     2
100
AcDbLine
 10
-91.05472935010455
 20
468.108716781813
 30
0.0
 11
-100.9634063501046
 21
468.108716781813
 31
0.0
  0
LINE
  5
1EA
330
3F
100
AcDbEntity
  8
AM_VIS
  6
Continuous
 62
     2
100
AcDbLine
 10
-91.05472935010455
 20
469.1153937818131
 30
0.0
 11
-101.0116573543088
 21
469.1153937818131
 31
0.0
  0
LINE
  5
1EB
330
3F
100
AcDbEntity
  8
AM_VIS
  6
Continuous
 62
     2
100
AcDbLine
 10
-91.05472935010455
 20
470.410070781813
 30
0.0
 11
-101.1732433501047
 21
470.410070781813
 31
0.0
  0
LINE
  5
1EC
330
3F
100
AcDbEntity
  8
AM_VIS
  6
Continuous
 62
     2
100
AcDbLine
 10
-91.05472935010455
 20
471.3378307818131
 30
0.0
 11
-101.4233863501045
 21
471.3378307818131
 31
0.0
  0
LINE
  5
1ED
330
3F
100
AcDbEntity
  8
AM_VIS
  6
Continuous
 62
     2
100
AcDbLine
 10
-91.05472935010455
 20
472.503008781813
 30
0.0
 11
-102.1007723501045
 21
472.503008781813
 31
0.0
  0
LINE
  5
1EE
330
3F
100
AcDbEntity
  8
1
  6
Continuous
 62
     7
100
AcDbLine
 10
-100.8680293501046
 20
448.4867116231592
 30
0.0
 11
-100.8680293501046
 21
452.486710781813
 31
0.0
  0
LINE
  5
1EF
330
3F
100
AcDbEntity
  8
AM_VIS
  6
Continuous
 62
     7
100
AcDbLine
 10
-101.7180293501046
 20
452.486710781813
 30
0.0
 11
-100.8680293501046
 21
452.486710781813
 31
0.0
  0
LINE
  5
1F0
330
3F
100
AcDbEntity
  8
1
  6
Continuous
 62
     7
100
AcDbLine
 10
-100.8680293501046
 20
448.4867116231592
 30
0.0
 11
-101.7180293501046
 21
448.4867116231592
 31
0.0
  0
LINE
  5
1F1
330
3F
100
AcDbEntity
  8
1
  6
Continuous
 62
     7
100
AcDbLine
 10
-100.8680293501046
 20
448.486710781813
 30
0.0
 11
-100.8680293501046
 21
448.4867116231592
 31
0.0
  0
LINE
  5
1F2
330
3F
100
AcDbEntity
  8
1
  6
Continuous
 62
     7
100
AcDbLine
 10
42.93544734543812
 20
442.035261431732
 30
0.0
 11
42.93544734543812
 21
452.035261431732
 31
0.0
  0
LINE
  5
1F3
330
3F
100
AcDbEntity
  8
1
  6
Continuous
 62
     7
100
AcDbLine
 10
42.93544734543812
 20
452.035261431732
 30
0.0
 11
43.7854473454382
 21
452.035261431732
 31
0.0
  0
LINE
  5
1F4
330
3F
100
AcDbEntity
  8
AM_VIS
  6
Continuous
 62
     7
100
AcDbLine
 10
43.7854473454382
 20
452.035261431732
 30
0.0
 11
43.7854473454382
 21
448.535261431732
 31
0.0
  0
LINE
  5
1F5
330
3F
100
AcDbEntity
  8
AM_VIS
  6
Continuous
 62
     7
100
AcDbLine
 10
-91.05472935010455
 20
477.986710781813
 30
0.0
 11
-91.05472935010455
 21
476.5367107818129
 31
0.0
  0
LINE
  5
1F6
330
3F
100
AcDbEntity
  8
1
  6
Continuous
 62
     7
100
AcDbLine
 10
-74.85472935010445
 20
475.7867107818129
 30
0.0
 11
-74.85472935010445
 21
454.186710781813
 31
0.0
  0
LINE
  5
1F7
330
3F
100
AcDbEntity
  8
1
  6
DOT_CENTER
 62
     2
100
AcDbLine
 10
69.5354473454382
 20
465.0352737126223
 30
0.0
 11
42.0354473454382
 21
465.0352737126223
 31
0.0
  0
LINE
  5
1F8
330
3F
100
AcDbEntity
  8
1
  6
DOT_CENTER
 62
     2
100
AcDbLine
 10
55.7854473454382
 20
478.7852737126223
 30
0.0
 11
55.7854473454382
 21
451.2852737126223
 31
0.0
  0
ARC
  5
1F9
330
3F
100
AcDbEntity
  8
1
  6
Continuous
 62
     7
100
AcDbCircle
 10
55.7854473454382
 20
465.0352737126223
 30
0.0
 40
12.49999999999996
100
AcDbArc
 50
131.7916668414017
 51
180.0
  0
ARC
  5
1FA
330
3F
100
AcDbEntity
  8
1
  6
Continuous
 62
     7
100
AcDbCircle
 10
55.7854473454382
 20
465.0352737126223
 30
0.0
 40
12.5
100
AcDbArc
 50
180.0
 51
-163.7397952916888
  0
ARC
  5
1FB
330
3F
100
AcDbEntity
  8
1
  6
Continuous
 62
     3
100
AcDbCircle
 10
-104.1446293501045
 20
470.5656052609697
 30
0.0
 40
2.828691520843329
100
AcDbArc
 50
15.84270966064661
 51
164.1572903393539
  0
ARC
  5
1FC
330
3F
100
AcDbEntity
  8
1
  6
Continuous
 62
     3
100
AcDbCircle
 10
-104.1446293501045
 20
459.4053971675958
 30
0.0
 40
2.828032060752034
100
AcDbArc
 50
-164.2044401773434
 51
-15.79555982266157
  0
ARC
  5
1FD
330
3F
100
AcDbEntity
  8
1
  6
Continuous
 62
     3
100
AcDbCircle
 10
-97.82521813515571
 20
468.4026943828329
 30
0.0
 40
9.505180393600721
100
AcDbArc
 50
162.01347341041
 51
-178.2276651707508
  0
ARC
  5
1FE
330
3F
100
AcDbEntity
  8
1
  6
Continuous
 62
     3
100
AcDbCircle
 10
-97.82521813515548
 20
461.5707271807933
 30
0.0
 40
9.50518039360084
100
AcDbArc
 50
178.2276651707525
 51
-162.0134734104104
  0
ARC
  5
1FF
330
3F
100
AcDbEntity
  8
1
  6
Continuous
 62
     3
100
AcDbCircle
 10
-110.463984955257
 20
468.4026993621433
 30
0.0
 40
9.505125963932155
100
AcDbArc
 50
-1.77237501055783
 51
17.9866015521367
  0
ARC
  5
200
330
3F
100
AcDbEntity
  8
1
  6
Continuous
 62
     3
100
AcDbCircle
 10
-110.463984955257
 20
461.570722201483
 30
0.0
 40
9.505125963932324
100
AcDbArc
 50
-17.98660155213865
 51
1.77237501055543
  0
ARC
  5
201
330
3F
100
AcDbEntity
  8
1
  6
Continuous
 62
     3
100
AcDbCircle
 10
-125.2931222190953
 20
465.0206888590279
 30
0.0
 40
7.000000000000003
100
AcDbArc
 50
-35.83290971214022
 51
35.80001208873809
  0
ARC
  5
202
330
3F
100
AcDbEntity
  8
1
  6
Continuous
 62
     3
100
AcDbCircle
 10
-150.894724288405
 20
480.6905848375474
 30
0.0
 40
36.99999999999998
100
AcDbArc
 50
-43.97690659750731
 51
-32.29418010190274
  0
ARC
  5
203
330
3F
100
AcDbEntity
  8
1
  6
Continuous
 62
     3
100
AcDbCircle
 10
-120.6358821264465
 20
478.6706627984663
 30
0.0
 40
4.999999999999991
100
AcDbArc
 50
-169.673631127071
 51
-147.2760245827827
  0
ARC
  5
204
330
3F
100
AcDbEntity
  8
1
  6
Continuous
 62
     3
100
AcDbCircle
 10
-109.5782668970331
 20
485.5075713314146
 30
0.0
 40
18.00000000000002
100
AcDbArc
 50
-147.9950310843459
 51
-137.3670960076017
  0
ARC
  5
205
330
3F
100
AcDbEntity
  8
1
  6
Continuous
 62
     3
100
AcDbCircle
 10
-149.753413626197
 20
407.0770585209783
 30
0.0
 40
66.10169938058922
100
AcDbArc
 50
43.39045719333735
 51
51.25947665728773
  0
ARC
  5
206
330
3F
100
AcDbEntity
  8
1
  6
Continuous
 62
     3
100
AcDbCircle
 10
-113.7180288501046
 20
458.8076677230802
 30
0.0
 40
3.000000000000056
100
AcDbArc
 50
43.11406702827522
 51
136.8859329717248
  0
ARC
  5
207
330
3F
100
AcDbEntity
  8
1
  6
Continuous
 62
     3
100
AcDbCircle
 10
-77.83246201149525
 20
407.0873626742518
 30
0.0
 40
66.00000000000007
100
AcDbArc
 50
127.3361739419134
 51
130.4244494423627
  0
ARC
  5
208
330
3F
100
AcDbEntity
  8
1
  6
Continuous
 62
     3
100
AcDbCircle
 10
-77.83246201149525
 20
407.0873626742518
 30
0.0
 40
66.00000000000001
100
AcDbArc
 50
133.4534643289624
 51
136.5383494675059
  0
ARC
  5
209
330
3F
100
AcDbEntity
  8
1
  6
Continuous
 62
     3
100
AcDbCircle
 10
-149.6035966887139
 20
407.0873626742518
 30
0.0
 40
66.00000000000009
100
AcDbArc
 50
51.35532310571575
 51
52.66382605808675
  0
ARC
  5
20A
330
3F
100
AcDbEntity
  8
1
  6
Continuous
 62
     3
100
AcDbCircle
 10
-77.83246201149525
 20
407.0873626742518
 30
0.0
 40
66.00000000000001
100
AcDbArc
 50
130.4244494423627
 51
133.4534643289624
  0
ARC
  5
20B
330
3F
100
AcDbEntity
  8
1
  6
Continuous
 62
     7
100
AcDbCircle
 10
60.75682497341573
 20
462.5213474464715
 30
0.0
 40
17.0000000000001
100
AcDbArc
 50
-176.6747298525215
 51
-150.3966691892986
  0
ARC
  5
20C
330
3F
100
AcDbEntity
  8
1
  6
Continuous
 62
     7
100
AcDbCircle
 10
51.8005290737361
 20
462.2298151779111
 30
0.0
 40
16.00000000000001
100
AcDbArc
 50
-30.44068999899292
 51
-2.48792517799264
  0
ARC
  5
20D
330
3F
100
AcDbEntity
  8
1
  6
Continuous
 62
     7
100
AcDbCircle
 10
55.78544730677632
 20
462.5672132170549
 30
0.0
 40
13.28165528532296
100
AcDbArc
 50
-121.359170144129
 51
-58.6408547245958
  0
ARC
  5
20E
330
3F
100
AcDbEntity
  8
1
  6
Continuous
 62
     7
100
AcDbCircle
 10
55.7854473454382
 20
465.0352737126223
 30
0.0
 40
12.49999999999995
100
AcDbArc
 50
-163.7397952916888
 51
-16.26020470831196
  0
ARC
  5
20F
330
3F
100
AcDbEntity
  8
1
  6
Continuous
 62
     7
100
AcDbCircle
 10
67.60004271941432
 20
480.4261534787785
 30
0.0
 40
6.999999999999873
100
AcDbArc
 50
-153.0067442793675
 51
-119.8516759502467
  0
ARC
  5
210
330
3F
100
AcDbEntity
  8
1
  6
Continuous
 62
     7
100
AcDbCircle
 10
55.7854468454382
 20
408.0353025169745
 30
0.0
 40
69.99997119564779
100
AcDbArc
 50
86.3655507547905
 51
93.63444836870288
  0
ARC
  5
211
330
3F
100
AcDbEntity
  8
1
  6
Continuous
 62
     7
100
AcDbCircle
 10
55.7854473454382
 20
465.0352737126223
 30
0.0
 40
12.5
100
AcDbArc
 50
-16.26020470831196
 51
48.20833315859821
  0
ARC
  5
212
330
3F
100
AcDbEntity
  8
1
  6
Continuous
 62
     7
100
AcDbCircle
 10
43.97085197146211
 20
480.4261534787785
 30
0.0
 40
6.999999999999898
100
AcDbArc
 50
-60.14832404975326
 51
-29.66860429910941
  0
XLINE
  5
213
330
3F
100
AcDbEntity
  8
1
  6
DOT_CENTER
 62
     3
 60
     1
100
AcDbXline
 10
-100.8680293501046
 20
448.4867116231592
 30
0.0
 11
0.0
 21
1.0
 31
0.0
  0
ARC
  5
214
330
3F
100
AcDbEntity
  8
1
  6
Continuous
 62
     7
100
AcDbCircle
 10
-119.6298193501046
 20
450.9867107818129
 30
0.0
 40
1.0
100
AcDbArc
 50
90.0
 51
180.0
  0
ARC
  5
215
330
3F
100
AcDbEntity
  8
1
  6
Continuous
 62
     7
100
AcDbCircle
 10
-119.6298193501046
 20
450.9867107818129
 30
0.0
 40
1.0
100
AcDbArc
 50
0.0
 51
90.0
  0
ARC
  5
216
330
3F
100
AcDbEntity
  8
1
  6
Continuous
 62
     7
100
AcDbCircle
 10
60.12769937018732
 20
476.3975062323016
 30
0.0
 40
1.499999999999962
100
AcDbArc
 50
34.58525929494213
 51
86.36555075479451
  0
ARC
  5
217
330
3F
100
AcDbEntity
  8
1
  6
Continuous
 62
     7
100
AcDbCircle
 10
51.44319536648922
 20
476.397506298729
 30
0.0
 40
1.500000000000168
100
AcDbArc
 50
93.63444836870467
 51
157.9233961932049
  0
ENDBLK
  5
42
330
3F
100
AcDbEntity
  8
0
100
AcDbBlockEnd
  0
BLOCK
  5
44
330
43
100
AcDbEntity
  8
0
100
AcDbBlockBegin
  2
Lagerschild_B-S
 70
     0
 71
     0
 10
-102.2180293501048
 20
325.535387096775
 30
0.0
  3
Lagerschild_B-S
  1

  0
POINT
  5
218
330
43
100
AcDbEntity
  8
1
 62
     3
 60
     1
100
AcDbPoint
 10
-140.7180293501048
 20
420.235387096775
 30
0.0
  0
POINT
  5
219
330
43
100
AcDbEntity
  8
1
 62
     3
 60
     1
100
AcDbPoint
 10
-136.7180293501048
 20
427.1941914284142
 30
0.0
  0
LINE
  5
21A
330
43
100
AcDbEntity
  8
1
  6
Continuous
 62
     7
100
AcDbLine
 10
-140.7180293501048
 20
440.535387096775
 30
0.0
 11
-140.7180293501048
 21
325.535387096775
 31
0.0
  0
LINE
  5
21B
330
43
100
AcDbEntity
  8
1
  6
Continuous
 62
     7
100
AcDbLine
 10
-136.7180293501048
 20
325.535387096775
 30
0.0
 11
-140.7180293501048
 21
325.535387096775
 31
0.0
  0
LINE
  5
21C
330
43
100
AcDbEntity
  8
1
  6
Continuous
 62
     7
100
AcDbLine
 10
-136.7180293501048
 20
440.535387096775
 30
0.0
 11
-140.7180293501048
 21
440.535387096775
 31
0.0
  0
LINE
  5
21D
330
43
100
AcDbEntity
  8
1
  6
Continuous
 62
     7
100
AcDbLine
 10
-136.7180293501048
 20
325.535387096775
 30
0.0
 11
-83.7180293501048
 21
325.535387096775
 31
0.0
  0
LINE
  5
21E
330
43
100
AcDbEntity
  8
1
  6
Continuous
 62
     7
100
AcDbLine
 10
-136.7180293501048
 20
325.535387096775
 30
0.0
 11
-136.7180293501048
 21
338.8765827651358
 31
0.0
  0
LINE
  5
21F
330
43
100
AcDbEntity
  8
1
  6
Continuous
 62
     7
100
AcDbLine
 10
-136.7180293501048
 20
338.8765827651358
 30
0.0
 11
-140.7180293501048
 21
345.835387096775
 31
0.0
  0
LINE
  5
220
330
43
100
AcDbEntity
  8
1
  6
Continuous
 62
     7
100
AcDbLine
 10
-136.7180293501048
 20
427.1941914284142
 30
0.0
 11
-140.7180293501048
 21
420.235387096775
 31
0.0
  0
LINE
  5
221
330
43
100
AcDbEntity
  8
1
  6
Continuous
 62
     7
100
AcDbLine
 10
-136.7180293501048
 20
440.535387096775
 30
0.0
 11
-136.7180293501048
 21
427.1941914284142
 31
0.0
  0
LINE
  5
222
330
43
100
AcDbEntity
  8
1
  6
DOT_CENTER
 62
     2
100
AcDbLine
 10
-81.7180293501048
 20
383.035387096775
 30
0.0
 11
-144.2180293501048
 21
383.035387096775
 31
0.0
  0
LINE
  5
223
330
43
100
AcDbEntity
  8
1
  6
Continuous
 62
     7
100
AcDbLine
 10
-83.7180293501048
 20
440.535387096775
 30
0.0
 11
-136.7180293501048
 21
440.535387096775
 31
0.0
  0
LINE
  5
224
330
43
100
AcDbEntity
  8
1
  6
Continuous
 62
     7
100
AcDbLine
 10
-83.7180293501048
 20
440.535387096775
 30
0.0
 11
-83.7180293501048
 21
427.1941914284142
 31
0.0
  0
LINE
  5
225
330
43
100
AcDbEntity
  8
1
  6
Continuous
 62
     7
100
AcDbLine
 10
-83.7180293501048
 20
427.1941914284142
 30
0.0
 11
-136.7180293501048
 21
427.1941914284142
 31
0.0
  0
LINE
  5
226
330
43
100
AcDbEntity
  8
1
  6
Continuous
 62
     7
100
AcDbLine
 10
-83.7180293501048
 20
427.1941914284142
 30
0.0
 11
-83.7180293501048
 21
338.8765827651358
 31
0.0
  0
LINE
  5
227
330
43
100
AcDbEntity
  8
1
  6
Continuous
 62
     7
100
AcDbLine
 10
-83.7180293501048
 20
338.8765827651358
 30
0.0
 11
-136.7180293501048
 21
338.8765827651358
 31
0.0
  0
LINE
  5
228
330
43
100
AcDbEntity
  8
1
  6
Continuous
 62
     7
100
AcDbLine
 10
-83.7180293501048
 20
338.8765827651358
 30
0.0
 11
-83.7180293501048
 21
325.535387096775
 31
0.0
  0
ENDBLK
  5
45
330
43
100
AcDbEntity
  8
0
100
AcDbBlockEnd
  0
BLOCK
  5
47
330
46
100
AcDbEntity
  8
0
100
AcDbBlockBegin
  2
tb_frame_A3
 70
     0
 71
     0
 10
-82.446784575474
 20
411.7372727346055
 30
0.0
  3
tb_frame_A3
  1

  0
POINT
  5
229
330
46
100
AcDbEntity
  8
1
 62
   250
100
AcDbPoint
 10
122.553215424526
 20
44.23727273460548
 30
0.0
  0
LINE
  5
22A
330
46
100
AcDbEntity
  8
0
  6
Continuous
 62
     2
100
AcDbLine
 10
-281.326784575475
 20
186.7372727346055
 30
0.0
 11
-270.326784575475
 21
186.7372727346055
 31
0.0
  0
LINE
  5
22B
330
46
100
AcDbEntity
  8
1
  6
Continuous
 62
     7
100
AcDbLine
 10
-270.326784575475
 20
328.7372727346055
 30
0.0
 11
-270.326784575475
 21
44.23727273460548
 31
0.0
  0
LINE
  5
22C
330
46
100
AcDbEntity
  8
1
  6
Continuous
 62
     7
100
AcDbLine
 10
122.553215424526
 20
328.7372727346055
 30
0.0
 11
-270.326784575475
 21
328.7372727346055
 31
0.0
  0
LINE
  5
22D
330
46
100
AcDbEntity
  8
1
  6
Continuous
 62
     7
100
AcDbLine
 10
122.553215424526
 20
44.23727273460548
 30
0.0
 11
122.553215424526
 21
328.7372727346055
 31
0.0
  0
LINE
  5
22E
330
46
100
AcDbEntity
  8
1
  6
Continuous
 62
     7
100
AcDbLine
 10
-270.326784575475
 20
44.23727273460548
 30
0.0
 11
122.553215424526
 21
44.23727273460548
 31
0.0
  0
LINE
  5
22F
330
46
100
AcDbEntity
  8
1
  6
Continuous
 62
     7
100
AcDbLine
 10
-60.32678457547502
 20
44.23727273460548
 30
0.0
 11
-60.32678457547502
 21
99.22727273460526
 31
0.0
  0
LINE
  5
230
330
46
100
AcDbEntity
  8
1
  6
Continuous
 62
     2
100
AcDbLine
 10
-6.98678457547408
 20
86.53727273460481
 30
0.0
 11
-60.32678457547502
 21
86.53727273460481
 31
0.0
  0
LINE
  5
231
330
46
100
AcDbEntity
  8
1
  6
Continuous
 62
     7
100
AcDbLine
 10
122.553215424526
 20
61.15727273460561
 30
0.0
 11
-60.32678457547502
 21
61.15727273460561
 31
0.0
  0
LINE
  5
232
330
46
100
AcDbEntity
  8
1
  6
Continuous
 62
     7
100
AcDbLine
 10
-45.08678457547512
 20
61.15727273460561
 30
0.0
 11
-45.08678457547512
 21
44.23727273460548
 31
0.0
  0
LINE
  5
233
330
46
100
AcDbEntity
  8
1
  6
Continuous
 62
     7
100
AcDbLine
 10
46.35321542452621
 20
99.22727273460526
 30
0.0
 11
46.35321542452621
 21
44.23727273460548
 31
0.0
  0
LINE
  5
234
330
46
100
AcDbEntity
  8
1
  6
Continuous
 62
     7
100
AcDbLine
 10
46.35321542452621
 20
94.9972727346057
 30
0.0
 11
122.553215424526
 21
94.9972727346057
 31
0.0
  0
LINE
  5
235
330
46
100
AcDbEntity
  8
1
  6
Continuous
 62
     7
100
AcDbLine
 10
84.45321542452561
 20
99.22727273460526
 30
0.0
 11
84.45321542452561
 21
94.9972727346057
 31
0.0
  0
LINE
  5
236
330
46
100
AcDbEntity
  8
1
  6
Continuous
 62
     7
100
AcDbLine
 10
46.35321542452621
 20
48.4672727346051
 30
0.0
 11
122.553215424526
 21
48.4672727346051
 31
0.0
  0
LINE
  5
237
330
46
100
AcDbEntity
  8
1
  6
Continuous
 62
     7
100
AcDbLine
 10
109.8532154245262
 20
52.69727273460455
 30
0.0
 11
122.553215424526
 21
52.69727273460455
 31
0.0
  0
LINE
  5
238
330
46
100
AcDbEntity
  8
1
  6
Continuous
 62
     7
100
AcDbLine
 10
109.8532154245262
 20
61.15727273460561
 30
0.0
 11
109.8532154245262
 21
48.4672727346051
 31
0.0
  0
LINE
  5
239
330
46
100
AcDbEntity
  8
1
  6
Continuous
 62
     2
100
AcDbLine
 10
-60.32678457547502
 20
94.9972727346057
 30
0.0
 11
-6.98678457547408
 21
94.9972727346057
 31
0.0
  0
LINE
  5
23A
330
46
100
AcDbEntity
  8
1
  6
Continuous
 62
     2
100
AcDbLine
 10
-60.32678457547502
 20
90.76727273460432
 30
0.0
 11
-6.98678457547408
 21
90.76727273460432
 31
0.0
  0
LINE
  5
23B
330
46
100
AcDbEntity
  8
1
  6
Continuous
 62
     2
100
AcDbLine
 10
-60.32678457547502
 20
82.30727273460519
 30
0.0
 11
-6.98678457547408
 21
82.30727273460519
 31
0.0
  0
LINE
  5
23C
330
46
100
AcDbEntity
  8
1
  6
Continuous
 62
     2
100
AcDbLine
 10
-45.08678457547512
 20
78.07727273460557
 30
0.0
 11
-45.08678457547512
 21
61.15727273460561
 31
0.0
  0
LINE
  5
23D
330
46
100
AcDbEntity
  8
1
  6
Continuous
 62
     2
100
AcDbLine
 10
-60.32678457547502
 20
73.84727273460607
 30
0.0
 11
-6.98678457547408
 21
73.84727273460607
 31
0.0
  0
LINE
  5
23E
330
46
100
AcDbEntity
  8
1
  6
Continuous
 62
     2
100
AcDbLine
 10
-60.32678457547502
 20
65.38727273460506
 30
0.0
 11
-6.98678457547408
 21
65.38727273460506
 31
0.0
  0
LINE
  5
23F
330
46
100
AcDbEntity
  8
1
  6
Continuous
 62
     7
100
AcDbLine
 10
-60.32678457547502
 20
99.22727273460526
 30
0.0
 11
122.553215424526
 21
99.22727273460526
 31
0.0
  0
LINE
  5
240
330
46
100
AcDbEntity
  8
1
  6
Continuous
 62
     7
100
AcDbLine
 10
-6.98678457547408
 20
99.22727273460526
 30
0.0
 11
-6.98678457547408
 21
78.07727273460557
 31
0.0
  0
LINE
  5
241
330
46
100
AcDbEntity
  8
1
  6
Continuous
 62
     7
100
AcDbLine
 10
-6.98678457547408
 20
78.07727273460557
 30
0.0
 11
-6.98678457547408
 21
61.15727273460561
 31
0.0
  0
LINE
  5
242
330
46
100
AcDbEntity
  8
1
  6
Continuous
 62
     2
100
AcDbLine
 10
-6.98678457547408
 20
69.61727273460468
 30
0.0
 11
-60.32678457547502
 21
69.61727273460468
 31
0.0
  0
LINE
  5
243
330
46
100
AcDbEntity
  8
1
  6
Continuous
 62
     2
100
AcDbLine
 10
-40.00678457547531
 20
99.22727273460526
 30
0.0
 11
-40.00678457547531
 21
78.07727273460557
 31
0.0
  0
LINE
  5
244
330
46
100
AcDbEntity
  8
1
  6
Continuous
 62
     7
100
AcDbLine
 10
-60.32678457547502
 20
78.07727273460557
 30
0.0
 11
122.553215424526
 21
78.07727273460557
 31
0.0
  0
LINE
  5
245
330
46
100
AcDbEntity
  8
1
  6
Continuous
 62
     2
100
AcDbLine
 10
-22.22678457547568
 20
99.22727273460526
 30
0.0
 11
-22.22678457547568
 21
78.07727273460557
 31
0.0
  0
LINE
  5
246
330
46
100
AcDbEntity
  8
1
  6
Continuous
 62
     2
100
AcDbLine
 10
-14.60678457547488
 20
99.22727273460526
 30
0.0
 11
-14.60678457547488
 21
78.07727273460557
 31
0.0
  0
LINE
  5
247
330
46
100
AcDbEntity
  8
1
  6
Continuous
 62
     7
100
AcDbLine
 10
19.6832154245261
 20
99.22727273460526
 30
0.0
 11
19.6832154245261
 21
78.07727273460557
 31
0.0
  0
LINE
  5
248
330
46
100
AcDbEntity
  8
1
  6
Continuous
 62
     2
100
AcDbLine
 10
-27.30678457547549
 20
78.07727273460557
 30
0.0
 11
-27.30678457547549
 21
61.15727273460561
 31
0.0
  0
LINE
  5
249
102
{ACAD_REACTORS
330
32C
330
32C
102
}
330
46
100
AcDbEntity
  8
1
  6
Continuous
 62
     2
100
AcDbLine
 10
90.70486967552421
 20
68.31727273460558
 30
0.0
 11
90.70486967552421
 21
75.51727273460557
 31
0.0
  0
LINE
  5
24A
102
{ACAD_REACTORS
330
330
330
330
102
}
330
46
100
AcDbEntity
  8
1
  6
Continuous
 62
     2
100
AcDbLine
 10
87.4048696755242
 20
71.642228520777
 30
0.0
 11
87.4048696755242
 21
67.31727273460558
 31
0.0
  0
LINE
  5
24B
102
{ACAD_REACTORS
330
330
330
330
102
}
330
46
100
AcDbEntity
  8
1
  6
Continuous
 62
     2
100
AcDbLine
 10
87.4048696755242
 20
76.51727273460557
 30
0.0
 11
87.4048696755242
 21
72.85460914876609
 31
0.0
  0
LINE
  5
24C
102
{ACAD_REACTORS
330
330
330
330
102
}
330
46
100
AcDbEntity
  8
1
  6
Continuous
 62
     2
100
AcDbLine
 10
87.4048696755242
 20
71.642228520777
 30
0.0
 11
88.65569178290662
 21
67.31727273460558
 31
0.0
  0
LINE
  5
24D
102
{ACAD_REACTORS
330
330
330
330
102
}
330
46
100
AcDbEntity
  8
1
  6
Continuous
 62
     2
100
AcDbLine
 10
88.6386197049597
 20
76.51727273460557
 30
0.0
 11
87.4048696755242
 21
72.85460914876609
 31
0.0
  0
LINE
  5
24E
102
{ACAD_REACTORS
330
330
330
330
102
}
330
46
100
AcDbEntity
  8
1
  6
Continuous
 62
     2
100
AcDbLine
 10
88.65569178290662
 20
67.31727273460558
 30
0.0
 11
89.9048696755242
 21
67.31727273460558
 31
0.0
  0
LINE
  5
24F
102
{ACAD_REACTORS
330
330
330
330
102
}
330
46
100
AcDbEntity
  8
1
  6
Continuous
 62
     2
100
AcDbLine
 10
88.6386197049597
 20
76.51727273460557
 30
0.0
 11
89.9048696755242
 21
76.51727273460557
 31
0.0
  0
LINE
  5
250
102
{ACAD_REACTORS
330
330
330
330
102
}
330
46
100
AcDbEntity
  8
1
  6
Continuous
 62
     2
100
AcDbLine
 10
88.4732782934019
 20
72.26727273460557
 30
0.0
 11
89.9048696755242
 21
67.31727273460558
 31
0.0
  0
LINE
  5
251
102
{ACAD_REACTORS
330
330
330
330
102
}
330
46
100
AcDbEntity
  8
1
  6
Continuous
 62
     2
100
AcDbLine
 10
89.9048696755242
 20
76.51727273460557
 30
0.0
 11
88.4732782934019
 21
72.26727273460557
 31
0.0
  0
LINE
  5
252
102
{ACAD_REACTORS
330
32D
330
32D
102
}
330
46
100
AcDbEntity
  8
1
  6
Continuous
 62
     2
100
AcDbLine
 10
98.9048696755242
 20
71.61727273460559
 30
0.0
 11
98.9048696755242
 21
68.31727273460558
 31
0.0
  0
LINE
  5
253
102
{ACAD_REACTORS
330
32D
330
32D
102
}
330
46
100
AcDbEntity
  8
1
  6
Continuous
 62
     2
100
AcDbLine
 10
98.9048696755242
 20
72.9172727346056
 30
0.0
 11
98.9048696755242
 21
75.51727273460557
 31
0.0
  0
LINE
  5
254
102
{ACAD_REACTORS
330
32B
330
32B
102
}
330
46
100
AcDbEntity
  8
1
  6
Continuous
 62
     2
100
AcDbLine
 10
108.8048696755242
 20
75.4172727346056
 30
0.0
 11
108.8048696755242
 21
74.76727273460557
 31
0.0
  0
LINE
  5
255
102
{ACAD_REACTORS
330
32B
330
32B
102
}
330
46
100
AcDbEntity
  8
1
  6
Continuous
 62
     2
100
AcDbLine
 10
108.8048696755242
 20
75.4172727346056
 30
0.0
 11
109.4548696755242
 21
75.4172727346056
 31
0.0
  0
LINE
  5
256
102
{ACAD_REACTORS
330
331
330
331
102
}
330
46
100
AcDbEntity
  8
1
  6
Continuous
 62
     2
100
AcDbLine
 10
105.4048696755242
 20
68.4296852740955
 30
0.0
 11
106.8048696755242
 21
68.4296852740955
 31
0.0
  0
LINE
  5
257
102
{ACAD_REACTORS
330
331
330
331
102
}
330
46
100
AcDbEntity
  8
1
  6
Continuous
 62
     2
100
AcDbLine
 10
105.4048696755242
 20
76.51727273460557
 30
0.0
 11
105.4048696755242
 21
68.4296852740955
 31
0.0
  0
LINE
  5
258
102
{ACAD_REACTORS
330
32B
330
32B
102
}
330
46
100
AcDbEntity
  8
1
  6
Continuous
 62
     2
100
AcDbLine
 10
108.8048696755242
 20
68.4296852740955
 30
0.0
 11
108.8048696755242
 21
74.76727273460557
 31
0.0
  0
LINE
  5
259
102
{ACAD_REACTORS
330
32B
330
32B
102
}
330
46
100
AcDbEntity
  8
1
  6
Continuous
 62
     2
100
AcDbLine
 10
109.4548696755242
 20
68.4296852740955
 30
0.0
 11
108.8048696755242
 21
68.4296852740955
 31
0.0
  0
LINE
  5
25A
102
{ACAD_REACTORS
330
32B
330
32B
102
}
330
46
100
AcDbEntity
  8
1
  6
Continuous
 62
     2
100
AcDbLine
 10
110.1048696755242
 20
74.76727273460557
 30
0.0
 11
110.1048696755242
 21
69.07968527409548
 31
0.0
  0
LINE
  5
25B
102
{ACAD_REACTORS
330
32E
330
32E
102
}
330
46
100
AcDbEntity
  8
1
  6
Continuous
 62
     2
100
AcDbLine
 10
100.9048696755242
 20
69.07968527409548
 30
0.0
 11
100.9048696755242
 21
74.76727273460557
 31
0.0
  0
LINE
  5
25C
102
{ACAD_REACTORS
330
32E
330
32E
102
}
330
46
100
AcDbEntity
  8
1
  6
Continuous
 62
     2
100
AcDbLine
 10
102.2048696755242
 20
74.76727273460557
 30
0.0
 11
102.2048696755242
 21
69.07968527409548
 31
0.0
  0
LINE
  5
25D
102
{ACAD_REACTORS
330
32D
330
32D
102
}
330
46
100
AcDbEntity
  8
1
  6
Continuous
 62
     2
100
AcDbLine
 10
96.4048696755242
 20
71.71727273460556
 30
0.0
 11
97.0548696755242
 21
71.71727273460556
 31
0.0
  0
LINE
  5
25E
102
{ACAD_REACTORS
330
32D
330
32D
102
}
330
46
100
AcDbEntity
  8
1
  6
Continuous
 62
     2
100
AcDbLine
 10
96.4048696755242
 20
75.4172727346056
 30
0.0
 11
96.4048696755242
 21
72.81727273460558
 31
0.0
  0
LINE
  5
25F
102
{ACAD_REACTORS
330
32D
330
32D
102
}
330
46
100
AcDbEntity
  8
1
  6
Continuous
 62
     2
100
AcDbLine
 10
97.70486967552421
 20
69.07968527409548
 30
0.0
 11
97.70486967552421
 21
71.06727273460558
 31
0.0
  0
LINE
  5
260
102
{ACAD_REACTORS
330
32D
330
32D
102
}
330
46
100
AcDbEntity
  8
1
  6
Continuous
 62
     2
100
AcDbLine
 10
96.4048696755242
 20
68.4296852740955
 30
0.0
 11
97.0548696755242
 21
68.4296852740955
 31
0.0
  0
LINE
  5
261
102
{ACAD_REACTORS
330
32D
330
32D
102
}
330
46
100
AcDbEntity
  8
1
  6
Continuous
 62
     2
100
AcDbLine
 10
96.4048696755242
 20
71.71727273460556
 30
0.0
 11
96.4048696755242
 21
68.4296852740955
 31
0.0
  0
LINE
  5
262
102
{ACAD_REACTORS
330
32D
330
32D
102
}
330
46
100
AcDbEntity
  8
1
  6
Continuous
 62
     2
100
AcDbLine
 10
97.0548696755242
 20
72.81727273460558
 30
0.0
 11
96.4048696755242
 21
72.81727273460558
 31
0.0
  0
LINE
  5
263
102
{ACAD_REACTORS
330
32D
330
32D
102
}
330
46
100
AcDbEntity
  8
1
  6
Continuous
 62
     2
100
AcDbLine
 10
97.70486967552421
 20
74.76727273460557
 30
0.0
 11
97.70486967552421
 21
73.46727273460556
 31
0.0
  0
LINE
  5
264
102
{ACAD_REACTORS
330
32D
330
32D
102
}
330
46
100
AcDbEntity
  8
1
  6
Continuous
 62
     2
100
AcDbLine
 10
96.4048696755242
 20
75.4172727346056
 30
0.0
 11
97.0548696755242
 21
75.4172727346056
 31
0.0
  0
LINE
  5
265
102
{ACAD_REACTORS
330
32C
330
32C
102
}
330
46
100
AcDbEntity
  8
1
  6
Continuous
 62
     2
100
AcDbLine
 10
91.9048696755242
 20
69.07968527409548
 30
0.0
 11
91.9048696755242
 21
74.76727273460557
 31
0.0
  0
LINE
  5
266
102
{ACAD_REACTORS
330
32C
330
32C
102
}
330
46
100
AcDbEntity
  8
1
  6
Continuous
 62
     2
100
AcDbLine
 10
93.20486967552421
 20
74.76727273460557
 30
0.0
 11
93.20486967552421
 21
69.07968527409548
 31
0.0
  0
LINE
  5
267
102
{ACAD_REACTORS
330
329
330
329
102
}
330
46
100
AcDbEntity
  8
1
  6
Continuous
 62
     2
100
AcDbLine
 10
77.29472127191781
 20
72.01727273460557
 30
0.0
 11
78.20486967552421
 21
72.01727273460557
 31
0.0
  0
LINE
  5
268
330
46
100
AcDbEntity
  8
1
  6
Continuous
 62
     2
100
AcDbLine
 10
76.45486967552421
 20
72.01727273460557
 30
0.0
 11
77.29472127191781
 21
72.01727273460557
 31
0.0
  0
LINE
  5
269
102
{ACAD_REACTORS
330
32A
330
32A
102
}
330
46
100
AcDbEntity
  8
1
  6
Continuous
 62
     2
100
AcDbLine
 10
71.20486967552421
 20
71.31727273460558
 30
0.0
 11
71.20486967552421
 21
67.31727273460558
 31
0.0
  0
LINE
  5
26A
102
{ACAD_REACTORS
330
32A
330
32A
102
}
330
46
100
AcDbEntity
  8
1
  6
Continuous
 62
     2
100
AcDbLine
 10
71.85486967552421
 20
71.31727273460558
 30
0.0
 11
71.20486967552421
 21
71.31727273460558
 31
0.0
  0
LINE
  5
26B
102
{ACAD_REACTORS
330
32A
330
32A
102
}
330
46
100
AcDbEntity
  8
1
  6
Continuous
 62
     2
100
AcDbLine
 10
71.20486967552421
 20
72.51727273460557
 30
0.0
 11
71.85486967552421
 21
72.51727273460557
 31
0.0
  0
LINE
  5
26C
102
{ACAD_REACTORS
330
32A
330
32A
102
}
330
46
100
AcDbEntity
  8
1
  6
Continuous
 62
     2
100
AcDbLine
 10
71.20486967552421
 20
75.4172727346056
 30
0.0
 11
71.20486967552421
 21
72.51727273460557
 31
0.0
  0
LINE
  5
26D
102
{ACAD_REACTORS
330
32A
330
32A
102
}
330
46
100
AcDbEntity
  8
1
  6
Continuous
 62
     2
100
AcDbLine
 10
71.20486967552421
 20
75.4172727346056
 30
0.0
 11
71.85486967552421
 21
75.4172727346056
 31
0.0
  0
LINE
  5
26E
102
{ACAD_REACTORS
330
328
330
328
102
}
330
46
100
AcDbEntity
  8
1
  6
Continuous
 62
     2
100
AcDbLine
 10
60.10486967552421
 20
73.4172727346056
 30
0.0
 11
61.3048696755242
 21
73.4172727346056
 31
0.0
  0
LINE
  5
26F
102
{ACAD_REACTORS
330
328
330
328
102
}
330
46
100
AcDbEntity
  8
1
  6
Continuous
 62
     2
100
AcDbLine
 10
60.10486967552421
 20
74.76727273460557
 30
0.0
 11
60.10486967552421
 21
73.4172727346056
 31
0.0
  0
LINE
  5
270
102
{ACAD_REACTORS
330
328
330
328
102
}
330
46
100
AcDbEntity
  8
1
  6
Continuous
 62
     2
100
AcDbLine
 10
58.8048696755242
 20
69.07968527409548
 30
0.0
 11
58.8048696755242
 21
74.76727273460557
 31
0.0
  0
LINE
  5
271
102
{ACAD_REACTORS
330
328
330
328
102
}
330
46
100
AcDbEntity
  8
1
  6
Continuous
 62
     2
100
AcDbLine
 10
60.10486967552421
 20
69.07968527409548
 30
0.0
 11
60.10486967552421
 21
70.81727273460558
 31
0.0
  0
LINE
  5
272
102
{ACAD_REACTORS
330
32F
330
32F
102
}
330
46
100
AcDbEntity
  8
1
  6
Continuous
 62
     2
100
AcDbLine
 10
66.70486967552421
 20
74.76727273460557
 30
0.0
 11
66.70486967552421
 21
69.07968527409548
 31
0.0
  0
LINE
  5
273
102
{ACAD_REACTORS
330
32F
330
32F
102
}
330
46
100
AcDbEntity
  8
1
  6
Continuous
 62
     2
100
AcDbLine
 10
68.00486967552419
 20
74.76727273460557
 30
0.0
 11
68.00486967552419
 21
69.07968527409548
 31
0.0
  0
LINE
  5
274
102
{ACAD_REACTORS
330
332
330
332
102
}
330
46
100
AcDbEntity
  8
1
  6
Continuous
 62
     2
100
AcDbLine
 10
64.70486967552421
 20
75.4172727346056
 30
0.0
 11
64.70486967552421
 21
76.51727273460557
 31
0.0
  0
LINE
  5
275
102
{ACAD_REACTORS
330
332
330
332
102
}
330
46
100
AcDbEntity
  8
1
  6
Continuous
 62
     2
100
AcDbLine
 10
63.4048696755242
 20
75.4172727346056
 30
0.0
 11
64.70486967552421
 21
75.4172727346056
 31
0.0
  0
LINE
  5
276
102
{ACAD_REACTORS
330
333
330
333
102
}
330
46
100
AcDbEntity
  8
1
  6
Continuous
 62
     2
100
AcDbLine
 10
81.00486967552419
 20
67.31727273460558
 30
0.0
 11
82.20486967552421
 21
67.31727273460558
 31
0.0
  0
LINE
  5
277
102
{ACAD_REACTORS
330
329
330
329
102
}
330
46
100
AcDbEntity
  8
1
  6
Continuous
 62
     2
100
AcDbLine
 10
76.45486967552421
 20
70.81727273460558
 30
0.0
 11
77.00486967552419
 21
70.81727273460558
 31
0.0
  0
LINE
  5
278
102
{ACAD_REACTORS
330
329
330
329
102
}
330
46
100
AcDbEntity
  8
1
  6
Continuous
 62
     2
100
AcDbLine
 10
76.45486967552421
 20
72.01727273460557
 30
0.0
 11
76.45486967552421
 21
70.81727273460558
 31
0.0
  0
LINE
  5
279
102
{ACAD_REACTORS
330
329
330
329
102
}
330
46
100
AcDbEntity
  8
1
  6
Continuous
 62
     2
100
AcDbLine
 10
76.45486967552421
 20
72.01727273460557
 30
0.0
 11
77.29472127191781
 21
72.01727273460557
 31
0.0
  0
LINE
  5
27A
102
{ACAD_REACTORS
330
334
330
334
102
}
330
46
100
AcDbEntity
  8
1
  6
Continuous
 62
     2
100
AcDbLine
 10
79.00486967552419
 20
76.51727273460557
 30
0.0
 11
79.00486967552419
 21
67.31727273460558
 31
0.0
  0
LINE
  5
27B
102
{ACAD_REACTORS
330
334
330
334
102
}
330
46
100
AcDbEntity
  8
1
  6
Continuous
 62
     2
100
AcDbLine
 10
80.20486967552421
 20
67.31727273460558
 30
0.0
 11
80.20486967552421
 21
76.51727273460557
 31
0.0
  0
LINE
  5
27C
102
{ACAD_REACTORS
330
333
330
333
102
}
330
46
100
AcDbEntity
  8
1
  6
Continuous
 62
     2
100
AcDbLine
 10
81.00486967552419
 20
76.51727273460557
 30
0.0
 11
81.00486967552419
 21
67.31727273460558
 31
0.0
  0
LINE
  5
27D
102
{ACAD_REACTORS
330
333
330
333
102
}
330
46
100
AcDbEntity
  8
1
  6
Continuous
 62
     2
100
AcDbLine
 10
82.20486967552421
 20
67.31727273460558
 30
0.0
 11
82.20486967552421
 21
76.51727273460557
 31
0.0
  0
LINE
  5
27E
102
{ACAD_REACTORS
330
334
330
334
102
}
330
46
100
AcDbEntity
  8
1
  6
Continuous
 62
     2
100
AcDbLine
 10
79.00486967552419
 20
67.31727273460558
 30
0.0
 11
80.20486967552421
 21
67.31727273460558
 31
0.0
  0
LINE
  5
27F
102
{ACAD_REACTORS
330
333
330
333
102
}
330
46
100
AcDbEntity
  8
1
  6
Continuous
 62
     2
100
AcDbLine
 10
81.00486967552419
 20
76.51727273460557
 30
0.0
 11
82.20486967552421
 21
76.51727273460557
 31
0.0
  0
LINE
  5
280
102
{ACAD_REACTORS
330
334
330
334
102
}
330
46
100
AcDbEntity
  8
1
  6
Continuous
 62
     2
100
AcDbLine
 10
79.00486967552419
 20
76.51727273460557
 30
0.0
 11
80.20486967552421
 21
76.51727273460557
 31
0.0
  0
LINE
  5
281
102
{ACAD_REACTORS
330
32A
330
32A
102
}
330
46
100
AcDbEntity
  8
1
  6
Continuous
 62
     2
100
AcDbLine
 10
71.20486967552421
 20
67.31727273460558
 30
0.0
 11
70.00486967552419
 21
67.31727273460558
 31
0.0
  0
LINE
  5
282
102
{ACAD_REACTORS
330
32A
330
32A
102
}
330
46
100
AcDbEntity
  8
1
  6
Continuous
 62
     2
100
AcDbLine
 10
72.50486967552419
 20
67.31727273460558
 30
0.0
 11
73.70486967552421
 21
67.31727273460558
 31
0.0
  0
LINE
  5
283
102
{ACAD_REACTORS
330
32A
330
32A
102
}
330
46
100
AcDbEntity
  8
1
  6
Continuous
 62
     2
100
AcDbLine
 10
72.50486967552419
 20
70.6672727346056
 30
0.0
 11
72.50486967552419
 21
67.31727273460558
 31
0.0
  0
LINE
  5
284
102
{ACAD_REACTORS
330
32A
330
32A
102
}
330
46
100
AcDbEntity
  8
1
  6
Continuous
 62
     2
100
AcDbLine
 10
72.50486967552419
 20
73.1672727346056
 30
0.0
 11
72.50486967552419
 21
74.76727273460557
 31
0.0
  0
LINE
  5
285
102
{ACAD_REACTORS
330
329
330
329
102
}
330
46
100
AcDbEntity
  8
1
  6
Continuous
 62
     2
100
AcDbLine
 10
77.00486967552419
 20
69.07968527409548
 30
0.0
 11
77.00486967552419
 21
70.81727273460558
 31
0.0
  0
LINE
  5
286
102
{ACAD_REACTORS
330
329
330
329
102
}
330
46
100
AcDbEntity
  8
1
  6
Continuous
 62
     2
100
AcDbLine
 10
75.70486967552421
 20
74.76727273460557
 30
0.0
 11
75.70486967552421
 21
69.07968527409548
 31
0.0
  0
LINE
  5
287
102
{ACAD_REACTORS
330
329
330
329
102
}
330
46
100
AcDbEntity
  8
1
  6
Continuous
 62
     2
100
AcDbLine
 10
77.00486967552419
 20
73.4172727346056
 30
0.0
 11
77.00486967552419
 21
74.76727273460557
 31
0.0
  0
LINE
  5
288
102
{ACAD_REACTORS
330
329
330
329
102
}
330
46
100
AcDbEntity
  8
1
  6
Continuous
 62
     2
100
AcDbLine
 10
77.70486967552421
 20
67.31727273460558
 30
0.0
 11
77.3578307989603
 21
67.9172727346056
 31
0.0
  0
LINE
  5
289
102
{ACAD_REACTORS
330
329
330
329
102
}
330
46
100
AcDbEntity
  8
1
  6
Continuous
 62
     2
100
AcDbLine
 10
78.20486967552421
 20
67.31727273460558
 30
0.0
 11
77.70486967552421
 21
67.31727273460558
 31
0.0
  0
LINE
  5
28A
102
{ACAD_REACTORS
330
328
330
328
102
}
330
46
100
AcDbEntity
  8
1
  6
Continuous
 62
     2
100
AcDbLine
 10
58.60486967552421
 20
76.51727273460557
 30
0.0
 11
60.3048696755242
 21
76.51727273460557
 31
0.0
  0
LINE
  5
28B
102
{ACAD_REACTORS
330
328
330
328
102
}
330
46
100
AcDbEntity
  8
1
  6
Continuous
 62
     2
100
AcDbLine
 10
57.60486967552421
 20
75.51727273460557
 30
0.0
 11
57.60486967552421
 21
68.31727273460558
 31
0.0
  0
LINE
  5
28C
102
{ACAD_REACTORS
330
329
330
329
102
}
330
46
100
AcDbEntity
  8
1
  6
Continuous
 62
     2
100
AcDbLine
 10
74.50486967552419
 20
68.31727273460558
 30
0.0
 11
74.50486967552419
 21
75.51727273460557
 31
0.0
  0
LINE
  5
28D
102
{ACAD_REACTORS
330
329
330
329
102
}
330
46
100
AcDbEntity
  8
1
  6
Continuous
 62
     2
100
AcDbLine
 10
75.50486967552419
 20
67.31727273460558
 30
0.0
 11
76.37053764073912
 21
67.31727273460558
 31
0.0
  0
LINE
  5
28E
102
{ACAD_REACTORS
330
32B
330
32B
102
}
330
46
100
AcDbEntity
  8
1
  6
Continuous
 62
     2
100
AcDbLine
 10
111.3048696755242
 20
75.51727273460557
 30
0.0
 11
111.3048696755242
 21
68.31727273460558
 31
0.0
  0
LINE
  5
28F
102
{ACAD_REACTORS
330
32B
330
32B
102
}
330
46
100
AcDbEntity
  8
1
  6
Continuous
 62
     2
100
AcDbLine
 10
110.3048696755242
 20
67.31727273460558
 30
0.0
 11
107.6048696755242
 21
67.31727273460558
 31
0.0
  0
LINE
  5
290
102
{ACAD_REACTORS
330
32C
330
32C
102
}
330
46
100
AcDbEntity
  8
1
  6
Continuous
 62
     2
100
AcDbLine
 10
94.4048696755242
 20
75.51727273460557
 30
0.0
 11
94.4048696755242
 21
68.31727273460558
 31
0.0
  0
LINE
  5
291
102
{ACAD_REACTORS
330
32B
330
32B
102
}
330
46
100
AcDbEntity
  8
1
  6
Continuous
 62
     2
100
AcDbLine
 10
107.6048696755242
 20
76.51727273460557
 30
0.0
 11
110.3048696755242
 21
76.51727273460557
 31
0.0
  0
LINE
  5
292
102
{ACAD_REACTORS
330
32B
330
32B
102
}
330
46
100
AcDbEntity
  8
1
  6
Continuous
 62
     2
100
AcDbLine
 10
107.6048696755242
 20
67.31727273460558
 30
0.0
 11
107.6048696755242
 21
76.51727273460557
 31
0.0
  0
LINE
  5
293
102
{ACAD_REACTORS
330
331
330
331
102
}
330
46
100
AcDbEntity
  8
1
  6
Continuous
 62
     2
100
AcDbLine
 10
104.2048696755242
 20
76.51727273460557
 30
0.0
 11
105.4048696755242
 21
76.51727273460557
 31
0.0
  0
LINE
  5
294
102
{ACAD_REACTORS
330
331
330
331
102
}
330
46
100
AcDbEntity
  8
1
  6
Continuous
 62
     2
100
AcDbLine
 10
106.8048696755242
 20
67.31727273460558
 30
0.0
 11
106.8048696755242
 21
68.4296852740955
 31
0.0
  0
LINE
  5
295
102
{ACAD_REACTORS
330
331
330
331
102
}
330
46
100
AcDbEntity
  8
1
  6
Continuous
 62
     2
100
AcDbLine
 10
104.2048696755242
 20
67.31727273460558
 30
0.0
 11
106.8048696755242
 21
67.31727273460558
 31
0.0
  0
LINE
  5
296
102
{ACAD_REACTORS
330
331
330
331
102
}
330
46
100
AcDbEntity
  8
1
  6
Continuous
 62
     2
100
AcDbLine
 10
104.2048696755242
 20
76.51727273460557
 30
0.0
 11
104.2048696755242
 21
67.31727273460558
 31
0.0
  0
LINE
  5
297
102
{ACAD_REACTORS
330
32E
330
32E
102
}
330
46
100
AcDbEntity
  8
1
  6
Continuous
 62
     2
100
AcDbLine
 10
100.7048696755242
 20
76.51727273460557
 30
0.0
 11
102.4048696755242
 21
76.51727273460557
 31
0.0
  0
LINE
  5
298
102
{ACAD_REACTORS
330
32E
330
32E
102
}
330
46
100
AcDbEntity
  8
1
  6
Continuous
 62
     2
100
AcDbLine
 10
103.4048696755242
 20
75.51727273460557
 30
0.0
 11
103.4048696755242
 21
68.31727273460558
 31
0.0
  0
LINE
  5
299
102
{ACAD_REACTORS
330
32E
330
32E
102
}
330
46
100
AcDbEntity
  8
1
  6
Continuous
 62
     2
100
AcDbLine
 10
100.7048696755242
 20
67.31727273460558
 30
0.0
 11
102.4048696755242
 21
67.31727273460558
 31
0.0
  0
LINE
  5
29A
102
{ACAD_REACTORS
330
32E
330
32E
102
}
330
46
100
AcDbEntity
  8
1
  6
Continuous
 62
     2
100
AcDbLine
 10
99.70486967552421
 20
75.51727273460557
 30
0.0
 11
99.70486967552421
 21
68.31727273460558
 31
0.0
  0
LINE
  5
29B
102
{ACAD_REACTORS
330
32D
330
32D
102
}
330
46
100
AcDbEntity
  8
1
  6
Continuous
 62
     2
100
AcDbLine
 10
95.20486967552421
 20
67.31727273460558
 30
0.0
 11
97.9048696755242
 21
67.31727273460558
 31
0.0
  0
LINE
  5
29C
102
{ACAD_REACTORS
330
32D
330
32D
102
}
330
46
100
AcDbEntity
  8
1
  6
Continuous
 62
     2
100
AcDbLine
 10
97.9048696755242
 20
76.51727273460557
 30
0.0
 11
95.20486967552421
 21
76.51727273460557
 31
0.0
  0
LINE
  5
29D
102
{ACAD_REACTORS
330
32D
330
32D
102
}
330
46
100
AcDbEntity
  8
1
  6
Continuous
 62
     2
100
AcDbLine
 10
95.20486967552421
 20
76.51727273460557
 30
0.0
 11
95.20486967552421
 21
67.31727273460558
 31
0.0
  0
LINE
  5
29E
102
{ACAD_REACTORS
330
32C
330
32C
102
}
330
46
100
AcDbEntity
  8
1
  6
Continuous
 62
     2
100
AcDbLine
 10
91.70486967552421
 20
67.31727273460558
 30
0.0
 11
93.4048696755242
 21
67.31727273460558
 31
0.0
  0
LINE
  5
29F
102
{ACAD_REACTORS
330
32C
330
32C
102
}
330
46
100
AcDbEntity
  8
1
  6
Continuous
 62
     2
100
AcDbLine
 10
91.70486967552421
 20
76.51727273460557
 30
0.0
 11
93.4048696755242
 21
76.51727273460557
 31
0.0
  0
LINE
  5
2A0
330
46
100
AcDbEntity
  8
1
  6
Continuous
 62
     2
100
AcDbLine
 10
86.20486967552421
 20
67.31727273460558
 30
0.0
 11
87.4048696755242
 21
67.31727273460558
 31
0.0
  0
LINE
  5
2A1
102
{ACAD_REACTORS
330
330
330
330
102
}
330
46
100
AcDbEntity
  8
1
  6
Continuous
 62
     2
100
AcDbLine
 10
86.20486967552421
 20
67.31727273460558
 30
0.0
 11
86.20486967552421
 21
76.51727273460557
 31
0.0
  0
LINE
  5
2A2
102
{ACAD_REACTORS
330
330
330
330
102
}
330
46
100
AcDbEntity
  8
1
  6
Continuous
 62
     2
100
AcDbLine
 10
86.20486967552421
 20
67.31727273460558
 30
0.0
 11
87.4048696755242
 21
67.31727273460558
 31
0.0
  0
LINE
  5
2A3
102
{ACAD_REACTORS
330
330
330
330
102
}
330
46
100
AcDbEntity
  8
1
  6
Continuous
 62
     2
100
AcDbLine
 10
86.20486967552421
 20
76.51727273460557
 30
0.0
 11
87.4048696755242
 21
76.51727273460557
 31
0.0
  0
LINE
  5
2A4
102
{ACAD_REACTORS
330
329
330
329
102
}
330
46
100
AcDbEntity
  8
1
  6
Continuous
 62
     2
100
AcDbLine
 10
78.20486967552421
 20
73.4172727346056
 30
0.0
 11
78.2048696755243
 21
75.51727273460557
 31
0.0
  0
LINE
  5
2A5
102
{ACAD_REACTORS
330
329
330
329
102
}
330
46
100
AcDbEntity
  8
1
  6
Continuous
 62
     2
100
AcDbLine
 10
78.20486967552421
 20
73.4172727346056
 30
0.0
 11
77.00486967552419
 21
73.4172727346056
 31
0.0
  0
LINE
  5
2A6
102
{ACAD_REACTORS
330
329
330
329
102
}
330
46
100
AcDbEntity
  8
1
  6
Continuous
 62
     2
100
AcDbLine
 10
78.20486967552421
 20
67.31727273460558
 30
0.0
 11
78.20486967552421
 21
72.01727273460557
 31
0.0
  0
LINE
  5
2A7
102
{ACAD_REACTORS
330
329
330
329
102
}
330
46
100
AcDbEntity
  8
1
  6
Continuous
 62
     2
100
AcDbLine
 10
75.50486967552419
 20
76.51727273460557
 30
0.0
 11
77.20486967552421
 21
76.51727273460557
 31
0.0
  0
LINE
  5
2A8
102
{ACAD_REACTORS
330
32A
330
32A
102
}
330
46
100
AcDbEntity
  8
1
  6
Continuous
 62
     2
100
AcDbLine
 10
73.70486967552421
 20
71.0769313160929
 30
0.0
 11
73.70486967552421
 21
67.31727273460558
 31
0.0
  0
LINE
  5
2A9
102
{ACAD_REACTORS
330
32A
330
32A
102
}
330
46
100
AcDbEntity
  8
1
  6
Continuous
 62
     2
100
AcDbLine
 10
73.70486967552421
 20
72.73291060433837
 30
0.0
 11
73.70486967552421
 21
75.51727273460557
 31
0.0
  0
LINE
  5
2AA
102
{ACAD_REACTORS
330
32A
330
32A
102
}
330
46
100
AcDbEntity
  8
1
  6
Continuous
 62
     2
100
AcDbLine
 10
70.00486967552419
 20
76.51727273460557
 30
0.0
 11
72.70486967552421
 21
76.51727273460557
 31
0.0
  0
LINE
  5
2AB
102
{ACAD_REACTORS
330
32A
330
32A
102
}
330
46
100
AcDbEntity
  8
1
  6
Continuous
 62
     2
100
AcDbLine
 10
70.00486967552419
 20
76.51727273460557
 30
0.0
 11
70.00486967552419
 21
67.31727273460558
 31
0.0
  0
LINE
  5
2AC
102
{ACAD_REACTORS
330
32F
330
32F
102
}
330
46
100
AcDbEntity
  8
1
  6
Continuous
 62
     2
100
AcDbLine
 10
69.20486967552421
 20
75.51727273460557
 30
0.0
 11
69.20486967552421
 21
68.31727273460558
 31
0.0
  0
LINE
  5
2AD
102
{ACAD_REACTORS
330
32F
330
32F
102
}
330
46
100
AcDbEntity
  8
1
  6
Continuous
 62
     2
100
AcDbLine
 10
65.50486967552419
 20
75.51727273460557
 30
0.0
 11
65.50486967552419
 21
68.31727273460558
 31
0.0
  0
LINE
  5
2AE
102
{ACAD_REACTORS
330
32F
330
32F
102
}
330
46
100
AcDbEntity
  8
1
  6
Continuous
 62
     2
100
AcDbLine
 10
68.20486967552421
 20
67.31727273460558
 30
0.0
 11
66.50486967552419
 21
67.31727273460558
 31
0.0
  0
LINE
  5
2AF
102
{ACAD_REACTORS
330
32F
330
32F
102
}
330
46
100
AcDbEntity
  8
1
  6
Continuous
 62
     2
100
AcDbLine
 10
66.50486967552419
 20
76.51727273460557
 30
0.0
 11
68.20486967552421
 21
76.51727273460557
 31
0.0
  0
LINE
  5
2B0
102
{ACAD_REACTORS
330
328
330
328
102
}
330
46
100
AcDbEntity
  8
1
  6
Continuous
 62
     2
100
AcDbLine
 10
58.60486967552421
 20
67.31727273460558
 30
0.0
 11
59.45486967552421
 21
67.31727273460558
 31
0.0
  0
LINE
  5
2B1
102
{ACAD_REACTORS
330
328
330
328
102
}
330
46
100
AcDbEntity
  8
1
  6
Continuous
 62
     2
100
AcDbLine
 10
60.8048696755242
 20
67.31727273460558
 30
0.0
 11
60.4580937553917
 21
67.9172727346056
 31
0.0
  0
LINE
  5
2B2
102
{ACAD_REACTORS
330
328
330
328
102
}
330
46
100
AcDbEntity
  8
1
  6
Continuous
 62
     2
100
AcDbLine
 10
61.3048696755242
 20
72.01727273460557
 30
0.0
 11
61.3048696755242
 21
67.31727273460558
 31
0.0
  0
LINE
  5
2B3
102
{ACAD_REACTORS
330
332
330
332
102
}
330
46
100
AcDbEntity
  8
1
  6
Continuous
 62
     2
100
AcDbLine
 10
64.70486967552421
 20
67.31727273460558
 30
0.0
 11
64.70486967552421
 21
68.4296852740955
 31
0.0
  0
LINE
  5
2B4
102
{ACAD_REACTORS
330
332
330
332
102
}
330
46
100
AcDbEntity
  8
1
  6
Continuous
 62
     2
100
AcDbLine
 10
62.10486967552421
 20
67.31727273460558
 30
0.0
 11
64.70486967552421
 21
67.31727273460558
 31
0.0
  0
LINE
  5
2B5
102
{ACAD_REACTORS
330
332
330
332
102
}
330
46
100
AcDbEntity
  8
1
  6
Continuous
 62
     2
100
AcDbLine
 10
62.10486967552421
 20
76.51727273460557
 30
0.0
 11
62.10486967552421
 21
67.31727273460558
 31
0.0
  0
LINE
  5
2B6
102
{ACAD_REACTORS
330
332
330
332
102
}
330
46
100
AcDbEntity
  8
1
  6
Continuous
 62
     2
100
AcDbLine
 10
64.70486967552421
 20
76.51727273460557
 30
0.0
 11
62.10486967552421
 21
76.51727273460557
 31
0.0
  0
LINE
  5
2B7
102
{ACAD_REACTORS
330
328
330
328
102
}
330
46
100
AcDbEntity
  8
1
  6
Continuous
 62
     2
100
AcDbLine
 10
61.3048696755242
 20
75.51727273460557
 30
0.0
 11
61.3048696755242
 21
73.4172727346056
 31
0.0
  0
LINE
  5
2B8
102
{ACAD_REACTORS
330
328
330
328
102
}
330
46
100
AcDbEntity
  8
1
  6
Continuous
 62
     2
100
AcDbLine
 10
61.3048696755242
 20
67.31727273460558
 30
0.0
 11
60.8048696755242
 21
67.31727273460558
 31
0.0
  0
LINE
  5
2B9
102
{ACAD_REACTORS
330
328
330
328
102
}
330
46
100
AcDbEntity
  8
1
  6
Continuous
 62
     2
100
AcDbLine
 10
59.54594420951059
 20
72.01727273460557
 30
0.0
 11
59.54594420951059
 21
70.81727273460558
 31
0.0
  0
LINE
  5
2BA
102
{ACAD_REACTORS
330
328
330
328
102
}
330
46
100
AcDbEntity
  8
1
  6
Continuous
 62
     2
100
AcDbLine
 10
59.54594420951059
 20
72.01727273460557
 30
0.0
 11
61.3048696755242
 21
72.01727273460557
 31
0.0
  0
LINE
  5
2BB
330
46
100
AcDbEntity
  8
1
  6
Continuous
 62
     2
100
AcDbLine
 10
59.54594420951059
 20
70.81727273460558
 30
0.0
 11
59.8048696755242
 21
70.81727273460558
 31
0.0
  0
LINE
  5
2BC
102
{ACAD_REACTORS
330
328
330
328
102
}
330
46
100
AcDbEntity
  8
1
  6
Continuous
 62
     2
100
AcDbLine
 10
59.54594420951059
 20
70.81727273460558
 30
0.0
 11
60.10486967552421
 21
70.81727273460558
 31
0.0
  0
LINE
  5
2BD
102
{ACAD_REACTORS
330
332
330
332
102
}
330
46
100
AcDbEntity
  8
1
  6
Continuous
 62
     2
100
AcDbLine
 10
63.4048696755242
 20
75.4172727346056
 30
0.0
 11
63.4048696755242
 21
72.81727273460558
 31
0.0
  0
LINE
  5
2BE
102
{ACAD_REACTORS
330
332
330
332
102
}
330
46
100
AcDbEntity
  8
1
  6
Continuous
 62
     2
100
AcDbLine
 10
63.4048696755242
 20
68.4296852740955
 30
0.0
 11
64.70486967552421
 21
68.4296852740955
 31
0.0
  0
LINE
  5
2BF
102
{ACAD_REACTORS
330
332
330
332
102
}
330
46
100
AcDbEntity
  8
1
  6
Continuous
 62
     2
100
AcDbLine
 10
63.4048696755242
 20
72.81727273460558
 30
0.0
 11
64.70486967552421
 21
72.81727273460558
 31
0.0
  0
LINE
  5
2C0
102
{ACAD_REACTORS
330
332
330
332
102
}
330
46
100
AcDbEntity
  8
1
  6
Continuous
 62
     2
100
AcDbLine
 10
64.70486967552421
 20
72.81727273460558
 30
0.0
 11
64.70486967552421
 21
71.71727273460556
 31
0.0
  0
LINE
  5
2C1
102
{ACAD_REACTORS
330
332
330
332
102
}
330
46
100
AcDbEntity
  8
1
  6
Continuous
 62
     2
100
AcDbLine
 10
63.4048696755242
 20
71.71727273460556
 30
0.0
 11
64.70486967552421
 21
71.71727273460556
 31
0.0
  0
LINE
  5
2C2
102
{ACAD_REACTORS
330
332
330
332
102
}
330
46
100
AcDbEntity
  8
1
  6
Continuous
 62
     2
100
AcDbLine
 10
63.4048696755242
 20
71.71727273460556
 30
0.0
 11
63.4048696755242
 21
68.4296852740955
 31
0.0
  0
LINE
  5
2C3
330
46
100
AcDbEntity
  8
1
  6
Continuous
 62
     2
100
AcDbLine
 10
-55.24678457547509
 20
99.22727273460526
 30
0.0
 11
-55.24678457547509
 21
78.07727273460557
 31
0.0
  0
ARC
  5
2C4
102
{ACAD_REACTORS
330
32D
330
32D
102
}
330
46
100
AcDbEntity
  8
1
  6
Continuous
 62
     2
100
AcDbCircle
 10
98.25486967552419
 20
71.61727273460559
 30
0.0
 40
0.6500000000000057
100
AcDbArc
 50
0.0
 51
90.0
  0
ARC
  5
2C5
102
{ACAD_REACTORS
330
32D
330
32D
102
}
330
46
100
AcDbEntity
  8
1
  6
Continuous
 62
     2
100
AcDbCircle
 10
98.25486967552419
 20
72.9172727346056
 30
0.0
 40
0.6500000000000341
100
AcDbArc
 50
-90.0
 51
0.0
  0
ARC
  5
2C6
102
{ACAD_REACTORS
330
329
330
329
102
}
330
46
100
AcDbEntity
  8
1
  6
Continuous
 62
     2
100
AcDbCircle
 10
76.3859947729648
 20
68.40412801667736
 30
0.0
 40
1.086965191302819
100
AcDbArc
 50
-90.81479912927361
 51
-26.60924039544962
  0
ARC
  5
2C7
102
{ACAD_REACTORS
330
32A
330
32A
102
}
330
46
100
AcDbEntity
  8
1
  6
Continuous
 62
     2
100
AcDbCircle
 10
72.8693209866475
 20
71.0837504178046
 30
0.0
 40
0.8355765145285912
100
AcDbArc
 50
-0.46759342609272
 51
85.98158622994607
  0
ARC
  5
2C8
102
{ACAD_REACTORS
330
32A
330
32A
102
}
330
46
100
AcDbEntity
  8
1
  6
Continuous
 62
     2
100
AcDbCircle
 10
72.85324969124929
 20
72.76627247857596
 30
0.0
 40
0.8522732028339861
100
AcDbArc
 50
-84.97668097571444
 51
-2.24339224114379
  0
ARC
  5
2C9
102
{ACAD_REACTORS
330
328
330
328
102
}
330
46
100
AcDbEntity
  8
1
  6
Continuous
 62
     2
100
AcDbCircle
 10
59.47964152491591
 20
68.4145686702729
 30
0.0
 40
1.097575516743291
100
AcDbArc
 50
-91.29325310587156
 51
-26.94184191294452
  0
ARC
  5
2CA
102
{ACAD_REACTORS
330
32D
330
32D
102
}
330
46
100
AcDbEntity
  8
1
  6
Continuous
 62
     2
100
AcDbCircle
 10
97.0548696755242
 20
69.07968527409548
 30
0.0
 40
0.6499999999999773
100
AcDbArc
 50
-90.0
 51
0.0
  0
ARC
  5
2CB
102
{ACAD_REACTORS
330
32D
330
32D
102
}
330
46
100
AcDbEntity
  8
1
  6
Continuous
 62
     2
100
AcDbCircle
 10
97.0548696755242
 20
71.06727273460558
 30
0.0
 40
0.6500000000000057
100
AcDbArc
 50
0.0
 51
90.0
  0
ARC
  5
2CC
102
{ACAD_REACTORS
330
32D
330
32D
102
}
330
46
100
AcDbEntity
  8
1
  6
Continuous
 62
     2
100
AcDbCircle
 10
97.0548696755242
 20
73.46727273460556
 30
0.0
 40
0.6499999999999773
100
AcDbArc
 50
-90.0
 51
0.0
  0
ARC
  5
2CD
102
{ACAD_REACTORS
330
32D
330
32D
102
}
330
46
100
AcDbEntity
  8
1
  6
Continuous
 62
     2
100
AcDbCircle
 10
97.0548696755242
 20
74.76727273460557
 30
0.0
 40
0.6500000000000057
100
AcDbArc
 50
0.0
 51
90.0
  0
ARC
  5
2CE
102
{ACAD_REACTORS
330
32C
330
32C
102
}
330
46
100
AcDbEntity
  8
1
  6
Continuous
 62
     2
100
AcDbCircle
 10
92.5548696755242
 20
69.07968527409548
 30
0.0
 40
0.6499999999999773
100
AcDbArc
 50
-90.0
 51
0.0
  0
ARC
  5
2CF
102
{ACAD_REACTORS
330
32C
330
32C
102
}
330
46
100
AcDbEntity
  8
1
  6
Continuous
 62
     2
100
AcDbCircle
 10
92.5548696755242
 20
69.07968527409548
 30
0.0
 40
0.6500000000000057
100
AcDbArc
 50
180.0
 51
-90.0
  0
ARC
  5
2D0
102
{ACAD_REACTORS
330
32C
330
32C
102
}
330
46
100
AcDbEntity
  8
1
  6
Continuous
 62
     2
100
AcDbCircle
 10
92.5548696755242
 20
74.76727273460557
 30
0.0
 40
0.6500000000000057
100
AcDbArc
 50
0.0
 51
90.0
  0
ARC
  5
2D1
102
{ACAD_REACTORS
330
32C
330
32C
102
}
330
46
100
AcDbEntity
  8
1
  6
Continuous
 62
     2
100
AcDbCircle
 10
92.5548696755242
 20
74.76727273460557
 30
0.0
 40
0.6500000000000341
100
AcDbArc
 50
90.0
 51
180.0
  0
ARC
  5
2D2
102
{ACAD_REACTORS
330
32E
330
32E
102
}
330
46
100
AcDbEntity
  8
1
  6
Continuous
 62
     2
100
AcDbCircle
 10
101.5548696755242
 20
69.07968527409548
 30
0.0
 40
0.6499999999999773
100
AcDbArc
 50
-90.0
 51
0.0
  0
ARC
  5
2D3
102
{ACAD_REACTORS
330
32E
330
32E
102
}
330
46
100
AcDbEntity
  8
1
  6
Continuous
 62
     2
100
AcDbCircle
 10
101.5548696755242
 20
69.07968527409548
 30
0.0
 40
0.6500000000000057
100
AcDbArc
 50
180.0
 51
-90.0
  0
ARC
  5
2D4
102
{ACAD_REACTORS
330
32E
330
32E
102
}
330
46
100
AcDbEntity
  8
1
  6
Continuous
 62
     2
100
AcDbCircle
 10
101.5548696755242
 20
74.76727273460557
 30
0.0
 40
0.6500000000000341
100
AcDbArc
 50
90.0
 51
180.0
  0
ARC
  5
2D5
102
{ACAD_REACTORS
330
32E
330
32E
102
}
330
46
100
AcDbEntity
  8
1
  6
Continuous
 62
     2
100
AcDbCircle
 10
101.5548696755242
 20
74.76727273460557
 30
0.0
 40
0.6499999999999915
100
AcDbArc
 50
0.0
 51
90.0
  0
ARC
  5
2D6
102
{ACAD_REACTORS
330
32B
330
32B
102
}
330
46
100
AcDbEntity
  8
1
  6
Continuous
 62
     2
100
AcDbCircle
 10
109.4548696755242
 20
69.07968527409548
 30
0.0
 40
0.6499999999999773
100
AcDbArc
 50
-90.0
 51
0.0
  0
ARC
  5
2D7
102
{ACAD_REACTORS
330
32B
330
32B
102
}
330
46
100
AcDbEntity
  8
1
  6
Continuous
 62
     2
100
AcDbCircle
 10
109.4548696755242
 20
74.76727273460557
 30
0.0
 40
0.6500000000000057
100
AcDbArc
 50
0.0
 51
90.0
  0
ARC
  5
2D8
102
{ACAD_REACTORS
330
328
330
328
102
}
330
46
100
AcDbEntity
  8
1
  6
Continuous
 62
     2
100
AcDbCircle
 10
59.45486967552421
 20
69.07968527409548
 30
0.0
 40
0.6499999999999773
100
AcDbArc
 50
-90.0
 51
0.0
  0
ARC
  5
2D9
102
{ACAD_REACTORS
330
328
330
328
102
}
330
46
100
AcDbEntity
  8
1
  6
Continuous
 62
     2
100
AcDbCircle
 10
59.45486967552421
 20
69.07968527409548
 30
0.0
 40
0.6500000000000057
100
AcDbArc
 50
180.0
 51
-90.0
  0
ARC
  5
2DA
102
{ACAD_REACTORS
330
328
330
328
102
}
330
46
100
AcDbEntity
  8
1
  6
Continuous
 62
     2
100
AcDbCircle
 10
59.45486967552421
 20
74.76727273460557
 30
0.0
 40
0.6500000000000057
100
AcDbArc
 50
0.0
 51
90.0
  0
ARC
  5
2DB
102
{ACAD_REACTORS
330
328
330
328
102
}
330
46
100
AcDbEntity
  8
1
  6
Continuous
 62
     2
100
AcDbCircle
 10
59.45486967552421
 20
74.76727273460557
 30
0.0
 40
0.6500000000000341
100
AcDbArc
 50
90.0
 51
180.0
  0
ARC
  5
2DC
102
{ACAD_REACTORS
330
329
330
329
102
}
330
46
100
AcDbEntity
  8
1
  6
Continuous
 62
     2
100
AcDbCircle
 10
76.35486967552421
 20
69.07968527409548
 30
0.0
 40
0.6499999999999773
100
AcDbArc
 50
-90.0
 51
0.0
  0
ARC
  5
2DD
102
{ACAD_REACTORS
330
329
330
329
102
}
330
46
100
AcDbEntity
  8
1
  6
Continuous
 62
     2
100
AcDbCircle
 10
76.35486967552421
 20
69.07968527409548
 30
0.0
 40
0.6500000000000057
100
AcDbArc
 50
180.0
 51
-90.0
  0
ARC
  5
2DE
102
{ACAD_REACTORS
330
329
330
329
102
}
330
46
100
AcDbEntity
  8
1
  6
Continuous
 62
     2
100
AcDbCircle
 10
76.35486967552421
 20
74.76727273460557
 30
0.0
 40
0.6499999999999773
100
AcDbArc
 50
0.0
 51
90.0
  0
ARC
  5
2DF
102
{ACAD_REACTORS
330
329
330
329
102
}
330
46
100
AcDbEntity
  8
1
  6
Continuous
 62
     2
100
AcDbCircle
 10
76.35486967552421
 20
74.76727273460557
 30
0.0
 40
0.6500000000000341
100
AcDbArc
 50
90.0
 51
180.0
  0
ARC
  5
2E0
102
{ACAD_REACTORS
330
32A
330
32A
102
}
330
46
100
AcDbEntity
  8
1
  6
Continuous
 62
     2
100
AcDbCircle
 10
71.85486967552421
 20
73.1672727346056
 30
0.0
 40
0.6500000000000341
100
AcDbArc
 50
-90.0
 51
0.0
  0
ARC
  5
2E1
102
{ACAD_REACTORS
330
32A
330
32A
102
}
330
46
100
AcDbEntity
  8
1
  6
Continuous
 62
     2
100
AcDbCircle
 10
71.85486967552421
 20
70.6672727346056
 30
0.0
 40
0.6499999999999773
100
AcDbArc
 50
0.0
 51
90.0
  0
ARC
  5
2E2
102
{ACAD_REACTORS
330
32A
330
32A
102
}
330
46
100
AcDbEntity
  8
1
  6
Continuous
 62
     2
100
AcDbCircle
 10
71.85486967552421
 20
74.76727273460557
 30
0.0
 40
0.6499999999999773
100
AcDbArc
 50
0.0
 51
90.0
  0
ARC
  5
2E3
102
{ACAD_REACTORS
330
32F
330
32F
102
}
330
46
100
AcDbEntity
  8
1
  6
Continuous
 62
     2
100
AcDbCircle
 10
67.35486967552421
 20
69.07968527409548
 30
0.0
 40
0.6499999999999773
100
AcDbArc
 50
-90.0
 51
0.0
  0
ARC
  5
2E4
102
{ACAD_REACTORS
330
32F
330
32F
102
}
330
46
100
AcDbEntity
  8
1
  6
Continuous
 62
     2
100
AcDbCircle
 10
67.35486967552421
 20
69.07968527409548
 30
0.0
 40
0.6500000000000057
100
AcDbArc
 50
180.0
 51
-90.0
  0
ARC
  5
2E5
102
{ACAD_REACTORS
330
32F
330
32F
102
}
330
46
100
AcDbEntity
  8
1
  6
Continuous
 62
     2
100
AcDbCircle
 10
67.35486967552421
 20
74.76727273460557
 30
0.0
 40
0.6499999999999773
100
AcDbArc
 50
0.0
 51
90.0
  0
ARC
  5
2E6
102
{ACAD_REACTORS
330
32F
330
32F
102
}
330
46
100
AcDbEntity
  8
1
  6
Continuous
 62
     2
100
AcDbCircle
 10
67.35486967552421
 20
74.76727273460557
 30
0.0
 40
0.6500000000000341
100
AcDbArc
 50
90.0
 51
180.0
  0
ARC
  5
2E7
102
{ACAD_REACTORS
330
328
330
328
102
}
330
46
100
AcDbEntity
  8
1
  6
Continuous
 62
     2
100
AcDbCircle
 10
58.60486967552421
 20
75.51727273460557
 30
0.0
 40
1.0
100
AcDbArc
 50
90.0
 51
180.0
  0
ARC
  5
2E8
102
{ACAD_REACTORS
330
329
330
329
102
}
330
46
100
AcDbEntity
  8
1
  6
Continuous
 62
     2
100
AcDbCircle
 10
75.50486967552419
 20
68.31727273460558
 30
0.0
 40
1.0
100
AcDbArc
 50
180.0
 51
-90.0
  0
ARC
  5
2E9
102
{ACAD_REACTORS
330
32B
330
32B
102
}
330
46
100
AcDbEntity
  8
1
  6
Continuous
 62
     2
100
AcDbCircle
 10
110.3048696755242
 20
68.31727273460558
 30
0.0
 40
1.0
100
AcDbArc
 50
-90.0
 51
0.0
  0
ARC
  5
2EA
102
{ACAD_REACTORS
330
32C
330
32C
102
}
330
46
100
AcDbEntity
  8
1
  6
Continuous
 62
     2
100
AcDbCircle
 10
91.70486967552421
 20
68.31727273460558
 30
0.0
 40
1.0
100
AcDbArc
 50
180.0
 51
-90.0
  0
ARC
  5
2EB
102
{ACAD_REACTORS
330
32C
330
32C
102
}
330
46
100
AcDbEntity
  8
1
  6
Continuous
 62
     2
100
AcDbCircle
 10
93.4048696755242
 20
68.31727273460558
 30
0.0
 40
1.0
100
AcDbArc
 50
-90.0
 51
0.0
  0
ARC
  5
2EC
102
{ACAD_REACTORS
330
32D
330
32D
102
}
330
46
100
AcDbEntity
  8
1
  6
Continuous
 62
     2
100
AcDbCircle
 10
97.9048696755242
 20
68.31727273460558
 30
0.0
 40
1.0
100
AcDbArc
 50
-90.0
 51
0.0
  0
ARC
  5
2ED
102
{ACAD_REACTORS
330
32E
330
32E
102
}
330
46
100
AcDbEntity
  8
1
  6
Continuous
 62
     2
100
AcDbCircle
 10
100.7048696755242
 20
68.31727273460558
 30
0.0
 40
0.9999999999999858
100
AcDbArc
 50
180.0
 51
-90.0
  0
ARC
  5
2EE
102
{ACAD_REACTORS
330
32E
330
32E
102
}
330
46
100
AcDbEntity
  8
1
  6
Continuous
 62
     2
100
AcDbCircle
 10
102.4048696755242
 20
68.31727273460558
 30
0.0
 40
1.0
100
AcDbArc
 50
-90.0
 51
0.0
  0
ARC
  5
2EF
102
{ACAD_REACTORS
330
32B
330
32B
102
}
330
46
100
AcDbEntity
  8
1
  6
Continuous
 62
     2
100
AcDbCircle
 10
110.3048696755242
 20
75.51727273460557
 30
0.0
 40
1.0
100
AcDbArc
 50
0.0
 51
90.0
  0
ARC
  5
2F0
102
{ACAD_REACTORS
330
32E
330
32E
102
}
330
46
100
AcDbEntity
  8
1
  6
Continuous
 62
     2
100
AcDbCircle
 10
100.7048696755242
 20
75.51727273460557
 30
0.0
 40
1.0
100
AcDbArc
 50
90.0
 51
180.0
  0
ARC
  5
2F1
102
{ACAD_REACTORS
330
32E
330
32E
102
}
330
46
100
AcDbEntity
  8
1
  6
Continuous
 62
     2
100
AcDbCircle
 10
102.4048696755242
 20
75.51727273460557
 30
0.0
 40
1.0
100
AcDbArc
 50
0.0
 51
90.0
  0
ARC
  5
2F2
102
{ACAD_REACTORS
330
32D
330
32D
102
}
330
46
100
AcDbEntity
  8
1
  6
Continuous
 62
     2
100
AcDbCircle
 10
97.9048696755242
 20
75.51727273460557
 30
0.0
 40
1.0
100
AcDbArc
 50
0.0
 51
90.0
  0
ARC
  5
2F3
102
{ACAD_REACTORS
330
32C
330
32C
102
}
330
46
100
AcDbEntity
  8
1
  6
Continuous
 62
     2
100
AcDbCircle
 10
93.4048696755242
 20
75.51727273460557
 30
0.0
 40
1.0
100
AcDbArc
 50
0.0
 51
90.0
  0
ARC
  5
2F4
102
{ACAD_REACTORS
330
32C
330
32C
102
}
330
46
100
AcDbEntity
  8
1
  6
Continuous
 62
     2
100
AcDbCircle
 10
91.70486967552421
 20
75.51727273460557
 30
0.0
 40
1.0
100
AcDbArc
 50
90.0
 51
180.0
  0
ARC
  5
2F5
102
{ACAD_REACTORS
330
329
330
329
102
}
330
46
100
AcDbEntity
  8
1
  6
Continuous
 62
     2
100
AcDbCircle
 10
77.20486967552421
 20
75.51727273460557
 30
0.0
 40
1.000000000000085
100
AcDbArc
 50
0.0
 51
90.0
  0
ARC
  5
2F6
102
{ACAD_REACTORS
330
329
330
329
102
}
330
46
100
AcDbEntity
  8
1
  6
Continuous
 62
     2
100
AcDbCircle
 10
75.50486967552419
 20
75.51727273460557
 30
0.0
 40
1.0
100
AcDbArc
 50
90.0
 51
180.0
  0
ARC
  5
2F7
102
{ACAD_REACTORS
330
32A
330
32A
102
}
330
46
100
AcDbEntity
  8
1
  6
Continuous
 62
     2
100
AcDbCircle
 10
72.70486967552421
 20
75.51727273460557
 30
0.0
 40
1.0
100
AcDbArc
 50
0.0
 51
90.0
  0
ARC
  5
2F8
102
{ACAD_REACTORS
330
32F
330
32F
102
}
330
46
100
AcDbEntity
  8
1
  6
Continuous
 62
     2
100
AcDbCircle
 10
68.20486967552421
 20
68.31727273460558
 30
0.0
 40
1.0
100
AcDbArc
 50
-90.0
 51
0.0
  0
ARC
  5
2F9
102
{ACAD_REACTORS
330
32F
330
32F
102
}
330
46
100
AcDbEntity
  8
1
  6
Continuous
 62
     2
100
AcDbCircle
 10
66.50486967552419
 20
68.31727273460558
 30
0.0
 40
1.0
100
AcDbArc
 50
180.0
 51
-90.0
  0
ARC
  5
2FA
102
{ACAD_REACTORS
330
32F
330
32F
102
}
330
46
100
AcDbEntity
  8
1
  6
Continuous
 62
     2
100
AcDbCircle
 10
68.20486967552421
 20
75.51727273460557
 30
0.0
 40
1.0
100
AcDbArc
 50
0.0
 51
90.0
  0
ARC
  5
2FB
102
{ACAD_REACTORS
330
32F
330
32F
102
}
330
46
100
AcDbEntity
  8
1
  6
Continuous
 62
     2
100
AcDbCircle
 10
66.50486967552419
 20
75.51727273460557
 30
0.0
 40
1.0
100
AcDbArc
 50
90.0
 51
180.0
  0
ARC
  5
2FC
102
{ACAD_REACTORS
330
328
330
328
102
}
330
46
100
AcDbEntity
  8
1
  6
Continuous
 62
     2
100
AcDbCircle
 10
58.60486967552421
 20
68.31727273460558
 30
0.0
 40
1.0
100
AcDbArc
 50
180.0
 51
-90.0
  0
ARC
  5
2FD
102
{ACAD_REACTORS
330
328
330
328
102
}
330
46
100
AcDbEntity
  8
1
  6
Continuous
 62
     2
100
AcDbCircle
 10
60.3048696755242
 20
75.51727273460557
 30
0.0
 40
1.0
100
AcDbArc
 50
0.0
 51
90.0
  0
MTEXT
  5
2FF
330
46
100
AcDbEntity
  8
1
 62
     2
100
AcDbMText
 10
-18.41678457547528
 20
84.42227273460497
 30
0.0
 40
1.8
 41
0.0
 71
     5
 72
     1
  1
.
  7
CONVERTER_11
 73
     1
 44
1.32052821128451
  0
MTEXT
  5
300
330
46
100
AcDbEntity
  8
1
 62
     2
100
AcDbMText
 10
-31.11678457547544
 20
84.42227273460497
 30
0.0
 40
1.8
 41
0.0
 71
     5
 72
     1
  1
.
  7
CONVERTER_11
 73
     1
 44
1.32052821128451
  0
MTEXT
  5
301
330
46
100
AcDbEntity
  8
1
 62
     2
100
AcDbMText
 10
-57.78678457547505
 20
84.42227273460497
 30
0.0
 40
1.8
 41
0.0
 71
     5
 72
     1
  1
1
  7
CONVERTER_11
 73
     1
 44
1.32052821128451
  0
MTEXT
  5
302
330
46
100
AcDbEntity
  8
1
 62
     2
100
AcDbMText
 10
-47.6267845754752
 20
84.42227273460497
 30
0.0
 40
1.8
 41
0.0
 71
     5
 72
     1
  1
.
  7
CONVERTER_11
 73
     1
 44
1.32052821128451
  0
MTEXT
  5
304
330
46
100
AcDbEntity
  8
1
 62
     3
100
AcDbMText
 10
-5.53178457547392
 20
88.65227273460545
 30
0.0
 40
2.2
 41
0.0
 71
     4
 72
     1
  1
Allgemein-\Ptoleranzen\PDIN ISO 2768-mK
  7
CONVERTER_12
 73
     1
 44
1.32052821128451
  0
MTEXT
  5
306
330
46
100
AcDbEntity
  8
1
 62
     3
100
AcDbMText
 10
21.13821542452611
 20
88.65227273460545
 30
0.0
 40
2.2
 41
0.0
 71
     4
 72
     1
  1
Oberflächen\PDIN ISO 1302\PReihe 2
  7
CONVERTER_13
 73
     1
 44
1.32052821128451
  0
TEXT
  5
307
330
46
100
AcDbEntity
  8
0
 62
     2
100
AcDbText
 10
119.0048393279383
 20
49.58336059319748
 30
0.0
 40
1.8
  1
Bl.
 41
0.9
  7
CONVERTER_13
100
AcDbText
  0
TEXT
  5
308
330
46
100
AcDbEntity
  8
1
 62
     2
100
AcDbText
 10
-59.32678457547502
 20
79.07727273460557
 30
0.0
 40
1.8
  1
Nr.
 41
0.9
  7
CONVERTER_13
100
AcDbText
  0
TEXT
  5
309
330
46
100
AcDbEntity
  8
1
 62
     2
100
AcDbText
 10
-54.24678457547509
 20
79.07727273460557
 30
0.0
 40
1.8
  1
Änderung
 41
0.9
  7
CONVERTER_13
100
AcDbText
  0
TEXT
  5
30A
330
46
100
AcDbEntity
  8
1
 62
     2
100
AcDbText
 10
-39.00678457547531
 20
79.07727273460557
 30
0.0
 40
1.8
  1
Datum
 41
0.9
  7
CONVERTER_13
100
AcDbText
  0
TEXT
  5
30B
330
46
100
AcDbEntity
  8
1
 62
     2
100
AcDbText
 10
-21.22678457547568
 20
79.07727273460557
 30
0.0
 40
1.8
  1
Name
 41
0.72
  7
CONVERTER_12
100
AcDbText
  0
TEXT
  5
30C
330
46
100
AcDbEntity
  8
1
 62
     2
100
AcDbText
 10
-13.60678457547488
 20
79.07727273460557
 30
0.0
 40
1.8
  1
Gepr.
 41
0.72
  7
CONVERTER_12
100
AcDbText
  0
TEXT
  5
30D
330
46
100
AcDbEntity
  8
1
 62
     2
100
AcDbText
 10
-40.49475660850499
 20
74.84727273460607
 30
0.0
 40
1.8
  1
Datum
 41
0.9
  7
CONVERTER_13
100
AcDbText
  0
TEXT
  5
30E
330
46
100
AcDbEntity
  8
1
 62
     2
100
AcDbText
 10
-22.71475660850524
 20
74.84727273460607
 30
0.0
 40
1.8
  1
Name
 41
0.9
  7
CONVERTER_13
100
AcDbText
  0
TEXT
  5
30F
330
46
100
AcDbEntity
  8
1
 62
     2
100
AcDbText
 10
-59.32678457547502
 20
70.61727273460468
 30
0.0
 40
1.8
  1
Bearb.
 41
0.9
  7
CONVERTER_13
100
AcDbText
  0
TEXT
  5
310
330
46
100
AcDbEntity
  8
1
 62
     2
100
AcDbText
 10
-59.32678457547502
 20
66.38727273460506
 30
0.0
 40
1.8
  1
Gepr.
 41
0.9
  7
CONVERTER_13
100
AcDbText
  0
TEXT
  5
311
330
46
100
AcDbEntity
  8
1
 62
     2
100
AcDbText
 10
-59.32678457547502
 20
62.15727273460561
 30
0.0
 40
1.8
  1
Norm.
 41
0.9
  7
CONVERTER_13
100
AcDbText
  0
TEXT
  5
312
330
46
100
AcDbEntity
  8
1
 62
     2
100
AcDbText
 10
-6.48678457547408
 20
75.44727273460609
 30
0.0
 40
1.8
  1
Typ
 41
0.9
  7
CONVERTER_13
100
AcDbText
  0
TEXT
  5
313
330
46
100
AcDbEntity
  8
1
 62
     2
100
AcDbText
 10
-59.32678457547502
 20
57.15727273460561
 30
0.0
 40
1.8
  1
Maßstab
 41
0.9
  7
CONVERTER_13
100
AcDbText
  0
TEXT
  5
314
330
46
100
AcDbEntity
  8
1
 62
     2
100
AcDbText
 10
-44.08678457547512
 20
57.15727273460561
 30
0.0
 40
1.8
  1
Benennung
 41
0.9
  7
CONVERTER_13
100
AcDbText
  0
TEXT
  5
315
330
46
100
AcDbEntity
  8
1
 62
     2
100
AcDbText
 10
48.44949880327332
 20
57.5227005275201
 30
0.0
 40
1.8
  1
Z.-Nr.
 41
0.9
  7
CONVERTER_13
100
AcDbText
  0
MTEXT
  5
316
330
46
100
AcDbEntity
  8
1
 62
     2
100
AcDbMText
 10
47.35321542452621
 20
97.11227273460548
 30
0.0
 40
1.8
 41
0.0
 71
     4
 72
     1
  1
Urheberschutz  DIN 34
  7
CONVERTER_13
 73
     1
 44
1.32052821128451
  0
MTEXT
  5
317
330
46
100
AcDbEntity
  8
1
 62
     2
100
AcDbMText
 10
85.45321542452561
 20
97.11227273460548
 30
0.0
 40
1.8
 41
0.0
 71
     4
 72
     1
  1
Gewicht
  7
CONVERTER_13
 73
     1
 44
1.32052821128451
  0
TEXT
  5
318
330
46
100
AcDbEntity
  8
1
 62
     2
100
AcDbText
 10
47.35321542452621
 20
91.76727273460432
 30
0.0
 40
1.8
  1
Werkstoff
 41
0.9
  7
CONVERTER_13
100
AcDbText
  0
MTEXT
  5
319
330
46
100
AcDbEntity
  8
1
 62
     2
100
AcDbMText
 10
47.421429201671
 20
46.35227273460532
 30
0.0
 40
1.8
 41
0.0
 71
     4
 72
     1
  1
Ers.
  7
CONVERTER_13
 73
     1
 44
1.32052821128451
  0
TEXT
  5
31A
330
46
100
AcDbEntity
  8
1
 62
     2
100
AcDbText
 10
110.8532154245262
 20
57.15727273460561
 30
0.0
 40
1.8
  1
Bl.
 41
0.9
  7
CONVERTER_13
100
AcDbText
  0
MTEXT
  5
31B
330
46
100
AcDbEntity
  8
1
 62
     7
100
AcDbMText
 10
78.10321542452601
 20
53.45727273460545
 30
0.0
 40
5.0
 41
0.0
 71
     5
 72
     1
  1
K3047
  7
CONVERTER_11
 73
     1
 44
1.32052821128451
  0
MTEXT
  5
31C
330
46
100
AcDbEntity
  8
1
 62
     3
100
AcDbMText
 10
117.928215424526
 20
56.92727273460548
 30
0.0
 40
3.0
 41
0.0
 71
     5
 72
     1
  1
1
  7
CONVERTER_12
 73
     1
 44
1.32052821128451
  0
MTEXT
  5
31D
330
46
100
AcDbEntity
  8
1
 62
     2
100
AcDbMText
 10
114.403215424526
 20
50.48727273460548
 30
0.0
 40
1.8
 41
0.0
 71
     5
 72
     1
  1
1
  7
CONVERTER_13
 73
     1
 44
1.32052821128451
  0
MTEXT
  5
31E
330
46
100
AcDbEntity
  8
1
 62
     7
100
AcDbMText
 10
1.15821542452602
 20
50.4072727346055
 30
0.0
 40
5.0
 41
0.0
 71
     5
 72
     1
  1
Massblatt
  7
CONVERTER_12
 73
     1
 44
1.32052821128451
  0
MTEXT
  5
31F
330
46
100
AcDbEntity
  8
1
 62
     2
100
AcDbMText
 10
-17.14678457547404
 20
71.73227273460549
 30
0.0
 40
1.8
 41
0.0
 71
     5
 72
     1
  1
HI
  7
CONVERTER_13
 73
     1
 44
1.32052821128451
  0
MTEXT
  5
320
330
46
100
AcDbEntity
  8
1
 62
     2
100
AcDbMText
 10
-36.196784575474
 20
71.73227273460549
 30
0.0
 40
1.8
 41
0.0
 71
     5
 72
     1
  1
16.03.09
  7
CONVERTER_13
 73
     1
 44
1.32052821128451
  0
MTEXT
  5
321
330
46
100
AcDbEntity
  8
1
 62
     7
100
AcDbMText
 10
-52.70678457547399
 20
50.20227273460546
 30
0.0
 40
5.0
 41
0.0
 71
     5
 72
     1
  1
1:1
  7
CONVERTER_11
 73
     1
 44
1.32052821128451
  0
MTEXT
  5
323
330
46
100
AcDbEntity
  8
1
 62
     3
100
AcDbMText
 10
19.683215424526
 20
72.11227273460548
 30
0.0
 40
2.5
 41
0.0
 71
     5
 72
     1
  1
KSG 410...Q(-MF)-R4(/S23)/PLG120
  7
CONVERTER_14
 73
     1
 44
1.32052821128451
  0
MTEXT
  5
324
330
46
100
AcDbEntity
  8
1
 62
     2
100
AcDbMText
 10
-36.196784575474
 20
67.50227273460405
 30
0.0
 40
1.8
 41
0.0
 71
     5
 72
     1
  1
16.03.09
  7
CONVERTER_13
 73
     1
 44
1.32052821128451
  0
MTEXT
  5
325
330
46
100
AcDbEntity
  8
1
 62
     2
100
AcDbMText
 10
55.64419980979901
 20
46.35227273460532
 30
0.0
 40
1.8
 41
0.0
 71
     4
 72
     1
  1
:
  7
CONVERTER_13
 73
     1
 44
1.32052821128451
  0
MTEXT
  5
327
330
46
100
AcDbEntity
  8
1
 62
     2
100
AcDbMText
 10
84.20486967552421
 20
63.71727273460556
 30
0.0
 40
2.8
 41
0.0
 71
     5
 72
     1
  1
GmbH & Co. KG
  7
CONVERTER_15
 73
     1
 44
1.32052821128451
  0
HATCH
  5
328
330
46
100
AcDbEntity
  8
1
  6
Continuous
 62
     2
100
AcDbHatch
 10
0.0
 20
0.0
 30
0.0
210
0.0
220
0.0
230
1.0
  2
_USER
 70
     0
 71
     1
 91
        1
 92
        1
 93
       22
 72
     1
 10
61.3048696755242
 20
72.01727273460557
 11
61.3048696755242
 21
67.31727273460558
 72
     1
 10
61.3048696755242
 20
67.31727273460558
 11
60.8048696755242
 21
67.31727273460558
 72
     1
 10
60.8048696755242
 20
67.31727273460558
 11
60.4580937553917
 21
67.9172727346056
 72
     2
 10
59.47964152491591
 20
68.4145686702729
 40
1.097575516743291
 50
26.94184191294452
 51
91.29325310587154
 73
     0
 72
     1
 10
59.45486967552421
 20
67.31727273460558
 11
58.60486967552421
 21
67.31727273460558
 72
     2
 10
58.60486967552421
 20
68.31727273460558
 40
1.0
 50
90.0
 51
180.0
 73
     0
 72
     1
 10
57.60486967552421
 20
68.31727273460558
 11
57.60486967552421
 21
75.51727273460557
 72
     2
 10
58.60486967552421
 20
75.51727273460557
 40
1.0
 50
180.0
 51
270.0
 73
     0
 72
     1
 10
58.60486967552421
 20
76.51727273460557
 11
60.3048696755242
 21
76.51727273460557
 72
     2
 10
60.3048696755242
 20
75.51727273460557
 40
1.0
 50
270.0
 51
360.0
 73
     0
 72
     1
 10
61.3048696755242
 20
75.51727273460557
 11
61.3048696755242
 21
73.4172727346056
 72
     1
 10
61.3048696755242
 20
73.4172727346056
 11
60.10486967552421
 21
73.4172727346056
 72
     1
 10
60.10486967552421
 20
73.4172727346056
 11
60.10486967552421
 21
74.76727273460557
 72
     2
 10
59.45486967552421
 20
74.76727273460557
 40
0.6500000000000057
 50
0.0
 51
90.0
 73
     1
 72
     2
 10
59.45486967552421
 20
74.76727273460557
 40
0.6500000000000341
 50
90.0
 51
180.0
 73
     1
 72
     1
 10
58.8048696755242
 20
74.76727273460557
 11
58.8048696755242
 21
69.07968527409548
 72
     2
 10
59.45486967552421
 20
69.07968527409548
 40
0.6500000000000057
 50
180.0
 51
270.0
 73
     1
 72
     2
 10
59.45486967552421
 20
69.07968527409548
 40
0.6499999999999773
 50
270.0
 51
360.0
 73
     1
 72
     1
 10
60.10486967552421
 20
69.07968527409548
 11
60.10486967552421
 21
70.81727273460558
 72
     1
 10
60.10486967552421
 20
70.81727273460558
 11
59.54594420951059
 21
70.81727273460558
 72
     1
 10
59.54594420951059
 20
70.81727273460558
 11
59.54594420951059
 21
72.01727273460557
 72
     1
 10
59.54594420951059
 20
72.01727273460557
 11
61.3048696755242
 21
72.01727273460557
 97
       22
330
2B2
330
2B8
330
2B1
330
2C9
330
2B0
330
2FC
330
28B
330
2E7
330
28A
330
2FD
330
2B7
330
26E
330
26F
330
2DA
330
2DB
330
270
330
2D9
330
2D8
330
271
330
2BC
330
2B9
330
2BA
 75
     1
 76
     0
 52
90.00000000000003
 41
0.15
 77
     0
 78
     1
 53
90.00000000000003
 43
0.0
 44
0.0
 45
-0.15
 46
-0.0000000000000001
 79
     0
 98
        1
 10
0.0
 20
0.0
  0
HATCH
  5
329
330
46
100
AcDbEntity
  8
1
  6
Continuous
 62
     2
100
AcDbHatch
 10
0.0
 20
0.0
 30
0.0
210
0.0
220
0.0
230
1.0
  2
_USER
 70
     0
 71
     1
 91
        1
 92
        1
 93
       23
 72
     2
 10
76.35486967552421
 20
69.07968527409548
 40
0.6499999999999773
 50
270.0
 51
360.0
 73
     1
 72
     1
 10
77.00486967552419
 20
69.07968527409548
 11
77.00486967552419
 21
70.81727273460558
 72
     1
 10
77.00486967552419
 20
70.81727273460558
 11
76.45486967552421
 21
70.81727273460558
 72
     1
 10
76.45486967552421
 20
70.81727273460558
 11
76.45486967552421
 21
72.01727273460557
 72
     1
 10
76.45486967552421
 20
72.01727273460557
 11
77.29472127191781
 21
72.01727273460557
 72
     1
 10
77.29472127191781
 20
72.01727273460557
 11
78.20486967552421
 21
72.01727273460557
 72
     1
 10
78.20486967552421
 20
72.01727273460557
 11
78.20486967552421
 21
67.31727273460558
 72
     1
 10
78.20486967552421
 20
67.31727273460558
 11
77.70486967552421
 21
67.31727273460558
 72
     1
 10
77.70486967552421
 20
67.31727273460558
 11
77.3578307989603
 21
67.9172727346056
 72
     2
 10
76.3859947729648
 20
68.40412801667736
 40
1.086965191302819
 50
26.60924039544962
 51
90.81479912927361
 73
     0
 72
     1
 10
76.37053764073912
 20
67.31727273460558
 11
75.50486967552419
 21
67.31727273460558
 72
     2
 10
75.50486967552419
 20
68.31727273460558
 40
1.0
 50
90.0
 51
180.0
 73
     0
 72
     1
 10
74.50486967552419
 20
68.31727273460558
 11
74.50486967552419
 21
75.51727273460557
 72
     2
 10
75.50486967552419
 20
75.51727273460557
 40
1.0
 50
180.0
 51
270.0
 73
     0
 72
     1
 10
75.50486967552419
 20
76.51727273460557
 11
77.20486967552421
 21
76.51727273460557
 72
     2
 10
77.20486967552421
 20
75.51727273460557
 40
1.000000000000085
 50
270.0
 51
360.0
 73
     0
 72
     1
 10
78.2048696755243
 20
75.51727273460557
 11
78.20486967552421
 21
73.4172727346056
 72
     1
 10
78.20486967552421
 20
73.4172727346056
 11
77.00486967552419
 21
73.4172727346056
 72
     1
 10
77.00486967552419
 20
73.4172727346056
 11
77.00486967552419
 21
74.76727273460557
 72
     2
 10
76.35486967552421
 20
74.76727273460557
 40
0.6499999999999773
 50
0.0
 51
90.0
 73
     1
 72
     2
 10
76.35486967552421
 20
74.76727273460557
 40
0.6500000000000341
 50
90.0
 51
180.0
 73
     1
 72
     1
 10
75.70486967552421
 20
74.76727273460557
 11
75.70486967552421
 21
69.07968527409548
 72
     2
 10
76.35486967552421
 20
69.07968527409548
 40
0.6500000000000057
 50
180.0
 51
270.0
 73
     1
 97
       23
330
2DC
330
285
330
277
330
278
330
279
330
267
330
2A6
330
289
330
288
330
2C6
330
28D
330
2E8
330
28C
330
2F6
330
2A7
330
2F5
330
2A4
330
2A5
330
287
330
2DE
330
2DF
330
286
330
2DD
 75
     1
 76
     0
 52
90.00000000000003
 41
0.15
 77
     0
 78
     1
 53
90.00000000000003
 43
0.0
 44
0.0
 45
-0.15
 46
-0.0000000000000001
 79
     0
 98
        1
 10
0.0
 20
0.0
  0
HATCH
  5
32A
330
46
100
AcDbEntity
  8
1
  6
Continuous
 62
     2
100
AcDbHatch
 10
0.0
 20
0.0
 30
0.0
210
0.0
220
0.0
230
1.0
  2
_USER
 70
     0
 71
     1
 91
        2
 92
        1
 93
       13
 72
     1
 10
73.70486967552421
 20
71.0769313160929
 11
73.70486967552421
 21
67.31727273460558
 72
     1
 10
73.70486967552421
 20
67.31727273460558
 11
72.50486967552419
 21
67.31727273460558
 72
     1
 10
72.50486967552419
 20
67.31727273460558
 11
72.50486967552419
 21
70.6672727346056
 72
     2
 10
71.85486967552421
 20
70.6672727346056
 40
0.6499999999999773
 50
0.0
 51
90.0
 73
     1
 72
     1
 10
71.85486967552421
 20
71.31727273460558
 11
71.20486967552421
 21
71.31727273460558
 72
     1
 10
71.20486967552421
 20
71.31727273460558
 11
71.20486967552421
 21
67.31727273460558
 72
     1
 10
71.20486967552421
 20
67.31727273460558
 11
70.00486967552419
 21
67.31727273460558
 72
     1
 10
70.00486967552419
 20
67.31727273460558
 11
70.00486967552419
 21
76.51727273460557
 72
     1
 10
70.00486967552419
 20
76.51727273460557
 11
72.70486967552421
 21
76.51727273460557
 72
     2
 10
72.70486967552421
 20
75.51727273460557
 40
1.0
 50
270.0
 51
360.0
 73
     0
 72
     1
 10
73.70486967552421
 20
75.51727273460557
 11
73.70486967552421
 21
72.73291060433837
 72
     2
 10
72.85324969124929
 20
72.76627247857596
 40
0.8522732028339861
 50
2.243392241143787
 51
84.97668097571444
 73
     0
 72
     2
 10
72.8693209866475
 20
71.0837504178046
 40
0.8355765145285912
 50
274.0184137700539
 51
360.4675934260927
 73
     0
 97
       13
330
2A8
330
282
330
283
330
2E1
330
26A
330
269
330
281
330
2AB
330
2AA
330
2F7
330
2A9
330
2C8
330
2C7
 92
       16
 93
        6
 72
     1
 10
71.85486967552421
 20
75.4172727346056
 11
71.20486967552421
 21
75.4172727346056
 72
     1
 10
71.20486967552421
 20
75.4172727346056
 11
71.20486967552421
 21
72.51727273460557
 72
     1
 10
71.20486967552421
 20
72.51727273460557
 11
71.85486967552421
 21
72.51727273460557
 72
     2
 10
71.85486967552421
 20
73.1672727346056
 40
0.6500000000000341
 50
270.0
 51
360.0
 73
     1
 72
     1
 10
72.50486967552419
 20
73.1672727346056
 11
72.50486967552419
 21
74.76727273460557
 72
     2
 10
71.85486967552421
 20
74.76727273460557
 40
0.6499999999999773
 50
0.0
 51
90.0
 73
     1
 97
        6
330
284
330
2E0
330
26B
330
26C
330
26D
330
2E2
 75
     1
 76
     0
 52
90.00000000000003
 41
0.15
 77
     0
 78
     1
 53
90.00000000000003
 43
0.0
 44
0.0
 45
-0.15
 46
-0.0000000000000001
 79
     0
 98
        1
 10
0.0
 20
0.0
  0
HATCH
  5
32B
330
46
100
AcDbEntity
  8
1
  6
Continuous
 62
     2
100
AcDbHatch
 10
0.0
 20
0.0
 30
0.0
210
0.0
220
0.0
230
1.0
  2
_USER
 70
     0
 71
     1
 91
        2
 92
        1
 93
        6
 72
     1
 10
107.6048696755242
 20
76.51727273460557
 11
107.6048696755242
 21
67.31727273460558
 72
     1
 10
107.6048696755242
 20
67.31727273460558
 11
110.3048696755242
 21
67.31727273460558
 72
     2
 10
110.3048696755242
 20
68.31727273460558
 40
1.0
 50
270.0
 51
360.0
 73
     1
 72
     1
 10
111.3048696755242
 20
68.31727273460558
 11
111.3048696755242
 21
75.51727273460557
 72
     2
 10
110.3048696755242
 20
75.51727273460557
 40
1.0
 50
0.0
 51
90.0
 73
     1
 72
     1
 10
110.3048696755242
 20
76.51727273460557
 11
107.6048696755242
 21
76.51727273460557
 97
        6
330
2EF
330
28E
330
2E9
330
28F
330
292
330
291
 92
       16
 93
        7
 72
     1
 10
110.1048696755242
 20
74.76727273460557
 11
110.1048696755242
 21
69.07968527409548
 72
     2
 10
109.4548696755242
 20
69.07968527409548
 40
0.6499999999999773
 50
0.0
 51
90.0
 73
     0
 72
     1
 10
109.4548696755242
 20
68.4296852740955
 11
108.8048696755242
 21
68.4296852740955
 72
     1
 10
108.8048696755242
 20
68.4296852740955
 11
108.8048696755242
 21
74.76727273460557
 72
     1
 10
108.8048696755242
 20
74.76727273460557
 11
108.8048696755242
 21
75.4172727346056
 72
     1
 10
108.8048696755242
 20
75.4172727346056
 11
109.4548696755242
 21
75.4172727346056
 72
     2
 10
109.4548696755242
 20
74.76727273460557
 40
0.6500000000000057
 50
270.0
 51
360.0
 73
     0
 97
        7
330
25A
330
2D6
330
259
330
258
330
254
330
255
330
2D7
 75
     1
 76
     0
 52
90.00000000000003
 41
0.15
 77
     0
 78
     1
 53
90.00000000000003
 43
0.0
 44
0.0
 45
-0.15
 46
-0.0000000000000001
 79
     0
 98
        1
 10
0.0
 20
0.0
  0
HATCH
  5
32C
330
46
100
AcDbEntity
  8
1
  6
Continuous
 62
     2
100
AcDbHatch
 10
0.0
 20
0.0
 30
0.0
210
0.0
220
0.0
230
1.0
  2
_USER
 70
     0
 71
     1
 91
        2
 92
        1
 93
        8
 72
     1
 10
91.70486967552421
 20
76.51727273460557
 11
93.4048696755242
 21
76.51727273460557
 72
     2
 10
93.4048696755242
 20
75.51727273460557
 40
1.0
 50
270.0
 51
360.0
 73
     0
 72
     1
 10
94.4048696755242
 20
75.51727273460557
 11
94.4048696755242
 21
68.31727273460558
 72
     2
 10
93.4048696755242
 20
68.31727273460558
 40
1.0
 50
0.0
 51
90.0
 73
     0
 72
     1
 10
93.4048696755242
 20
67.31727273460558
 11
91.70486967552421
 21
67.31727273460558
 72
     2
 10
91.70486967552421
 20
68.31727273460558
 40
1.0
 50
90.0
 51
180.0
 73
     0
 72
     1
 10
90.70486967552421
 20
68.31727273460558
 11
90.70486967552421
 21
75.51727273460557
 72
     2
 10
91.70486967552421
 20
75.51727273460557
 40
1.0
 50
180.0
 51
270.0
 73
     0
 97
        8
330
29F
330
2F3
330
290
330
2EB
330
29E
330
2EA
330
249
330
2F4
 92
       16
 93
        6
 72
     1
 10
91.9048696755242
 20
74.76727273460557
 11
91.9048696755242
 21
69.07968527409548
 72
     2
 10
92.5548696755242
 20
69.07968527409548
 40
0.6500000000000057
 50
180.0
 51
270.0
 73
     1
 72
     2
 10
92.5548696755242
 20
69.07968527409548
 40
0.6499999999999773
 50
270.0
 51
360.0
 73
     1
 72
     1
 10
93.20486967552421
 20
69.07968527409548
 11
93.20486967552421
 21
74.76727273460557
 72
     2
 10
92.5548696755242
 20
74.76727273460557
 40
0.6500000000000057
 50
0.0
 51
90.0
 73
     1
 72
     2
 10
92.5548696755242
 20
74.76727273460557
 40
0.6500000000000341
 50
90.0
 51
180.0
 73
     1
 97
        6
330
2D0
330
266
330
2CE
330
2CF
330
265
330
2D1
 75
     1
 76
     0
 52
90.00000000000003
 41
0.15
 77
     0
 78
     1
 53
90.00000000000003
 43
0.0
 44
0.0
 45
-0.15
 46
-0.0000000000000001
 79
     0
 98
        1
 10
0.0
 20
0.0
  0
HATCH
  5
32D
330
46
100
AcDbEntity
  8
1
  6
Continuous
 62
     2
100
AcDbHatch
 10
0.0
 20
0.0
 30
0.0
210
0.0
220
0.0
230
1.0
  2
_USER
 70
     0
 71
     1
 91
        3
 92
        1
 93
        9
 72
     1
 10
95.20486967552421
 20
76.51727273460557
 11
95.20486967552421
 21
67.31727273460558
 72
     1
 10
95.20486967552421
 20
67.31727273460558
 11
97.9048696755242
 21
67.31727273460558
 72
     2
 10
97.9048696755242
 20
68.31727273460558
 40
1.0
 50
270.0
 51
360.0
 73
     1
 72
     1
 10
98.9048696755242
 20
68.31727273460558
 11
98.9048696755242
 21
71.61727273460559
 72
     2
 10
98.25486967552419
 20
71.61727273460559
 40
0.6500000000000057
 50
0.0
 51
90.0
 73
     1
 72
     2
 10
98.25486967552419
 20
72.9172727346056
 40
0.6500000000000341
 50
270.0
 51
360.0
 73
     1
 72
     1
 10
98.9048696755242
 20
72.9172727346056
 11
98.9048696755242
 21
75.51727273460557
 72
     2
 10
97.9048696755242
 20
75.51727273460557
 40
1.0
 50
0.0
 51
90.0
 73
     1
 72
     1
 10
97.9048696755242
 20
76.51727273460557
 11
95.20486967552421
 21
76.51727273460557
 97
        9
330
2F2
330
253
330
2C5
330
2C4
330
252
330
2EC
330
29B
330
29D
330
29C
 92
       16
 93
        6
 72
     1
 10
97.70486967552421
 20
74.76727273460557
 11
97.70486967552421
 21
73.46727273460556
 72
     2
 10
97.0548696755242
 20
73.46727273460556
 40
0.6499999999999773
 50
0.0
 51
90.0
 73
     0
 72
     1
 10
97.0548696755242
 20
72.81727273460558
 11
96.4048696755242
 21
72.81727273460558
 72
     1
 10
96.4048696755242
 20
72.81727273460558
 11
96.4048696755242
 21
75.4172727346056
 72
     1
 10
96.4048696755242
 20
75.4172727346056
 11
97.0548696755242
 21
75.4172727346056
 72
     2
 10
97.0548696755242
 20
74.76727273460557
 40
0.6500000000000057
 50
270.0
 51
360.0
 73
     0
 97
        6
330
263
330
2CC
330
262
330
25E
330
264
330
2CD
 92
       16
 93
        6
 72
     1
 10
97.0548696755242
 20
71.71727273460556
 11
96.4048696755242
 21
71.71727273460556
 72
     1
 10
96.4048696755242
 20
71.71727273460556
 11
96.4048696755242
 21
68.4296852740955
 72
     1
 10
96.4048696755242
 20
68.4296852740955
 11
97.0548696755242
 21
68.4296852740955
 72
     2
 10
97.0548696755242
 20
69.07968527409548
 40
0.6499999999999773
 50
270.0
 51
360.0
 73
     1
 72
     1
 10
97.70486967552421
 20
69.07968527409548
 11
97.70486967552421
 21
71.06727273460558
 72
     2
 10
97.0548696755242
 20
71.06727273460558
 40
0.6500000000000057
 50
0.0
 51
90.0
 73
     1
 97
        6
330
25F
330
2CA
330
260
330
261
330
25D
330
2CB
 75
     1
 76
     0
 52
90.00000000000003
 41
0.15
 77
     0
 78
     1
 53
90.00000000000003
 43
0.0
 44
0.0
 45
-0.15
 46
-0.0000000000000001
 79
     0
 98
        1
 10
0.0
 20
0.0
  0
HATCH
  5
32E
330
46
100
AcDbEntity
  8
1
  6
Continuous
 62
     2
100
AcDbHatch
 10
0.0
 20
0.0
 30
0.0
210
0.0
220
0.0
230
1.0
  2
_USER
 70
     0
 71
     1
 91
        2
 92
        1
 93
        8
 72
     1
 10
100.7048696755242
 20
76.51727273460557
 11
102.4048696755242
 21
76.51727273460557
 72
     2
 10
102.4048696755242
 20
75.51727273460557
 40
1.0
 50
270.0
 51
360.0
 73
     0
 72
     1
 10
103.4048696755242
 20
75.51727273460557
 11
103.4048696755242
 21
68.31727273460558
 72
     2
 10
102.4048696755242
 20
68.31727273460558
 40
1.0
 50
0.0
 51
90.0
 73
     0
 72
     1
 10
102.4048696755242
 20
67.31727273460558
 11
100.7048696755242
 21
67.31727273460558
 72
     2
 10
100.7048696755242
 20
68.31727273460558
 40
0.9999999999999858
 50
90.0
 51
180.0
 73
     0
 72
     1
 10
99.70486967552421
 20
68.31727273460558
 11
99.70486967552421
 21
75.51727273460557
 72
     2
 10
100.7048696755242
 20
75.51727273460557
 40
1.0
 50
180.0
 51
270.0
 73
     0
 97
        8
330
297
330
2F1
330
298
330
2EE
330
299
330
2ED
330
29A
330
2F0
 92
       16
 93
        6
 72
     1
 10
102.2048696755242
 20
74.76727273460557
 11
102.2048696755242
 21
69.07968527409548
 72
     2
 10
101.5548696755242
 20
69.07968527409548
 40
0.6499999999999773
 50
0.0
 51
90.0
 73
     0
 72
     2
 10
101.5548696755242
 20
69.07968527409548
 40
0.6500000000000057
 50
90.0
 51
180.0
 73
     0
 72
     1
 10
100.9048696755242
 20
69.07968527409548
 11
100.9048696755242
 21
74.76727273460557
 72
     2
 10
101.5548696755242
 20
74.76727273460557
 40
0.6500000000000341
 50
180.0
 51
270.0
 73
     0
 72
     2
 10
101.5548696755242
 20
74.76727273460557
 40
0.6499999999999915
 50
270.0
 51
360.0
 73
     0
 97
        6
330
25C
330
2D2
330
2D3
330
25B
330
2D4
330
2D5
 75
     1
 76
     0
 52
90.00000000000003
 41
0.15
 77
     0
 78
     1
 53
90.00000000000003
 43
0.0
 44
0.0
 45
-0.15
 46
-0.0000000000000001
 79
     0
 98
        1
 10
0.0
 20
0.0
  0
HATCH
  5
32F
330
46
100
AcDbEntity
  8
1
  6
Continuous
 62
     2
100
AcDbHatch
 10
0.0
 20
0.0
 30
0.0
210
0.0
220
0.0
230
1.0
  2
_USER
 70
     0
 71
     1
 91
        2
 92
        1
 93
        8
 72
     2
 10
66.50486967552419
 20
75.51727273460557
 40
1.0
 50
90.0
 51
180.0
 73
     1
 72
     1
 10
65.50486967552419
 20
75.51727273460557
 11
65.50486967552419
 21
68.31727273460558
 72
     2
 10
66.50486967552419
 20
68.31727273460558
 40
1.0
 50
180.0
 51
270.0
 73
     1
 72
     1
 10
66.50486967552419
 20
67.31727273460558
 11
68.20486967552421
 21
67.31727273460558
 72
     2
 10
68.20486967552421
 20
68.31727273460558
 40
1.0
 50
270.0
 51
360.0
 73
     1
 72
     1
 10
69.20486967552421
 20
68.31727273460558
 11
69.20486967552421
 21
75.51727273460557
 72
     2
 10
68.20486967552421
 20
75.51727273460557
 40
1.0
 50
0.0
 51
90.0
 73
     1
 72
     1
 10
68.20486967552421
 20
76.51727273460557
 11
66.50486967552419
 21
76.51727273460557
 97
        8
330
2FA
330
2AC
330
2F8
330
2AE
330
2F9
330
2AD
330
2FB
330
2AF
 92
       16
 93
        6
 72
     1
 10
66.70486967552421
 20
74.76727273460557
 11
66.70486967552421
 21
69.07968527409548
 72
     2
 10
67.35486967552421
 20
69.07968527409548
 40
0.6500000000000057
 50
180.0
 51
270.0
 73
     1
 72
     2
 10
67.35486967552421
 20
69.07968527409548
 40
0.6499999999999773
 50
270.0
 51
360.0
 73
     1
 72
     1
 10
68.00486967552419
 20
69.07968527409548
 11
68.00486967552419
 21
74.76727273460557
 72
     2
 10
67.35486967552421
 20
74.76727273460557
 40
0.6499999999999773
 50
0.0
 51
90.0
 73
     1
 72
     2
 10
67.35486967552421
 20
74.76727273460557
 40
0.6500000000000341
 50
90.0
 51
180.0
 73
     1
 97
        6
330
2E5
330
273
330
2E3
330
2E4
330
272
330
2E6
 75
     1
 76
     0
 52
90.00000000000003
 41
0.15
 77
     0
 78
     1
 53
90.00000000000003
 43
0.0
 44
0.0
 45
-0.15
 46
-0.0000000000000001
 79
     0
 98
        1
 10
0.0
 20
0.0
  0
HATCH
  5
330
330
46
100
AcDbEntity
  8
1
  6
Continuous
 62
     2
100
AcDbHatch
 10
0.0
 20
0.0
 30
0.0
210
0.0
220
0.0
230
1.0
  2
_USER
 70
     0
 71
     1
 91
        1
 92
        1
 93
       11
 72
     1
 10
87.4048696755242
 20
76.51727273460557
 11
87.4048696755242
 21
72.85460914876609
 72
     1
 10
87.4048696755242
 20
72.85460914876609
 11
88.6386197049597
 21
76.51727273460557
 72
     1
 10
88.6386197049597
 20
76.51727273460557
 11
89.9048696755242
 21
76.51727273460557
 72
     1
 10
89.9048696755242
 20
76.51727273460557
 11
88.4732782934019
 21
72.26727273460557
 72
     1
 10
88.4732782934019
 20
72.26727273460557
 11
89.9048696755242
 21
67.31727273460558
 72
     1
 10
89.9048696755242
 20
67.31727273460558
 11
88.65569178290662
 21
67.31727273460558
 72
     1
 10
88.65569178290662
 20
67.31727273460558
 11
87.4048696755242
 21
71.642228520777
 72
     1
 10
87.4048696755242
 20
71.642228520777
 11
87.4048696755242
 21
67.31727273460558
 72
     1
 10
87.4048696755242
 20
67.31727273460558
 11
86.20486967552421
 21
67.31727273460558
 72
     1
 10
86.20486967552421
 20
67.31727273460558
 11
86.20486967552421
 21
76.51727273460557
 72
     1
 10
86.20486967552421
 20
76.51727273460557
 11
87.4048696755242
 21
76.51727273460557
 97
       11
330
24B
330
24D
330
24F
330
251
330
250
330
24E
330
24C
330
24A
330
2A2
330
2A1
330
2A3
 75
     1
 76
     0
 52
90.00000000000003
 41
0.15
 77
     0
 78
     1
 53
90.00000000000003
 43
0.0
 44
0.0
 45
-0.15
 46
-0.0000000000000001
 79
     0
 98
        1
 10
0.0
 20
0.0
  0
HATCH
  5
331
330
46
100
AcDbEntity
  8
1
  6
Continuous
 62
     2
100
AcDbHatch
 10
0.0
 20
0.0
 30
0.0
210
0.0
220
0.0
230
1.0
  2
_USER
 70
     0
 71
     1
 91
        1
 92
        1
 93
        6
 72
     1
 10
105.4048696755242
 20
68.4296852740955
 11
105.4048696755242
 21
76.51727273460557
 72
     1
 10
105.4048696755242
 20
76.51727273460557
 11
104.2048696755242
 21
76.51727273460557
 72
     1
 10
104.2048696755242
 20
76.51727273460557
 11
104.2048696755242
 21
67.31727273460558
 72
     1
 10
104.2048696755242
 20
67.31727273460558
 11
106.8048696755242
 21
67.31727273460558
 72
     1
 10
106.8048696755242
 20
67.31727273460558
 11
106.8048696755242
 21
68.4296852740955
 72
     1
 10
106.8048696755242
 20
68.4296852740955
 11
105.4048696755242
 21
68.4296852740955
 97
        6
330
294
330
295
330
296
330
293
330
257
330
256
 75
     1
 76
     0
 52
90.00000000000003
 41
0.15
 77
     0
 78
     1
 53
90.00000000000003
 43
0.0
 44
0.0
 45
-0.15
 46
-0.0000000000000001
 79
     0
 98
        1
 10
0.0
 20
0.0
  0
HATCH
  5
332
330
46
100
AcDbEntity
  8
1
  6
Continuous
 62
     2
100
AcDbHatch
 10
0.0
 20
0.0
 30
0.0
210
0.0
220
0.0
230
1.0
  2
_USER
 70
     0
 71
     1
 91
        1
 92
        1
 93
       12
 72
     1
 10
62.10486967552421
 20
76.51727273460557
 11
62.10486967552421
 21
67.31727273460558
 72
     1
 10
62.10486967552421
 20
67.31727273460558
 11
64.70486967552421
 21
67.31727273460558
 72
     1
 10
64.70486967552421
 20
67.31727273460558
 11
64.70486967552421
 21
68.4296852740955
 72
     1
 10
64.70486967552421
 20
68.4296852740955
 11
63.4048696755242
 21
68.4296852740955
 72
     1
 10
63.4048696755242
 20
68.4296852740955
 11
63.4048696755242
 21
71.71727273460556
 72
     1
 10
63.4048696755242
 20
71.71727273460556
 11
64.70486967552421
 21
71.71727273460556
 72
     1
 10
64.70486967552421
 20
71.71727273460556
 11
64.70486967552421
 21
72.81727273460558
 72
     1
 10
64.70486967552421
 20
72.81727273460558
 11
63.4048696755242
 21
72.81727273460558
 72
     1
 10
63.4048696755242
 20
72.81727273460558
 11
63.4048696755242
 21
75.4172727346056
 72
     1
 10
63.4048696755242
 20
75.4172727346056
 11
64.70486967552421
 21
75.4172727346056
 72
     1
 10
64.70486967552421
 20
75.4172727346056
 11
64.70486967552421
 21
76.51727273460557
 72
     1
 10
64.70486967552421
 20
76.51727273460557
 11
62.10486967552421
 21
76.51727273460557
 97
       12
330
274
330
275
330
2BD
330
2BF
330
2C0
330
2C1
330
2C2
330
2BE
330
2B3
330
2B4
330
2B5
330
2B6
 75
     1
 76
     0
 52
90.00000000000003
 41
0.15
 77
     0
 78
     1
 53
90.00000000000003
 43
0.0
 44
0.0
 45
-0.15
 46
-0.0000000000000001
 79
     0
 98
        1
 10
0.0
 20
0.0
  0
HATCH
  5
333
330
46
100
AcDbEntity
  8
1
  6
Continuous
 62
     2
100
AcDbHatch
 10
0.0
 20
0.0
 30
0.0
210
0.0
220
0.0
230
1.0
  2
_USER
 70
     0
 71
     1
 91
        1
 92
        1
 93
        4
 72
     1
 10
81.00486967552419
 20
76.51727273460557
 11
81.00486967552419
 21
67.31727273460558
 72
     1
 10
81.00486967552419
 20
67.31727273460558
 11
82.20486967552421
 21
67.31727273460558
 72
     1
 10
82.20486967552421
 20
67.31727273460558
 11
82.20486967552421
 21
76.51727273460557
 72
     1
 10
82.20486967552421
 20
76.51727273460557
 11
81.00486967552419
 21
76.51727273460557
 97
        4
330
27D
330
276
330
27C
330
27F
 75
     1
 76
     0
 52
90.00000000000003
 41
0.15
 77
     0
 78
     1
 53
90.00000000000003
 43
0.0
 44
0.0
 45
-0.15
 46
-0.0000000000000001
 79
     0
 98
        1
 10
0.0
 20
0.0
  0
HATCH
  5
334
330
46
100
AcDbEntity
  8
1
  6
Continuous
 62
     2
100
AcDbHatch
 10
0.0
 20
0.0
 30
0.0
210
0.0
220
0.0
230
1.0
  2
_USER
 70
     0
 71
     1
 91
        1
 92
        1
 93
        4
 72
     1
 10
79.00486967552419
 20
76.51727273460557
 11
79.00486967552419
 21
67.31727273460558
 72
     1
 10
79.00486967552419
 20
67.31727273460558
 11
80.20486967552421
 21
67.31727273460558
 72
     1
 10
80.20486967552421
 20
67.31727273460558
 11
80.20486967552421
 21
76.51727273460557
 72
     1
 10
80.20486967552421
 20
76.51727273460557
 11
79.00486967552419
 21
76.51727273460557
 97
        4
330
27B
330
27E
330
27A
330
280
 75
     1
 76
     0
 52
90.00000000000003
 41
0.15
 77
     0
 78
     1
 53
90.00000000000003
 43
0.0
 44
0.0
 45
-0.15
 46
-0.0000000000000001
 79
     0
 98
        1
 10
0.0
 20
0.0
  0
ENDBLK
  5
48
330
46
100
AcDbEntity
  8
0
100
AcDbBlockEnd
  0
BLOCK
  5
4A
330
49
100
AcDbEntity
  8
0
100
AcDbBlockBegin
  2
Ma_blatt
 70
     0
 71
     0
 10
-344.161698220624
 20
1480.803390555156
 30
0.0
  3
Ma_blatt
  1

  0
POINT
  5
335
330
49
100
AcDbEntity
  8
1
 62
     3
 60
     1
100
AcDbPoint
 10
-144.7639790661837
 20
106.540534136688
 30
0.0
  0
POINT
  5
336
330
49
100
AcDbEntity
  8
1
 62
     3
 60
     1
100
AcDbPoint
 10
-527.7659263051818
 20
106.540534136688
 30
0.0
  0
POINT
  5
337
330
49
100
AcDbEntity
  8
1
 62
     3
 60
     1
100
AcDbPoint
 10
-527.7659263051818
 20
119.365534136688
 30
0.0
  0
POINT
  5
338
330
49
100
AcDbEntity
  8
1
 62
     3
 60
     1
100
AcDbPoint
 10
-527.7659263051818
 20
145.0155341366879
 30
0.0
  0
POINT
  5
339
330
49
100
AcDbEntity
  8
1
 62
     3
 60
     1
100
AcDbPoint
 10
-527.7659263051818
 20
132.1905341366879
 30
0.0
  0
POINT
  5
33A
330
49
100
AcDbEntity
  8
1
 62
     3
 60
     1
100
AcDbPoint
 10
-527.7659263051818
 20
177.4155341366879
 30
0.0
  0
POINT
  5
33B
330
49
100
AcDbEntity
  8
1
 62
     3
 60
     1
100
AcDbPoint
 10
-511.9639790661837
 20
145.0155341366879
 30
0.0
  0
POINT
  5
33C
330
49
100
AcDbEntity
  8
1
 62
     3
 60
     1
100
AcDbPoint
 10
-511.9639790661837
 20
132.1905341366879
 30
0.0
  0
POINT
  5
33D
330
49
100
AcDbEntity
  8
1
 62
     3
 60
     1
100
AcDbPoint
 10
-511.9639790661837
 20
119.365534136688
 30
0.0
  0
POINT
  5
33E
330
49
100
AcDbEntity
  8
1
 62
     3
 60
     1
100
AcDbPoint
 10
-511.9639790661837
 20
177.4155341366879
 30
0.0
  0
POINT
  5
33F
330
49
100
AcDbEntity
  8
1
 62
     3
 60
     1
100
AcDbPoint
 10
-527.7659263051818
 20
124.7655341366879
 30
0.0
  0
POINT
  5
340
330
49
100
AcDbEntity
  8
1
 62
     3
 60
     1
100
AcDbPoint
 10
-246.0139790661837
 20
177.4155341366878
 30
0.0
  0
LINE
  5
341
330
49
100
AcDbEntity
  8
1
  6
Continuous
 62
     7
100
AcDbLine
 10
-527.7659263051818
 20
106.540534136688
 30
0.0
 11
-144.7639790661837
 21
106.540534136688
 31
0.0
  0
LINE
  5
342
330
49
100
AcDbEntity
  8
1
  6
Continuous
 62
     7
100
AcDbLine
 10
-527.7659263051818
 20
119.365534136688
 30
0.0
 11
-527.7659263051818
 21
106.540534136688
 31
0.0
  0
LINE
  5
343
330
49
100
AcDbEntity
  8
1
  6
Continuous
 62
     2
100
AcDbLine
 10
-527.7659263051818
 20
119.365534136688
 30
0.0
 11
-511.9639790661837
 21
119.365534136688
 31
0.0
  0
LINE
  5
344
330
49
100
AcDbEntity
  8
1
  6
Continuous
 62
     7
100
AcDbLine
 10
-527.7659263051818
 20
145.0155341366879
 30
0.0
 11
-527.7659263051818
 21
132.1905341366879
 31
0.0
  0
LINE
  5
345
330
49
100
AcDbEntity
  8
1
  6
Continuous
 62
     2
100
AcDbLine
 10
-527.7659263051818
 20
145.0155341366879
 30
0.0
 11
-511.9639790661837
 21
145.0155341366879
 31
0.0
  0
LINE
  5
346
330
49
100
AcDbEntity
  8
1
  6
Continuous
 62
     7
100
AcDbLine
 10
-527.7659263051818
 20
132.1905341366879
 30
0.0
 11
-527.7659263051818
 21
119.365534136688
 31
0.0
  0
LINE
  5
347
330
49
100
AcDbEntity
  8
1
  6
Continuous
 62
     7
100
AcDbLine
 10
-511.9639790661837
 20
132.1905341366879
 30
0.0
 11
-527.7659263051818
 21
132.1905341366879
 31
0.0
  0
LINE
  5
348
330
49
100
AcDbEntity
  8
1
  6
Continuous
 62
     7
100
AcDbLine
 10
-527.7659263051818
 20
177.4155341366879
 30
0.0
 11
-527.7659263051818
 21
145.0155341366879
 31
0.0
  0
LINE
  5
349
330
49
100
AcDbEntity
  8
1
  6
Continuous
 62
     7
100
AcDbLine
 10
-511.9639790661837
 20
177.4155341366879
 30
0.0
 11
-527.7659263051818
 21
177.4155341366879
 31
0.0
  0
LINE
  5
34A
330
49
100
AcDbEntity
  8
1
  6
Continuous
 62
     7
100
AcDbLine
 10
-246.0139790661837
 20
177.4155341366878
 30
0.0
 11
-295.9639790661836
 21
177.4155341366879
 31
0.0
  0
LINE
  5
34B
330
49
100
AcDbEntity
  8
1
  6
Continuous
 62
     7
100
AcDbLine
 10
-246.0139790661837
 20
177.4155341366878
 30
0.0
 11
-246.0139790661837
 21
106.540534136688
 31
0.0
  0
LINE
  5
34C
330
49
100
AcDbEntity
  8
1
  6
Continuous
 62
     7
100
AcDbLine
 10
-166.3639790661837
 20
177.4155341366878
 30
0.0
 11
-246.0139790661837
 21
177.4155341366878
 31
0.0
  0
LINE
  5
34D
330
49
100
AcDbEntity
  8
1
  6
Continuous
 62
     7
100
AcDbLine
 10
-295.9639790661836
 20
177.4155341366879
 30
0.0
 11
-375.6139790661837
 21
177.4155341366879
 31
0.0
  0
LINE
  5
34E
330
49
100
AcDbEntity
  8
1
  6
Continuous
 62
     7
100
AcDbLine
 10
-375.6139790661837
 20
177.4155341366879
 30
0.0
 11
-425.5639790661838
 21
177.4155341366879
 31
0.0
  0
LINE
  5
34F
330
49
100
AcDbEntity
  8
1
  6
Continuous
 62
     7
100
AcDbLine
 10
-425.5639790661838
 20
177.4155341366879
 30
0.0
 11
-511.9639790661837
 21
177.4155341366879
 31
0.0
  0
LINE
  5
350
330
49
100
AcDbEntity
  8
1
  6
Continuous
 62
     7
100
AcDbLine
 10
-144.7639790661836
 20
177.4155341366878
 30
0.0
 11
-166.3639790661837
 21
177.4155341366878
 31
0.0
  0
LINE
  5
351
330
49
100
AcDbEntity
  8
1
  6
Continuous
 62
     7
100
AcDbLine
 10
-144.7639790661836
 20
119.365534136688
 30
0.0
 11
-144.7639790661837
 21
106.540534136688
 31
0.0
  0
LINE
  5
352
330
49
100
AcDbEntity
  8
1
  6
Continuous
 62
     7
100
AcDbLine
 10
-144.7639790661837
 20
132.1905341366879
 30
0.0
 11
-144.7639790661836
 21
119.365534136688
 31
0.0
  0
LINE
  5
353
330
49
100
AcDbEntity
  8
1
  6
Continuous
 62
     7
100
AcDbLine
 10
-400.8897607701973
 20
154.2522369259526
 30
0.0
 11
-400.2147607701972
 21
154.9272369259526
 31
0.0
  0
LINE
  5
354
330
49
100
AcDbEntity
  8
1
  6
Continuous
 62
     7
100
AcDbLine
 10
-350.9397607701972
 20
153.5772369259526
 30
0.0
 11
-350.2647607701973
 21
154.2522369259526
 31
0.0
  0
LINE
  5
355
330
49
100
AcDbEntity
  8
1
  6
Continuous
 62
     2
100
AcDbLine
 10
-144.7639790661836
 20
145.0155341366879
 30
0.0
 11
-511.9639790661837
 21
145.0155341366879
 31
0.0
  0
LINE
  5
356
330
49
100
AcDbEntity
  8
1
  6
Continuous
 62
     7
100
AcDbLine
 10
-295.9639790661836
 20
177.4155341366879
 30
0.0
 11
-295.9639790661837
 21
106.540534136688
 31
0.0
  0
LINE
  5
357
330
49
100
AcDbEntity
  8
1
  6
Continuous
 62
     7
100
AcDbLine
 10
-144.7639790661837
 20
132.1905341366879
 30
0.0
 11
-511.9639790661837
 21
132.1905341366879
 31
0.0
  0
LINE
  5
358
330
49
100
AcDbEntity
  8
1
  6
Continuous
 62
     2
100
AcDbLine
 10
-144.7639790661836
 20
119.365534136688
 30
0.0
 11
-511.9639790661837
 21
119.365534136688
 31
0.0
  0
LINE
  5
359
330
49
100
AcDbEntity
  8
1
  6
Continuous
 62
     7
100
AcDbLine
 10
-166.3639790661837
 20
177.4155341366878
 30
0.0
 11
-166.3639790661837
 21
106.540534136688
 31
0.0
  0
LINE
  5
35A
330
49
100
AcDbEntity
  8
1
  6
Continuous
 62
     7
100
AcDbLine
 10
-375.6139790661837
 20
177.4155341366879
 30
0.0
 11
-375.6139790661837
 21
106.540534136688
 31
0.0
  0
LINE
  5
35B
330
49
100
AcDbEntity
  8
1
  6
Continuous
 62
     7
100
AcDbLine
 10
-425.5639790661838
 20
177.4155341366879
 30
0.0
 11
-425.5639790661838
 21
106.540534136688
 31
0.0
  0
LINE
  5
35C
330
49
100
AcDbEntity
  8
1
  6
Continuous
 62
     7
100
AcDbLine
 10
-144.7639790661836
 20
177.4155341366878
 30
0.0
 11
-144.7639790661837
 21
132.1905341366879
 31
0.0
  0
MTEXT
  5
35D
330
49
100
AcDbEntity
  8
1
 62
     3
100
AcDbMText
 10
-400.5889790661838
 20
112.953034136688
 30
0.0
 40
4.725
 41
0.0
 71
     5
 72
     1
  1
310
  7
CONVERTER_12
 73
     1
 44
1.32052821128451
  0
MTEXT
  5
35E
330
49
100
AcDbEntity
  8
1
 62
     3
100
AcDbMText
 10
-522.8833738061755
 20
125.778034136688
 30
0.0
 40
4.725
 41
0.0
 71
     4
 72
     1
  1
KSG 4108..Q(-MF)-R..(/S23)/PLG120
  7
CONVERTER_12
 73
     1
 44
1.32052821128451
  0
MTEXT
  5
35F
330
49
100
AcDbEntity
  8
1
 62
     3
100
AcDbMText
 10
-206.1889790661836
 20
112.953034136688
 30
0.0
 40
4.725
 41
0.0
 71
     5
 72
     1
  1
max.405
  7
CONVERTER_12
 73
     1
 44
1.32052821128451
  0
MTEXT
  5
360
330
49
100
AcDbEntity
  8
1
 62
     3
100
AcDbMText
 10
-206.1889790661836
 20
125.778034136688
 30
0.0
 40
4.725
 41
0.0
 71
     5
 72
     1
  1
max.365
  7
CONVERTER_12
 73
     1
 44
1.32052821128451
  0
MTEXT
  5
361
330
49
100
AcDbEntity
  8
1
 62
     3
100
AcDbMText
 10
-270.9889790661837
 20
112.953034136688
 30
0.0
 40
4.725
 41
0.0
 71
     5
 72
     1
  1
max.355
  7
CONVERTER_12
 73
     1
 44
1.32052821128451
  0
MTEXT
  5
362
330
49
100
AcDbEntity
  8
1
 62
     3
100
AcDbMText
 10
-270.9889790661837
 20
125.778034136688
 30
0.0
 40
4.725
 41
0.0
 71
     5
 72
     1
  1
max.315
  7
CONVERTER_12
 73
     1
 44
1.32052821128451
  0
MTEXT
  5
363
330
49
100
AcDbEntity
  8
1
 62
     7
100
AcDbMText
 10
-206.1889790661836
 20
139.278034136688
 30
0.0
 40
4.725
 41
0.0
 71
     5
 72
     1
  1
k
  7
CONVERTER_12
 73
     1
 44
1.32052821128451
  0
MTEXT
  5
364
330
49
100
AcDbEntity
  8
1
 62
     7
100
AcDbMText
 10
-270.9889790661836
 20
139.278034136688
 30
0.0
 40
4.725
 41
0.0
 71
     5
 72
     1
  1
k
  7
CONVERTER_12
 73
     1
 44
1.32052821128451
  0
MTEXT
  5
365
330
49
100
AcDbEntity
  8
1
 62
     7
100
AcDbMText
 10
-423.8822850369736
 20
160.3443107166499
 30
0.0
 40
4.725
 41
0.0
 71
     4
 72
     1
  1
mit Resolver\Pwith resolver\Pavec resolveur
  7
CONVERTER_12
 73
     1
 44
1.08043217286915
  0
MTEXT
  5
366
330
49
100
AcDbEntity
  8
1
 62
     7
100
AcDbMText
 10
-247.167285036974
 20
160.3443107166499
 30
0.0
 40
4.725
 41
0.0
 71
     4
 72
     1
  1
mit Drehgeber und Bremse\Pwith encoder and brake\Pavec codeur et frein
  7
CONVERTER_12
 73
     1
 44
1.08043217286915
  0
MTEXT
  5
367
330
49
100
AcDbEntity
  8
1
 62
     7
100
AcDbMText
 10
-296.6312850369739
 20
160.3443107166499
 30
0.0
 40
4.725
 41
0.0
 71
     4
 72
     1
  1
mit Drehgeber\Pwith encoder\Pavec codeur
  7
CONVERTER_12
 73
     1
 44
1.08043217286915
  0
MTEXT
  5
368
330
49
100
AcDbEntity
  8
1
 62
     7
100
AcDbMText
 10
-376.4162850369737
 20
160.3443107166499
 30
0.0
 40
4.725
 41
0.0
 71
     4
 72
     1
  1
mit Resolver und Bremse\Pwith resolver and Brake\Pavec resolveur et frein
  7
CONVERTER_12
 73
     1
 44
1.08043217286915
  0
MTEXT
  5
369
330
49
100
AcDbEntity
  8
1
 62
     7
100
AcDbMText
 10
-507.3583738061755
 20
160.2030341366878
 30
0.0
 40
4.725
 41
0.0
 71
     4
 72
     1
  1
Motor - Typ
  7
CONVERTER_12
 73
     1
 44
1.32052821128451
  0
MTEXT
  5
36A
330
49
100
AcDbEntity
  8
1
 62
     7
100
AcDbMText
 10
-400.5889790661837
 20
138.6030341366879
 30
0.0
 40
4.725
 41
0.0
 71
     5
 72
     1
  1
k
  7
CONVERTER_12
 73
     1
 44
1.32052821128451
  0
MTEXT
  5
36B
330
49
100
AcDbEntity
  8
1
 62
     3
100
AcDbMText
 10
-335.7889790661836
 20
112.953034136688
 30
0.0
 40
4.725
 41
0.0
 71
     5
 72
     1
  1
360
  7
CONVERTER_12
 73
     1
 44
1.32052821128451
  0
MTEXT
  5
36C
330
49
100
AcDbEntity
  8
1
 62
     3
100
AcDbMText
 10
-335.7889790661836
 20
125.778034136688
 30
0.0
 40
4.725
 41
0.0
 71
     5
 72
     1
  1
320
  7
CONVERTER_12
 73
     1
 44
1.32052821128451
  0
MTEXT
  5
36D
330
49
100
AcDbEntity
  8
1
 62
     3
100
AcDbMText
 10
-523.5583738061755
 20
113.5321725108984
 30
0.0
 40
4.725
 41
0.0
 71
     4
 72
     1
  1
KSG 41012..Q(-MF)-R..(/S23)/PLG120
  7
CONVERTER_12
 73
     1
 44
1.32052821128451
  0
MTEXT
  5
36E
330
49
100
AcDbEntity
  8
1
 62
     7
100
AcDbMText
 10
-155.5639790661836
 20
139.278034136688
 30
0.0
 40
4.725
 41
0.0
 71
     5
 72
     1
  1
q
  7
CONVERTER_12
 73
     1
 44
1.32052821128451
  0
MTEXT
  5
36F
330
49
100
AcDbEntity
  8
1
 62
     3
100
AcDbMText
 10
-155.5639790661836
 20
112.953034136688
 30
0.0
 40
4.725
 41
0.0
 71
     5
 72
     1
  1
280
  7
CONVERTER_12
 73
     1
 44
1.32052821128451
  0
MTEXT
  5
370
330
49
100
AcDbEntity
  8
1
 62
     3
100
AcDbMText
 10
-155.5639790661836
 20
125.778034136688
 30
0.0
 40
4.725
 41
0.0
 71
     5
 72
     1
  1
240
  7
CONVERTER_12
 73
     1
 44
1.32052821128451
  0
MTEXT
  5
371
330
49
100
AcDbEntity
  8
1
 62
     7
100
AcDbMText
 10
-335.7889790661836
 20
138.6030341366879
 30
0.0
 40
4.725
 41
0.0
 71
     5
 72
     1
  1
k
  7
CONVERTER_12
 73
     1
 44
1.32052821128451
  0
MTEXT
  5
372
330
49
100
AcDbEntity
  8
1
 62
     3
100
AcDbMText
 10
-400.5889790661837
 20
125.778034136688
 30
0.0
 40
4.725
 41
0.0
 71
     5
 72
     1
  1
270
  7
CONVERTER_12
 73
     1
 44
1.32052821128451
  0
ENDBLK
  5
4B
330
49
100
AcDbEntity
  8
0
100
AcDbBlockEnd
  0
BLOCK
  5
4F
330
4C
100
AcDbEntity
  8
0
100
AcDbBlockBegin
  2
TOP
 70
     0
 71
     0
 10
-164.893569150948
 20
823.474545469211
 30
0.0
  3
TOP
  1

  0
INSERT
  5
4D
330
4C
100
AcDbEntity
  8
1
100
AcDbBlockReference
  2
tb_frame_A3
 10
-164.893569150948
 20
823.474545469211
 30
0.0
 41
2.0
 42
2.0
 43
2.0
  0
INSERT
  5
4E
330
4C
100
AcDbEntity
  8
0
100
AcDbBlockReference
  2
Ma_blatt
 10
-344.161698220624
 20
1480.803390555156
 30
0.0
  0
MTEXT
  5
373
330
4C
100
AcDbEntity
  8
1
 62
     3
100
AcDbMText
 10
-422.377469889113
 20
242.242433590309
 30
0.0
 40
7.0
 41
0.0
 71
     5
 72
     1
  1
Welle mit Paßfedernut nach DIN 6885-1(Standard)
  7
CONVERTER_12
 73
     1
 44
1.32052821128451
  0
MTEXT
  5
374
330
4C
100
AcDbEntity
  8
1
 62
     3
100
AcDbMText
 10
-426.377469889113
 20
223.31390812855
 30
0.0
 40
7.0
 41
0.0
 71
     5
 72
     1
  1
Welle ohne Paßfedernut Sonderausführung/S22
  7
CONVERTER_12
 73
     1
 44
1.32052821128451
  0
ENDBLK
  5
50
330
4C
100
AcDbEntity
  8
0
100
AcDbBlockEnd
  0
BLOCK
  5
422
330
41B
100
AcDbEntity
  8
0
100
AcDbBlockBegin
  2
*D10
 70
     1
 71
     0
 10
0.0
 20
0.0
 30
0.0
  3
*D10
  1

  0
LINE
  5
41C
330
41B
100
AcDbEntity
  8
1
  6
Continuous
 62
     2
100
AcDbLine
 10
-353.7180293501048
 20
293.318195979747
 30
0.0
 11
-219.2180293501048
 21
293.318195979747
 31
0.0
  0
LINE
  5
41D
330
41B
100
AcDbEntity
  8
1
  6
Continuous
 62
     2
100
AcDbLine
 10
-353.7180293501048
 20
324.035387096775
 30
0.0
 11
-353.7180293501048
 21
291.318195979747
 31
0.0
  0
LINE
  5
41E
330
41B
100
AcDbEntity
  8
1
  6
Continuous
 62
     2
100
AcDbLine
 10
-219.2180293501048
 20
326.435387096775
 30
0.0
 11
-219.2180293501048
 21
291.318195979747
 31
0.0
  0
SOLID
  5
41F
330
41B
100
AcDbEntity
  8
1
 62
     2
100
AcDbTrace
 10
-346.7180293501048
 20
294.2397634628587
 30
0.0
 11
-346.7180293501048
 21
292.3966284966352
 31
0.0
 12
-353.7180293501048
 22
293.318195979747
 32
0.0
 13
-353.7180293501048
 23
293.318195979747
 33
0.0
  0
SOLID
  5
420
330
41B
100
AcDbEntity
  8
1
 62
     2
100
AcDbTrace
 10
-226.2180293501048
 20
292.3966284966352
 30
0.0
 11
-226.2180293501048
 21
294.2397634628587
 31
0.0
 12
-219.2180293501048
 22
293.318195979747
 32
0.0
 13
-219.2180293501048
 23
293.318195979747
 33
0.0
  0
MTEXT
  5
421
330
41B
100
AcDbEntity
  8
1
 62
     3
100
AcDbMText
 10
-296.129171095538
 20
297.318195979747
 30
0.0
 40
7.0
 41
0.0
 71
     7
 72
     1
  1
134.5
  7
CONVERTER_12
 11
0.9999999999970621
 21
2.424068405545307E-6
 31
0.0
 73
     1
 44
0.60024009603842
  0
ENDBLK
  5
423
330
41B
100
AcDbEntity
  8
0
100
AcDbBlockEnd
  0
BLOCK
  5
42D
330
426
100
AcDbEntity
  8
0
100
AcDbBlockBegin
  2
*D11
 70
     1
 71
     0
 10
0.0
 20
0.0
 30
0.0
  3
*D11
  1

  0
LINE
  5
427
330
426
100
AcDbEntity
  8
1
  6
Continuous
 62
     2
100
AcDbLine
 10
-353.7180293501048
 20
487.225857148127
 30
0.0
 11
-113.7180293501043
 21
487.225857148127
 31
0.0
  0
LINE
  5
428
330
426
100
AcDbEntity
  8
1
  6
Continuous
 62
     2
100
AcDbLine
 10
-353.7180293501048
 20
442.035387096775
 30
0.0
 11
-353.7180293501048
 21
489.225857148127
 31
0.0
  0
LINE
  5
429
330
426
100
AcDbEntity
  8
1
  6
Continuous
 62
     2
100
AcDbLine
 10
-113.7180293501043
 20
439.2865318137185
 30
0.0
 11
-113.7180293501043
 21
489.225857148127
 31
0.0
  0
SOLID
  5
42A
330
426
100
AcDbEntity
  8
1
 62
     2
100
AcDbTrace
 10
-346.7180293501048
 20
488.1474246312387
 30
0.0
 11
-346.7180293501048
 21
486.3042896650152
 31
0.0
 12
-353.7180293501048
 22
487.225857148127
 32
0.0
 13
-353.7180293501048
 23
487.225857148127
 33
0.0
  0
SOLID
  5
42B
330
426
100
AcDbEntity
  8
1
 62
     2
100
AcDbTrace
 10
-120.7180293501043
 20
486.3042896650152
 30
0.0
 11
-120.7180293501043
 21
488.1474246312387
 31
0.0
 12
-113.7180293501043
 22
487.225857148127
 32
0.0
 13
-113.7180293501043
 23
487.225857148127
 33
0.0
  0
MTEXT
  5
42C
330
426
100
AcDbEntity
  8
1
 62
     3
100
AcDbMText
 10
-218.283207459026
 20
493.325857148127
 30
0.0
 40
7.0
 41
0.0
 71
     7
 72
     1
  1
q
  7
CONVERTER_12
 11
0.9999999999970621
 21
2.424068405545307E-6
 31
0.0
 73
     1
 44
0.60024009603842
  0
ENDBLK
  5
42E
330
426
100
AcDbEntity
  8
0
100
AcDbBlockEnd
  0
BLOCK
  5
43A
330
431
100
AcDbEntity
  8
0
100
AcDbBlockBegin
  2
*D12
 70
     1
 71
     0
 10
0.0
 20
0.0
 30
0.0
  3
*D12
  1

  0
LINE
  5
432
330
431
100
AcDbEntity
  8
1
  6
Continuous
 62
     2
100
AcDbLine
 10
74.7854473454382
 20
413.530097769721
 30
0.0
 11
88.7854473454382
 21
413.530097769721
 31
0.0
  0
LINE
  5
433
330
431
100
AcDbEntity
  8
1
  6
Continuous
 62
     2
100
AcDbLine
 10
64.7854473454382
 20
413.530097769721
 30
0.0
 11
74.7854473454382
 21
413.530097769721
 31
0.0
  0
LINE
  5
434
330
431
100
AcDbEntity
  8
1
  6
Continuous
 62
     2
100
AcDbLine
 10
50.7854473454382
 20
413.530097769721
 30
0.0
 11
64.7854473454382
 21
413.530097769721
 31
0.0
  0
LINE
  5
435
330
431
100
AcDbEntity
  8
1
  6
Continuous
 62
     2
100
AcDbLine
 10
64.7854473454382
 20
402.035387096775
 30
0.0
 11
64.7854473454382
 21
415.530097769721
 31
0.0
  0
LINE
  5
436
330
431
100
AcDbEntity
  8
1
  6
Continuous
 62
     2
100
AcDbLine
 10
74.7854473454382
 20
402.035387096775
 30
0.0
 11
74.7854473454382
 21
415.530097769721
 31
0.0
  0
SOLID
  5
437
330
431
100
AcDbEntity
  8
1
 62
     2
100
AcDbTrace
 10
57.7854473454382
 20
412.6085302866093
 30
0.0
 11
57.7854473454382
 21
414.4516652528328
 31
0.0
 12
64.7854473454382
 22
413.530097769721
 32
0.0
 13
64.7854473454382
 23
413.530097769721
 33
0.0
  0
SOLID
  5
438
330
431
100
AcDbEntity
  8
1
 62
     2
100
AcDbTrace
 10
81.7854473454382
 20
414.4516652528328
 30
0.0
 11
81.7854473454382
 21
412.6085302866093
 31
0.0
 12
74.7854473454382
 22
413.530097769721
 32
0.0
 13
74.7854473454382
 23
413.530097769721
 33
0.0
  0
MTEXT
  5
439
330
431
100
AcDbEntity
  8
1
 62
     3
100
AcDbMText
 10
64.72822970267693
 20
417.5300699414157
 30
0.0
 40
7.0
 41
0.0
 71
     7
 72
     1
  1
\C3;{\Fgdt;n}\C3;10
  7
CONVERTER_12
 11
0.9999999999970621
 21
2.424068405545307E-6
 31
0.0
 73
     1
 44
0.60024009603842
  0
ENDBLK
  5
43B
330
431
100
AcDbEntity
  8
0
100
AcDbBlockEnd
  0
BLOCK
  5
447
330
43E
100
AcDbEntity
  8
0
100
AcDbBlockBegin
  2
*D13
 70
     1
 71
     0
 10
0.0
 20
0.0
 30
0.0
  3
*D13
  1

  0
LINE
  5
43F
330
43E
100
AcDbEntity
  8
1
  6
Continuous
 62
     2
100
AcDbLine
 10
-360.7180293501048
 20
452.789296572845
 30
0.0
 11
-345.483483135071
 21
452.789296572845
 31
0.0
  0
LINE
  5
440
330
43E
100
AcDbEntity
  8
1
  6
Continuous
 62
     2
100
AcDbLine
 10
-365.7180293501048
 20
452.789296572845
 30
0.0
 11
-360.7180293501048
 21
452.789296572845
 31
0.0
  0
LINE
  5
441
330
43E
100
AcDbEntity
  8
1
  6
Continuous
 62
     2
100
AcDbLine
 10
-379.7180293501048
 20
452.789296572845
 30
0.0
 11
-365.7180293501048
 21
452.789296572845
 31
0.0
  0
LINE
  5
442
330
43E
100
AcDbEntity
  8
1
  6
Continuous
 62
     2
100
AcDbLine
 10
-365.7180293501048
 20
403.035387096775
 30
0.0
 11
-365.7180293501048
 21
454.789296572845
 31
0.0
  0
LINE
  5
443
330
43E
100
AcDbEntity
  8
1
  6
Continuous
 62
     2
100
AcDbLine
 10
-360.7180293501048
 20
428.035387096775
 30
0.0
 11
-360.7180293501048
 21
454.789296572845
 31
0.0
  0
SOLID
  5
444
330
43E
100
AcDbEntity
  8
1
 62
     2
100
AcDbTrace
 10
-372.7180293501048
 20
451.8677290897332
 30
0.0
 11
-372.7180293501048
 21
453.7108640559567
 31
0.0
 12
-365.7180293501048
 22
452.789296572845
 32
0.0
 13
-365.7180293501048
 23
452.789296572845
 33
0.0
  0
SOLID
  5
445
330
43E
100
AcDbEntity
  8
1
 62
     2
100
AcDbTrace
 10
-353.7180293501048
 20
453.7108640559567
 30
0.0
 11
-353.7180293501048
 21
451.8677290897332
 31
0.0
 12
-360.7180293501048
 22
452.789296572845
 32
0.0
 13
-360.7180293501048
 23
452.789296572845
 33
0.0
  0
MTEXT
  5
446
330
43E
100
AcDbEntity
  8
1
 62
     3
100
AcDbMText
 10
-348.843483135071
 20
456.789296572845
 30
0.0
 40
7.0
 41
0.0
 71
     7
 72
     1
  1
5
  7
CONVERTER_12
 11
0.9999999999970621
 21
2.424068405545307E-6
 31
0.0
 73
     1
 44
0.60024009603842
  0
ENDBLK
  5
448
330
43E
100
AcDbEntity
  8
0
100
AcDbBlockEnd
  0
BLOCK
  5
454
330
44B
100
AcDbEntity
  8
0
100
AcDbBlockBegin
  2
*D14
 70
     1
 71
     0
 10
0.0
 20
0.0
 30
0.0
  3
*D14
  1

  0
LINE
  5
44C
330
44B
100
AcDbEntity
  8
1
  6
Continuous
 62
     2
100
AcDbLine
 10
-360.7180293501048
 20
473.827311524768
 30
0.0
 11
-374.7180293501048
 21
473.827311524768
 31
0.0
  0
LINE
  5
44D
330
44B
100
AcDbEntity
  8
1
  6
Continuous
 62
     2
100
AcDbLine
 10
-353.7180293501048
 20
473.827311524768
 30
0.0
 11
-360.7180293501048
 21
473.827311524768
 31
0.0
  0
LINE
  5
44E
330
44B
100
AcDbEntity
  8
1
  6
Continuous
 62
     2
100
AcDbLine
 10
-339.7180293501048
 20
473.827311524768
 30
0.0
 11
-353.7180293501048
 21
473.827311524768
 31
0.0
  0
LINE
  5
44F
330
44B
100
AcDbEntity
  8
1
  6
Continuous
 62
     2
100
AcDbLine
 10
-353.7180293501048
 20
442.035387096775
 30
0.0
 11
-353.7180293501048
 21
475.827311524768
 31
0.0
  0
LINE
  5
450
330
44B
100
AcDbEntity
  8
1
  6
Continuous
 62
     2
100
AcDbLine
 10
-360.7180293501048
 20
428.035387096775
 30
0.0
 11
-360.7180293501048
 21
475.827311524768
 31
0.0
  0
SOLID
  5
451
330
44B
100
AcDbEntity
  8
1
 62
     2
100
AcDbTrace
 10
-346.7180293501048
 20
474.7488790078797
 30
0.0
 11
-346.7180293501048
 21
472.9057440416562
 31
0.0
 12
-353.7180293501048
 22
473.827311524768
 32
0.0
 13
-353.7180293501048
 23
473.827311524768
 33
0.0
  0
SOLID
  5
452
330
44B
100
AcDbEntity
  8
1
 62
     2
100
AcDbTrace
 10
-367.7180293501048
 20
472.9057440416562
 30
0.0
 11
-367.7180293501048
 21
474.7488790078797
 31
0.0
 12
-360.7180293501048
 22
473.827311524768
 32
0.0
 13
-360.7180293501048
 23
473.827311524768
 33
0.0
  0
MTEXT
  5
453
330
44B
100
AcDbEntity
  8
1
 62
     3
100
AcDbMText
 10
-374.526254634821
 20
477.827311524768
 30
0.0
 40
7.0
 41
0.0
 71
     7
 72
     1
  1
7
  7
CONVERTER_12
 11
0.9999999999970621
 21
2.424068405545307E-6
 31
0.0
 73
     1
 44
0.60024009603842
  0
ENDBLK
  5
455
330
44B
100
AcDbEntity
  8
0
100
AcDbBlockEnd
  0
BLOCK
  5
45F
330
458
100
AcDbEntity
  8
0
100
AcDbBlockBegin
  2
*D15
 70
     1
 71
     0
 10
0.0
 20
0.0
 30
0.0
  3
*D15
  1

  0
LINE
  5
459
330
458
100
AcDbEntity
  8
1
  6
Continuous
 62
     2
100
AcDbLine
 10
-353.7180293501048
 20
510.176011441751
 30
0.0
 11
-83.71802935010481
 21
510.176011441751
 31
0.0
  0
LINE
  5
45A
330
458
100
AcDbEntity
  8
1
  6
Continuous
 62
     2
100
AcDbLine
 10
-353.7180293501048
 20
442.035387096775
 30
0.0
 11
-353.7180293501048
 21
512.176011441751
 31
0.0
  0
LINE
  5
45B
330
458
100
AcDbEntity
  8
1
  6
Continuous
 62
     2
100
AcDbLine
 10
-83.71802935010481
 20
440.535387096775
 30
0.0
 11
-83.71802935010481
 21
512.176011441751
 31
0.0
  0
SOLID
  5
45C
330
458
100
AcDbEntity
  8
1
 62
     2
100
AcDbTrace
 10
-346.7180293501048
 20
511.0975789248628
 30
0.0
 11
-346.7180293501048
 21
509.2544439586393
 31
0.0
 12
-353.7180293501048
 22
510.176011441751
 32
0.0
 13
-353.7180293501048
 23
510.176011441751
 33
0.0
  0
SOLID
  5
45D
330
458
100
AcDbEntity
  8
1
 62
     2
100
AcDbTrace
 10
-90.71802935010481
 20
509.2544439586393
 30
0.0
 11
-90.71802935010481
 21
511.0975789248628
 31
0.0
 12
-83.71802935010481
 22
510.176011441751
 32
0.0
 13
-83.71802935010481
 23
510.176011441751
 33
0.0
  0
MTEXT
  5
45E
330
458
100
AcDbEntity
  8
1
 62
     3
100
AcDbMText
 10
-216.8492056503808
 20
514.176011441751
 30
0.0
 40
7.0
 41
0.0
 71
     7
 72
     1
  1
k
  7
CONVERTER_12
 11
0.9999999999970621
 21
2.424068405545307E-6
 31
0.0
 73
     1
 44
0.60024009603842
  0
ENDBLK
  5
460
330
458
100
AcDbEntity
  8
0
100
AcDbBlockEnd
  0
BLOCK
  5
46A
330
463
100
AcDbEntity
  8
0
100
AcDbBlockBegin
  2
*D16
 70
     1
 71
     0
 10
0.0
 20
0.0
 30
0.0
  3
*D16
  1

  0
LINE
  5
464
330
463
100
AcDbEntity
  8
1
  6
Continuous
 62
     2
100
AcDbLine
 10
-423.7180293501048
 20
452.738707011725
 30
0.0
 11
-365.7180293501048
 21
452.738707011725
 31
0.0
  0
LINE
  5
465
330
463
100
AcDbEntity
  8
1
  6
Continuous
 62
     2
100
AcDbLine
 10
-365.7180293501048
 20
403.035387096775
 30
0.0
 11
-365.7180293501048
 21
454.738707011725
 31
0.0
  0
LINE
  5
466
330
463
100
AcDbEntity
  8
1
  6
Continuous
 62
     2
100
AcDbLine
 10
-423.7180293501048
 20
399.035387096775
 30
0.0
 11
-423.7180293501048
 21
454.738707011725
 31
0.0
  0
SOLID
  5
467
330
463
100
AcDbEntity
  8
1
 62
     2
100
AcDbTrace
 10
-416.7180293501048
 20
453.6602744948368
 30
0.0
 11
-416.7180293501048
 21
451.8171395286133
 31
0.0
 12
-423.7180293501048
 22
452.738707011725
 32
0.0
 13
-423.7180293501048
 23
452.738707011725
 33
0.0
  0
SOLID
  5
468
330
463
100
AcDbEntity
  8
1
 62
     2
100
AcDbTrace
 10
-372.7180293501048
 20
451.8171395286133
 30
0.0
 11
-372.7180293501048
 21
453.6602744948368
 31
0.0
 12
-365.7180293501048
 22
452.738707011725
 32
0.0
 13
-365.7180293501048
 23
452.738707011725
 33
0.0
  0
MTEXT
  5
469
330
463
100
AcDbEntity
  8
1
 62
     3
100
AcDbMText
 10
-393.689163549767
 20
456.738707011725
 30
0.0
 40
7.0
 41
0.0
 71
     7
 72
     1
  1
58
  7
CONVERTER_12
 11
0.9999999999970621
 21
2.424068405545307E-6
 31
0.0
 73
     1
 44
0.60024009603842
  0
ENDBLK
  5
46B
330
463
100
AcDbEntity
  8
0
100
AcDbBlockEnd
  0
BLOCK
  5
477
330
46E
100
AcDbEntity
  8
0
100
AcDbBlockBegin
  2
*D17
 70
     1
 71
     0
 10
0.0
 20
0.0
 30
0.0
  3
*D17
  1

  0
LINE
  5
46F
330
46E
100
AcDbEntity
  8
1
  6
Continuous
 62
     2
100
AcDbLine
 10
-437.7180293501048
 20
433.490231328149
 30
0.0
 11
-423.7180293501048
 21
433.490231328149
 31
0.0
  0
LINE
  5
470
330
46E
100
AcDbEntity
  8
1
  6
Continuous
 62
     2
100
AcDbLine
 10
-423.7180293501048
 20
433.490231328149
 30
0.0
 11
-419.7180293501048
 21
433.490231328149
 31
0.0
  0
LINE
  5
471
330
46E
100
AcDbEntity
  8
1
  6
Continuous
 62
     2
100
AcDbLine
 10
-419.7180293501048
 20
433.490231328149
 30
0.0
 11
-405.7180293501048
 21
433.490231328149
 31
0.0
  0
LINE
  5
472
330
46E
100
AcDbEntity
  8
1
  6
Continuous
 62
     2
100
AcDbLine
 10
-419.7180293501048
 20
402.035387096775
 30
0.0
 11
-419.7180293501048
 21
435.490231328149
 31
0.0
  0
LINE
  5
473
330
46E
100
AcDbEntity
  8
1
  6
Continuous
 62
     2
100
AcDbLine
 10
-423.7180293501048
 20
399.035387096775
 30
0.0
 11
-423.7180293501048
 21
435.490231328149
 31
0.0
  0
SOLID
  5
474
330
46E
100
AcDbEntity
  8
1
 62
     2
100
AcDbTrace
 10
-430.7180293501048
 20
432.5686638450372
 30
0.0
 11
-430.7180293501048
 21
434.4117988112607
 31
0.0
 12
-423.7180293501048
 22
433.490231328149
 32
0.0
 13
-423.7180293501048
 23
433.490231328149
 33
0.0
  0
SOLID
  5
475
330
46E
100
AcDbEntity
  8
1
 62
     2
100
AcDbTrace
 10
-412.7180293501048
 20
434.4117988112607
 30
0.0
 11
-412.7180293501048
 21
432.5686638450372
 31
0.0
 12
-419.7180293501048
 22
433.490231328149
 32
0.0
 13
-419.7180293501048
 23
433.490231328149
 33
0.0
  0
MTEXT
  5
476
330
46E
100
AcDbEntity
  8
1
 62
     3
100
AcDbMText
 10
-422.202420264104
 20
437.490231328149
 30
0.0
 40
7.0
 41
0.0
 71
     7
 72
     1
  1
4
  7
CONVERTER_12
 11
0.9999999999970621
 21
2.424068405545307E-6
 31
0.0
 73
     1
 44
0.60024009603842
  0
ENDBLK
  5
478
330
46E
100
AcDbEntity
  8
0
100
AcDbBlockEnd
  0
BLOCK
  5
482
330
47B
100
AcDbEntity
  8
0
100
AcDbBlockBegin
  2
*D18
 70
     1
 71
     0
 10
0.0
 20
0.0
 30
0.0
  3
*D18
  1

  0
LINE
  5
47C
330
47B
100
AcDbEntity
  8
1
  6
Continuous
 62
     2
100
AcDbLine
 10
-419.7180293501048
 20
433.490231328149
 30
0.0
 11
-369.7180293501048
 21
433.490231328149
 31
0.0
  0
LINE
  5
47D
330
47B
100
AcDbEntity
  8
1
  6
Continuous
 62
     2
100
AcDbLine
 10
-369.7180293501048
 20
399.035387096775
 30
0.0
 11
-369.7180293501048
 21
435.490231328149
 31
0.0
  0
LINE
  5
47E
330
47B
100
AcDbEntity
  8
1
  6
Continuous
 62
     2
100
AcDbLine
 10
-419.7180293501048
 20
399.035387096775
 30
0.0
 11
-419.7180293501048
 21
435.490231328149
 31
0.0
  0
SOLID
  5
47F
330
47B
100
AcDbEntity
  8
1
 62
     2
100
AcDbTrace
 10
-412.7180293501048
 20
434.4117988112607
 30
0.0
 11
-412.7180293501048
 21
432.5686638450372
 31
0.0
 12
-419.7180293501048
 22
433.490231328149
 32
0.0
 13
-419.7180293501048
 23
433.490231328149
 33
0.0
  0
SOLID
  5
480
330
47B
100
AcDbEntity
  8
1
 62
     2
100
AcDbTrace
 10
-376.7180293501048
 20
432.5686638450372
 30
0.0
 11
-376.7180293501048
 21
434.4117988112607
 31
0.0
 12
-369.7180293501048
 22
433.490231328149
 32
0.0
 13
-369.7180293501048
 23
433.490231328149
 33
0.0
  0
MTEXT
  5
481
330
47B
100
AcDbEntity
  8
1
 62
     3
100
AcDbMText
 10
-396.438945790278
 20
437.490231328149
 30
0.0
 40
7.0
 41
0.0
 71
     7
 72
     1
  1
50
  7
CONVERTER_12
 11
0.9999999999970621
 21
2.424068405545307E-6
 31
0.0
 73
     1
 44
0.60024009603842
  0
ENDBLK
  5
483
330
47B
100
AcDbEntity
  8
0
100
AcDbBlockEnd
  0
BLOCK
  5
48D
330
486
100
AcDbEntity
  8
0
100
AcDbBlockBegin
  2
*D19
 70
     1
 71
     0
 10
0.0
 20
0.0
 30
0.0
  3
*D19
  1

  0
LINE
  5
487
330
486
100
AcDbEntity
  8
1
  6
Continuous
 62
     2
100
AcDbLine
 10
-436.130585597224
 20
367.035387096775
 30
0.0
 11
-436.130585597224
 21
399.035387096775
 31
0.0
  0
LINE
  5
488
330
486
100
AcDbEntity
  8
1
  6
Continuous
 62
     2
100
AcDbLine
 10
-423.7180293501048
 20
399.035387096775
 30
0.0
 11
-438.130585597224
 21
399.035387096775
 31
0.0
  0
LINE
  5
489
330
486
100
AcDbEntity
  8
1
  6
Continuous
 62
     2
100
AcDbLine
 10
-423.7180293501048
 20
367.035387096775
 30
0.0
 11
-438.130585597224
 21
367.035387096775
 31
0.0
  0
SOLID
  5
48A
330
486
100
AcDbEntity
  8
1
 62
     2
100
AcDbTrace
 10
-437.0521530803358
 20
374.035387096775
 30
0.0
 11
-435.2090181141123
 21
374.035387096775
 31
0.0
 12
-436.130585597224
 22
367.035387096775
 32
0.0
 13
-436.130585597224
 23
367.035387096775
 33
0.0
  0
SOLID
  5
48B
330
486
100
AcDbEntity
  8
1
 62
     2
100
AcDbTrace
 10
-435.2090181141123
 20
392.035387096775
 30
0.0
 11
-437.0521530803358
 21
392.035387096775
 31
0.0
 12
-436.130585597224
 22
399.035387096775
 32
0.0
 13
-436.130585597224
 23
399.035387096775
 33
0.0
  0
MTEXT
  5
48C
330
486
100
AcDbEntity
  8
1
 62
     3
100
AcDbMText
 10
-441.880585597224
 20
370.495484988771
 30
0.0
 40
7.0
 41
0.0
 71
     7
 72
     1
  1
\C3;{\Fgdt;n}\C3;\C3;32\C2;\H4.2;\S^ k6;
  7
CONVERTER_12
 11
0.0
 21
1.0
 31
0.0
 73
     1
 44
0.60024009603842
  0
ENDBLK
  5
48E
330
486
100
AcDbEntity
  8
0
100
AcDbBlockEnd
  0
BLOCK
  5
498
330
491
100
AcDbEntity
  8
0
100
AcDbBlockBegin
  2
*D20
 70
     1
 71
     0
 10
0.0
 20
0.0
 30
0.0
  3
*D20
  1

  0
LINE
  5
492
330
491
100
AcDbEntity
  8
1
  6
Continuous
 62
     2
100
AcDbLine
 10
-461.667425086667
 20
338.035387096775
 30
0.0
 11
-461.667425086667
 21
428.035387096775
 31
0.0
  0
LINE
  5
493
330
491
100
AcDbEntity
  8
1
  6
Continuous
 62
     2
100
AcDbLine
 10
-359.7180293501048
 20
428.035387096775
 30
0.0
 11
-463.667425086667
 21
428.035387096775
 31
0.0
  0
LINE
  5
494
330
491
100
AcDbEntity
  8
1
  6
Continuous
 62
     2
100
AcDbLine
 10
-359.7180293501048
 20
338.035387096775
 30
0.0
 11
-463.667425086667
 21
338.035387096775
 31
0.0
  0
SOLID
  5
495
330
491
100
AcDbEntity
  8
1
 62
     2
100
AcDbTrace
 10
-462.5889925697787
 20
345.035387096775
 30
0.0
 11
-460.7458576035552
 21
345.035387096775
 31
0.0
 12
-461.667425086667
 22
338.035387096775
 32
0.0
 13
-461.667425086667
 23
338.035387096775
 33
0.0
  0
SOLID
  5
496
330
491
100
AcDbEntity
  8
1
 62
     2
100
AcDbTrace
 10
-460.7458576035552
 20
421.035387096775
 30
0.0
 11
-462.5889925697787
 21
421.035387096775
 31
0.0
 12
-461.667425086667
 22
428.035387096775
 32
0.0
 13
-461.667425086667
 23
428.035387096775
 33
0.0
  0
MTEXT
  5
497
330
491
100
AcDbEntity
  8
1
 62
     3
100
AcDbMText
 10
-467.417425086667
 20
366.795387096775
 30
0.0
 40
7.0
 41
0.0
 71
     7
 72
     1
  1
\C3;{\Fgdt;n}\C3;\C3;90\C2;\H4.2;\S^ h6;
  7
CONVERTER_12
 11
0.0
 21
1.0
 31
0.0
 73
     1
 44
0.60024009603842
  0
ENDBLK
  5
499
330
491
100
AcDbEntity
  8
0
100
AcDbBlockEnd
  0
BLOCK
  5
4A3
330
49C
100
AcDbEntity
  8
0
100
AcDbBlockBegin
  2
*D21
 70
     1
 71
     0
 10
0.0
 20
0.0
 30
0.0
  3
*D21
  1

  0
LINE
  5
49D
330
49C
100
AcDbEntity
  8
1
  6
Continuous
 62
     2
100
AcDbLine
 10
-44.4448856049967
 20
325.535387096775
 30
0.0
 11
-44.4448856049967
 21
477.986710781813
 31
0.0
  0
LINE
  5
49E
330
49C
100
AcDbEntity
  8
1
  6
Continuous
 62
     2
100
AcDbLine
 10
-83.7180293501048
 20
325.535387096775
 30
0.0
 11
-42.4448856049967
 21
325.535387096775
 31
0.0
  0
LINE
  5
49F
330
49C
100
AcDbEntity
  8
1
  6
Continuous
 62
     2
100
AcDbLine
 10
-91.05472935010455
 20
477.986710781813
 30
0.0
 11
-42.4448856049967
 21
477.986710781813
 31
0.0
  0
SOLID
  5
4A0
330
49C
100
AcDbEntity
  8
1
 62
     2
100
AcDbTrace
 10
-45.36645308810847
 20
332.535387096775
 30
0.0
 11
-43.52331812188493
 21
332.535387096775
 31
0.0
 12
-44.4448856049967
 22
325.535387096775
 32
0.0
 13
-44.4448856049967
 23
325.535387096775
 33
0.0
  0
SOLID
  5
4A1
330
49C
100
AcDbEntity
  8
1
 62
     2
100
AcDbTrace
 10
-43.52331812188493
 20
470.986710781813
 30
0.0
 11
-45.36645308810847
 21
470.986710781813
 31
0.0
 12
-44.4448856049967
 22
477.986710781813
 32
0.0
 13
-44.4448856049967
 23
477.986710781813
 33
0.0
  0
MTEXT
  5
4A2
330
49C
100
AcDbEntity
  8
1
 62
     3
100
AcDbMText
 10
-48.4448856049967
 20
401.2752170591582
 30
0.0
 40
7.0
 41
0.0
 71
     7
 72
     1
  1
155
  7
CONVERTER_12
 11
0.0
 21
1.0
 31
0.0
 73
     1
 44
0.60024009603842
  0
ENDBLK
  5
4A4
330
49C
100
AcDbEntity
  8
0
100
AcDbBlockEnd
  0
BLOCK
  5
4AE
330
4A7
100
AcDbEntity
  8
0
100
AcDbBlockBegin
  2
*D22
 70
     1
 71
     0
 10
0.0
 20
0.0
 30
0.0
  3
*D22
  1

  0
LINE
  5
4A8
330
4A7
100
AcDbEntity
  8
1
  6
Continuous
 62
     2
100
AcDbLine
 10
12.2854473454382
 20
292.399600654966
 30
0.0
 11
127.2854473454382
 21
292.399600654966
 31
0.0
  0
LINE
  5
4A9
330
4A7
100
AcDbEntity
  8
1
  6
Continuous
 62
     2
100
AcDbLine
 10
127.2854473454382
 20
338.8765827651358
 30
0.0
 11
127.2854473454382
 21
290.399600654966
 31
0.0
  0
LINE
  5
4AA
330
4A7
100
AcDbEntity
  8
1
  6
Continuous
 62
     2
100
AcDbLine
 10
12.2854473454382
 20
338.8765827651358
 30
0.0
 11
12.2854473454382
 21
290.399600654966
 31
0.0
  0
SOLID
  5
4AB
330
4A7
100
AcDbEntity
  8
1
 62
     2
100
AcDbTrace
 10
19.2854473454382
 20
293.3211681380777
 30
0.0
 11
19.2854473454382
 21
291.4780331718542
 31
0.0
 12
12.2854473454382
 22
292.399600654966
 32
0.0
 13
12.2854473454382
 23
292.399600654966
 33
0.0
  0
SOLID
  5
4AC
330
4A7
100
AcDbEntity
  8
1
 62
     2
100
AcDbTrace
 10
120.2854473454382
 20
291.4780331718542
 30
0.0
 11
120.2854473454382
 21
293.3211681380777
 31
0.0
 12
127.2854473454382
 22
292.399600654966
 32
0.0
 13
127.2854473454382
 23
292.399600654966
 33
0.0
  0
MTEXT
  5
4AD
330
4A7
100
AcDbEntity
  8
1
 62
     3
100
AcDbMText
 10
64.3119586405166
 20
296.399600654966
 30
0.0
 40
7.0
 41
0.0
 71
     7
 72
     1
  1
115
  7
CONVERTER_12
 11
0.9999999999970621
 21
2.424068405545307E-6
 31
0.0
 73
     1
 44
0.60024009603842
  0
ENDBLK
  5
4AF
330
4A7
100
AcDbEntity
  8
0
100
AcDbBlockEnd
  0
BLOCK
  5
4B9
330
4B2
100
AcDbEntity
  8
0
100
AcDbBlockBegin
  2
*D23
 70
     1
 71
     0
 10
0.0
 20
0.0
 30
0.0
  3
*D23
  1

  0
LINE
  5
4B3
330
4B2
100
AcDbEntity
  8
1
  6
Continuous
 62
     2
100
AcDbLine
 10
-329.74330098006
 20
324.035387096775
 30
0.0
 11
-329.74330098006
 21
442.035387096775
 31
0.0
  0
LINE
  5
4B4
330
4B2
100
AcDbEntity
  8
1
  6
Continuous
 62
     2
100
AcDbLine
 10
-309.7180293501048
 20
442.035387096775
 30
0.0
 11
-331.74330098006
 21
442.035387096775
 31
0.0
  0
LINE
  5
4B5
330
4B2
100
AcDbEntity
  8
1
  6
Continuous
 62
     2
100
AcDbLine
 10
-309.7180293501048
 20
324.035387096775
 30
0.0
 11
-331.74330098006
 21
324.035387096775
 31
0.0
  0
SOLID
  5
4B6
330
4B2
100
AcDbEntity
  8
1
 62
     2
100
AcDbTrace
 10
-330.6648684631717
 20
331.035387096775
 30
0.0
 11
-328.8217334969482
 21
331.035387096775
 31
0.0
 12
-329.74330098006
 22
324.035387096775
 32
0.0
 13
-329.74330098006
 23
324.035387096775
 33
0.0
  0
SOLID
  5
4B7
330
4B2
100
AcDbEntity
  8
1
 62
     2
100
AcDbTrace
 10
-328.8217334969482
 20
435.035387096775
 30
0.0
 11
-330.6648684631717
 21
435.035387096775
 31
0.0
 12
-329.74330098006
 22
442.035387096775
 32
0.0
 13
-329.74330098006
 23
442.035387096775
 33
0.0
  0
MTEXT
  5
4B8
330
4B2
100
AcDbEntity
  8
1
 62
     3
100
AcDbMText
 10
-333.74330098006
 20
352.757632731279
 30
0.0
 40
7.0
 41
0.0
 71
     7
 72
     1
  1
\C3;{\Fgdt;n}\C3;118
  7
CONVERTER_12
 11
0.0
 21
1.0
 31
0.0
 73
     1
 44
0.60024009603842
  0
ENDBLK
  5
4BA
330
4B2
100
AcDbEntity
  8
0
100
AcDbBlockEnd
  0
BLOCK
  5
4C1
330
4BD
100
AcDbEntity
  8
0
100
AcDbBlockBegin
  2
*D24
 70
     1
 71
     0
 10
0.0
 20
0.0
 30
0.0
  3
*D24
  1

  0
LINE
  5
4BE
330
4BD
100
AcDbEntity
  8
1
  6
Continuous
 62
     2
100
AcDbLine
 10
-5.15756559078313
 20
454.7039824042963
 30
0.0
 11
17.38831627626661
 21
433.1431774663378
 31
0.0
  0
SOLID
  5
4BF
330
4BD
100
AcDbEntity
  8
1
 62
     2
100
AcDbTrace
 10
11.69234899710281
 20
437.3151366440652
 30
0.0
 11
12.96621686621094
 21
438.6472053944568
 31
0.0
 12
17.38831627626661
 22
433.1431774663378
 32
0.0
 13
17.38831627626661
 23
433.1431774663378
 33
0.0
  0
MTEXT
  5
4C0
330
4BD
100
AcDbEntity
  8
1
 62
     3
100
AcDbMText
 10
-5.32723718612914
 20
460.4008948619116
 30
0.0
 40
7.0
 41
0.0
 71
     7
 72
     1
  1
\C3;{\Fgdt;n}\C3;145
  7
CONVERTER_12
 11
0.7227190492299539
 21
-0.6911419361319001
 31
0.0
 73
     1
 44
0.60024009603842
  0
ENDBLK
  5
4C2
330
4BD
100
AcDbEntity
  8
0
100
AcDbBlockEnd
  0
BLOCK
  5
4C9
330
4C4
100
AcDbEntity
  8
0
100
AcDbBlockBegin
  2
*D25
 70
     1
 71
     0
 10
0.0
 20
0.0
 30
0.0
  3
*D25
  1

  0
LINE
  5
4C5
330
4C4
100
AcDbEntity
  8
1
  6
Continuous
 62
     2
100
AcDbLine
 10
125.5179829754182
 20
415.5028242030976
 30
0.0
 11
-15.11674870660172
 21
333.5749295857506
 31
0.0
  0
SOLID
  5
4C6
330
4C4
100
AcDbEntity
  8
1
 62
     2
100
AcDbTrace
 10
17.54104828913409
 20
351.5334497933078
 30
0.0
 11
16.61326738069491
 21
353.1260480130894
 31
0.0
 12
23.12565007382704
 22
355.853346728691
 32
0.0
 13
23.12565007382704
 23
355.853346728691
 33
0.0
  0
SOLID
  5
4C7
330
4C4
100
AcDbEntity
  8
1
 62
     2
100
AcDbTrace
 10
122.0298464017424
 20
414.5373244002423
 30
0.0
 11
122.9576273101815
 21
412.9447261804606
 31
0.0
 12
116.4452446170494
 22
410.217427464859
 32
0.0
 13
116.4452446170494
 23
410.217427464859
 33
0.0
  0
MTEXT
  5
4C8
330
4C4
100
AcDbEntity
  8
1
 62
     3
100
AcDbMText
 10
-20.63835867688091
 20
334.9875241263436
 30
0.0
 40
7.0
 41
0.0
 71
     7
 72
     1
  1
\C3;{\Fgdt;n}\C3;\C3;108\C2;\H4.2;±0,1
  7
CONVERTER_12
 11
0.8640703198446505
 21
0.5033711179274822
 31
0.0
 73
     1
 44
0.60024009603842
  0
ENDBLK
  5
4CA
330
4C4
100
AcDbEntity
  8
0
100
AcDbBlockEnd
  0
BLOCK
  5
4D0
330
4CC
100
AcDbEntity
  8
0
100
AcDbBlockBegin
  2
*D26
 70
     1
 71
     0
 10
0.0
 20
0.0
 30
0.0
  3
*D26
  1

  0
LINE
  5
4CD
330
4CC
100
AcDbEntity
  8
1
  6
Continuous
 62
     2
100
AcDbLine
 10
-15.13031989723525
 20
368.3909992517759
 30
0.0
 11
11.64372914398744
 21
373.0083933008713
 31
0.0
  0
SOLID
  5
4CE
330
4CC
100
AcDbEntity
  8
1
 62
     2
100
AcDbTrace
 10
4.90217870374184
 20
370.9105886656506
 30
0.0
 11
4.58893967202432
 21
372.7269112726576
 31
0.0
 12
11.64372914398744
 22
373.0083933008713
 32
0.0
 13
11.64372914398744
 23
373.0083933008713
 33
0.0
  0
MTEXT
  5
4CF
330
4CC
100
AcDbEntity
  8
1
 62
     3
100
AcDbMText
 10
-19.81105466132855
 20
371.642817522868
 30
0.0
 40
7.0
 41
0.0
 71
     7
 72
     1
  1
\C3;{\Fgdt;n}\C3;118
  7
CONVERTER_12
 11
0.9854528508720465
 21
0.1699490473881986
 31
0.0
 73
     1
 44
0.60024009603842
  0
ENDBLK
  5
4D1
330
4CC
100
AcDbEntity
  8
0
100
AcDbBlockEnd
  0
BLOCK
  5
4D7
330
4D3
100
AcDbEntity
  8
0
100
AcDbBlockBegin
  2
*D27
 70
     1
 71
     0
 10
0.0
 20
0.0
 30
0.0
  3
*D27
  1

  0
LINE
  5
4D4
330
4D3
100
AcDbEntity
  8
1
  6
Continuous
 62
     2
100
AcDbLine
 10
53.0472113175444
 20
341.2642073830715
 30
0.0
 11
61.38347704180976
 21
362.0678125616091
 31
0.0
  0
SOLID
  5
4D5
330
4D3
100
AcDbEntity
  8
1
 62
     2
100
AcDbTrace
 10
54.79549334509753
 20
348.104733428491
 30
0.0
 11
56.50638049866941
 21
347.4191594708041
 31
0.0
 12
53.0472113175444
 22
341.2642073830715
 32
0.0
 13
53.0472113175444
 23
341.2642073830715
 33
0.0
  0
MTEXT
  5
4D6
330
4D3
100
AcDbEntity
  8
1
 62
     3
100
AcDbMText
 10
50.27590257315771
 20
345.1020768150124
 30
0.0
 40
7.0
 41
0.0
 71
     7
 72
     1
  1
\C3;{\Fgdt;n}\C3;90
  7
CONVERTER_12
 11
0.371960800619862
 21
0.928248438082301
 31
0.0
 73
     1
 44
0.60024009603842
  0
ENDBLK
  5
4D8
330
4D3
100
AcDbEntity
  8
0
100
AcDbBlockEnd
  0
BLOCK
  5
4E3
330
4DA
100
AcDbEntity
  8
0
100
AcDbBlockBegin
  2
*D28
 70
     1
 71
     0
 10
0.0
 20
0.0
 30
0.0
  3
*D28
  1

  0
LINE
  5
4DB
330
4DA
100
AcDbEntity
  8
1
  6
Continuous
 62
     2
100
AcDbLine
 10
-2.82514130613992
 20
417.572885440187
 30
0.0
 11
-2.96906826570264
 21
403.5736252800817
 31
0.0
  0
LINE
  5
4DC
330
4DA
100
AcDbEntity
  8
1
  6
Continuous
 62
     2
100
AcDbLine
 10
-2.74289732924694
 20
425.5724626745329
 30
0.0
 11
-2.82514130613992
 21
417.572885440187
 31
0.0
  0
LINE
  5
4DD
330
4DA
100
AcDbEntity
  8
1
  6
Continuous
 62
     2
100
AcDbLine
 10
-2.59897036968423
 20
439.5717228346382
 30
0.0
 11
-2.74289732924694
 21
425.5724626745329
 31
0.0
  0
LINE
  5
4DE
330
4DA
100
AcDbEntity
  8
1
  6
Continuous
 62
     2
100
AcDbLine
 10
31.64280314981112
 20
425.2189418980216
 30
0.0
 11
-4.74279163783341
 21
425.5930236687561
 31
0.0
  0
LINE
  5
4DF
330
4DA
100
AcDbEntity
  8
1
  6
Continuous
 62
     2
100
AcDbLine
 10
31.56055917291813
 20
417.2193646636757
 30
0.0
 11
-4.82503561472639
 21
417.5934464344102
 31
0.0
  0
SOLID
  5
4E0
330
4DA
100
AcDbEntity
  8
1
 62
     2
100
AcDbTrace
 10
-3.59245263169238
 20
432.5815669264339
 30
0.0
 11
-1.74941506723879
 21
432.5626185827373
 31
0.0
 12
-2.74289732924694
 22
425.5724626745329
 32
0.0
 13
-2.74289732924694
 23
425.5724626745329
 33
0.0
  0
SOLID
  5
4E1
330
4DA
100
AcDbEntity
  8
1
 62
     2
100
AcDbTrace
 10
-1.97558600369449
 20
410.563781188286
 30
0.0
 11
-3.81862356814808
 21
410.5827295319826
 31
0.0
 12
-2.82514130613992
 22
417.572885440187
 32
0.0
 13
-2.82514130613992
 23
417.572885440187
 33
0.0
  0
MTEXT
  5
4E2
330
4DA
100
AcDbEntity
  8
1
 62
     3
100
AcDbMText
 10
-6.8321423494113
 20
416.9124805594194
 30
0.0
 40
7.0
 41
0.0
 71
     7
 72
     1
  1
\C3;M\C3;8
  7
CONVERTER_12
 11
0.01028049711162277
 21
0.9999471542932346
 31
0.0
 73
     1
 44
0.60024009603842
  0
ENDBLK
  5
4E4
330
4DA
100
AcDbEntity
  8
0
100
AcDbBlockEnd
  0
ENDSEC
  0
SECTION
  2
ENTITIES
  0
INSERT
  5
51
330
1F
100
AcDbEntity
  8
0
100
AcDbBlockReference
  2
Winkelflanschdose_12-polig_drehbar
 10
242.2648307690583
 20
545.175283749368
 30
0.0
  0
INSERT
  5
52
330
1F
100
AcDbEntity
  8
1
100
AcDbBlockReference
  2
Stator
 10
-222.2180293501048
 20
325.535387096775
 30
0.0
  0
INSERT
  5
53
330
1F
100
AcDbEntity
  8
1
100
AcDbBlockReference
  2
M2_5x6_DIN_7985
 10
-111.365575860404
 20
440.0352731508417
 30
0.0
  0
INSERT
  5
54
330
1F
100
AcDbEntity
  8
0
100
AcDbBlockReference
  2
Winkelflanschdose_8-polig_drehbar
 10
518.1935687917018
 20
99.310186849246
 30
0.0
  0
INSERT
  5
55
330
1F
100
AcDbEntity
  8
1
100
AcDbBlockReference
  2
Lagerschild_B-S
 10
-102.2180293501048
 20
325.535387096775
 30
0.0
  0
INSERT
  5
56
330
1F
100
AcDbEntity
  8
0
100
AcDbBlockReference
  2
TOP
 10
-164.893569150948
 20
823.474545469211
 30
0.0
  0
POINT
  5
375
330
1F
100
AcDbEntity
  8
1
 62
     3
 60
     1
100
AcDbPoint
 10
-360.7180293501048
 20
428.035387096775
 30
0.0
  0
POINT
  5
376
330
1F
100
AcDbEntity
  8
1
 62
     3
 60
     1
100
AcDbPoint
 10
-360.7180293501048
 20
338.035387096775
 30
0.0
  0
POINT
  5
377
330
1F
100
AcDbEntity
  8
1
 62
     3
 60
     1
100
AcDbPoint
 10
-360.890486000692
 20
338.035387096775
 30
0.0
  0
POINT
  5
378
330
1F
100
AcDbEntity
  8
1
 62
     3
 60
     1
100
AcDbPoint
 10
-360.890486000692
 20
428.035387096775
 30
0.0
  0
POINT
  5
379
330
1F
100
AcDbEntity
  8
1
 62
     3
 60
     1
100
AcDbPoint
 10
-289.7180293501048
 20
327.035387096775
 30
0.0
  0
POINT
  5
37A
330
1F
100
AcDbEntity
  8
1
 62
     3
 60
     1
100
AcDbPoint
 10
-289.7180293501048
 20
324.035387096775
 30
0.0
  0
POINT
  5
37B
330
1F
100
AcDbEntity
  8
1
 62
     3
 60
     1
100
AcDbPoint
 10
-289.7180293501048
 20
439.035387096775
 30
0.0
  0
POINT
  5
37C
330
1F
100
AcDbEntity
  8
1
 62
     3
 60
     1
100
AcDbPoint
 10
-353.7180293501048
 20
442.035387096775
 30
0.0
  0
POINT
  5
37D
330
1F
100
AcDbEntity
  8
1
 62
     3
 60
     1
100
AcDbPoint
 10
-423.7180293501048
 20
399.035387096775
 30
0.0
  0
POINT
  5
37E
330
1F
100
AcDbEntity
  8
1
 62
     3
 60
     1
100
AcDbPoint
 10
-365.7180293501048
 20
399.035387096775
 30
0.0
  0
POINT
  5
37F
330
1F
100
AcDbEntity
  8
1
 62
     3
 60
     1
100
AcDbPoint
 10
-423.7180293501048
 20
367.035387096775
 30
0.0
  0
POINT
  5
380
330
1F
100
AcDbEntity
  8
1
 62
     3
 60
     1
100
AcDbPoint
 10
-365.7180293501048
 20
403.035387096775
 30
0.0
  0
POINT
  5
381
330
1F
100
AcDbEntity
  8
1
 62
     3
 60
     1
100
AcDbPoint
 10
-365.7180293501048
 20
363.035387096775
 30
0.0
  0
POINT
  5
382
330
1F
100
AcDbEntity
  8
1
 62
     3
 60
     1
100
AcDbPoint
 10
-419.7180293501048
 20
399.035387096775
 30
0.0
  0
POINT
  5
383
330
1F
100
AcDbEntity
  8
1
 62
     3
 60
     1
100
AcDbPoint
 10
-419.7180293501048
 20
402.035387096775
 30
0.0
  0
POINT
  5
384
330
1F
100
AcDbEntity
  8
1
 62
     3
 60
     1
100
AcDbPoint
 10
-369.7180293501048
 20
402.035387096775
 30
0.0
  0
POINT
  5
385
330
1F
100
AcDbEntity
  8
1
 62
     3
 60
     1
100
AcDbPoint
 10
-369.7180293501048
 20
399.035387096775
 30
0.0
  0
POINT
  5
386
330
1F
100
AcDbEntity
  8
1
 62
     3
 60
     1
100
AcDbPoint
 10
-289.7180293501048
 20
442.035387096775
 30
0.0
  0
POINT
  5
387
330
1F
100
AcDbEntity
  8
1
 62
     3
 60
     1
100
AcDbPoint
 10
-289.7180293501048
 20
436.035387096775
 30
0.0
  0
POINT
  5
388
330
1F
100
AcDbEntity
  8
1
 62
     3
 60
     1
100
AcDbPoint
 10
64.7854473454382
 20
398.2340712503457
 30
0.0
  0
POINT
  5
389
330
1F
100
AcDbEntity
  8
1
 62
     3
 60
     1
100
AcDbPoint
 10
64.7854473454382
 20
402.035387096775
 30
0.0
  0
POINT
  5
38A
330
1F
100
AcDbEntity
  8
1
 62
     3
 60
     1
100
AcDbPoint
 10
74.7854473454382
 20
402.035387096775
 30
0.0
  0
POINT
  5
38B
330
1F
100
AcDbEntity
  8
1
 62
     3
 60
     1
100
AcDbPoint
 10
74.7854473454382
 20
398.2340712503457
 30
0.0
  0
POINT
  5
38C
330
1F
100
AcDbEntity
  8
1
 62
     3
 60
     1
100
AcDbPoint
 10
35.92126701972784
 20
349.1712067710647
 30
0.0
  0
POINT
  5
38D
330
1F
100
AcDbEntity
  8
1
 62
     3
 60
     1
100
AcDbPoint
 10
25.86623093049539
 20
339.1161706818322
 30
0.0
  0
POINT
  5
38E
330
1F
100
AcDbEntity
  8
1
 62
     3
 60
     1
100
AcDbPoint
 10
103.8248020525132
 20
348.9960323897
 30
0.0
  0
POINT
  5
38F
330
1F
100
AcDbEntity
  8
1
 62
     3
 60
     1
100
AcDbPoint
 10
114.6038007401707
 20
338.2170337020425
 30
0.0
  0
POINT
  5
390
330
1F
100
AcDbEntity
  8
1
 62
     3
 60
     1
100
AcDbPoint
 10
83.00475141184053
 20
440.535387096775
 30
0.0
  0
POINT
  5
391
330
1F
100
AcDbEntity
  8
1
 62
     3
 60
     1
100
AcDbPoint
 10
25.62664301379897
 20
325.535387096775
 30
0.0
  0
POINT
  5
392
330
1F
100
AcDbEntity
  8
1
 62
     3
 60
     1
100
AcDbPoint
 10
113.9442516770774
 20
325.535387096775
 30
0.0
  0
POINT
  5
393
330
1F
100
AcDbEntity
  8
1
 62
     3
 60
     1
100
AcDbPoint
 10
127.2854473454382
 20
427.1941914284142
 30
0.0
  0
POINT
  5
394
330
1F
100
AcDbEntity
  8
1
 62
     3
 60
     1
100
AcDbPoint
 10
127.2854473454382
 20
396.2546911631774
 30
0.0
  0
POINT
  5
395
330
1F
100
AcDbEntity
  8
1
 62
     3
 60
     1
100
AcDbPoint
 10
127.2854473454382
 20
369.8160830303727
 30
0.0
  0
POINT
  5
396
330
1F
100
AcDbEntity
  8
1
 62
     3
 60
     1
100
AcDbPoint
 10
127.2854473454382
 20
338.8765827651358
 30
0.0
  0
POINT
  5
397
330
1F
100
AcDbEntity
  8
1
 62
     3
 60
     1
100
AcDbPoint
 10
12.2854473454382
 20
427.1941914284142
 30
0.0
  0
POINT
  5
398
330
1F
100
AcDbEntity
  8
1
 62
     3
 60
     1
100
AcDbPoint
 10
12.2854473454382
 20
369.8160830303727
 30
0.0
  0
POINT
  5
399
330
1F
100
AcDbEntity
  8
1
 62
     3
 60
     1
100
AcDbPoint
 10
69.7854473454382
 20
383.035387096775
 30
0.0
  0
POINT
  5
39A
330
1F
100
AcDbEntity
  8
1
 62
     3
 60
     1
100
AcDbPoint
 10
70.7854473454382
 20
383.035387096775
 30
0.0
  0
POINT
  5
39B
330
1F
100
AcDbEntity
  8
1
 62
     3
 60
     1
100
AcDbPoint
 10
48.30768055244918
 20
384.035387096775
 30
0.0
  0
POINT
  5
39C
330
1F
100
AcDbEntity
  8
1
 62
     3
 60
     1
100
AcDbPoint
 10
48.2854473454382
 20
382.035387096775
 30
0.0
  0
POINT
  5
39D
330
1F
100
AcDbEntity
  8
1
 62
     3
 60
     1
100
AcDbPoint
 10
48.64385751995367
 20
379.035387096775
 30
0.0
  0
POINT
  5
39E
330
1F
100
AcDbEntity
  8
1
 62
     3
 60
     1
100
AcDbPoint
 10
48.64385751995367
 20
387.035387096775
 30
0.0
  0
POINT
  5
39F
330
1F
100
AcDbEntity
  8
1
 62
     3
 60
     1
100
AcDbPoint
 10
48.80927038203517
 20
384.035387096775
 30
0.0
  0
POINT
  5
3A0
330
1F
100
AcDbEntity
  8
1
 62
     3
 60
     1
100
AcDbPoint
 10
48.80927038203517
 20
382.035387096775
 30
0.0
  0
POINT
  5
3A1
330
1F
100
AcDbEntity
  8
1
 62
     3
 60
     1
100
AcDbPoint
 10
49.81046299000002
 20
384.035387096775
 30
0.0
  0
POINT
  5
3A2
330
1F
100
AcDbEntity
  8
1
 62
     3
 60
     1
100
AcDbPoint
 10
49.81046299000002
 20
382.035387096775
 30
0.0
  0
POINT
  5
3A3
330
1F
100
AcDbEntity
  8
1
 62
     3
 60
     1
100
AcDbPoint
 10
46.0
 20
384.035387096775
 30
0.0
  0
POINT
  5
3A4
330
1F
100
AcDbEntity
  8
1
 62
     3
 60
     1
100
AcDbPoint
 10
46.0
 20
382.035387096775
 30
0.0
  0
POINT
  5
3A5
330
1F
100
AcDbEntity
  8
1
 62
     3
 60
     1
100
AcDbPoint
 10
-269.7180293501048
 20
442.035387096775
 30
0.0
  0
POINT
  5
3A6
330
1F
100
AcDbEntity
  8
1
 62
     3
 60
     1
100
AcDbPoint
 10
-269.7180293501048
 20
324.035387096775
 30
0.0
  0
POINT
  5
3A7
330
1F
100
AcDbEntity
  8
1
 62
     3
 60
     1
100
AcDbPoint
 10
-289.7180293501048
 20
440.035387096775
 30
0.0
  0
POINT
  5
3A8
330
1F
100
AcDbEntity
  8
1
 62
     3
 60
     1
100
AcDbPoint
 10
-289.7180293501048
 20
326.035387096775
 30
0.0
  0
POINT
  5
3A9
330
1F
100
AcDbEntity
  8
1
 62
     3
 60
     1
100
AcDbPoint
 10
-249.2180293501048
 20
442.035387096775
 30
0.0
  0
POINT
  5
3AA
330
1F
100
AcDbEntity
  8
1
 62
     3
 60
     1
100
AcDbPoint
 10
-249.2180293501048
 20
427.035387096775
 30
0.0
  0
POINT
  5
3AB
330
1F
100
AcDbEntity
  8
1
 62
     3
 60
     1
100
AcDbPoint
 10
-249.2180293501048
 20
339.035387096775
 30
0.0
  0
LINE
  5
3AC
330
1F
100
AcDbEntity
  8
1
  6
DOT_CENTER
 62
     2
100
AcDbLine
 10
103.4106692506562
 20
416.660609001993
 30
0.0
 11
112.6613024527502
 21
425.911242204087
 31
0.0
  0
LINE
  5
3AD
330
1F
100
AcDbEntity
  8
1
  6
DOT_CENTER
 62
     2
100
AcDbLine
 10
36.25495953287132
 20
416.5658749093419
 30
0.0
 11
25.79772200006971
 21
427.0231124421435
 31
0.0
  0
LINE
  5
3AE
330
1F
100
AcDbEntity
  8
1
  6
Continuous
 62
     7
100
AcDbLine
 10
25.62664301379898
 20
440.535387096775
 30
0.0
 11
56.5661432790359
 21
440.535387096775
 31
0.0
  0
LINE
  5
3AF
330
1F
100
AcDbEntity
  8
1
  6
Continuous
 62
     7
100
AcDbLine
 10
83.00475141184053
 20
440.535387096775
 30
0.0
 11
113.9442516770774
 21
440.535387096775
 31
0.0
  0
LINE
  5
3B0
330
1F
100
AcDbEntity
  8
1
  6
Continuous
 62
     7
100
AcDbLine
 10
-249.2180293501048
 20
427.035387096775
 30
0.0
 11
-219.2180293501048
 21
427.035387096775
 31
0.0
  0
LINE
  5
3B1
330
1F
100
AcDbEntity
  8
1
  6
Continuous
 62
     7
100
AcDbLine
 10
-249.2180293501048
 20
427.035387096775
 30
0.0
 11
-249.2180293501048
 21
339.035387096775
 31
0.0
  0
LINE
  5
3B2
330
1F
100
AcDbEntity
  8
1
  6
Continuous
 62
     7
100
AcDbLine
 10
-219.2180293501048
 20
440.035387096775
 30
0.0
 11
-219.2180293501048
 21
326.035387096775
 31
0.0
  0
LINE
  5
3B3
330
1F
100
AcDbEntity
  8
1
  6
Continuous
 62
     7
100
AcDbLine
 10
-249.2180293501048
 20
440.035387096775
 30
0.0
 11
-249.2180293501048
 21
427.035387096775
 31
0.0
  0
LINE
  5
3B4
330
1F
100
AcDbEntity
  8
1
  6
Continuous
 62
     7
100
AcDbLine
 10
-249.2180293501048
 20
440.035387096775
 30
0.0
 11
-219.2180293501048
 21
440.035387096775
 31
0.0
  0
LINE
  5
3B5
330
1F
100
AcDbEntity
  8
1
  6
Continuous
 62
     7
100
AcDbLine
 10
-249.2180293501048
 20
326.035387096775
 30
0.0
 11
-249.2180293501048
 21
324.035387096775
 31
0.0
  0
LINE
  5
3B6
330
1F
100
AcDbEntity
  8
1
  6
Continuous
 62
     7
100
AcDbLine
 10
-249.2180293501048
 20
326.035387096775
 30
0.0
 11
-219.2180293501048
 21
326.035387096775
 31
0.0
  0
LINE
  5
3B7
330
1F
100
AcDbEntity
  8
1
  6
Continuous
 62
     7
100
AcDbLine
 10
-359.7180293501048
 20
338.035387096775
 30
0.0
 11
-360.7180293501048
 21
338.035387096775
 31
0.0
  0
LINE
  5
3B8
330
1F
100
AcDbEntity
  8
1
  6
Continuous
 62
     7
100
AcDbLine
 10
-359.7180293501048
 20
428.035387096775
 30
0.0
 11
-360.7180293501048
 21
428.035387096775
 31
0.0
  0
LINE
  5
3B9
330
1F
100
AcDbEntity
  8
1
  6
Continuous
 62
     7
100
AcDbLine
 10
-360.7180293501048
 20
338.035387096775
 30
0.0
 11
-359.7180293501048
 21
338.035387096775
 31
0.0
  0
LINE
  5
3BA
330
1F
100
AcDbEntity
  8
1
  6
Continuous
 62
     7
100
AcDbLine
 10
-360.7180293501048
 20
428.035387096775
 30
0.0
 11
-359.7180293501048
 21
428.035387096775
 31
0.0
  0
LINE
  5
3BB
330
1F
100
AcDbEntity
  8
1
  6
Continuous
 62
     7
100
AcDbLine
 10
-360.7180293501048
 20
338.035387096775
 30
0.0
 11
-360.7180293501048
 21
428.035387096775
 31
0.0
  0
LINE
  5
3BC
330
1F
100
AcDbEntity
  8
1
  6
Continuous
 62
     7
100
AcDbLine
 10
-360.890486000692
 20
338.035387096775
 30
0.0
 11
-360.7180293501048
 21
338.035387096775
 31
0.0
  0
LINE
  5
3BD
330
1F
100
AcDbEntity
  8
1
  6
Continuous
 62
     7
100
AcDbLine
 10
-360.890486000692
 20
428.035387096775
 30
0.0
 11
-360.7180293501048
 21
428.035387096775
 31
0.0
  0
LINE
  5
3BE
330
1F
100
AcDbEntity
  8
1
  6
Continuous
 62
     7
100
AcDbLine
 10
-289.7180293501048
 20
439.035387096775
 30
0.0
 11
-289.7180293501048
 21
437.035387096775
 31
0.0
  0
LINE
  5
3BF
330
1F
100
AcDbEntity
  8
1
  6
Continuous
 62
     7
100
AcDbLine
 10
-353.7180293501048
 20
442.035387096775
 30
0.0
 11
-353.7180293501048
 21
428.035387096775
 31
0.0
  0
LINE
  5
3C0
330
1F
100
AcDbEntity
  8
1
  6
Continuous
 62
     7
100
AcDbLine
 10
-353.7180293501048
 20
324.035387096775
 30
0.0
 11
-309.7180293501048
 21
324.035387096775
 31
0.0
  0
LINE
  5
3C1
330
1F
100
AcDbEntity
  8
1
  6
Continuous
 62
     7
100
AcDbLine
 10
-359.7180293501048
 20
428.035387096775
 30
0.0
 11
-353.7180293501048
 21
428.035387096775
 31
0.0
  0
LINE
  5
3C2
330
1F
100
AcDbEntity
  8
1
  6
Continuous
 62
     7
100
AcDbLine
 10
-353.7180293501048
 20
428.035387096775
 30
0.0
 11
-353.7180293501048
 21
338.035387096775
 31
0.0
  0
LINE
  5
3C3
330
1F
100
AcDbEntity
  8
1
  6
Continuous
 62
     7
100
AcDbLine
 10
-359.7180293501048
 20
338.035387096775
 30
0.0
 11
-353.7180293501048
 21
338.035387096775
 31
0.0
  0
LINE
  5
3C4
330
1F
100
AcDbEntity
  8
1
  6
Continuous
 62
     7
100
AcDbLine
 10
-353.7180293501048
 20
338.035387096775
 30
0.0
 11
-353.7180293501048
 21
324.035387096775
 31
0.0
  0
LINE
  5
3C5
330
1F
100
AcDbEntity
  8
1
  6
Continuous
 62
     7
100
AcDbLine
 10
-423.7180293501048
 20
399.035387096775
 30
0.0
 11
-419.7180293501048
 21
399.035387096775
 31
0.0
  0
LINE
  5
3C6
330
1F
100
AcDbEntity
  8
1
  6
Continuous
 62
     7
100
AcDbLine
 10
-423.7180293501048
 20
367.035387096775
 30
0.0
 11
-365.7180293501048
 21
367.035387096775
 31
0.0
  0
LINE
  5
3C7
330
1F
100
AcDbEntity
  8
1
  6
Continuous
 62
     7
100
AcDbLine
 10
-423.7180293501048
 20
399.035387096775
 30
0.0
 11
-423.7180293501048
 21
367.035387096775
 31
0.0
  0
LINE
  5
3C8
330
1F
100
AcDbEntity
  8
1
  6
Continuous
 62
     7
100
AcDbLine
 10
-365.7180293501048
 20
403.035387096775
 30
0.0
 11
-365.7180293501048
 21
363.035387096775
 31
0.0
  0
LINE
  5
3C9
330
1F
100
AcDbEntity
  8
1
  6
Continuous
 62
     7
100
AcDbLine
 10
-365.7180293501048
 20
403.035387096775
 30
0.0
 11
-360.890486000692
 21
403.035387096775
 31
0.0
  0
LINE
  5
3CA
330
1F
100
AcDbEntity
  8
1
  6
Continuous
 62
     7
100
AcDbLine
 10
-365.7180293501048
 20
363.035387096775
 30
0.0
 11
-360.890486000692
 21
363.035387096775
 31
0.0
  0
LINE
  5
3CB
330
1F
100
AcDbEntity
  8
1
  6
Continuous
 62
     7
100
AcDbLine
 10
-419.7180293501048
 20
399.035387096775
 30
0.0
 11
-419.7180293501048
 21
402.035387096775
 31
0.0
  0
LINE
  5
3CC
330
1F
100
AcDbEntity
  8
1
  6
Continuous
 62
     7
100
AcDbLine
 10
-419.7180293501048
 20
399.035387096775
 30
0.0
 11
-369.7180293501048
 21
399.035387096775
 31
0.0
  0
LINE
  5
3CD
330
1F
100
AcDbEntity
  8
1
  6
Continuous
 62
     7
100
AcDbLine
 10
-419.7180293501048
 20
402.035387096775
 30
0.0
 11
-369.7180293501048
 21
402.035387096775
 31
0.0
  0
LINE
  5
3CE
330
1F
100
AcDbEntity
  8
1
  6
Continuous
 62
     7
100
AcDbLine
 10
-369.7180293501048
 20
402.035387096775
 30
0.0
 11
-369.7180293501048
 21
399.035387096775
 31
0.0
  0
LINE
  5
3CF
330
1F
100
AcDbEntity
  8
1
  6
Continuous
 62
     7
100
AcDbLine
 10
-369.7180293501048
 20
399.035387096775
 30
0.0
 11
-365.7180293501048
 21
399.035387096775
 31
0.0
  0
LINE
  5
3D0
330
1F
100
AcDbEntity
  8
1
  6
Continuous
 62
     7
100
AcDbLine
 10
-289.7180293501048
 20
437.035387096775
 30
0.0
 11
-289.7180293501048
 21
436.035387096775
 31
0.0
  0
LINE
  5
3D1
330
1F
100
AcDbEntity
  8
1
  6
Continuous
 62
     7
100
AcDbLine
 10
-289.7180293501048
 20
330.035387096775
 30
0.0
 11
-289.7180293501048
 21
327.035387096775
 31
0.0
  0
LINE
  5
3D2
330
1F
100
AcDbEntity
  8
1
  6
Continuous
 62
     7
100
AcDbLine
 10
-289.7180293501048
 20
436.035387096775
 30
0.0
 11
-289.7180293501048
 21
330.035387096775
 31
0.0
  0
LINE
  5
3D3
330
1F
100
AcDbEntity
  8
1
  6
Continuous
 62
     7
100
AcDbLine
 10
64.7854473454382
 20
398.2340712503457
 30
0.0
 11
64.7854473454382
 21
402.035387096775
 31
0.0
  0
LINE
  5
3D4
330
1F
100
AcDbEntity
  8
1
  6
Continuous
 62
     7
100
AcDbLine
 10
64.7854473454382
 20
402.035387096775
 30
0.0
 11
74.7854473454382
 21
402.035387096775
 31
0.0
  0
LINE
  5
3D5
330
1F
100
AcDbEntity
  8
1
  6
Continuous
 62
     7
100
AcDbLine
 10
74.7854473454382
 20
402.035387096775
 30
0.0
 11
74.7854473454382
 21
398.2340712503457
 31
0.0
  0
LINE
  5
3D6
330
1F
100
AcDbEntity
  8
1
  6
DOT_CENTER
 62
     2
100
AcDbLine
 10
35.92126701972784
 20
349.1712067710647
 30
0.0
 11
25.86623093049539
 21
339.1161706818322
 31
0.0
  0
LINE
  5
3D7
330
1F
100
AcDbEntity
  8
1
  6
DOT_CENTER
 62
     2
100
AcDbLine
 10
103.8248020525132
 20
348.9960323897
 30
0.0
 11
114.6038007401707
 21
338.2170337020425
 31
0.0
  0
LINE
  5
3D8
330
1F
100
AcDbEntity
  8
1
  6
Continuous
 62
     7
100
AcDbLine
 10
25.62664301379897
 20
325.535387096775
 30
0.0
 11
56.56614327903587
 21
325.535387096775
 31
0.0
  0
LINE
  5
3D9
330
1F
100
AcDbEntity
  8
1
  6
Continuous
 62
     7
100
AcDbLine
 10
113.9442516770774
 20
325.535387096775
 30
0.0
 11
83.00475141184056
 21
325.535387096775
 31
0.0
  0
LINE
  5
3DA
330
1F
100
AcDbEntity
  8
1
  6
Continuous
 62
     7
100
AcDbLine
 10
127.2854473454382
 20
427.1941914284142
 30
0.0
 11
127.2854473454382
 21
396.2546911631774
 31
0.0
  0
LINE
  5
3DB
330
1F
100
AcDbEntity
  8
1
  6
Continuous
 62
     7
100
AcDbLine
 10
127.2854473454382
 20
369.8160830303727
 30
0.0
 11
127.2854473454382
 21
338.8765827651358
 31
0.0
  0
LINE
  5
3DC
330
1F
100
AcDbEntity
  8
1
  6
Continuous
 62
     7
100
AcDbLine
 10
12.2854473454382
 20
427.1941914284142
 30
0.0
 11
12.2854473454382
 21
396.2546911631774
 31
0.0
  0
LINE
  5
3DD
330
1F
100
AcDbEntity
  8
1
  6
Continuous
 62
     7
100
AcDbLine
 10
12.2854473454382
 20
369.8160830303727
 30
0.0
 11
12.2854473454382
 21
338.8765827651358
 31
0.0
  0
LINE
  5
3DE
330
1F
100
AcDbEntity
  8
1
  6
DOT_CENTER
 62
     2
100
AcDbLine
 10
134.6854473454382
 20
383.035387096775
 30
0.0
 11
4.88544734543818
 21
383.035387096775
 31
0.0
  0
LINE
  5
3DF
330
1F
100
AcDbEntity
  8
1
  6
DOT_CENTER
 62
     2
100
AcDbLine
 10
69.7854473454382
 20
447.9353870967751
 30
0.0
 11
69.7854473454382
 21
318.135387096775
 31
0.0
  0
LINE
  5
3E0
330
1F
100
AcDbEntity
  8
1
  6
Continuous
 62
     7
100
AcDbLine
 10
48.30768055244918
 20
384.035387096775
 30
0.0
 11
46.0
 21
384.035387096775
 31
0.0
  0
LINE
  5
3E1
330
1F
100
AcDbEntity
  8
1
  6
Continuous
 62
     7
100
AcDbLine
 10
48.2854473454382
 20
382.035387096775
 30
0.0
 11
46.0
 21
382.035387096775
 31
0.0
  0
LINE
  5
3E2
330
1F
100
AcDbEntity
  8
1
  6
Continuous
 62
     7
100
AcDbLine
 10
48.30768055244918
 20
384.035387096775
 30
0.0
 11
48.80927038203517
 21
384.035387096775
 31
0.0
  0
LINE
  5
3E3
330
1F
100
AcDbEntity
  8
1
  6
Continuous
 62
     7
100
AcDbLine
 10
48.2854473454382
 20
382.035387096775
 30
0.0
 11
48.80927038203517
 21
382.035387096775
 31
0.0
  0
LINE
  5
3E4
330
1F
100
AcDbEntity
  8
1
  6
Continuous
 62
     7
100
AcDbLine
 10
48.80927038203517
 20
384.035387096775
 30
0.0
 11
49.81046299000002
 21
384.035387096775
 31
0.0
  0
LINE
  5
3E5
330
1F
100
AcDbEntity
  8
1
  6
Continuous
 62
     7
100
AcDbLine
 10
48.80927038203517
 20
382.035387096775
 30
0.0
 11
49.81046299000002
 21
382.035387096775
 31
0.0
  0
LINE
  5
3E6
330
1F
100
AcDbEntity
  8
1
  6
Continuous
 62
     2
100
AcDbLine
 10
53.98196671615906
 20
301.545757019711
 30
0.0
 11
59.98196671615906
 21
301.545757019711
 31
0.0
  0
LINE
  5
3E7
330
1F
100
AcDbEntity
  8
1
  6
Continuous
 62
     2
100
AcDbLine
 10
59.98196671615906
 20
301.545757019711
 30
0.0
 11
59.98196671615906
 21
295.545757019711
 31
0.0
  0
LINE
  5
3E8
330
1F
100
AcDbEntity
  8
1
  6
Continuous
 62
     2
100
AcDbLine
 10
59.98196671615906
 20
295.545757019711
 30
0.0
 11
53.98196671615906
 21
295.545757019711
 31
0.0
  0
LINE
  5
3E9
330
1F
100
AcDbEntity
  8
1
  6
Continuous
 62
     2
100
AcDbLine
 10
53.98196671615906
 20
295.545757019711
 30
0.0
 11
53.98196671615906
 21
301.545757019711
 31
0.0
  0
LINE
  5
3EA
330
1F
100
AcDbEntity
  8
1
  6
Continuous
 62
     7
100
AcDbLine
 10
-269.7180293501048
 20
442.035387096775
 30
0.0
 11
-249.2180293501048
 21
442.035387096775
 31
0.0
  0
LINE
  5
3EB
330
1F
100
AcDbEntity
  8
1
  6
Continuous
 62
     7
100
AcDbLine
 10
-269.7180293501048
 20
324.035387096775
 30
0.0
 11
-249.2180293501048
 21
324.035387096775
 31
0.0
  0
LINE
  5
3EC
330
1F
100
AcDbEntity
  8
1
  6
Continuous
 62
     7
100
AcDbLine
 10
-353.7180293501048
 20
442.035387096775
 30
0.0
 11
-309.7180293501048
 21
442.035387096775
 31
0.0
  0
LINE
  5
3ED
330
1F
100
AcDbEntity
  8
1
  6
Continuous
 62
     7
100
AcDbLine
 10
-309.7180293501048
 20
442.035387096775
 30
0.0
 11
-289.7180293501048
 21
442.035387096775
 31
0.0
  0
LINE
  5
3EE
330
1F
100
AcDbEntity
  8
1
  6
Continuous
 62
     7
100
AcDbLine
 10
-309.7180293501048
 20
324.035387096775
 30
0.0
 11
-289.7180293501048
 21
324.035387096775
 31
0.0
  0
LINE
  5
3EF
330
1F
100
AcDbEntity
  8
1
  6
Continuous
 62
     7
100
AcDbLine
 10
-289.7180293501048
 20
442.035387096775
 30
0.0
 11
-289.7180293501048
 21
440.035387096775
 31
0.0
  0
LINE
  5
3F0
330
1F
100
AcDbEntity
  8
1
  6
Continuous
 62
     7
100
AcDbLine
 10
-289.7180293501048
 20
440.035387096775
 30
0.0
 11
-289.7180293501048
 21
439.035387096775
 31
0.0
  0
LINE
  5
3F1
330
1F
100
AcDbEntity
  8
1
  6
Continuous
 62
     7
100
AcDbLine
 10
-289.7180293501048
 20
324.035387096775
 30
0.0
 11
-289.7180293501048
 21
326.035387096775
 31
0.0
  0
LINE
  5
3F2
330
1F
100
AcDbEntity
  8
1
  6
Continuous
 62
     7
100
AcDbLine
 10
-269.7180293501048
 20
442.035387096775
 30
0.0
 11
-269.7180293501048
 21
440.035387096775
 31
0.0
  0
LINE
  5
3F3
330
1F
100
AcDbEntity
  8
1
  6
Continuous
 62
     7
100
AcDbLine
 10
-289.7180293501048
 20
440.035387096775
 30
0.0
 11
-269.7180293501048
 21
440.035387096775
 31
0.0
  0
LINE
  5
3F4
330
1F
100
AcDbEntity
  8
1
  6
Continuous
 62
     7
100
AcDbLine
 10
-269.7180293501048
 20
440.035387096775
 30
0.0
 11
-269.7180293501048
 21
326.035387096775
 31
0.0
  0
LINE
  5
3F5
330
1F
100
AcDbEntity
  8
1
  6
Continuous
 62
     7
100
AcDbLine
 10
-289.7180293501048
 20
326.035387096775
 30
0.0
 11
-269.7180293501048
 21
326.035387096775
 31
0.0
  0
LINE
  5
3F6
330
1F
100
AcDbEntity
  8
1
  6
Continuous
 62
     7
100
AcDbLine
 10
-289.7180293501048
 20
326.035387096775
 30
0.0
 11
-289.7180293501048
 21
327.035387096775
 31
0.0
  0
LINE
  5
3F7
330
1F
100
AcDbEntity
  8
1
  6
Continuous
 62
     7
100
AcDbLine
 10
-269.7180293501048
 20
326.035387096775
 30
0.0
 11
-269.7180293501048
 21
324.035387096775
 31
0.0
  0
LINE
  5
3F8
330
1F
100
AcDbEntity
  8
1
  6
Continuous
 62
     7
100
AcDbLine
 10
-249.2180293501048
 20
442.035387096775
 30
0.0
 11
-249.2180293501048
 21
440.035387096775
 31
0.0
  0
LINE
  5
3F9
330
1F
100
AcDbEntity
  8
1
  6
Continuous
 62
     7
100
AcDbLine
 10
-249.2180293501048
 20
339.035387096775
 30
0.0
 11
-219.2180293501048
 21
339.035387096775
 31
0.0
  0
LINE
  5
3FA
330
1F
100
AcDbEntity
  8
1
  6
Continuous
 62
     7
100
AcDbLine
 10
-249.2180293501048
 20
339.035387096775
 30
0.0
 11
-249.2180293501048
 21
326.035387096775
 31
0.0
  0
ARC
  5
3FB
330
1F
100
AcDbEntity
  8
1
  6
Continuous
 62
     2
100
AcDbCircle
 10
107.9692135295118
 20
421.2191532808486
 30
0.0
 40
3.999999999999929
100
AcDbArc
 50
15.00000000000064
 51
-75.00000000000098
  0
ARC
  5
3FC
330
1F
100
AcDbEntity
  8
1
  6
Continuous
 62
     2
100
AcDbCircle
 10
31.60168116136462
 20
421.2191532808486
 30
0.0
 40
4.000000000000014
100
AcDbArc
 50
15.00000000000031
 51
-74.99999999999976
  0
ARC
  5
3FD
330
1F
100
AcDbEntity
  8
1
  6
Continuous
 62
     7
100
AcDbCircle
 10
69.7854473454382
 20
383.035387096775
 30
0.0
 40
59.00000000000001
100
AcDbArc
 50
77.05262614706433
 51
102.9473738529357
  0
ARC
  5
3FE
330
1F
100
AcDbEntity
  8
1
  6
Continuous
 62
     7
100
AcDbCircle
 10
69.7854473454382
 20
383.035387096775
 30
0.0
 40
72.49999999999994
100
AcDbArc
 50
37.52351320211393
 51
52.47648679788605
  0
ARC
  5
3FF
330
1F
100
AcDbEntity
  8
1
  6
Continuous
 62
     7
100
AcDbCircle
 10
69.7854473454382
 20
383.035387096775
 30
0.0
 40
72.49999999999999
100
AcDbArc
 50
127.523513202114
 51
142.4764867978861
  0
ARC
  5
400
330
1F
100
AcDbEntity
  8
1
  6
Continuous
 62
     7
100
AcDbCircle
 10
69.7854473454382
 20
383.035387096775
 30
0.0
 40
16.00000000000003
100
AcDbArc
 50
108.209956864283
 51
71.79004313571703
  0
ARC
  5
401
330
1F
100
AcDbEntity
  8
1
  6
Continuous
 62
     7
100
AcDbCircle
 10
69.7854473454382
 20
383.035387096775
 30
0.0
 40
16.00000000000003
100
AcDbArc
 50
71.79004313571703
 51
108.209956864283
  0
ARC
  5
402
330
1F
100
AcDbEntity
  8
1
  6
Continuous
 62
     2
100
AcDbCircle
 10
31.60168116136462
 20
344.8516209127014
 30
0.0
 40
4.000000000000014
100
AcDbArc
 50
15.00000000000031
 51
-74.99999999999955
  0
ARC
  5
403
330
1F
100
AcDbEntity
  8
1
  6
Continuous
 62
     2
100
AcDbCircle
 10
107.9692135295118
 20
344.8516209127014
 30
0.0
 40
3.999999999999929
100
AcDbArc
 50
15.00000000000064
 51
-75.00000000000078
  0
ARC
  5
404
330
1F
100
AcDbEntity
  8
1
  6
Continuous
 62
     7
100
AcDbCircle
 10
69.7854473454382
 20
383.035387096775
 30
0.0
 40
59.00000000000003
100
AcDbArc
 50
12.94737385293574
 51
77.05262614706433
  0
ARC
  5
405
330
1F
100
AcDbEntity
  8
1
  6
Continuous
 62
     7
100
AcDbCircle
 10
69.7854473454382
 20
383.035387096775
 30
0.0
 40
72.49999999999999
100
AcDbArc
 50
-142.4764867978861
 51
-127.523513202114
  0
ARC
  5
406
330
1F
100
AcDbEntity
  8
1
  6
Continuous
 62
     7
100
AcDbCircle
 10
69.7854473454382
 20
383.035387096775
 30
0.0
 40
59.00000000000001
100
AcDbArc
 50
-167.0526261470643
 51
-102.9473738529357
  0
ARC
  5
407
330
1F
100
AcDbEntity
  8
1
  6
Continuous
 62
     7
100
AcDbCircle
 10
69.7854473454382
 20
383.035387096775
 30
0.0
 40
59.00000000000001
100
AcDbArc
 50
-102.9473738529357
 51
-77.05262614706432
  0
ARC
  5
408
330
1F
100
AcDbEntity
  8
1
  6
Continuous
 62
     7
100
AcDbCircle
 10
69.7854473454382
 20
383.035387096775
 30
0.0
 40
59.00000000000001
100
AcDbArc
 50
-12.94737385293568
 51
12.94737385293574
  0
ARC
  5
409
330
1F
100
AcDbEntity
  8
1
  6
Continuous
 62
     7
100
AcDbCircle
 10
69.7854473454382
 20
383.035387096775
 30
0.0
 40
72.49999999999999
100
AcDbArc
 50
-52.47648679788605
 51
-37.52351320211395
  0
ARC
  5
40A
330
1F
100
AcDbEntity
  8
1
  6
Continuous
 62
     7
100
AcDbCircle
 10
69.7854473454382
 20
383.035387096775
 30
0.0
 40
59.00000000000001
100
AcDbArc
 50
-77.05262614706432
 51
-12.94737385293568
  0
ARC
  5
40B
330
1F
100
AcDbEntity
  8
1
  6
Continuous
 62
     7
100
AcDbCircle
 10
69.7854473454382
 20
383.035387096775
 30
0.0
 40
59.00000000000001
100
AcDbArc
 50
102.9473738529357
 51
167.0526261470643
  0
ARC
  5
40C
330
1F
100
AcDbEntity
  8
1
  6
Continuous
 62
     7
100
AcDbCircle
 10
70.7854473454382
 20
383.035387096775
 30
0.0
 40
22.5
100
AcDbArc
 50
-169.7596516788138
 51
169.7596516788138
  0
ARC
  5
40D
330
1F
100
AcDbEntity
  8
1
  6
Continuous
 62
     7
100
AcDbCircle
 10
69.7854473454382
 20
383.035387096775
 30
0.0
 40
20.0
100
AcDbArc
 50
177.1340160174011
 51
-177.1340160174011
  0
ARC
  5
40E
330
1F
100
AcDbEntity
  8
1
  6
Continuous
 62
     7
100
AcDbCircle
 10
69.7854473454382
 20
383.035387096775
 30
0.0
 40
20.0
100
AcDbArc
 50
-177.1340160174011
 51
177.1340160174011
  0
ARC
  5
40F
330
1F
100
AcDbEntity
  8
1
  6
Continuous
 62
     7
100
AcDbCircle
 10
48.99992505262319
 20
384.0565927245193
 30
0.0
 40
3.000000000000618
100
AcDbArc
 50
96.81645733537374
 51
-179.5949989701297
  0
ARC
  5
410
330
1F
100
AcDbEntity
  8
1
  6
Continuous
 62
     7
100
AcDbCircle
 10
48.99992505262255
 20
382.0141814690303
 30
0.0
 40
3.000000000000077
100
AcDbArc
 50
179.5949989701209
 51
-96.81645733536266
  0
ARC
  5
411
330
1F
100
AcDbEntity
  8
1
  6
Continuous
 62
     7
100
AcDbCircle
 10
69.7854473454382
 20
383.035387096775
 30
0.0
 40
59.00000000000003
100
AcDbArc
 50
167.0526261470643
 51
-167.0526261470643
  0
CIRCLE
  5
412
330
1F
100
AcDbEntity
  8
1
  6
Continuous
 62
     7
100
AcDbCircle
 10
107.9692135295118
 20
421.2191532808486
 30
0.0
 40
3.199999999999989
  0
CIRCLE
  5
413
330
1F
100
AcDbEntity
  8
1
  6
Continuous
 62
     7
100
AcDbCircle
 10
31.60168116136462
 20
421.2191532808486
 30
0.0
 40
3.200000000000006
  0
CIRCLE
  5
414
330
1F
100
AcDbEntity
  8
1
  6
Continuous
 62
     7
100
AcDbCircle
 10
69.7854473454382
 20
383.035387096775
 30
0.0
 40
45.0
  0
CIRCLE
  5
415
330
1F
100
AcDbEntity
  8
1
  6
Continuous
 62
     7
100
AcDbCircle
 10
31.60168116136462
 20
344.8516209127014
 30
0.0
 40
3.200000000000006
  0
CIRCLE
  5
416
330
1F
100
AcDbEntity
  8
1
  6
Continuous
 62
     7
100
AcDbCircle
 10
107.9692135295118
 20
344.8516209127014
 30
0.0
 40
3.199999999999989
  0
CIRCLE
  5
417
330
1F
100
AcDbEntity
  8
1
  6
DOT_CENTER
 62
     2
100
AcDbCircle
 10
69.7854473454382
 20
383.035387096775
 30
0.0
 40
54.00000000000003
  0
CIRCLE
  5
418
330
1F
100
AcDbEntity
  8
1
  6
Continuous
 62
     7
100
AcDbCircle
 10
48.5354473454382
 20
385.535387096775
 30
0.0
 40
1.0
  0
CIRCLE
  5
419
330
1F
100
AcDbEntity
  8
1
  6
Continuous
 62
     7
100
AcDbCircle
 10
48.5354473454382
 20
380.535387096775
 30
0.0
 40
1.0
  0
XLINE
  5
41A
330
1F
100
AcDbEntity
  8
1
  6
DOT_CENTER
 62
     3
 60
     1
100
AcDbXline
 10
-360.7180293501048
 20
428.035387096775
 30
0.0
 11
-1.0
 21
0.0
 31
0.0
  0
DIMENSION
  5
425
330
1F
100
AcDbEntity
  8
1
100
AcDbDimension
  2
*D10
 10
-353.7180293501048
 20
293.318195979747
 30
0.0
 11
-286.819171095538
 21
300.818195979747
 31
0.0
 70
    32
  1
<>
 71
     5
 42
-1.0
 53
0.00013888888889
  3
ME10_DIM_10
100
AcDbAlignedDimension
 13
-219.2180293501048
 23
326.435387096775
 33
0.0
 14
-353.7180293501048
 24
324.035387096775
 34
0.0
100
AcDbRotatedDimension
  0
DIMENSION
  5
430
330
1F
100
AcDbEntity
  8
1
100
AcDbDimension
  2
*D11
 10
-353.7180293501048
 20
487.225857148127
 30
0.0
 11
-216.603207459026
 21
494.725857148127
 31
0.0
 70
    32
  1
q
 71
     5
 42
-1.0
 53
0.00013888888889
  3
ME10_DIM_11
100
AcDbAlignedDimension
 13
-113.7180293501043
 23
439.2865318137185
 33
0.0
 14
-353.7180293501048
 24
442.035387096775
 34
0.0
100
AcDbRotatedDimension
  0
DIMENSION
  5
43D
330
1F
100
AcDbEntity
  8
1
100
AcDbDimension
  2
*D12
 10
64.7854473454382
 20
413.530097769721
 30
0.0
 11
75.8582297026432
 21
421.030097769721
 31
0.0
 70
    32
  1
<>
 71
     5
 42
-1.0
 53
0.00013888888889
  3
ME10_DIM_12
100
AcDbAlignedDimension
 13
74.7854473454382
 23
402.035387096775
 33
0.0
 14
64.7854473454382
 24
402.035387096775
 34
0.0
100
AcDbRotatedDimension
  0
DIMENSION
  5
44A
330
1F
100
AcDbEntity
  8
1
100
AcDbDimension
  2
*D13
 10
-365.7180293501048
 20
452.789296572845
 30
0.0
 11
-347.163483135071
 21
460.289296572845
 31
0.0
 70
    32
  1
<>
 71
     5
 42
-1.0
 53
0.00013888888889
  3
ME10_DIM_13
100
AcDbAlignedDimension
 13
-360.7180293501048
 23
428.035387096775
 33
0.0
 14
-365.7180293501048
 24
403.035387096775
 34
0.0
100
AcDbRotatedDimension
  0
DIMENSION
  5
457
330
1F
100
AcDbEntity
  8
1
100
AcDbDimension
  2
*D14
 10
-353.7180293501048
 20
473.827311524768
 30
0.0
 11
-372.846254634821
 21
481.327311524768
 31
0.0
 70
    32
  1
<>
 71
     5
 42
-1.0
 53
0.00013888888889
  3
ME10_DIM_14
100
AcDbAlignedDimension
 13
-360.7180293501048
 23
428.035387096775
 33
0.0
 14
-353.7180293501048
 24
442.035387096775
 34
0.0
100
AcDbRotatedDimension
  0
DIMENSION
  5
462
330
1F
100
AcDbEntity
  8
1
100
AcDbDimension
  2
*D15
 10
-353.7180293501048
 20
510.176011441751
 30
0.0
 11
-215.1692056503808
 21
517.676011441751
 31
0.0
 70
    32
  1
k
 71
     5
 42
-1.0
 53
0.00013888888889
  3
ME10_DIM_15
100
AcDbAlignedDimension
 13
-83.7180293501048
 23
440.535387096775
 33
0.0
 14
-353.7180293501048
 24
442.035387096775
 34
0.0
100
AcDbRotatedDimension
  0
DIMENSION
  5
46D
330
1F
100
AcDbEntity
  8
1
100
AcDbDimension
  2
*D16
 10
-423.7180293501048
 20
452.738707011725
 30
0.0
 11
-389.489163549767
 21
460.238707011725
 31
0.0
 70
    32
  1
<>
 71
     5
 42
-1.0
 53
0.00013888888889
  3
ME10_DIM_16
100
AcDbAlignedDimension
 13
-365.7180293501048
 23
403.035387096775
 33
0.0
 14
-423.7180293501048
 24
399.035387096775
 34
0.0
100
AcDbRotatedDimension
  0
DIMENSION
  5
47A
330
1F
100
AcDbEntity
  8
1
100
AcDbDimension
  2
*D17
 10
-423.7180293501048
 20
433.490231328149
 30
0.0
 11
-420.522420264104
 21
440.990231328149
 31
0.0
 70
    32
  1
<>
 71
     5
 42
-1.0
 53
0.00013888888889
  3
ME10_DIM_17
100
AcDbAlignedDimension
 13
-419.7180293501048
 23
402.035387096775
 33
0.0
 14
-423.7180293501048
 24
399.035387096775
 34
0.0
100
AcDbRotatedDimension
  0
DIMENSION
  5
485
330
1F
100
AcDbEntity
  8
1
100
AcDbDimension
  2
*D18
 10
-419.7180293501048
 20
433.490231328149
 30
0.0
 11
-392.238945790278
 21
440.990231328149
 31
0.0
 70
    32
  1
<>
 71
     5
 42
-1.0
 53
0.00013888888889
  3
ME10_DIM_18
100
AcDbAlignedDimension
 13
-369.7180293501048
 23
399.035387096775
 33
0.0
 14
-419.7180293501048
 24
399.035387096775
 34
0.0
100
AcDbRotatedDimension
  0
DIMENSION
  5
490
330
1F
100
AcDbEntity
  8
1
100
AcDbDimension
  2
*D19
 10
-436.130585597224
 20
367.035387096775
 30
0.0
 11
-445.380585597224
 21
386.735484988771
 31
0.0
 70
    32
  1
<>
 71
     5
 42
-1.0
 53
90.0
  3
ME10_DIM_19
100
AcDbAlignedDimension
 13
-423.7180293501048
 23
399.035387096775
 33
0.0
 14
-423.7180293501048
 24
367.035387096775
 34
0.0
 50
90.0
100
AcDbRotatedDimension
  0
DIMENSION
  5
49B
330
1F
100
AcDbEntity
  8
1
100
AcDbDimension
  2
*D20
 10
-461.667425086667
 20
338.035387096775
 30
0.0
 11
-470.917425086667
 21
383.035387096775
 31
0.0
 70
    32
  1
<>
 71
     5
 42
-1.0
 53
90.0
  3
ME10_DIM_20
100
AcDbAlignedDimension
 13
-359.7180293501048
 23
428.035387096775
 33
0.0
 14
-359.7180293501048
 24
338.035387096775
 34
0.0
 50
90.0
100
AcDbRotatedDimension
  0
DIMENSION
  5
4A6
330
1F
100
AcDbEntity
  8
1
100
AcDbDimension
  2
*D21
 10
-44.4448856049967
 20
325.535387096775
 30
0.0
 11
-51.9448856049967
 21
407.1552170591582
 31
0.0
 70
    32
  1
155
 71
     5
 42
-1.0
 53
90.0
  3
ME10_DIM_21
100
AcDbAlignedDimension
 13
-91.05472935010455
 23
477.986710781813
 33
0.0
 14
-83.7180293501048
 24
325.535387096775
 34
0.0
 50
90.0
100
AcDbRotatedDimension
  0
DIMENSION
  5
4B1
330
1F
100
AcDbEntity
  8
1
100
AcDbDimension
  2
*D22
 10
12.2854473454382
 20
292.399600654966
 30
0.0
 11
69.3519586405166
 21
299.899600654966
 31
0.0
 70
    32
  1
<>
 71
     5
 42
-1.0
 53
0.00013888888889
  3
ME10_DIM_22
100
AcDbAlignedDimension
 13
127.2854473454382
 23
338.8765827651358
 33
0.0
 14
12.2854473454382
 24
338.8765827651358
 34
0.0
100
AcDbRotatedDimension
  0
DIMENSION
  5
4BC
330
1F
100
AcDbEntity
  8
1
100
AcDbDimension
  2
*D23
 10
-329.74330098006
 20
324.035387096775
 30
0.0
 11
-337.24330098006
 21
365.567632731279
 31
0.0
 70
    32
  1
<>
 71
     5
 42
-1.0
 53
90.0
  3
ME10_DIM_23
100
AcDbAlignedDimension
 13
-309.7180293501048
 23
442.035387096775
 33
0.0
 14
-309.7180293501048
 24
324.035387096775
 34
0.0
 50
90.0
100
AcDbRotatedDimension
  0
INSERT
  5
4C3
330
1F
100
AcDbEntity
  8
1
100
AcDbBlockReference
  2
*D24
 10
0.0
 20
0.0
 30
0.0
  0
INSERT
  5
4CB
330
1F
100
AcDbEntity
  8
1
100
AcDbBlockReference
  2
*D25
 10
0.0
 20
0.0
 30
0.0
  0
INSERT
  5
4D2
330
1F
100
AcDbEntity
  8
1
100
AcDbBlockReference
  2
*D26
 10
0.0
 20
0.0
 30
0.0
  0
INSERT
  5
4D9
330
1F
100
AcDbEntity
  8
1
100
AcDbBlockReference
  2
*D27
 10
0.0
 20
0.0
 30
0.0
  0
INSERT
  5
4E5
330
1F
100
AcDbEntity
  8
1
100
AcDbBlockReference
  2
*D28
 10
0.0
 20
0.0
 30
0.0
  0
ENDSEC
  0
SECTION
  2
OBJECTS
  0
DICTIONARY
  5
C
330
0
100
AcDbDictionary
281
     1
  3
ACAD_GROUP
350
D
  3
ACAD_LAYOUT
350
1A
  3
ACAD_MLINESTYLE
350
17
  3
ACAD_PLOTSETTINGS
350
19
  3
ACAD_PLOTSTYLENAME
350
E
  0
DICTIONARY
  5
D
102
{ACAD_REACTORS
330
C
102
}
330
C
100
AcDbDictionary
281
     1
  0
DICTIONARY
  5
1A
102
{ACAD_REACTORS
330
C
102
}
330
C
100
AcDbDictionary
281
     1
  3
Layout1
350
1E
  3
Layout2
350
26
  3
Model
350
22
  0
DICTIONARY
  5
17
102
{ACAD_REACTORS
330
C
102
}
330
C
100
AcDbDictionary
281
     1
  3
Standard
350
18
  0
DICTIONARY
  5
19
102
{ACAD_REACTORS
330
C
102
}
330
C
100
AcDbDictionary
281
     1
  0
ACDBDICTIONARYWDFLT
  5
E
102
{ACAD_REACTORS
330
C
102
}
330
C
100
AcDbDictionary
281
     1
  3
Normal
350
F
100
AcDbDictionaryWithDefault
340
F
  0
LAYOUT
  5
1E
102
{ACAD_REACTORS
330
1A
102
}
330
1A
100
AcDbPlotSettings
  1

  2

  4

  6

 40
0.0
 41
0.0
 42
0.0
 43
0.0
 44
0.0
 45
0.0
 46
0.0
 47
0.0
 48
0.0
 49
0.0
140
0.0
141
0.0
142
1.0
143
1.0
 70
   688
 72
     0
 73
     0
 74
     5
  7

 75
    16
 76
     0
 77
     2
 78
   300
147
1.0
148
0.0
149
0.0
100
AcDbLayout
  1
Layout1
 70
     1
 71
     1
 10
0.0
 20
0.0
 11
0.0
 21
0.0
 12
0.0
 22
0.0
 32
0.0
 14
0.0
 24
0.0
 34
0.0
 15
0.0
 25
0.0
 35
0.0
146
0.0
 13
0.0
 23
0.0
 33
0.0
 16
1.0
 26
0.0
 36
0.0
 17
0.0
 27
1.0
 37
0.0
 76
     0
330
1B
  0
LAYOUT
  5
26
102
{ACAD_REACTORS
330
1A
102
}
330
1A
100
AcDbPlotSettings
  1

  2

  4

  6

 40
0.0
 41
0.0
 42
0.0
 43
0.0
 44
0.0
 45
0.0
 46
0.0
 47
0.0
 48
0.0
 49
0.0
140
0.0
141
0.0
142
1.0
143
1.0
 70
   688
 72
     0
 73
     0
 74
     5
  7

 75
    16
 76
     0
 77
     2
 78
   300
147
1.0
148
0.0
149
0.0
100
AcDbLayout
  1
Layout2
 70
     1
 71
     2
 10
0.0
 20
0.0
 11
0.0
 21
0.0
 12
0.0
 22
0.0
 32
0.0
 14
0.0
 24
0.0
 34
0.0
 15
0.0
 25
0.0
 35
0.0
146
0.0
 13
0.0
 23
0.0
 33
0.0
 16
1.0
 26
0.0
 36
0.0
 17
0.0
 27
1.0
 37
0.0
 76
     0
330
23
  0
LAYOUT
  5
22
102
{ACAD_REACTORS
330
1A
102
}
330
1A
100
AcDbPlotSettings
  1

  2

  4

  6

 40
0.0
 41
0.0
 42
0.0
 43
0.0
 44
0.0
 45
0.0
 46
0.0
 47
0.0
 48
0.0
 49
0.0
140
0.0
141
0.0
142
1.0
143
1.0
 70
  1712
 72
     0
 73
     0
 74
     0
  7

 75
     0
 76
     0
 77
     2
 78
   300
147
1.0
148
0.0
149
0.0
100
AcDbLayout
  1
Model
 70
     1
 71
     0
 10
0.0
 20
0.0
 11
0.0
 21
0.0
 12
0.0
 22
0.0
 32
0.0
 14
-562.65356915095
 24
88.47454546921097
 34
0.0
 15
245.106430849052
 25
657.474545469211
 35
0.0
146
0.0
 13
0.0
 23
0.0
 33
0.0
 16
1.0
 26
0.0
 36
0.0
 17
0.0
 27
1.0
 37
0.0
 76
     0
330
1F
  0
MLINESTYLE
  5
18
102
{ACAD_REACTORS
330
17
102
}
330
17
100
AcDbMlineStyle
  2
Standard
 70
     0
  3

 62
   256
 51
90.0
 52
90.0
 71
     2
 49
0.5
 62
   256
  6
BYLAYER
 49
-0.5
 62
   256
  6
BYLAYER
  0
ACDBPLACEHOLDER
  5
F
102
{ACAD_REACTORS
330
E
102
}
330
E
  0
ENDSEC
  0
EOF
